<?xml version="1.0" standalone="no"?>
<!DOCTYPE svg PUBLIC "-//W3C//DTD SVG 1.1//EN" "http://www.w3.org/Graphics/SVG/1.1/DTD/svg11.dtd" >
<svg>
<metadata>
Created by FontForge 20090622 at Tue Aug 18 19:27:33 2015
 By deploy user
Copyright (c) 2015 Caveras / Cliff Modes
</metadata>
<defs>
<font id="Altima" horiz-adv-x="640" >
  <font-face 
    font-family="Altima"
    font-weight="400"
    font-stretch="normal"
    units-per-em="1024"
    panose-1="0 0 4 0 0 0 0 0 0 0"
    ascent="819"
    descent="-205"
    x-height="512"
    cap-height="640"
    bbox="0 -64 704 768"
    underline-thickness="51"
    underline-position="127"
    unicode-range="U+0020-U+FFEE"
  />
<missing-glyph 
d="M512 192v448h-448v-448h448zM0 128v576h576v-576h-576z" />
    <glyph glyph-name=".notdef" 
d="M512 192v448h-448v-448h448zM0 128v576h576v-576h-576z" />
    <glyph glyph-name="NULL" horiz-adv-x="0" 
 />
    <glyph glyph-name="nonmarkingreturn" horiz-adv-x="128" 
 />
    <glyph glyph-name="space" unicode=" " horiz-adv-x="256" 
 />
    <glyph glyph-name="exclam" unicode="!" horiz-adv-x="256" 
d="M64 128v64h64v-64h-64zM64 256v384h128v-256h-64v-128h-64z" />
    <glyph glyph-name="quotedbl" unicode="&#x22;" horiz-adv-x="256" 
d="M0 576v128h64v-128h-64zM128 576v128h64v-128h-64z" />
    <glyph glyph-name="numbersign" unicode="#" horiz-adv-x="384" 
d="M192 320v128h-64v-128h64zM64 128v128h-64v64h64v128h-64v64h64v128h64v-128h64v128h64v-128h64v-64h-64v-128h64v-64h-64v-128h-64v128h-64v-128h-64z" />
    <glyph glyph-name="dollar" unicode="$" horiz-adv-x="384" 
d="M256 256v128h-64v-128h64zM128 448v64h-64v-64h64zM128 128v64h-128v64h128v128h-128v192h128v64h64v-64h128v-64h-128v-64h128v-256h-128v-64h-64z" />
    <glyph glyph-name="percent" unicode="%" horiz-adv-x="384" 
d="M0 192v64h64v-64h-64zM320 192v64h-64v-64h64zM64 256v64h64v-64h-64zM192 128v192h192v-192h-192zM128 320v64h64v-64h-64zM192 384v64h64v-64h-64zM256 448v64h64v-64h-64zM128 512v64h-64v-64h64zM320 512v64h64v-64h-64zM0 448v192h192v-192h-192z" />
    <glyph glyph-name="ampersand" unicode="&#x26;" horiz-adv-x="384" 
d="M64 128v64h64v64h64v64h64v-64h64v-128h-64v64h-64v-64h-128zM0 192v192h64v-192h-64zM128 320v64h64v-64h-64zM256 320v64h64v-64h-64zM128 512v64h-64v-64h64zM64 384v64h-64v192h192v-192h-64v-64h-64z" />
    <glyph glyph-name="quotesingle" unicode="'" horiz-adv-x="256" 
d="M64 576v128h64v-128h-64z" />
    <glyph glyph-name="parenleft" unicode="(" horiz-adv-x="256" 
d="M128 64v64h64v-64h-64zM64 128v64h-64v384h64v64h64v-128h-64v-256h64v-128h-64zM128 640v64h64v-64h-64z" />
    <glyph glyph-name="parenright" unicode=")" horiz-adv-x="256" 
d="M0 64v64h64v-64h-64zM64 128v128h64v256h-64v128h64v-64h64v-384h-64v-64h-64zM0 640v64h64v-64h-64z" />
    <glyph glyph-name="asterisk" unicode="*" horiz-adv-x="384" 
d="M0 192v64h64v-64h-64zM128 128v128h64v-128h-64zM256 192v64h64v-64h-64zM64 256v128h64v-128h-64zM192 256v128h64v-128h-64zM0 384v64h64v-64h-64zM256 384v64h64v-64h-64zM128 384v128h64v-128h-64z" />
    <glyph glyph-name="plus" unicode="+" horiz-adv-x="384" 
d="M128 192v128h-128v64h128v128h64v-128h128v-64h-128v-128h-64z" />
    <glyph glyph-name="comma" unicode="," horiz-adv-x="256" 
d="M0 64v64h64v-64h-64zM64 128v64h64v-64h-64z" />
    <glyph glyph-name="hyphen" unicode="-" horiz-adv-x="384" 
d="M0 320v64h320v-64h-320z" />
    <glyph glyph-name="period" unicode="." horiz-adv-x="128" 
d="M0 128v64h64v-64h-64z" />
    <glyph glyph-name="slash" unicode="/" horiz-adv-x="384" 
d="M0 128v128h64v128h64v128h64v128h64v64h64v-128h-64v-128h-64v-128h-64v-128h-64v-64h-64z" />
    <glyph glyph-name="zero" unicode="0" horiz-adv-x="384" 
d="M64 128v64h192v-64h-192zM0 192v384h64v-384h-64zM256 192v384h64v-384h-64zM64 576v64h192v-64h-192z" />
    <glyph glyph-name="one" unicode="1" horiz-adv-x="320" 
d="M64 128v64h64v256h-64v64h64v128h64v-448h64v-64h-192z" />
    <glyph glyph-name="two" unicode="2" horiz-adv-x="384" 
d="M0 128v128h64v-64h256v-64h-320zM64 256v64h64v-64h-64zM128 320v64h64v-64h-64zM192 384v64h64v-64h-64zM0 448v128h64v-128h-64zM256 448v128h64v-128h-64zM64 576v64h192v-64h-192z" />
    <glyph glyph-name="three" unicode="3" horiz-adv-x="384" 
d="M64 128v64h192v-64h-192zM0 192v128h64v-128h-64zM256 192v128h64v-128h-64zM192 320v64h64v-64h-64zM128 384v64h64v-64h-64zM192 448v64h64v-64h-64zM256 512v64h-256v64h320v-128h-64z" />
    <glyph glyph-name="four" unicode="4" horiz-adv-x="384" 
d="M192 256v256h-64v-128h-64v-128h128zM192 128v64h-192v256h64v128h64v64h128v-384h64v-64h-64v-64h-64z" />
    <glyph glyph-name="five" unicode="5" horiz-adv-x="384" 
d="M0 192v64h64v-64h-64zM64 128v64h128v64h64v128h-64v64h-128v-64h-64v256h320v-64h-256v-64h192v-64h64v-256h-64v-64h-192z" />
    <glyph glyph-name="six" unicode="6" horiz-adv-x="384" 
d="M64 128v64h192v-64h-192zM256 192v192h64v-192h-64zM0 192v384h64v-128h192v-64h-192v-192h-64zM256 512v64h64v-64h-64zM64 576v64h192v-64h-192z" />
    <glyph glyph-name="seven" unicode="7" horiz-adv-x="384" 
d="M128 128v256h64v128h64v64h-192v-128h-64v192h320v-192h-64v-128h-64v-192h-64z" />
    <glyph glyph-name="eight" unicode="8" horiz-adv-x="384" 
d="M64 128v64h192v-64h-192zM0 192v192h64v-192h-64zM256 192v192h64v-192h-64zM64 384v64h192v-64h-192zM0 448v128h64v-128h-64zM256 448v128h64v-128h-64zM64 576v64h192v-64h-192z" />
    <glyph glyph-name="nine" unicode="9" horiz-adv-x="384" 
d="M64 128v64h64v-64h-64zM128 192v64h64v-64h-64zM0 384v192h64v-192h-64zM192 256v64h-128v64h192v192h64v-256h-64v-64h-64zM64 576v64h192v-64h-192z" />
    <glyph glyph-name="colon" unicode=":" horiz-adv-x="256" 
d="M64 192v64h64v-64h-64zM64 384v64h64v-64h-64z" />
    <glyph glyph-name="semicolon" unicode=";" horiz-adv-x="192" 
d="M0 128v64h64v-64h-64zM64 192v64h64v-64h-64zM64 384v64h64v-64h-64z" />
    <glyph glyph-name="less" unicode="&#x3c;" horiz-adv-x="384" 
d="M192 128v64h64v-64h-64zM128 192v64h64v-64h-64zM64 256v64h64v-64h-64zM0 320v64h64v-64h-64zM64 384v64h64v-64h-64zM128 448v64h64v-64h-64zM192 512v64h64v-64h-64z" />
    <glyph glyph-name="equal" unicode="=" horiz-adv-x="384" 
d="M0 192v64h320v-64h-320zM0 384v64h320v-64h-320z" />
    <glyph glyph-name="greater" unicode="&#x3e;" horiz-adv-x="384" 
d="M0 128v64h64v-64h-64zM64 192v64h64v-64h-64zM128 256v64h64v-64h-64zM192 320v64h64v-64h-64zM128 384v64h64v-64h-64zM64 448v64h64v-64h-64zM0 512v64h64v-64h-64z" />
    <glyph glyph-name="question" unicode="?" horiz-adv-x="384" 
d="M128 128v64h64v-64h-64zM128 256v192h128v128h-192v-128h-64v192h320v-256h-128v-128h-64z" />
    <glyph glyph-name="at" unicode="@" horiz-adv-x="384" 
d="M256 256v192h-64v-192h64zM128 192v320h128v64h64v-384h-192zM64 64v64h-64v448h64v64h192v-64h-128v-64h-64v-320h64v-64h128v-64h-192z" />
    <glyph glyph-name="A" unicode="A" horiz-adv-x="384" 
d="M192 320v128h-64v-128h64zM0 128v192h64v192h64v128h64v-128h64v-192h64v-192h-64v128h-192v-128h-64z" />
    <glyph glyph-name="B" unicode="B" horiz-adv-x="384" 
d="M256 192v192h64v-192h-64zM256 448v128h64v-128h-64zM0 128v64h64v384h-64v64h256v-64h-128v-128h128v-64h-128v-192h128v-64h-256z" />
    <glyph glyph-name="C" unicode="C" horiz-adv-x="384" 
d="M64 128v64h-64v384h64v64h192v-64h64v-128h-64v64h-64v64h-64v-64h-64v-256h64v-64h64v64h64v64h64v-128h-64v-64h-192z" />
    <glyph glyph-name="D" unicode="D" horiz-adv-x="384" 
d="M192 192v64h64v256h-64v64h-64v-384h64zM0 128v64h64v384h-64v64h256v-64h64v-384h-64v-64h-256z" />
    <glyph glyph-name="E" unicode="E" horiz-adv-x="384" 
d="M0 128v64h64v384h-64v64h320v-128h-64v64h-128v-128h64v64h64v-192h-64v64h-64v-192h128v64h64v-128h-320z" />
    <glyph glyph-name="F" unicode="F" horiz-adv-x="384" 
d="M0 128v64h64v384h-64v64h320v-128h-64v64h-128v-128h64v64h64v-192h-64v64h-64v-192h64v-64h-192z" />
    <glyph glyph-name="G" unicode="G" horiz-adv-x="384" 
d="M256 512v64h64v-64h-64zM64 128v64h-64v384h64v64h192v-64h-128v-64h-64v-256h64v-64h64v64h64v128h-128v64h192v-256h-64v-64h-192z" />
    <glyph glyph-name="H" unicode="H" horiz-adv-x="384" 
d="M0 128v512h64v-192h192v192h64v-512h-64v256h-192v-256h-64z" />
    <glyph glyph-name="I" unicode="I" horiz-adv-x="256" 
d="M0 128v64h64v384h-64v64h192v-64h-64v-384h64v-64h-192z" />
    <glyph glyph-name="J" unicode="J" horiz-adv-x="384" 
d="M64 64v64h-64v128h64v-64h64v-64h64v64h64v448h64v-512h-64v-64h-192z" />
    <glyph glyph-name="K" unicode="K" horiz-adv-x="384" 
d="M256 128v64h64v-64h-64zM192 192v64h64v-64h-64zM128 256v64h64v-64h-64zM128 448v64h64v-64h-64zM192 512v64h64v-64h-64zM0 128v512h64v-192h64v-128h-64v-192h-64zM256 576v64h64v-64h-64z" />
    <glyph glyph-name="L" unicode="L" horiz-adv-x="384" 
d="M0 128v64h64v384h-64v64h192v-64h-64v-384h128v64h64v-128h-320z" />
    <glyph glyph-name="M" unicode="M" horiz-adv-x="384" 
d="M0 128v512h64v-64h64v-128h64v128h64v64h64v-512h-64v256h-64v-128h-64v128h-64v-256h-64z" />
    <glyph glyph-name="N" unicode="N" horiz-adv-x="384" 
d="M0 128v512h64v-64h64v-128h64v-64h64v256h64v-512h-64v64h-64v128h-64v64h-64v-256h-64z" />
    <glyph glyph-name="O" unicode="O" horiz-adv-x="384" 
d="M192 192v64h64v256h-64v64h-64v-64h-64v-256h64v-64h64zM64 128v64h-64v384h64v64h192v-64h64v-384h-64v-64h-192z" />
    <glyph glyph-name="P" unicode="P" horiz-adv-x="384" 
d="M192 320v64h64v128h-64v64h-64v-256h64zM0 128v64h64v384h-64v64h256v-64h64v-256h-64v-64h-128v-64h64v-64h-192z" />
    <glyph glyph-name="Q" unicode="Q" horiz-adv-x="384" 
d="M192 192v64h64v256h-64v64h-64v-64h-64v-256h64v-64h64zM192 64v64h-128v64h-64v384h64v64h192v-64h64v-384h-64v-64h64v-64h-128z" />
    <glyph glyph-name="R" unicode="R" horiz-adv-x="384" 
d="M192 384v64h64v64h-64v64h-64v-192h64zM0 128v64h64v384h-64v64h256v-64h64v-192h-64v-128h64v-64h64v-64h-128v64h-64v128h-64v-128h64v-64h-192z" />
    <glyph glyph-name="S" unicode="S" horiz-adv-x="384" 
d="M64 128v64h192v-64h-192zM0 192v64h64v-64h-64zM256 192v128h-64v64h-128v64h192v-64h64v-192h-64zM0 448v128h64v-128h-64zM256 512v64h-192v64h256v-128h-64z" />
    <glyph glyph-name="T" unicode="T" horiz-adv-x="384" 
d="M64 128v64h64v384h-64v-64h-64v128h320v-128h-64v64h-64v-384h64v-64h-192z" />
    <glyph glyph-name="U" unicode="U" horiz-adv-x="384" 
d="M64 128v64h-64v448h64v-384h64v-64h64v64h64v384h64v-448h-64v-64h-192z" />
    <glyph glyph-name="V" unicode="V" horiz-adv-x="384" 
d="M128 128v128h-64v192h-64v192h64v-128h64v-192h64v192h64v128h64v-192h-64v-192h-64v-128h-64z" />
    <glyph glyph-name="W" unicode="W" horiz-adv-x="384" 
d="M64 128v128h-64v384h64v-320h64v256h64v-256h64v320h64v-384h-64v-128h-64v128h-64v-128h-64z" />
    <glyph glyph-name="X" unicode="X" horiz-adv-x="384" 
d="M0 128v128h64v64h64v-128h-64v-64h-64zM256 128v64h-64v128h64v-64h64v-128h-64zM128 320v128h64v-128h-64zM64 448v64h-64v128h64v-64h64v-128h-64zM192 448v128h64v64h64v-128h-64v-64h-64z" />
    <glyph glyph-name="Y" unicode="Y" horiz-adv-x="384" 
d="M128 128v192h-64v128h-64v192h64v-128h64v-128h64v128h64v128h64v-192h-64v-128h-64v-192h-64z" />
    <glyph glyph-name="Z" unicode="Z" horiz-adv-x="384" 
d="M0 128v128h64v-64h256v-64h-320zM64 256v128h64v64h64v-128h-64v-64h-64zM192 448v64h64v-64h-64zM256 512v64h-256v64h320v-128h-64z" />
    <glyph glyph-name="bracketleft" unicode="[" horiz-adv-x="256" 
d="M0 64v640h192v-64h-128v-512h128v-64h-192z" />
    <glyph glyph-name="backslash" unicode="\" horiz-adv-x="384" 
d="M256 128v64h-64v128h-64v128h-64v128h-64v128h64v-64h64v-128h64v-128h64v-128h64v-128h-64z" />
    <glyph glyph-name="bracketright" unicode="]" horiz-adv-x="256" 
d="M0 64v64h128v512h-128v64h192v-640h-192z" />
    <glyph glyph-name="asciicircum" unicode="^" horiz-adv-x="256" 
d="M0 384v192h64v128h64v-128h64v-192h-64v128h-64v-128h-64z" />
    <glyph glyph-name="underscore" unicode="_" horiz-adv-x="384" 
d="M0 64v64h320v-64h-320z" />
    <glyph glyph-name="grave" unicode="`" horiz-adv-x="256" 
d="M64 576v64h64v-64h-64zM0 640v64h64v-64h-64z" />
    <glyph glyph-name="a" unicode="a" horiz-adv-x="256" 
d="M0 128v192h64v-128h64v128h-64v64h64v64h-128v64h192v-384h-192z" />
    <glyph glyph-name="b" unicode="b" horiz-adv-x="256" 
d="M0 128v512h64v-128h64v-64h-64v-256h64v256h64v-320h-192z" />
    <glyph glyph-name="c" unicode="c" horiz-adv-x="256" 
d="M0 128v384h192v-128h-64v64h-64v-256h64v64h64v-128h-192z" />
    <glyph glyph-name="d" unicode="d" horiz-adv-x="256" 
d="M0 128v320h64v-256h64v256h-64v64h64v128h64v-512h-192z" />
    <glyph glyph-name="e" unicode="e" horiz-adv-x="256" 
d="M128 320v128h-64v-128h64zM0 128v384h192v-256h-128v-64h128v-64h-192z" />
    <glyph glyph-name="f" unicode="f" horiz-adv-x="256" 
d="M64 128v320h-64v64h64v128h128v-64h-64v-64h64v-64h-64v-320h-64z" />
    <glyph glyph-name="g" unicode="g" horiz-adv-x="256" 
d="M128 192v256h-64v-256h64zM0 0v64h128v64h-128v384h192v-512h-192z" />
    <glyph glyph-name="h" unicode="h" horiz-adv-x="256" 
d="M0 128v512h64v-128h128v-384h-64v320h-64v-320h-64z" />
    <glyph glyph-name="i" unicode="i" horiz-adv-x="128" 
d="M0 128v320h64v-320h-64zM0 512v64h64v-64h-64z" />
    <glyph glyph-name="j" unicode="j" horiz-adv-x="256" 
d="M0 0v64h128v384h64v-448h-192zM128 512v64h64v-64h-64z" />
    <glyph glyph-name="k" unicode="k" horiz-adv-x="256" 
d="M0 128v512h64v-192h64v64h64v-128h-64v-64h64v-192h-64v128h-64v-128h-64z" />
    <glyph glyph-name="l" unicode="l" horiz-adv-x="128" 
d="M0 128v512h64v-512h-64z" />
    <glyph glyph-name="m" unicode="m" horiz-adv-x="384" 
d="M0 128v384h320v-384h-64v320h-64v-320h-64v320h-64v-320h-64z" />
    <glyph glyph-name="n" unicode="n" horiz-adv-x="256" 
d="M0 128v384h192v-384h-64v320h-64v-320h-64z" />
    <glyph glyph-name="o" unicode="o" horiz-adv-x="256" 
d="M128 192v256h-64v-256h64zM0 128v384h192v-384h-192z" />
    <glyph glyph-name="p" unicode="p" horiz-adv-x="256" 
d="M128 192v256h-64v-256h64zM0 0v512h192v-384h-128v-128h-64z" />
    <glyph glyph-name="q" unicode="q" horiz-adv-x="256" 
d="M128 192v256h-64v-256h64zM128 0v128h-128v384h192v-512h-64z" />
    <glyph glyph-name="r" unicode="r" horiz-adv-x="256" 
d="M0 128v384h192v-128h-64v64h-64v-320h-64z" />
    <glyph glyph-name="s" unicode="s" horiz-adv-x="256" 
d="M0 128v64h128v128h-128v192h192v-64h-128v-64h128v-256h-192z" />
    <glyph glyph-name="t" unicode="t" horiz-adv-x="256" 
d="M64 128v320h-64v64h64v64h64v-64h64v-64h-64v-256h64v-64h-128z" />
    <glyph glyph-name="u" unicode="u" horiz-adv-x="256" 
d="M0 128v384h64v-320h64v320h64v-384h-192z" />
    <glyph glyph-name="v" unicode="v" horiz-adv-x="256" 
d="M64 128v128h-64v256h64v-192h64v192h64v-256h-64v-128h-64z" />
    <glyph glyph-name="w" unicode="w" horiz-adv-x="384" 
d="M64 128v128h-64v256h64v-192h64v192h64v-192h64v192h64v-256h-64v-128h-64v128h-64v-128h-64z" />
    <glyph glyph-name="x" unicode="x" horiz-adv-x="256" 
d="M0 128v192h64v64h-64v128h64v-64h64v64h64v-128h-64v-64h64v-192h-64v128h-64v-128h-64z" />
    <glyph glyph-name="y" unicode="y" horiz-adv-x="256" 
d="M0 0v128h64v64h-64v320h64v-256h64v256h64v-320h-64v-128h-64v-64h-64z" />
    <glyph glyph-name="z" unicode="z" horiz-adv-x="256" 
d="M0 128v192h64v64h64v-128h-64v-64h128v-64h-192zM128 384v64h-128v64h192v-128h-64z" />
    <glyph glyph-name="braceleft" unicode="{" horiz-adv-x="256" 
d="M128 64v64h64v-64h-64zM64 128v192h64v-192h-64zM0 320v128h64v-128h-64zM64 448v192h64v-192h-64zM128 640v64h64v-64h-64z" />
    <glyph glyph-name="bar" unicode="|" horiz-adv-x="128" 
d="M0 64v640h64v-640h-64z" />
    <glyph glyph-name="braceright" unicode="}" horiz-adv-x="256" 
d="M0 64v64h64v-64h-64zM64 128v192h64v-192h-64zM128 320v128h64v-128h-64zM64 448v192h64v-192h-64zM0 640v64h64v-64h-64z" />
    <glyph glyph-name="asciitilde" unicode="~" 
d="M256 384v64h64v-64h-64zM320 320v64h128v64h128v-64h-64v-64h-192zM0 384v64h64v64h192v-64h-128v-64h-128z" />
    <glyph glyph-name="uni007F" 
d="M512 192v448h-448v-448h448zM0 128v576h576v-576h-576z" />
    <glyph glyph-name="uni00A0" unicode="&#xa0;" horiz-adv-x="256" 
 />
    <glyph glyph-name="exclamdown" unicode="&#xa1;" horiz-adv-x="256" 
d="M64 128v256h64v128h64v-384h-128zM128 576v64h64v-64h-64z" />
    <glyph glyph-name="cent" unicode="&#xa2;" horiz-adv-x="256" 
d="M64 128v64h-64v320h64v64h64v-64h64v-128h-64v64h-64v-192h64v64h64v-128h-64v-64h-64z" />
    <glyph glyph-name="sterling" unicode="&#xa3;" horiz-adv-x="384" 
d="M0 128v128h64v128h-64v64h64v192h256v-128h-64v64h-128v-128h128v-64h-128v-192h192v-64h-320z" />
    <glyph glyph-name="currency" unicode="&#xa4;" horiz-adv-x="448" 
d="M0 192v64h64v-64h-64zM128 192v64h128v-64h-128zM320 192v64h64v-64h-64zM64 256v192h64v-192h-64zM256 256v192h64v-192h-64zM0 448v64h64v-64h-64zM128 448v64h128v-64h-128zM320 448v64h64v-64h-64z" />
    <glyph glyph-name="yen" unicode="&#xa5;" horiz-adv-x="384" 
d="M128 128v128h-128v64h128v64h-128v64h128v64h64v-64h128v-64h-128v-64h128v-64h-128v-128h-64zM64 512v64h64v-64h-64zM192 512v64h64v-64h-64zM0 576v64h64v-64h-64zM256 576v64h64v-64h-64z" />
    <glyph glyph-name="brokenbar" unicode="&#xa6;" horiz-adv-x="128" 
d="M0 64v256h64v-256h-64zM0 448v256h64v-256h-64z" />
    <glyph glyph-name="section" unicode="&#xa7;" horiz-adv-x="384" 
d="M64 64v64h192v-64h-192zM0 128v64h64v-64h-64zM256 128v64h-64v64h-128v64h192v-64h64v-128h-64zM0 320v64h64v-64h-64zM256 320v64h64v-64h-64zM64 384v64h-64v128h64v-64h64v-64h128v-64h-192zM256 512v64h64v-64h-64zM64 576v64h192v-64h-192z" />
    <glyph glyph-name="dieresis" unicode="&#xa8;" horiz-adv-x="256" 
d="M0 640v64h64v-64h-64zM128 640v64h64v-64h-64z" />
    <glyph glyph-name="copyright" unicode="&#xa9;" horiz-adv-x="448" 
d="M64 128v64h256v-64h-256zM128 256v256h128v-64h-64v-128h64v-64h-128zM0 192v384h64v-384h-64zM320 192v384h64v-384h-64zM64 576v64h256v-64h-256z" />
    <glyph glyph-name="guillemotleft" unicode="&#xab;" horiz-adv-x="512" 
d="M192 128v64h64v-64h-64zM384 128v64h64v-64h-64zM128 192v64h64v-64h-64zM320 192v64h64v-64h-64zM64 256v64h64v-64h-64zM256 256v64h64v-64h-64zM0 320v64h64v-64h-64zM192 320v64h64v-64h-64zM64 384v64h64v-64h-64zM256 384v64h64v-64h-64zM128 448v64h64v-64h-64z
M320 448v64h64v-64h-64zM192 512v64h64v-64h-64zM384 512v64h64v-64h-64z" />
    <glyph glyph-name="logicalnot" unicode="&#xac;" 
d="M512 192v128h-512v64h576v-192h-64z" />
    <glyph glyph-name="uni00AD" unicode="&#xad;" horiz-adv-x="384" 
d="M0 320v64h320v-64h-320z" />
    <glyph glyph-name="registered" unicode="&#xae;" horiz-adv-x="448" 
d="M64 128v64h256v-64h-256zM128 256v256h128v-64h-64v-192h-64zM0 192v384h64v-384h-64zM320 192v384h64v-384h-64zM64 576v64h256v-64h-256z" />
    <glyph glyph-name="macron" unicode="&#xaf;" horiz-adv-x="256" 
d="M0 640v64h192v-64h-192z" />
    <glyph glyph-name="degree" unicode="&#xb0;" horiz-adv-x="256" 
d="M128 576v64h-64v-64h64zM0 512v192h192v-192h-192z" />
    <glyph glyph-name="plusminus" unicode="&#xb1;" horiz-adv-x="384" 
d="M0 128v64h128v128h-128v64h128v128h64v-128h128v-64h-128v-128h128v-64h-320z" />
    <glyph glyph-name="twosuperior" unicode="&#xb2;" horiz-adv-x="512" 
d="M0 192v64h64v64h64v64h128v128h-64v-64h-128v64h64v64h192v-64h64v-128h-64v-64h-128v-64h192v-64h-384z" />
    <glyph glyph-name="threesuperior" unicode="&#xb3;" horiz-adv-x="512" 
d="M0 0v64h128v64h64v64h64v64h-64v64h-64v64h128v128h-64v-64h-128v64h64v64h256v-192h-64v-256h-64v-64h-64v-64h-192z" />
    <glyph glyph-name="acute" unicode="&#xb4;" horiz-adv-x="256" 
d="M0 576v64h64v-64h-64zM64 640v64h64v-64h-64z" />
    <glyph glyph-name="mu" unicode="&#xb5;" horiz-adv-x="256" 
d="M0 0v512h64v-320h64v320h64v-384h-128v-128h-64z" />
    <glyph glyph-name="paragraph" unicode="&#xb6;" horiz-adv-x="384" 
d="M128 128v192h-64v64h-64v192h64v64h256v-512h-64v448h-64v-448h-64z" />
    <glyph glyph-name="periodcentered" unicode="&#xb7;" horiz-adv-x="256" 
d="M64 320v64h64v-64h-64z" />
    <glyph glyph-name="cedilla" unicode="&#xb8;" horiz-adv-x="256" 
d="M0 0v64h64v-64h-64zM64 64v64h64v-64h-64z" />
    <glyph glyph-name="onesuperior" unicode="&#xb9;" horiz-adv-x="512" 
d="M64 192v64h64v256h-64v64h256v-64h-64v-256h64v-64h-256z" />
    <glyph glyph-name="guillemotright" unicode="&#xbb;" horiz-adv-x="512" 
d="M0 128v64h64v-64h-64zM192 128v64h64v-64h-64zM64 192v64h64v-64h-64zM256 192v64h64v-64h-64zM128 256v64h64v-64h-64zM320 256v64h64v-64h-64zM192 320v64h64v-64h-64zM384 320v64h64v-64h-64zM128 384v64h64v-64h-64zM320 384v64h64v-64h-64zM64 448v64h64v-64h-64z
M256 448v64h64v-64h-64zM0 512v64h64v-64h-64zM192 512v64h64v-64h-64z" />
    <glyph glyph-name="questiondown" unicode="&#xbf;" horiz-adv-x="384" 
d="M0 128v256h128v128h64v-192h-128v-128h192v128h64v-192h-320zM128 576v64h64v-64h-64z" />
    <glyph glyph-name="Agrave" unicode="&#xc0;" horiz-adv-x="384" 
d="M192 320v64h-64v-64h64zM0 128v192h64v128h64v128h64v-128h64v-128h64v-192h-64v128h-192v-128h-64zM128 640v64h64v-64h-64zM64 704v64h64v-64h-64z" />
    <glyph glyph-name="Aacute" unicode="&#xc1;" horiz-adv-x="384" 
d="M192 320v64h-64v-64h64zM0 128v192h64v128h64v128h64v-128h64v-128h64v-192h-64v128h-192v-128h-64zM128 640v64h64v-64h-64zM192 704v64h64v-64h-64z" />
    <glyph glyph-name="Acircumflex" unicode="&#xc2;" horiz-adv-x="384" 
d="M192 320v64h-64v-64h64zM0 128v192h64v128h64v128h64v-128h64v-128h64v-192h-64v128h-192v-128h-64zM64 640v64h64v-64h-64zM192 640v64h64v-64h-64zM128 704v64h64v-64h-64z" />
    <glyph glyph-name="Atilde" unicode="&#xc3;" horiz-adv-x="384" 
d="M192 320v64h-64v-64h64zM0 128v192h64v128h64v128h64v-128h64v-128h64v-192h-64v128h-192v-128h-64zM0 640v64h64v-64h-64zM128 640v64h-64v64h128v-64h64v-64h-128zM256 704v64h64v-64h-64z" />
    <glyph glyph-name="Adieresis" unicode="&#xc4;" horiz-adv-x="384" 
d="M192 320v128h-64v-128h64zM0 128v192h64v192h64v128h64v-128h64v-192h64v-192h-64v128h-192v-128h-64zM64 704v64h64v-64h-64zM192 704v64h64v-64h-64z" />
    <glyph glyph-name="Aring" unicode="&#xc5;" horiz-adv-x="384" 
d="M192 320v64h-64v-64h64zM192 640v64h-64v-64h64zM0 128v192h64v128h64v128h-64v192h192v-192h-64v-128h64v-128h64v-192h-64v128h-192v-128h-64z" />
    <glyph glyph-name="AE" unicode="&#xc6;" horiz-adv-x="512" 
d="M192 320v128h-64v-128h64zM0 128v192h64v192h64v128h320v-128h-64v64h-128v-128h64v64h64v-192h-64v64h-64v-192h128v64h64v-128h-320v64h64v64h-128v-128h-64z" />
    <glyph glyph-name="Ccedilla" unicode="&#xc7;" horiz-adv-x="384" 
d="M64 0v64h64v-64h-64zM128 64v64h-64v64h-64v384h64v64h192v-64h64v-128h-64v64h-64v64h-64v-64h-64v-256h64v-64h64v64h64v64h64v-128h-64v-64h-64v-64h-64z" />
    <glyph glyph-name="Egrave" unicode="&#xc8;" horiz-adv-x="384" 
d="M0 128v64h64v320h-64v64h320v-128h-64v64h-128v-128h64v64h64v-192h-64v64h-64v-128h128v64h64v-128h-320zM128 640v64h64v-64h-64zM64 704v64h64v-64h-64z" />
    <glyph glyph-name="Eacute" unicode="&#xc9;" horiz-adv-x="384" 
d="M0 128v64h64v320h-64v64h320v-128h-64v64h-128v-128h64v64h64v-192h-64v64h-64v-128h128v64h64v-128h-320zM128 640v64h64v-64h-64zM192 704v64h64v-64h-64z" />
    <glyph glyph-name="Ecircumflex" unicode="&#xca;" horiz-adv-x="384" 
d="M0 128v64h64v320h-64v64h320v-128h-64v64h-128v-128h64v64h64v-192h-64v64h-64v-128h128v64h64v-128h-320zM64 640v64h64v-64h-64zM192 640v64h64v-64h-64zM128 704v64h64v-64h-64z" />
    <glyph glyph-name="Edieresis" unicode="&#xcb;" horiz-adv-x="384" 
d="M0 128v64h64v384h-64v64h320v-128h-64v64h-128v-128h64v64h64v-192h-64v64h-64v-192h128v64h64v-128h-320zM64 704v64h64v-64h-64zM192 704v64h64v-64h-64z" />
    <glyph glyph-name="Igrave" unicode="&#xcc;" horiz-adv-x="256" 
d="M0 128v64h64v320h-64v64h192v-64h-64v-320h64v-64h-192zM64 640v64h64v-64h-64zM0 704v64h64v-64h-64z" />
    <glyph glyph-name="Iacute" unicode="&#xcd;" horiz-adv-x="256" 
d="M0 128v64h64v320h-64v64h192v-64h-64v-320h64v-64h-192zM64 640v64h64v-64h-64zM128 704v64h64v-64h-64z" />
    <glyph glyph-name="Icircumflex" unicode="&#xce;" horiz-adv-x="256" 
d="M0 128v64h64v320h-64v64h192v-64h-64v-320h64v-64h-192zM0 640v64h64v-64h-64zM128 640v64h64v-64h-64zM64 704v64h64v-64h-64z" />
    <glyph glyph-name="Idieresis" unicode="&#xcf;" horiz-adv-x="256" 
d="M0 128v64h64v384h-64v64h192v-64h-64v-384h64v-64h-192zM0 704v64h64v-64h-64zM128 704v64h64v-64h-64z" />
    <glyph glyph-name="Eth" unicode="&#xd0;" horiz-adv-x="384" 
d="M192 192v64h64v256h-64v64h-64v-128h64v-64h-64v-192h64zM0 128v64h64v192h-64v64h64v128h-64v64h256v-64h64v-384h-64v-64h-256z" />
    <glyph glyph-name="Ntilde" unicode="&#xd1;" horiz-adv-x="384" 
d="M128 320v64h64v-64h-64zM0 128v448h64v-64h64v-128h-64v-256h-64zM256 128v64h-64v128h64v256h64v-448h-64zM0 640v64h64v-64h-64zM128 640v64h-64v64h128v-64h64v-64h-128zM256 704v64h64v-64h-64z" />
    <glyph glyph-name="Ograve" unicode="&#xd2;" horiz-adv-x="384" 
d="M192 192v64h64v192h-64v64h-64v-64h-64v-192h64v-64h64zM64 128v64h-64v320h64v64h192v-64h64v-320h-64v-64h-192zM128 640v64h64v-64h-64zM64 704v64h64v-64h-64z" />
    <glyph glyph-name="Oacute" unicode="&#xd3;" horiz-adv-x="384" 
d="M192 192v64h64v192h-64v64h-64v-64h-64v-192h64v-64h64zM64 128v64h-64v320h64v64h192v-64h64v-320h-64v-64h-192zM128 640v64h64v-64h-64zM192 704v64h64v-64h-64z" />
    <glyph glyph-name="Ocircumflex" unicode="&#xd4;" horiz-adv-x="384" 
d="M192 192v64h64v192h-64v64h-64v-64h-64v-192h64v-64h64zM64 128v64h-64v320h64v64h192v-64h64v-320h-64v-64h-192zM64 640v64h64v-64h-64zM192 640v64h64v-64h-64zM128 704v64h64v-64h-64z" />
    <glyph glyph-name="Otilde" unicode="&#xd5;" horiz-adv-x="384" 
d="M192 192v64h64v192h-64v64h-64v-64h-64v-192h64v-64h64zM64 128v64h-64v320h64v64h192v-64h64v-320h-64v-64h-192zM0 640v64h64v-64h-64zM128 640v64h-64v64h128v-64h64v-64h-128zM256 704v64h64v-64h-64z" />
    <glyph glyph-name="Odieresis" unicode="&#xd6;" horiz-adv-x="384" 
d="M192 192v64h64v256h-64v64h-64v-64h-64v-256h64v-64h64zM64 128v64h-64v384h64v64h192v-64h64v-384h-64v-64h-192zM64 704v64h64v-64h-64zM192 704v64h64v-64h-64z" />
    <glyph glyph-name="multiply" unicode="&#xd7;" 
d="M0 192v64h64v-64h-64zM256 192v64h64v-64h-64zM64 256v64h64v-64h-64zM192 256v64h64v-64h-64zM128 320v64h64v-64h-64zM64 384v64h64v-64h-64zM192 384v64h64v-64h-64zM0 448v64h64v-64h-64zM256 448v64h64v-64h-64z" />
    <glyph glyph-name="Oslash" unicode="&#xd8;" horiz-adv-x="512" 
d="M0 128v128h64v320h64v64h192v-64h-128v-64h-64v-128h64v64h64v64h64v64h64v64h64v-128h-64v-320h-64v-64h-192v64h128v64h64v128h-64v-64h-64v-64h-64v-64h-64v-64h-64z" />
    <glyph glyph-name="Ugrave" unicode="&#xd9;" horiz-adv-x="384" 
d="M64 128v64h-64v384h64v-320h64v-64h64v64h64v320h64v-384h-64v-64h-192zM128 640v64h64v-64h-64zM64 704v64h64v-64h-64z" />
    <glyph glyph-name="Uacute" unicode="&#xda;" horiz-adv-x="384" 
d="M64 128v64h-64v384h64v-320h64v-64h64v64h64v320h64v-384h-64v-64h-192zM128 640v64h64v-64h-64zM192 704v64h64v-64h-64z" />
    <glyph glyph-name="Ucircumflex" unicode="&#xdb;" horiz-adv-x="384" 
d="M64 128v64h-64v384h64v-320h64v-64h64v64h64v320h64v-384h-64v-64h-192zM64 640v64h64v-64h-64zM192 640v64h64v-64h-64zM128 704v64h64v-64h-64z" />
    <glyph glyph-name="Udieresis" unicode="&#xdc;" horiz-adv-x="384" 
d="M64 128v64h-64v448h64v-384h64v-64h64v64h64v384h64v-448h-64v-64h-192zM64 704v64h64v-64h-64zM192 704v64h64v-64h-64z" />
    <glyph glyph-name="Yacute" unicode="&#xdd;" horiz-adv-x="384" 
d="M128 128v192h-64v64h-64v192h64v-128h64v-64h64v64h64v128h64v-192h-64v-64h-64v-192h-64zM128 640v64h64v-64h-64zM192 704v64h64v-64h-64z" />
    <glyph glyph-name="Thorn" unicode="&#xde;" horiz-adv-x="384" 
d="M192 256v64h64v64h-64v64h-128v-192h128zM0 64v576h64v-128h192v-64h64v-192h-64v-64h-192v-128h-64z" />
    <glyph glyph-name="germandbls" unicode="&#xdf;" horiz-adv-x="320" 
d="M0 128v512h192v-192h64v-320h-128v64h64v192h-64v192h-64v-448h-64z" />
    <glyph glyph-name="agrave" unicode="&#xe0;" horiz-adv-x="256" 
d="M0 128v192h64v-128h64v128h-64v64h64v64h-128v64h192v-384h-192zM64 576v64h64v-64h-64zM0 640v64h64v-64h-64z" />
    <glyph glyph-name="aacute" unicode="&#xe1;" horiz-adv-x="256" 
d="M0 128v192h64v-128h64v128h-64v64h64v64h-128v64h192v-384h-192zM64 576v64h64v-64h-64zM128 640v64h64v-64h-64z" />
    <glyph glyph-name="acircumflex" unicode="&#xe2;" horiz-adv-x="256" 
d="M0 128v192h64v-128h64v128h-64v64h64v64h-128v64h192v-384h-192zM0 576v64h64v-64h-64zM128 576v64h64v-64h-64zM64 640v64h64v-64h-64z" />
    <glyph glyph-name="atilde" unicode="&#xe3;" horiz-adv-x="256" 
d="M0 128v192h64v-128h64v128h-64v64h64v64h-128v64h192v-384h-192zM0 576v64h64v-64h-64zM128 576v64h64v-64h-64zM64 640v64h64v-64h-64zM192 640v64h64v-64h-64z" />
    <glyph glyph-name="adieresis" unicode="&#xe4;" horiz-adv-x="256" 
d="M0 128v192h64v-128h64v128h-64v64h64v64h-128v64h192v-384h-192zM0 576v64h64v-64h-64zM128 576v64h64v-64h-64z" />
    <glyph glyph-name="aring" unicode="&#xe5;" horiz-adv-x="256" 
d="M0 128v192h64v-128h64v128h-64v64h64v64h-128v64h192v-384h-192zM128 640v64h-64v-64h64zM0 576v192h192v-192h-192z" />
    <glyph glyph-name="ae" unicode="&#xe6;" horiz-adv-x="384" 
d="M256 320v128h-64v-128h64zM0 128v192h64v-128h64v128h-64v64h64v64h-128v64h320v-256h-128v-64h128v-64h-320z" />
    <glyph glyph-name="ccedilla" unicode="&#xe7;" horiz-adv-x="256" 
d="M0 0v64h64v-64h-64zM64 64v64h-64v384h192v-128h-64v64h-64v-256h64v64h64v-128h-64v-64h-64z" />
    <glyph glyph-name="egrave" unicode="&#xe8;" horiz-adv-x="256" 
d="M128 320v128h-64v-128h64zM0 128v384h192v-256h-128v-64h128v-64h-192zM64 576v64h64v-64h-64zM0 640v64h64v-64h-64z" />
    <glyph glyph-name="eacute" unicode="&#xe9;" horiz-adv-x="256" 
d="M128 320v128h-64v-128h64zM0 128v384h192v-256h-128v-64h128v-64h-192zM64 576v64h64v-64h-64zM128 640v64h64v-64h-64z" />
    <glyph glyph-name="ecircumflex" unicode="&#xea;" horiz-adv-x="256" 
d="M128 320v128h-64v-128h64zM0 128v384h192v-256h-128v-64h128v-64h-192zM0 576v64h64v-64h-64zM128 576v64h64v-64h-64zM64 640v64h64v-64h-64z" />
    <glyph glyph-name="edieresis" unicode="&#xeb;" horiz-adv-x="256" 
d="M128 320v128h-64v-128h64zM0 128v384h192v-256h-128v-64h128v-64h-192zM0 576v64h64v-64h-64zM128 576v64h64v-64h-64z" />
    <glyph glyph-name="igrave" unicode="&#xec;" horiz-adv-x="192" 
d="M64 128v320h64v-320h-64zM64 512v64h64v-64h-64zM0 576v64h64v-64h-64z" />
    <glyph glyph-name="iacute" unicode="&#xed;" horiz-adv-x="192" 
d="M0 128v320h64v-320h-64zM0 512v64h64v-64h-64zM64 576v64h64v-64h-64z" />
    <glyph glyph-name="icircumflex" unicode="&#xee;" horiz-adv-x="256" 
d="M64 128v320h64v-320h-64zM0 512v64h64v-64h-64zM128 512v64h64v-64h-64zM64 576v64h64v-64h-64z" />
    <glyph glyph-name="idieresis" unicode="&#xef;" horiz-adv-x="256" 
d="M64 128v320h64v-320h-64zM0 512v64h64v-64h-64zM128 512v64h64v-64h-64z" />
    <glyph glyph-name="eth" unicode="&#xf0;" horiz-adv-x="256" 
d="M0 448v64h64v-64h-64zM0 128v256h64v-192h64v192h-64v64h64v64h64v-384h-192zM64 512v64h64v-64h-64zM0 576v64h64v-64h-64zM128 576v64h64v-64h-64z" />
    <glyph glyph-name="ntilde" unicode="&#xf1;" horiz-adv-x="256" 
d="M0 128v384h192v-384h-64v320h-64v-320h-64zM0 576v64h64v-64h-64zM128 576v64h64v-64h-64zM64 640v64h64v-64h-64zM192 640v64h64v-64h-64z" />
    <glyph glyph-name="ograve" unicode="&#xf2;" horiz-adv-x="256" 
d="M128 192v256h-64v-256h64zM0 128v384h192v-384h-192zM64 576v64h64v-64h-64zM0 640v64h64v-64h-64z" />
    <glyph glyph-name="oacute" unicode="&#xf3;" horiz-adv-x="256" 
d="M128 192v256h-64v-256h64zM0 128v384h192v-384h-192zM64 576v64h64v-64h-64zM128 640v64h64v-64h-64z" />
    <glyph glyph-name="ocircumflex" unicode="&#xf4;" horiz-adv-x="256" 
d="M128 192v256h-64v-256h64zM0 128v384h192v-384h-192zM0 576v64h64v-64h-64zM128 576v64h64v-64h-64zM64 640v64h64v-64h-64z" />
    <glyph glyph-name="otilde" unicode="&#xf5;" horiz-adv-x="256" 
d="M128 192v256h-64v-256h64zM0 128v384h192v-384h-192zM0 576v64h64v-64h-64zM128 576v64h64v-64h-64zM64 640v64h64v-64h-64zM192 640v64h64v-64h-64z" />
    <glyph glyph-name="odieresis" unicode="&#xf6;" horiz-adv-x="256" 
d="M128 192v256h-64v-256h64zM0 128v384h192v-384h-192zM0 576v64h64v-64h-64zM128 576v64h64v-64h-64z" />
    <glyph glyph-name="divide" unicode="&#xf7;" horiz-adv-x="384" 
d="M128 192v64h64v-64h-64zM0 320v64h320v-64h-320zM128 448v64h64v-64h-64z" />
    <glyph glyph-name="oslash" unicode="&#xf8;" horiz-adv-x="384" 
d="M192 192v64h-64v-64h64zM192 384v64h-64v-64h64zM0 64v128h64v320h192v64h64v-128h-64v-320h-192v-64h-64z" />
    <glyph glyph-name="ugrave" unicode="&#xf9;" horiz-adv-x="256" 
d="M0 128v384h64v-320h64v320h64v-384h-192zM64 576v64h64v-64h-64zM0 640v64h64v-64h-64z" />
    <glyph glyph-name="uacute" unicode="&#xfa;" horiz-adv-x="256" 
d="M0 128v384h64v-320h64v320h64v-384h-192zM64 576v64h64v-64h-64zM128 640v64h64v-64h-64z" />
    <glyph glyph-name="ucircumflex" unicode="&#xfb;" horiz-adv-x="256" 
d="M0 128v384h64v-320h64v320h64v-384h-192zM0 576v64h64v-64h-64zM128 576v64h64v-64h-64zM64 640v64h64v-64h-64z" />
    <glyph glyph-name="udieresis" unicode="&#xfc;" horiz-adv-x="256" 
d="M0 128v384h64v-320h64v320h64v-384h-192zM0 576v64h64v-64h-64zM128 576v64h64v-64h-64z" />
    <glyph glyph-name="yacute" unicode="&#xfd;" horiz-adv-x="256" 
d="M0 0v128h64v64h-64v320h64v-256h64v256h64v-320h-64v-128h-64v-64h-64zM64 576v64h64v-64h-64zM128 640v64h64v-64h-64z" />
    <glyph glyph-name="thorn" unicode="&#xfe;" horiz-adv-x="256" 
d="M128 192v256h-64v-256h64zM0 0v640h64v-128h128v-384h-128v-128h-64z" />
    <glyph glyph-name="ydieresis" unicode="&#xff;" horiz-adv-x="256" 
d="M0 0v128h64v64h-64v320h64v-256h64v256h64v-320h-64v-128h-64v-64h-64zM0 576v64h64v-64h-64zM128 576v64h64v-64h-64z" />
    <glyph glyph-name="Amacron" unicode="&#x100;" horiz-adv-x="384" 
d="M192 320v128h-64v-128h64zM0 128v192h64v192h64v128h64v-128h64v-192h64v-192h-64v128h-192v-128h-64zM64 704v64h192v-64h-192z" />
    <glyph glyph-name="amacron" unicode="&#x101;" horiz-adv-x="256" 
d="M0 128v192h64v-128h64v128h-64v64h64v64h-128v64h192v-384h-192zM0 576v64h192v-64h-192z" />
    <glyph glyph-name="Aogonek" unicode="&#x104;" horiz-adv-x="384" 
d="M256 0v64h64v-64h-64zM192 64v64h64v-64h-64zM192 320v128h-64v-128h64zM0 128v192h64v192h64v128h64v-128h64v-192h64v-192h-64v128h-192v-128h-64z" />
    <glyph glyph-name="aogonek" unicode="&#x105;" horiz-adv-x="256" 
d="M128 0v64h64v-64h-64zM64 64v64h-64v192h64v-128h64v128h-64v64h64v64h-128v64h192v-384h-64v-64h-64z" />
    <glyph glyph-name="Cacute" unicode="&#x106;" horiz-adv-x="384" 
d="M64 128v64h-64v320h64v64h192v-64h64v-128h-64v64h-64v64h-64v-64h-64v-192h64v-64h64v64h64v64h64v-128h-64v-64h-192zM128 640v64h64v-64h-64zM192 704v64h64v-64h-64z" />
    <glyph glyph-name="cacute" unicode="&#x107;" horiz-adv-x="256" 
d="M0 128v384h192v-128h-64v64h-64v-256h64v64h64v-128h-192zM64 576v64h64v-64h-64zM128 640v64h64v-64h-64z" />
    <glyph glyph-name="Ccircumflex" unicode="&#x108;" horiz-adv-x="384" 
d="M64 128v64h-64v320h64v64h192v-64h64v-128h-64v64h-64v64h-64v-64h-64v-192h64v-64h64v64h64v64h64v-128h-64v-64h-192zM64 640v64h64v-64h-64zM192 640v64h64v-64h-64zM128 704v64h64v-64h-64z" />
    <glyph glyph-name="ccircumflex" unicode="&#x109;" horiz-adv-x="256" 
d="M0 128v384h192v-128h-64v64h-64v-256h64v64h64v-128h-192zM0 576v64h64v-64h-64zM128 576v64h64v-64h-64zM64 640v64h64v-64h-64z" />
    <glyph glyph-name="Cdotaccent" unicode="&#x10a;" horiz-adv-x="384" 
d="M64 128v64h-64v384h64v64h192v-64h64v-128h-64v64h-64v64h-64v-64h-64v-256h64v-64h64v64h64v64h64v-128h-64v-64h-192zM128 704v64h64v-64h-64z" />
    <glyph glyph-name="cdotaccent" unicode="&#x10b;" horiz-adv-x="256" 
d="M0 128v384h192v-128h-64v64h-64v-256h64v64h64v-128h-192zM64 576v64h64v-64h-64z" />
    <glyph glyph-name="Ccaron" unicode="&#x10c;" horiz-adv-x="384" 
d="M64 128v64h-64v320h64v64h192v-64h64v-128h-64v64h-64v64h-64v-64h-64v-192h64v-64h64v64h64v64h64v-128h-64v-64h-192zM128 640v64h64v-64h-64zM64 704v64h64v-64h-64zM192 704v64h64v-64h-64z" />
    <glyph glyph-name="ccaron" unicode="&#x10d;" horiz-adv-x="256" 
d="M0 128v384h192v-128h-64v64h-64v-256h64v64h64v-128h-192zM64 576v64h64v-64h-64zM0 640v64h64v-64h-64zM128 640v64h64v-64h-64z" />
    <glyph glyph-name="Dcaron" unicode="&#x10e;" horiz-adv-x="384" 
d="M192 192v64h64v192h-64v64h-64v-320h64zM0 128v64h64v320h-64v64h256v-64h64v-320h-64v-64h-256zM128 640v64h64v-64h-64zM64 704v64h64v-64h-64zM192 704v64h64v-64h-64z" />
    <glyph glyph-name="dcaron" unicode="&#x10f;" horiz-adv-x="384" 
d="M0 128v320h64v-256h64v256h-64v64h64v128h64v-512h-192zM256 512v128h64v-128h-64z" />
    <glyph glyph-name="Dcroat" unicode="&#x110;" horiz-adv-x="384" 
d="M192 192v64h64v256h-64v64h-64v-128h64v-64h-64v-192h64zM0 128v64h64v192h-64v64h64v128h-64v64h256v-64h64v-384h-64v-64h-256z" />
    <glyph glyph-name="dcroat" unicode="&#x111;" horiz-adv-x="320" 
d="M0 128v256h64v-192h64v192h-64v64h64v64h-64v64h64v64h64v-64h64v-64h-64v-384h-192z" />
    <glyph glyph-name="Emacron" unicode="&#x112;" horiz-adv-x="384" 
d="M0 128v64h64v384h-64v64h320v-128h-64v64h-128v-128h64v64h64v-192h-64v64h-64v-192h128v64h64v-128h-320zM64 704v64h192v-64h-192z" />
    <glyph glyph-name="emacron" unicode="&#x113;" horiz-adv-x="256" 
d="M128 320v128h-64v-128h64zM0 128v384h192v-256h-128v-64h128v-64h-192zM0 576v64h192v-64h-192z" />
    <glyph glyph-name="Edotaccent" unicode="&#x116;" horiz-adv-x="384" 
d="M0 128v64h64v384h-64v64h320v-128h-64v64h-128v-128h64v64h64v-192h-64v64h-64v-192h128v64h64v-128h-320zM128 704v64h64v-64h-64z" />
    <glyph glyph-name="edotaccent" unicode="&#x117;" horiz-adv-x="256" 
d="M128 320v128h-64v-128h64zM0 128v384h192v-256h-128v-64h128v-64h-192zM64 576v64h64v-64h-64z" />
    <glyph glyph-name="Eogonek" unicode="&#x118;" horiz-adv-x="384" 
d="M192 0v64h64v-64h-64zM128 64v64h-128v64h64v384h-64v64h320v-128h-64v64h-128v-128h64v64h64v-192h-64v64h-64v-192h128v64h64v-128h-128v-64h-64z" />
    <glyph glyph-name="eogonek" unicode="&#x119;" horiz-adv-x="256" 
d="M128 0v64h64v-64h-64zM128 320v128h-64v-128h64zM64 64v64h-64v384h192v-256h-128v-64h128v-64h-64v-64h-64z" />
    <glyph glyph-name="Ecaron" unicode="&#x11a;" horiz-adv-x="384" 
d="M0 128v64h64v320h-64v64h320v-128h-64v64h-128v-128h64v64h64v-192h-64v64h-64v-128h128v64h64v-128h-320zM128 640v64h64v-64h-64zM64 704v64h64v-64h-64zM192 704v64h64v-64h-64z" />
    <glyph glyph-name="ecaron" unicode="&#x11b;" horiz-adv-x="256" 
d="M128 320v128h-64v-128h64zM0 128v384h192v-256h-128v-64h128v-64h-192zM64 576v64h64v-64h-64zM0 640v64h64v-64h-64zM128 640v64h64v-64h-64z" />
    <glyph glyph-name="Gcircumflex" unicode="&#x11c;" horiz-adv-x="384" 
d="M256 448v64h64v-64h-64zM64 128v64h-64v320h64v64h192v-64h-128v-64h-64v-192h64v-64h64v64h64v64h-128v64h192v-192h-64v-64h-192zM64 640v64h64v-64h-64zM192 640v64h64v-64h-64zM128 704v64h64v-64h-64z" />
    <glyph glyph-name="gcircumflex" unicode="&#x11d;" horiz-adv-x="256" 
d="M128 192v256h-64v-256h64zM0 0v64h128v64h-128v384h192v-512h-192zM0 576v64h64v-64h-64zM128 576v64h64v-64h-64zM64 640v64h64v-64h-64z" />
    <glyph glyph-name="Gdotaccent" unicode="&#x120;" horiz-adv-x="384" 
d="M256 512v64h64v-64h-64zM64 128v64h-64v384h64v64h192v-64h-128v-64h-64v-256h64v-64h64v64h64v128h-128v64h192v-256h-64v-64h-192zM128 704v64h64v-64h-64z" />
    <glyph glyph-name="gdotaccent" unicode="&#x121;" horiz-adv-x="256" 
d="M128 192v256h-64v-256h64zM0 0v64h128v64h-128v384h192v-512h-192zM64 576v64h64v-64h-64z" />
    <glyph glyph-name="uni0122" unicode="&#x122;" horiz-adv-x="384" 
d="M64 0v64h64v-64h-64zM256 512v64h64v-64h-64zM128 64v64h-64v64h-64v384h64v64h192v-64h-128v-64h-64v-256h64v-64h64v64h64v128h-128v64h192v-256h-64v-64h-64v-64h-64z" />
    <glyph glyph-name="uni0123" unicode="&#x123;" horiz-adv-x="256" 
d="M128 192v256h-64v-256h64zM0 0v64h128v64h-128v384h192v-512h-192zM64 576v128h64v-128h-64z" />
    <glyph glyph-name="Hcircumflex" unicode="&#x124;" horiz-adv-x="384" 
d="M0 128v448h64v-192h192v192h64v-448h-64v192h-192v-192h-64zM64 640v64h64v-64h-64zM192 640v64h64v-64h-64zM128 704v64h64v-64h-64z" />
    <glyph glyph-name="hcircumflex" unicode="&#x125;" horiz-adv-x="320" 
d="M64 128v448h64v-128h128v-320h-64v256h-64v-256h-64zM0 640v64h64v-64h-64zM128 640v64h64v-64h-64zM64 704v64h64v-64h-64z" />
    <glyph glyph-name="Hbar" unicode="&#x126;" horiz-adv-x="512" 
d="M320 448v64h-192v-64h192zM64 128v384h-64v64h64v64h64v-64h192v64h64v-64h64v-64h-64v-384h-64v256h-192v-256h-64z" />
    <glyph glyph-name="hbar" unicode="&#x127;" horiz-adv-x="320" 
d="M64 128v384h-64v64h64v64h64v-64h64v-64h-64v-64h128v-320h-64v256h-64v-256h-64z" />
    <glyph glyph-name="Itilde" unicode="&#x128;" horiz-adv-x="256" 
d="M0 128v64h64v320h-64v64h192v-64h-64v-320h64v-64h-192zM0 640v64h64v-64h-64zM128 640v64h64v-64h-64zM64 704v64h64v-64h-64zM192 704v64h64v-64h-64z" />
    <glyph glyph-name="itilde" unicode="&#x129;" horiz-adv-x="256" 
d="M64 128v320h64v-320h-64zM0 512v64h64v-64h-64zM128 512v64h64v-64h-64zM64 576v64h64v-64h-64zM192 576v64h64v-64h-64z" />
    <glyph glyph-name="Imacron" unicode="&#x12a;" horiz-adv-x="256" 
d="M0 128v64h64v384h-64v64h192v-64h-64v-384h64v-64h-192zM0 704v64h192v-64h-192z" />
    <glyph glyph-name="imacron" unicode="&#x12b;" horiz-adv-x="256" 
d="M64 128v320h64v-320h-64zM0 512v64h192v-64h-192z" />
    <glyph glyph-name="Iogonek" unicode="&#x12e;" horiz-adv-x="256" 
d="M128 0v64h64v-64h-64zM64 64v64h-64v64h64v384h-64v64h192v-64h-64v-384h64v-64h-64v-64h-64z" />
    <glyph glyph-name="iogonek" unicode="&#x12f;" horiz-adv-x="192" 
d="M64 0v64h64v-64h-64zM0 64v64h64v-64h-64zM64 128v320h64v-320h-64zM64 512v64h64v-64h-64z" />
    <glyph glyph-name="Idotaccent" unicode="&#x130;" horiz-adv-x="256" 
d="M0 128v64h64v384h-64v64h192v-64h-64v-384h64v-64h-192zM64 704v64h64v-64h-64z" />
    <glyph glyph-name="dotlessi" unicode="&#x131;" horiz-adv-x="192" 
d="M64 128v320h64v-320h-64z" />
    <glyph glyph-name="Jcircumflex" unicode="&#x134;" horiz-adv-x="384" 
d="M64 64v64h-64v128h64v-64h64v-64h64v64h64v384h64v-448h-64v-64h-192zM192 640v64h64v-64h-64zM320 640v64h64v-64h-64zM256 704v64h64v-64h-64z" />
    <glyph glyph-name="jcircumflex" unicode="&#x135;" horiz-adv-x="320" 
d="M0 0v64h128v384h64v-448h-192zM64 512v64h64v-64h-64zM192 512v64h64v-64h-64zM128 576v64h64v-64h-64z" />
    <glyph glyph-name="uni0136" unicode="&#x136;" horiz-adv-x="384" 
d="M64 0v64h64v-64h-64zM128 64v64h64v-64h-64zM256 128v64h64v-64h-64zM192 192v64h64v-64h-64zM128 256v64h64v-64h-64zM128 448v64h64v-64h-64zM192 512v64h64v-64h-64zM0 128v512h64v-192h64v-128h-64v-192h-64zM256 576v64h64v-64h-64z" />
    <glyph glyph-name="uni0137" unicode="&#x137;" horiz-adv-x="256" 
d="M0 0v64h64v-64h-64zM64 64v64h64v-64h-64zM0 128v512h64v-192h64v64h64v-128h-64v-64h64v-192h-64v128h-64v-128h-64z" />
    <glyph glyph-name="kgreenlandic" unicode="&#x138;" horiz-adv-x="256" 
d="M128 128v128h64v-128h-64zM0 128v384h64v-128h64v-128h-64v-128h-64zM128 384v128h64v-128h-64z" />
    <glyph glyph-name="Lacute" unicode="&#x139;" horiz-adv-x="384" 
d="M0 128v64h64v320h-64v64h192v-64h-64v-320h128v64h64v-128h-320zM64 640v64h64v-64h-64zM128 704v64h64v-64h-64z" />
    <glyph glyph-name="lacute" unicode="&#x13a;" horiz-adv-x="192" 
d="M0 128v448h64v-448h-64zM0 640v64h64v-64h-64zM64 704v64h64v-64h-64z" />
    <glyph glyph-name="uni013B" unicode="&#x13b;" horiz-adv-x="384" 
d="M64 0v64h64v-64h-64zM128 64v64h-128v64h64v384h-64v64h192v-64h-64v-384h128v64h64v-128h-128v-64h-64z" />
    <glyph glyph-name="uni013C" unicode="&#x13c;" horiz-adv-x="192" 
d="M0 0v64h64v-64h-64zM64 64v64h64v-64h-64zM0 128v512h64v-512h-64z" />
    <glyph glyph-name="Lcaron" unicode="&#x13d;" horiz-adv-x="384" 
d="M0 128v64h64v384h-64v64h192v-64h-64v-384h128v64h64v-128h-320zM256 512v128h64v-128h-64z" />
    <glyph glyph-name="lcaron" unicode="&#x13e;" horiz-adv-x="256" 
d="M0 128v512h64v-512h-64zM128 512v128h64v-128h-64z" />
    <glyph glyph-name="Ldot" unicode="&#x13f;" horiz-adv-x="384" 
d="M192 384v64h64v-64h-64zM0 128v64h64v384h-64v64h192v-64h-64v-384h128v64h64v-128h-320z" />
    <glyph glyph-name="ldot" unicode="&#x140;" horiz-adv-x="256" 
d="M128 320v64h64v-64h-64zM0 128v512h64v-512h-64z" />
    <glyph glyph-name="Lslash" unicode="&#x141;" horiz-adv-x="384" 
d="M0 128v64h64v128h-64v64h64v192h-64v64h192v-64h-64v-128h64v-64h-64v-192h128v64h64v-128h-320z" />
    <glyph glyph-name="lslash" unicode="&#x142;" horiz-adv-x="256" 
d="M64 128v192h-64v64h64v256h64v-192h64v-64h-64v-256h-64z" />
    <glyph glyph-name="Nacute" unicode="&#x143;" horiz-adv-x="384" 
d="M128 320v64h64v-64h-64zM0 128v448h64v-64h64v-128h-64v-256h-64zM256 128v64h-64v128h64v256h64v-448h-64zM128 640v64h64v-64h-64zM192 704v64h64v-64h-64z" />
    <glyph glyph-name="nacute" unicode="&#x144;" horiz-adv-x="256" 
d="M0 128v384h192v-384h-64v320h-64v-320h-64zM64 576v64h64v-64h-64zM128 640v64h64v-64h-64z" />
    <glyph glyph-name="uni0145" unicode="&#x145;" horiz-adv-x="384" 
d="M64 0v64h64v-64h-64zM128 64v64h64v-64h-64zM128 320v64h64v-64h-64zM0 128v448h64v-64h64v-128h-64v-256h-64zM256 128v64h-64v128h64v256h64v-448h-64z" />
    <glyph glyph-name="uni0146" unicode="&#x146;" horiz-adv-x="256" 
d="M0 0v64h64v-64h-64zM64 64v64h64v-64h-64zM0 128v384h192v-384h-64v320h-64v-320h-64z" />
    <glyph glyph-name="Ncaron" unicode="&#x147;" horiz-adv-x="384" 
d="M128 320v64h64v-64h-64zM0 128v448h64v-64h64v-128h-64v-256h-64zM256 128v64h-64v128h64v256h64v-448h-64zM128 640v64h64v-64h-64zM64 704v64h64v-64h-64zM192 704v64h64v-64h-64z" />
    <glyph glyph-name="ncaron" unicode="&#x148;" horiz-adv-x="256" 
d="M0 128v384h192v-384h-64v320h-64v-320h-64zM64 576v64h64v-64h-64zM0 640v64h64v-64h-64zM128 640v64h64v-64h-64z" />
    <glyph glyph-name="napostrophe" unicode="&#x149;" horiz-adv-x="384" 
d="M128 128v384h192v-384h-64v320h-64v-320h-64zM0 512v128h64v-128h-64z" />
    <glyph glyph-name="Omacron" unicode="&#x14c;" horiz-adv-x="384" 
d="M192 192v64h64v256h-64v64h-64v-64h-64v-256h64v-64h64zM64 128v64h-64v384h64v64h192v-64h64v-384h-64v-64h-192zM64 704v64h192v-64h-192z" />
    <glyph glyph-name="omacron" unicode="&#x14d;" horiz-adv-x="256" 
d="M128 192v256h-64v-256h64zM0 128v384h192v-384h-192zM0 576v64h192v-64h-192z" />
    <glyph glyph-name="OE" unicode="&#x152;" horiz-adv-x="512" 
d="M192 192v384h-64v-64h-64v-256h64v-64h64zM64 128v64h-64v384h64v64h384v-128h-64v64h-128v-128h64v64h64v-192h-64v64h-64v-192h128v64h64v-128h-384z" />
    <glyph glyph-name="oe" unicode="&#x153;" horiz-adv-x="384" 
d="M128 192v256h-64v-256h64zM256 320v128h-64v-128h64zM0 128v384h320v-256h-128v-64h128v-64h-320z" />
    <glyph glyph-name="Racute" unicode="&#x154;" horiz-adv-x="384" 
d="M192 384v128h-64v-128h64zM0 128v64h64v320h-64v64h256v-64h64v-128h-64v-128h64v-64h64v-64h-128v64h-64v128h-64v-128h64v-64h-192zM128 640v64h64v-64h-64zM192 704v64h64v-64h-64z" />
    <glyph glyph-name="racute" unicode="&#x155;" horiz-adv-x="256" 
d="M0 128v384h192v-128h-64v64h-64v-320h-64zM64 576v64h64v-64h-64zM128 640v64h64v-64h-64z" />
    <glyph glyph-name="uni0156" unicode="&#x156;" horiz-adv-x="384" 
d="M128 0v64h64v-64h-64zM192 64v64h64v-64h-64zM192 384v64h64v64h-64v64h-64v-192h64zM0 128v64h64v384h-64v64h256v-64h64v-192h-64v-128h64v-64h64v-64h-128v64h-64v128h-64v-128h64v-64h-192z" />
    <glyph glyph-name="uni0157" unicode="&#x157;" horiz-adv-x="256" 
d="M0 0v64h64v-64h-64zM64 64v64h64v-64h-64zM0 128v384h192v-128h-64v64h-64v-320h-64z" />
    <glyph glyph-name="Rcaron" unicode="&#x158;" horiz-adv-x="384" 
d="M192 384v128h-64v-128h64zM0 128v64h64v320h-64v64h256v-64h64v-128h-64v-128h64v-64h64v-64h-128v64h-64v128h-64v-128h64v-64h-192zM128 640v64h64v-64h-64zM64 704v64h64v-64h-64zM192 704v64h64v-64h-64z" />
    <glyph glyph-name="rcaron" unicode="&#x159;" horiz-adv-x="256" 
d="M0 128v384h192v-128h-64v64h-64v-320h-64zM64 576v64h64v-64h-64zM0 640v64h64v-64h-64zM128 640v64h64v-64h-64z" />
    <glyph glyph-name="Sacute" unicode="&#x15a;" horiz-adv-x="384" 
d="M64 128v64h192v-64h-192zM0 192v64h64v-64h-64zM256 192v128h64v-128h-64zM64 320v64h192v-64h-192zM0 384v128h64v-128h-64zM256 448v64h-192v64h256v-128h-64zM128 640v64h64v-64h-64zM192 704v64h64v-64h-64z" />
    <glyph glyph-name="sacute" unicode="&#x15b;" horiz-adv-x="256" 
d="M0 128v64h128v128h-128v192h192v-64h-128v-64h128v-256h-192zM64 576v64h64v-64h-64zM128 640v64h64v-64h-64z" />
    <glyph glyph-name="Scircumflex" unicode="&#x15c;" horiz-adv-x="384" 
d="M64 128v64h192v-64h-192zM0 192v64h64v-64h-64zM256 192v128h64v-128h-64zM64 320v64h192v-64h-192zM0 384v128h64v-128h-64zM256 448v64h-192v64h256v-128h-64zM64 640v64h64v-64h-64zM192 640v64h64v-64h-64zM128 704v64h64v-64h-64z" />
    <glyph glyph-name="scircumflex" unicode="&#x15d;" horiz-adv-x="256" 
d="M0 128v64h128v128h-128v192h192v-64h-128v-64h128v-256h-192zM0 576v64h64v-64h-64zM128 576v64h64v-64h-64zM64 640v64h64v-64h-64z" />
    <glyph glyph-name="Scedilla" unicode="&#x15e;" horiz-adv-x="384" 
d="M64 0v64h64v-64h-64zM128 64v64h-64v64h192v-64h-64v-64h-64zM0 192v64h64v-64h-64zM256 192v128h-64v64h-128v64h192v-64h64v-192h-64zM0 448v128h64v-128h-64zM256 512v64h-192v64h256v-128h-64z" />
    <glyph glyph-name="scedilla" unicode="&#x15f;" horiz-adv-x="256" 
d="M0 0v64h64v-64h-64zM64 64v64h-64v64h128v128h-128v192h192v-64h-128v-64h128v-256h-64v-64h-64z" />
    <glyph glyph-name="Scaron" unicode="&#x160;" horiz-adv-x="384" 
d="M64 128v64h192v-64h-192zM0 192v64h64v-64h-64zM256 192v128h64v-128h-64zM64 320v64h192v-64h-192zM0 384v128h64v-128h-64zM256 448v64h-192v64h256v-128h-64zM128 640v64h64v-64h-64zM64 704v64h64v-64h-64zM192 704v64h64v-64h-64z" />
    <glyph glyph-name="scaron" unicode="&#x161;" horiz-adv-x="256" 
d="M0 128v64h128v128h-128v192h192v-64h-128v-64h128v-256h-192zM64 576v64h64v-64h-64zM0 640v64h64v-64h-64zM128 640v64h64v-64h-64z" />
    <glyph glyph-name="uni0162" unicode="&#x162;" horiz-adv-x="384" 
d="M64 0v64h64v-64h-64zM128 64v64h-64v64h64v384h-64v-64h-64v128h320v-128h-64v64h-64v-384h64v-64h-64v-64h-64z" />
    <glyph glyph-name="uni0163" unicode="&#x163;" horiz-adv-x="256" 
d="M64 0v64h64v-64h-64zM128 64v64h-64v320h-64v64h64v64h64v-64h64v-64h-64v-256h64v-128h-64z" />
    <glyph glyph-name="Tcaron" unicode="&#x164;" horiz-adv-x="384" 
d="M64 128v64h64v320h-64v-64h-64v128h320v-128h-64v64h-64v-320h64v-64h-192zM128 640v64h64v-64h-64zM64 704v64h64v-64h-64zM192 704v64h64v-64h-64z" />
    <glyph glyph-name="tcaron" unicode="&#x165;" horiz-adv-x="384" 
d="M64 128v320h-64v64h64v64h64v-64h64v-64h-64v-256h64v-64h-128zM256 512v128h64v-128h-64z" />
    <glyph glyph-name="Tbar" unicode="&#x166;" horiz-adv-x="384" 
d="M64 128v64h64v128h-64v64h64v192h-64v-64h-64v128h320v-128h-64v64h-64v-192h64v-64h-64v-128h64v-64h-192z" />
    <glyph glyph-name="tbar" unicode="&#x167;" horiz-adv-x="256" 
d="M64 128v192h-64v64h64v64h-64v64h64v64h64v-64h64v-64h-64v-64h64v-64h-64v-128h64v-64h-128z" />
    <glyph glyph-name="Utilde" unicode="&#x168;" horiz-adv-x="384" 
d="M64 128v64h-64v384h64v-320h64v-64h64v64h64v320h64v-384h-64v-64h-192zM0 640v64h64v-64h-64zM128 640v64h-64v64h128v-64h64v-64h-128zM256 704v64h64v-64h-64z" />
    <glyph glyph-name="utilde" unicode="&#x169;" horiz-adv-x="256" 
d="M0 128v384h64v-320h64v320h64v-384h-192zM0 576v64h64v-64h-64zM128 576v64h64v-64h-64zM64 640v64h64v-64h-64zM192 640v64h64v-64h-64z" />
    <glyph glyph-name="Umacron" unicode="&#x16a;" horiz-adv-x="384" 
d="M64 128v64h-64v448h64v-384h64v-64h64v64h64v384h64v-448h-64v-64h-192zM64 704v64h192v-64h-192z" />
    <glyph glyph-name="umacron" unicode="&#x16b;" horiz-adv-x="256" 
d="M0 128v384h64v-320h64v320h64v-384h-192zM0 576v64h192v-64h-192z" />
    <glyph glyph-name="Uring" unicode="&#x16e;" horiz-adv-x="384" 
d="M64 128v64h-64v384h64v-320h64v-64h64v64h64v320h64v-384h-64v-64h-192zM192 640v64h-64v-64h64zM64 576v192h192v-192h-192z" />
    <glyph glyph-name="uring" unicode="&#x16f;" horiz-adv-x="256" 
d="M0 128v384h64v-320h64v320h64v-384h-192zM128 640v64h-64v-64h64zM0 576v192h192v-192h-192z" />
    <glyph glyph-name="Uogonek" unicode="&#x172;" horiz-adv-x="384" 
d="M192 0v64h64v-64h-64zM128 64v64h-64v64h-64v448h64v-384h64v-64h64v64h64v384h64v-448h-64v-64h-64v-64h-64z" />
    <glyph glyph-name="uogonek" unicode="&#x173;" horiz-adv-x="256" 
d="M128 0v64h64v-64h-64zM64 64v64h-64v384h64v-320h64v320h64v-384h-64v-64h-64z" />
    <glyph glyph-name="Wcircumflex" unicode="&#x174;" horiz-adv-x="384" 
d="M64 128v128h-64v320h64v-256h64v192h64v-192h64v256h64v-320h-64v-128h-64v128h-64v-128h-64zM64 640v64h64v-64h-64zM192 640v64h64v-64h-64zM128 704v64h64v-64h-64z" />
    <glyph glyph-name="wcircumflex" unicode="&#x175;" horiz-adv-x="384" 
d="M64 128v128h-64v256h64v-192h64v192h64v-192h64v192h64v-256h-64v-128h-64v128h-64v-128h-64zM64 576v64h64v-64h-64zM192 576v64h64v-64h-64zM128 640v64h64v-64h-64z" />
    <glyph glyph-name="Ycircumflex" unicode="&#x176;" horiz-adv-x="384" 
d="M128 128v192h-64v64h-64v192h64v-128h64v-64h64v64h64v128h64v-192h-64v-64h-64v-192h-64zM64 640v64h64v-64h-64zM192 640v64h64v-64h-64zM128 704v64h64v-64h-64z" />
    <glyph glyph-name="ycircumflex" unicode="&#x177;" horiz-adv-x="256" 
d="M0 0v128h64v64h-64v320h64v-256h64v256h64v-320h-64v-128h-64v-64h-64zM0 576v64h64v-64h-64zM128 576v64h64v-64h-64zM64 640v64h64v-64h-64z" />
    <glyph glyph-name="Ydieresis" unicode="&#x178;" horiz-adv-x="384" 
d="M128 128v192h-64v128h-64v192h64v-128h64v-128h64v128h64v128h64v-192h-64v-128h-64v-192h-64zM64 704v64h64v-64h-64zM192 704v64h64v-64h-64z" />
    <glyph glyph-name="Zacute" unicode="&#x179;" horiz-adv-x="384" 
d="M0 128v128h64v-64h256v-64h-320zM64 256v64h64v-64h-64zM128 320v64h64v-64h-64zM192 384v64h64v-64h-64zM256 448v64h-256v64h320v-128h-64zM128 640v64h64v-64h-64zM192 704v64h64v-64h-64z" />
    <glyph glyph-name="zacute" unicode="&#x17a;" horiz-adv-x="256" 
d="M0 128v192h64v64h64v-128h-64v-64h128v-64h-192zM128 384v64h-128v64h192v-128h-64zM64 576v64h64v-64h-64zM128 640v64h64v-64h-64z" />
    <glyph glyph-name="Zdotaccent" unicode="&#x17b;" horiz-adv-x="384" 
d="M0 128v128h64v-64h256v-64h-320zM64 256v128h64v64h64v-128h-64v-64h-64zM192 448v64h64v-64h-64zM256 512v64h-256v64h320v-128h-64zM128 704v64h64v-64h-64z" />
    <glyph glyph-name="zdotaccent" unicode="&#x17c;" horiz-adv-x="256" 
d="M0 128v192h64v64h64v-128h-64v-64h128v-64h-192zM128 384v64h-128v64h192v-128h-64zM64 576v64h64v-64h-64z" />
    <glyph glyph-name="Zcaron" unicode="&#x17d;" horiz-adv-x="384" 
d="M0 128v128h64v-64h256v-64h-320zM64 256v64h64v-64h-64zM128 320v64h64v-64h-64zM192 384v64h64v-64h-64zM256 448v64h-256v64h320v-128h-64zM128 640v64h64v-64h-64zM64 704v64h64v-64h-64zM192 704v64h64v-64h-64z" />
    <glyph glyph-name="zcaron" unicode="&#x17e;" horiz-adv-x="256" 
d="M0 128v192h64v64h64v-128h-64v-64h128v-64h-192zM128 384v64h-128v64h192v-128h-64zM64 576v64h64v-64h-64zM0 640v64h64v-64h-64zM128 640v64h64v-64h-64z" />
    <glyph glyph-name="longs" unicode="&#x17f;" horiz-adv-x="256" 
d="M64 64v384h-64v64h64v128h128v-64h-64v-512h-64z" />
    <glyph glyph-name="uni0180" unicode="&#x180;" horiz-adv-x="320" 
d="M64 128v384h-64v64h64v64h64v-64h64v-64h-64v-64h64v-64h-64v-192h64v192h64v-256h-192z" />
    <glyph glyph-name="florin" unicode="&#x192;" horiz-adv-x="256" 
d="M0 64v64h64v320h-64v64h64v128h128v-64h-64v-64h64v-64h-64v-384h-128z" />
    <glyph glyph-name="uni0197" unicode="&#x197;" horiz-adv-x="256" 
d="M0 128v64h64v192h-64v64h64v128h-64v64h192v-64h-64v-128h64v-64h-64v-192h64v-64h-192z" />
    <glyph glyph-name="uni019A" unicode="&#x19a;" horiz-adv-x="256" 
d="M64 128v256h-64v64h64v192h64v-192h64v-64h-64v-256h-64z" />
    <glyph glyph-name="uni01CD" unicode="&#x1cd;" horiz-adv-x="384" 
d="M192 320v64h-64v-64h64zM0 128v192h64v128h64v128h64v-128h64v-128h64v-192h-64v128h-192v-128h-64zM128 640v64h64v-64h-64zM64 704v64h64v-64h-64zM192 704v64h64v-64h-64z" />
    <glyph glyph-name="uni01CE" unicode="&#x1ce;" horiz-adv-x="256" 
d="M0 128v192h64v-128h64v128h-64v64h64v64h-128v64h192v-384h-192zM64 576v64h64v-64h-64zM0 640v64h64v-64h-64zM128 640v64h64v-64h-64z" />
    <glyph glyph-name="uni01CF" unicode="&#x1cf;" horiz-adv-x="256" 
d="M0 128v64h64v320h-64v64h192v-64h-64v-320h64v-64h-192zM64 640v64h64v-64h-64zM0 704v64h64v-64h-64zM128 704v64h64v-64h-64z" />
    <glyph glyph-name="uni01D0" unicode="&#x1d0;" horiz-adv-x="256" 
d="M64 128v320h64v-320h-64zM64 512v64h64v-64h-64zM0 576v64h64v-64h-64zM128 576v64h64v-64h-64z" />
    <glyph glyph-name="uni01D1" unicode="&#x1d1;" horiz-adv-x="384" 
d="M192 192v64h64v192h-64v64h-64v-64h-64v-192h64v-64h64zM64 128v64h-64v320h64v64h192v-64h64v-320h-64v-64h-192zM128 640v64h64v-64h-64zM64 704v64h64v-64h-64zM192 704v64h64v-64h-64z" />
    <glyph glyph-name="uni01D2" unicode="&#x1d2;" horiz-adv-x="256" 
d="M128 192v256h-64v-256h64zM0 128v384h192v-384h-192zM64 576v64h64v-64h-64zM0 640v64h64v-64h-64zM128 640v64h64v-64h-64z" />
    <glyph glyph-name="uni01D3" unicode="&#x1d3;" horiz-adv-x="384" 
d="M64 128v64h-64v384h64v-320h64v-64h64v64h64v320h64v-384h-64v-64h-192zM128 640v64h64v-64h-64zM64 704v64h64v-64h-64zM192 704v64h64v-64h-64z" />
    <glyph glyph-name="uni01D4" unicode="&#x1d4;" horiz-adv-x="256" 
d="M0 128v384h64v-320h64v320h64v-384h-192zM64 576v64h64v-64h-64zM0 640v64h64v-64h-64zM128 640v64h64v-64h-64z" />
    <glyph glyph-name="uni01DD" unicode="&#x1dd;" horiz-adv-x="256" 
d="M128 192v128h-64v-128h64zM0 128v256h128v64h-128v64h192v-384h-192z" />
    <glyph glyph-name="uni01E2" unicode="&#x1e2;" horiz-adv-x="512" 
d="M192 320v128h-64v-128h64zM0 128v192h64v192h64v128h320v-128h-64v64h-128v-128h64v64h64v-192h-64v64h-64v-192h128v64h64v-128h-320v64h64v64h-128v-128h-64zM192 704v64h192v-64h-192z" />
    <glyph glyph-name="uni01E3" unicode="&#x1e3;" horiz-adv-x="384" 
d="M256 320v128h-64v-128h64zM0 128v192h64v-128h64v128h-64v64h64v64h-128v64h320v-256h-128v-64h128v-64h-320zM64 576v64h192v-64h-192z" />
    <glyph glyph-name="Gcaron" unicode="&#x1e6;" horiz-adv-x="384" 
d="M256 448v64h64v-64h-64zM64 128v64h-64v320h64v64h192v-64h-128v-64h-64v-192h64v-64h64v64h64v64h-128v64h192v-192h-64v-64h-192zM128 640v64h64v-64h-64zM64 704v64h64v-64h-64zM192 704v64h64v-64h-64z" />
    <glyph glyph-name="gcaron" unicode="&#x1e7;" horiz-adv-x="256" 
d="M128 192v256h-64v-256h64zM0 0v64h128v64h-128v384h192v-512h-192zM64 576v64h64v-64h-64zM0 640v64h64v-64h-64zM128 640v64h64v-64h-64z" />
    <glyph glyph-name="uni01E8" unicode="&#x1e8;" horiz-adv-x="384" 
d="M256 128v64h64v-64h-64zM192 192v64h64v-64h-64zM128 256v64h64v-64h-64zM128 384v64h64v-64h-64zM192 448v64h64v-64h-64zM0 128v448h64v-192h64v-64h-64v-192h-64zM256 512v64h64v-64h-64zM128 640v64h64v-64h-64zM64 704v64h64v-64h-64zM192 704v64h64v-64h-64z" />
    <glyph glyph-name="uni01E9" unicode="&#x1e9;" horiz-adv-x="256" 
d="M0 128v448h64v-128h64v64h64v-128h-64v-64h64v-192h-64v128h-64v-128h-64zM64 640v64h64v-64h-64zM0 704v64h64v-64h-64zM128 704v64h64v-64h-64z" />
    <glyph glyph-name="uni01EA" unicode="&#x1ea;" horiz-adv-x="384" 
d="M192 0v64h64v-64h-64zM192 192v64h64v256h-64v64h-64v-64h-64v-256h64v-64h64zM128 64v64h-64v64h-64v384h64v64h192v-64h64v-384h-64v-64h-64v-64h-64z" />
    <glyph glyph-name="uni01EB" unicode="&#x1eb;" horiz-adv-x="256" 
d="M128 0v64h64v-64h-64zM128 192v256h-64v-256h64zM64 64v64h-64v384h192v-384h-64v-64h-64z" />
    <glyph glyph-name="uni01F0" unicode="&#x1f0;" horiz-adv-x="320" 
d="M0 0v64h128v384h64v-448h-192zM128 512v64h64v-64h-64zM64 576v64h64v-64h-64zM192 576v64h64v-64h-64z" />
    <glyph glyph-name="uni01F4" unicode="&#x1f4;" horiz-adv-x="384" 
d="M256 448v64h64v-64h-64zM64 128v64h-64v320h64v64h192v-64h-128v-64h-64v-192h64v-64h64v64h64v64h-128v64h192v-192h-64v-64h-192zM128 640v64h64v-64h-64zM192 704v64h64v-64h-64z" />
    <glyph glyph-name="uni01F5" unicode="&#x1f5;" horiz-adv-x="256" 
d="M128 192v256h-64v-256h64zM0 0v64h128v64h-128v384h192v-512h-192zM64 576v64h64v-64h-64zM128 640v64h64v-64h-64z" />
    <glyph glyph-name="uni01F8" unicode="&#x1f8;" horiz-adv-x="384" 
d="M128 320v64h64v-64h-64zM0 128v448h64v-64h64v-128h-64v-256h-64zM256 128v64h-64v128h64v256h64v-448h-64zM128 640v64h64v-64h-64zM64 704v64h64v-64h-64z" />
    <glyph glyph-name="uni01F9" unicode="&#x1f9;" horiz-adv-x="256" 
d="M0 128v384h192v-384h-64v320h-64v-320h-64zM64 576v64h64v-64h-64zM0 640v64h64v-64h-64z" />
    <glyph glyph-name="AEacute" unicode="&#x1fc;" horiz-adv-x="512" 
d="M192 320v64h-64v-64h64zM0 128v192h64v128h64v128h320v-128h-64v64h-128v-128h64v64h64v-192h-64v64h-64v-128h128v64h64v-128h-320v64h64v64h-128v-128h-64zM192 640v64h64v-64h-64zM256 704v64h64v-64h-64z" />
    <glyph glyph-name="aeacute" unicode="&#x1fd;" horiz-adv-x="384" 
d="M256 320v128h-64v-128h64zM0 128v192h64v-128h64v128h-64v64h64v64h-128v64h320v-256h-128v-64h128v-64h-320zM128 576v64h64v-64h-64zM192 640v64h64v-64h-64z" />
    <glyph glyph-name="uni021E" unicode="&#x21e;" horiz-adv-x="384" 
d="M0 128v448h64v-192h192v192h64v-448h-64v192h-192v-192h-64zM128 640v64h64v-64h-64zM64 704v64h64v-64h-64zM192 704v64h64v-64h-64z" />
    <glyph glyph-name="uni021F" unicode="&#x21f;" horiz-adv-x="256" 
d="M0 128v448h64v-128h128v-320h-64v256h-64v-256h-64zM64 640v64h64v-64h-64zM0 704v64h64v-64h-64zM128 704v64h64v-64h-64z" />
    <glyph glyph-name="uni0220" unicode="&#x220;" horiz-adv-x="256" 
d="M128 0v448h-64v-320h-64v384h192v-512h-64z" />
    <glyph glyph-name="uni0226" unicode="&#x226;" horiz-adv-x="384" 
d="M192 320v128h-64v-128h64zM0 128v192h64v192h64v128h64v-128h64v-192h64v-192h-64v128h-192v-128h-64zM128 704v64h64v-64h-64z" />
    <glyph glyph-name="uni0227" unicode="&#x227;" horiz-adv-x="256" 
d="M0 128v192h64v-128h64v128h-64v64h64v64h-128v64h192v-384h-192zM64 576v64h64v-64h-64z" />
    <glyph glyph-name="uni0228" unicode="&#x228;" horiz-adv-x="384" 
d="M64 0v64h64v-64h-64zM128 64v64h-128v64h64v384h-64v64h320v-128h-64v64h-128v-128h64v64h64v-192h-64v64h-64v-192h128v64h64v-128h-128v-64h-64z" />
    <glyph glyph-name="uni0229" unicode="&#x229;" horiz-adv-x="256" 
d="M0 0v64h64v-64h-64zM128 320v128h-64v-128h64zM64 64v64h-64v384h192v-256h-128v-64h128v-64h-64v-64h-64z" />
    <glyph glyph-name="uni022E" unicode="&#x22e;" horiz-adv-x="384" 
d="M192 192v64h64v256h-64v64h-64v-64h-64v-256h64v-64h64zM64 128v64h-64v384h64v64h192v-64h64v-384h-64v-64h-192zM128 704v64h64v-64h-64z" />
    <glyph glyph-name="uni022F" unicode="&#x22f;" horiz-adv-x="256" 
d="M128 192v256h-64v-256h64zM0 128v384h192v-384h-192zM64 576v64h64v-64h-64z" />
    <glyph glyph-name="uni0232" unicode="&#x232;" horiz-adv-x="384" 
d="M128 128v192h-64v128h-64v192h64v-128h64v-128h64v128h64v128h64v-192h-64v-128h-64v-192h-64zM64 704v64h192v-64h-192z" />
    <glyph glyph-name="uni0233" unicode="&#x233;" horiz-adv-x="256" 
d="M0 0v128h64v64h-64v320h64v-256h64v256h64v-320h-64v-128h-64v-64h-64zM0 576v64h192v-64h-192z" />
    <glyph glyph-name="uni023D" unicode="&#x23d;" horiz-adv-x="384" 
d="M0 128v64h64v192h-64v64h64v128h-64v64h192v-64h-64v-128h64v-64h-64v-192h128v64h64v-128h-320z" />
    <glyph glyph-name="uni0241" unicode="&#x241;" horiz-adv-x="384" 
d="M128 128v256h128v192h-192v-128h-64v192h320v-320h-128v-192h-64z" />
    <glyph glyph-name="uni0242" unicode="&#x242;" horiz-adv-x="256" 
d="M64 128v192h64v128h-64v-64h-64v128h192v-256h-64v-128h-64z" />
    <glyph glyph-name="uni0243" unicode="&#x243;" horiz-adv-x="384" 
d="M256 192v192h64v-192h-64zM256 448v128h64v-128h-64zM0 128v64h64v64h-64v64h64v256h-64v64h256v-64h-128v-128h128v-64h-128v-64h64v-64h-64v-64h128v-64h-256z" />
    <glyph glyph-name="uni0245" unicode="&#x245;" horiz-adv-x="384" 
d="M0 128v192h64v192h64v128h64v-128h64v-192h64v-192h-64v128h-64v192h-64v-192h-64v-128h-64z" />
    <glyph glyph-name="uni0248" unicode="&#x248;" horiz-adv-x="448" 
d="M64 64v64h-64v128h64v-64h64v-64h64v64h64v192h-64v64h64v192h64v-192h64v-64h-64v-256h-64v-64h-192z" />
    <glyph glyph-name="uni0249" unicode="&#x249;" horiz-adv-x="320" 
d="M0 0v64h128v192h-64v64h64v128h64v-128h64v-64h-64v-256h-192zM128 512v64h64v-64h-64z" />
    <glyph glyph-name="uni024C" unicode="&#x24c;" horiz-adv-x="384" 
d="M192 384v64h64v64h-64v64h-64v-192h64zM0 128v64h64v128h-64v64h64v192h-64v64h256v-64h64v-192h-64v-128h64v-64h64v-64h-128v64h-64v128h-64v-128h64v-64h-192z" />
    <glyph glyph-name="uni024D" unicode="&#x24d;" horiz-adv-x="320" 
d="M64 128v128h-64v64h64v192h192v-128h-64v64h-64v-128h64v-64h-64v-128h-64z" />
    <glyph glyph-name="uni024E" unicode="&#x24e;" horiz-adv-x="512" 
d="M256 384v64h-64v-64h64zM192 128v192h-64v128h-128v64h64v128h64v-128h192v128h64v-128h64v-64h-128v-128h-64v-192h-64z" />
    <glyph glyph-name="uni024F" unicode="&#x24f;" horiz-adv-x="384" 
d="M192 256v64h-64v-64h64zM64 0v128h64v64h-64v128h-64v64h64v128h64v-128h64v128h64v-128h64v-64h-64v-128h-64v-128h-64v-64h-64z" />
    <glyph glyph-name="tilde" unicode="&#x2dc;" 
d="M256 384v64h64v-64h-64zM320 320v64h128v64h128v-64h-64v-64h-192zM0 384v64h64v64h192v-64h-128v-64h-128z" />
    <glyph glyph-name="Pi" unicode="&#x3a0;" horiz-adv-x="384" 
d="M64 128v448h-64v64h320v-64h-64v-448h-64v448h-64v-448h-64z" />
    <glyph glyph-name="uni03BC" unicode="&#x3bc;" horiz-adv-x="256" 
d="M0 0v512h64v-320h64v320h64v-384h-128v-128h-64z" />
    <glyph glyph-name="pi" unicode="&#x3c0;" horiz-adv-x="384" 
d="M64 128v320h-64v64h320v-64h-64v-320h-64v320h-64v-320h-64z" />
    <glyph glyph-name="uni042F" unicode="&#x42f;" horiz-adv-x="384" 
d="M256 384v192h-64v-64h-64v-64h64v-64h64zM0 128v64h64v64h64v128h-64v192h64v64h256v-64h-64v-384h64v-64h-192v64h64v128h-64v-128h-64v-64h-128z" />
    <glyph glyph-name="uni1E02" unicode="&#x1e02;" horiz-adv-x="384" 
d="M256 192v192h64v-192h-64zM256 448v128h64v-128h-64zM0 128v64h64v384h-64v64h256v-64h-128v-128h128v-64h-128v-192h128v-64h-256zM128 704v64h64v-64h-64z" />
    <glyph glyph-name="uni1E03" unicode="&#x1e03;" horiz-adv-x="256" 
d="M0 128v512h64v-128h64v-64h-64v-256h64v256h64v-320h-192zM64 704v64h64v-64h-64z" />
    <glyph glyph-name="uni1E0A" unicode="&#x1e0a;" horiz-adv-x="384" 
d="M192 192v64h64v256h-64v64h-64v-384h64zM0 128v64h64v384h-64v64h256v-64h64v-384h-64v-64h-256zM128 704v64h64v-64h-64z" />
    <glyph glyph-name="uni1E0B" unicode="&#x1e0b;" horiz-adv-x="256" 
d="M0 128v320h64v-256h64v256h-64v64h64v128h64v-512h-192zM64 704v64h64v-64h-64z" />
    <glyph glyph-name="uni1E1E" unicode="&#x1e1e;" horiz-adv-x="384" 
d="M0 128v64h64v384h-64v64h320v-128h-64v64h-128v-128h64v64h64v-192h-64v64h-64v-192h64v-64h-192zM128 704v64h64v-64h-64z" />
    <glyph glyph-name="uni1E1F" unicode="&#x1e1f;" horiz-adv-x="256" 
d="M64 128v320h-64v64h64v128h128v-64h-64v-64h64v-64h-64v-320h-64zM64 704v64h64v-64h-64z" />
    <glyph glyph-name="uni1E20" unicode="&#x1e20;" horiz-adv-x="384" 
d="M256 512v64h64v-64h-64zM64 128v64h-64v384h64v64h192v-64h-128v-64h-64v-256h64v-64h64v64h64v128h-128v64h192v-256h-64v-64h-192zM64 704v64h192v-64h-192z" />
    <glyph glyph-name="uni1E21" unicode="&#x1e21;" horiz-adv-x="256" 
d="M128 192v256h-64v-256h64zM0 0v64h128v64h-128v384h192v-512h-192zM0 576v64h192v-64h-192z" />
    <glyph glyph-name="uni1E22" unicode="&#x1e22;" horiz-adv-x="384" 
d="M0 128v512h64v-192h192v192h64v-512h-64v256h-192v-256h-64zM128 704v64h64v-64h-64z" />
    <glyph glyph-name="uni1E23" unicode="&#x1e23;" horiz-adv-x="256" 
d="M0 128v512h64v-128h128v-384h-64v320h-64v-320h-64zM64 704v64h64v-64h-64z" />
    <glyph glyph-name="uni1E26" unicode="&#x1e26;" horiz-adv-x="384" 
d="M0 128v512h64v-192h192v192h64v-512h-64v256h-192v-256h-64zM64 704v64h64v-64h-64zM192 704v64h64v-64h-64z" />
    <glyph glyph-name="uni1E27" unicode="&#x1e27;" horiz-adv-x="256" 
d="M0 128v512h64v-128h128v-384h-64v320h-64v-320h-64zM0 704v64h64v-64h-64zM128 704v64h64v-64h-64z" />
    <glyph glyph-name="uni1E28" unicode="&#x1e28;" horiz-adv-x="384" 
d="M0 0v64h64v-64h-64zM64 64v64h64v-64h-64zM0 128v512h64v-192h192v192h64v-512h-64v256h-192v-256h-64z" />
    <glyph glyph-name="uni1E29" unicode="&#x1e29;" horiz-adv-x="256" 
d="M0 0v64h64v-64h-64zM64 64v64h64v-64h-64zM0 128v512h64v-128h128v-384h-64v320h-64v-320h-64z" />
    <glyph glyph-name="uni1E30" unicode="&#x1e30;" horiz-adv-x="384" 
d="M256 128v64h64v-64h-64zM192 192v64h64v-64h-64zM128 256v64h64v-64h-64zM128 384v64h64v-64h-64zM192 448v64h64v-64h-64zM0 128v448h64v-192h64v-64h-64v-192h-64zM256 512v64h64v-64h-64zM128 640v64h64v-64h-64zM192 704v64h64v-64h-64z" />
    <glyph glyph-name="uni1E31" unicode="&#x1e31;" horiz-adv-x="256" 
d="M0 128v448h64v-128h64v64h64v-128h-64v-64h64v-192h-64v128h-64v-128h-64zM64 640v64h64v-64h-64zM128 704v64h64v-64h-64z" />
    <glyph glyph-name="uni1E3E" unicode="&#x1e3e;" horiz-adv-x="384" 
d="M0 128v448h64v-64h64v-128h64v128h64v64h64v-448h-64v192h-64v-128h-64v128h-64v-192h-64zM128 640v64h64v-64h-64zM192 704v64h64v-64h-64z" />
    <glyph glyph-name="uni1E3F" unicode="&#x1e3f;" horiz-adv-x="384" 
d="M0 128v384h320v-384h-64v320h-64v-320h-64v320h-64v-320h-64zM128 576v64h64v-64h-64zM192 640v64h64v-64h-64z" />
    <glyph glyph-name="uni1E40" unicode="&#x1e40;" horiz-adv-x="384" 
d="M0 128v512h64v-64h64v-128h64v128h64v64h64v-512h-64v256h-64v-128h-64v128h-64v-256h-64zM128 704v64h64v-64h-64z" />
    <glyph glyph-name="uni1E41" unicode="&#x1e41;" horiz-adv-x="384" 
d="M0 128v384h320v-384h-64v320h-64v-320h-64v320h-64v-320h-64zM128 576v64h64v-64h-64z" />
    <glyph glyph-name="uni1E44" unicode="&#x1e44;" horiz-adv-x="384" 
d="M0 128v512h64v-64h64v-128h64v-64h64v256h64v-512h-64v64h-64v128h-64v64h-64v-256h-64zM128 704v64h64v-64h-64z" />
    <glyph glyph-name="uni1E45" unicode="&#x1e45;" horiz-adv-x="256" 
d="M0 128v384h192v-384h-64v320h-64v-320h-64zM64 576v64h64v-64h-64z" />
    <glyph glyph-name="uni1E54" unicode="&#x1e54;" horiz-adv-x="384" 
d="M192 320v64h64v64h-64v64h-64v-192h64zM0 128v64h64v320h-64v64h256v-64h64v-192h-64v-64h-128v-64h64v-64h-192zM128 640v64h64v-64h-64zM192 704v64h64v-64h-64z" />
    <glyph glyph-name="uni1E55" unicode="&#x1e55;" horiz-adv-x="256" 
d="M128 192v256h-64v-256h64zM0 0v512h192v-384h-128v-128h-64zM64 576v64h64v-64h-64zM128 640v64h64v-64h-64z" />
    <glyph glyph-name="uni1E56" unicode="&#x1e56;" horiz-adv-x="384" 
d="M192 320v64h64v128h-64v64h-64v-256h64zM0 128v64h64v384h-64v64h256v-64h64v-256h-64v-64h-128v-64h64v-64h-192zM128 704v64h64v-64h-64z" />
    <glyph glyph-name="uni1E57" unicode="&#x1e57;" horiz-adv-x="256" 
d="M128 192v256h-64v-256h64zM0 0v512h192v-384h-128v-128h-64zM64 576v64h64v-64h-64z" />
    <glyph glyph-name="uni1E58" unicode="&#x1e58;" horiz-adv-x="384" 
d="M192 384v64h64v64h-64v64h-64v-192h64zM0 128v64h64v384h-64v64h256v-64h64v-192h-64v-128h64v-64h64v-64h-128v64h-64v128h-64v-128h64v-64h-192zM128 704v64h64v-64h-64z" />
    <glyph glyph-name="uni1E59" unicode="&#x1e59;" horiz-adv-x="256" 
d="M0 128v384h192v-128h-64v64h-64v-320h-64zM64 576v64h64v-64h-64z" />
    <glyph glyph-name="uni1E60" unicode="&#x1e60;" horiz-adv-x="384" 
d="M64 128v64h192v-64h-192zM0 192v64h64v-64h-64zM256 192v128h-64v64h-128v64h192v-64h64v-192h-64zM0 448v128h64v-128h-64zM256 512v64h-192v64h256v-128h-64zM128 704v64h64v-64h-64z" />
    <glyph glyph-name="uni1E61" unicode="&#x1e61;" horiz-adv-x="256" 
d="M0 128v64h128v128h-128v192h192v-64h-128v-64h128v-256h-192zM64 576v64h64v-64h-64z" />
    <glyph glyph-name="uni1E6A" unicode="&#x1e6a;" horiz-adv-x="384" 
d="M64 128v64h64v384h-64v-64h-64v128h320v-128h-64v64h-64v-384h64v-64h-192zM128 704v64h64v-64h-64z" />
    <glyph glyph-name="uni1E6B" unicode="&#x1e6b;" horiz-adv-x="256" 
d="M64 128v320h-64v64h64v64h64v-64h64v-64h-64v-256h64v-64h-128zM64 640v64h64v-64h-64z" />
    <glyph glyph-name="uni1E7C" unicode="&#x1e7c;" horiz-adv-x="384" 
d="M128 128v128h-64v128h-64v192h64v-128h64v-128h64v128h64v128h64v-192h-64v-128h-64v-128h-64zM0 640v64h64v-64h-64zM128 640v64h-64v64h128v-64h64v-64h-128zM256 704v64h64v-64h-64z" />
    <glyph glyph-name="uni1E7D" unicode="&#x1e7d;" horiz-adv-x="256" 
d="M64 128v128h-64v256h64v-192h64v192h64v-256h-64v-128h-64zM0 576v64h64v-64h-64zM128 576v64h64v-64h-64zM64 640v64h64v-64h-64zM192 640v64h64v-64h-64z" />
    <glyph glyph-name="Wgrave" unicode="&#x1e80;" horiz-adv-x="384" 
d="M64 128v128h-64v320h64v-256h64v192h64v-192h64v256h64v-320h-64v-128h-64v128h-64v-128h-64zM128 640v64h64v-64h-64zM64 704v64h64v-64h-64z" />
    <glyph glyph-name="wgrave" unicode="&#x1e81;" horiz-adv-x="384" 
d="M64 128v128h-64v256h64v-192h64v192h64v-192h64v192h64v-256h-64v-128h-64v128h-64v-128h-64zM128 576v64h64v-64h-64zM64 640v64h64v-64h-64z" />
    <glyph glyph-name="Wacute" unicode="&#x1e82;" horiz-adv-x="384" 
d="M64 128v128h-64v320h64v-256h64v192h64v-192h64v256h64v-320h-64v-128h-64v128h-64v-128h-64zM128 640v64h64v-64h-64zM192 704v64h64v-64h-64z" />
    <glyph glyph-name="wacute" unicode="&#x1e83;" horiz-adv-x="384" 
d="M64 128v128h-64v256h64v-192h64v192h64v-192h64v192h64v-256h-64v-128h-64v128h-64v-128h-64zM128 576v64h64v-64h-64zM192 640v64h64v-64h-64z" />
    <glyph glyph-name="Wdieresis" unicode="&#x1e84;" horiz-adv-x="384" 
d="M64 128v128h-64v384h64v-320h64v256h64v-256h64v320h64v-384h-64v-128h-64v128h-64v-128h-64zM64 704v64h64v-64h-64zM192 704v64h64v-64h-64z" />
    <glyph glyph-name="wdieresis" unicode="&#x1e85;" horiz-adv-x="384" 
d="M64 128v128h-64v256h64v-192h64v192h64v-192h64v192h64v-256h-64v-128h-64v128h-64v-128h-64zM64 576v64h64v-64h-64zM192 576v64h64v-64h-64z" />
    <glyph glyph-name="uni1E86" unicode="&#x1e86;" horiz-adv-x="384" 
d="M64 128v128h-64v384h64v-320h64v256h64v-256h64v320h64v-384h-64v-128h-64v128h-64v-128h-64zM128 704v64h64v-64h-64z" />
    <glyph glyph-name="uni1E87" unicode="&#x1e87;" horiz-adv-x="384" 
d="M64 128v128h-64v256h64v-192h64v192h64v-192h64v192h64v-256h-64v-128h-64v128h-64v-128h-64zM128 576v64h64v-64h-64z" />
    <glyph glyph-name="uni1E8A" unicode="&#x1e8a;" horiz-adv-x="384" 
d="M0 128v128h64v64h64v-128h-64v-64h-64zM256 128v64h-64v128h64v-64h64v-128h-64zM128 320v128h64v-128h-64zM64 448v64h-64v128h64v-64h64v-128h-64zM192 448v128h64v64h64v-128h-64v-64h-64zM128 704v64h64v-64h-64z" />
    <glyph glyph-name="uni1E8B" unicode="&#x1e8b;" horiz-adv-x="256" 
d="M0 128v192h64v64h-64v128h64v-64h64v64h64v-128h-64v-64h64v-192h-64v128h-64v-128h-64zM64 576v64h64v-64h-64z" />
    <glyph glyph-name="uni1E8C" unicode="&#x1e8c;" horiz-adv-x="384" 
d="M0 128v128h64v64h64v-128h-64v-64h-64zM256 128v64h-64v128h64v-64h64v-128h-64zM128 320v128h64v-128h-64zM64 448v64h-64v128h64v-64h64v-128h-64zM192 448v128h64v64h64v-128h-64v-64h-64zM64 704v64h64v-64h-64zM192 704v64h64v-64h-64z" />
    <glyph glyph-name="uni1E8D" unicode="&#x1e8d;" horiz-adv-x="256" 
d="M0 128v192h64v64h-64v128h64v-64h64v64h64v-128h-64v-64h64v-192h-64v128h-64v-128h-64zM0 576v64h64v-64h-64zM128 576v64h64v-64h-64z" />
    <glyph glyph-name="uni1E8E" unicode="&#x1e8e;" horiz-adv-x="384" 
d="M128 128v192h-64v128h-64v192h64v-128h64v-128h64v128h64v128h64v-192h-64v-128h-64v-192h-64zM128 704v64h64v-64h-64z" />
    <glyph glyph-name="uni1E8F" unicode="&#x1e8f;" horiz-adv-x="256" 
d="M0 0v128h64v64h-64v320h64v-256h64v256h64v-320h-64v-128h-64v-64h-64zM64 576v64h64v-64h-64z" />
    <glyph glyph-name="uni1E90" unicode="&#x1e90;" horiz-adv-x="384" 
d="M0 128v128h64v-64h256v-64h-320zM64 256v64h64v-64h-64zM128 320v64h64v-64h-64zM192 384v64h64v-64h-64zM256 448v64h-256v64h320v-128h-64zM64 640v64h64v-64h-64zM192 640v64h64v-64h-64zM128 704v64h64v-64h-64z" />
    <glyph glyph-name="uni1E91" unicode="&#x1e91;" horiz-adv-x="256" 
d="M0 128v192h64v64h64v-128h-64v-64h128v-64h-192zM128 384v64h-128v64h192v-128h-64zM0 576v64h64v-64h-64zM128 576v64h64v-64h-64zM64 640v64h64v-64h-64z" />
    <glyph glyph-name="uni1E97" unicode="&#x1e97;" horiz-adv-x="256" 
d="M64 128v320h-64v64h64v64h64v-64h64v-64h-64v-256h64v-64h-128zM0 640v64h64v-64h-64zM128 640v64h64v-64h-64z" />
    <glyph glyph-name="uni1E98" unicode="&#x1e98;" horiz-adv-x="384" 
d="M64 128v128h-64v256h64v-192h64v192h64v-192h64v192h64v-256h-64v-128h-64v128h-64v-128h-64zM192 640v64h-64v-64h64zM64 576v192h192v-192h-192z" />
    <glyph glyph-name="uni1E99" unicode="&#x1e99;" horiz-adv-x="256" 
d="M0 0v128h64v64h-64v320h64v-256h64v256h64v-320h-64v-128h-64v-64h-64zM128 640v64h-64v-64h64zM0 576v192h192v-192h-192z" />
    <glyph glyph-name="uni1EBC" unicode="&#x1ebc;" horiz-adv-x="384" 
d="M0 128v64h64v320h-64v64h320v-128h-64v64h-128v-128h64v64h64v-192h-64v64h-64v-128h128v64h64v-128h-320zM0 640v64h64v-64h-64zM128 640v64h-64v64h128v-64h64v-64h-128zM256 704v64h64v-64h-64z" />
    <glyph glyph-name="uni1EBD" unicode="&#x1ebd;" horiz-adv-x="256" 
d="M128 320v128h-64v-128h64zM0 128v384h192v-256h-128v-64h128v-64h-192zM0 576v64h64v-64h-64zM128 576v64h64v-64h-64zM64 640v64h64v-64h-64zM192 640v64h64v-64h-64z" />
    <glyph glyph-name="Ygrave" unicode="&#x1ef2;" horiz-adv-x="384" 
d="M128 128v192h-64v64h-64v192h64v-128h64v-64h64v64h64v128h64v-192h-64v-64h-64v-192h-64zM128 640v64h64v-64h-64zM64 704v64h64v-64h-64z" />
    <glyph glyph-name="ygrave" unicode="&#x1ef3;" horiz-adv-x="256" 
d="M0 0v128h64v64h-64v320h64v-256h64v256h64v-320h-64v-128h-64v-64h-64zM64 576v64h64v-64h-64zM0 640v64h64v-64h-64z" />
    <glyph glyph-name="uni1EF8" unicode="&#x1ef8;" horiz-adv-x="384" 
d="M128 128v192h-64v64h-64v192h64v-128h64v-64h64v64h64v128h64v-192h-64v-64h-64v-192h-64zM0 640v64h64v-64h-64zM128 640v64h-64v64h128v-64h64v-64h-128zM256 704v64h64v-64h-64z" />
    <glyph glyph-name="uni1EF9" unicode="&#x1ef9;" horiz-adv-x="256" 
d="M0 0v128h64v64h-64v320h64v-256h64v256h64v-320h-64v-128h-64v-64h-64zM0 576v64h64v-64h-64zM128 576v64h64v-64h-64zM64 640v64h64v-64h-64zM192 640v64h64v-64h-64z" />
    <glyph glyph-name="uni2010" unicode="&#x2010;" horiz-adv-x="384" 
d="M0 320v64h320v-64h-320z" />
    <glyph glyph-name="uni2011" unicode="&#x2011;" horiz-adv-x="384" 
d="M0 320v64h320v-64h-320z" />
    <glyph glyph-name="figuredash" unicode="&#x2012;" horiz-adv-x="512" 
d="M0 320v64h448v-64h-448z" />
    <glyph glyph-name="endash" unicode="&#x2013;" horiz-adv-x="512" 
d="M0 320v64h448v-64h-448z" />
    <glyph glyph-name="emdash" unicode="&#x2014;" 
d="M0 320v64h576v-64h-576z" />
    <glyph glyph-name="uni2015" unicode="&#x2015;" 
d="M0 320v64h576v-64h-576z" />
    <glyph glyph-name="uni2016" unicode="&#x2016;" horiz-adv-x="256" 
d="M0 64v640h64v-640h-64zM128 64v640h64v-640h-64z" />
    <glyph glyph-name="underscoredbl" unicode="&#x2017;" horiz-adv-x="384" 
d="M0 0v64h320v-64h-320zM0 128v64h320v-64h-320z" />
    <glyph glyph-name="quoteleft" unicode="&#x2018;" horiz-adv-x="256" 
d="M64 576v128h64v-128h-64z" />
    <glyph glyph-name="quoteright" unicode="&#x2019;" horiz-adv-x="256" 
d="M64 576v128h64v-128h-64z" />
    <glyph glyph-name="quotesinglbase" unicode="&#x201a;" horiz-adv-x="256" 
d="M64 64v128h64v-128h-64z" />
    <glyph glyph-name="quotereversed" unicode="&#x201b;" horiz-adv-x="256" 
d="M64 576v128h64v-128h-64z" />
    <glyph glyph-name="quotedblleft" unicode="&#x201c;" horiz-adv-x="256" 
d="M0 576v128h64v-128h-64zM128 576v128h64v-128h-64z" />
    <glyph glyph-name="quotedblright" unicode="&#x201d;" horiz-adv-x="256" 
d="M0 576v128h64v-128h-64zM128 576v128h64v-128h-64z" />
    <glyph glyph-name="quotedblbase" unicode="&#x201e;" horiz-adv-x="256" 
d="M0 64v128h64v-128h-64zM128 64v128h64v-128h-64z" />
    <glyph glyph-name="uni201F" unicode="&#x201f;" horiz-adv-x="256" 
d="M0 576v128h64v-128h-64zM128 576v128h64v-128h-64z" />
    <glyph glyph-name="dagger" unicode="&#x2020;" horiz-adv-x="256" 
d="M64 64v384h-64v64h64v128h64v-128h64v-64h-64v-384h-64z" />
    <glyph glyph-name="daggerdbl" unicode="&#x2021;" horiz-adv-x="256" 
d="M64 64v128h-64v64h64v192h-64v64h64v128h64v-128h64v-64h-64v-192h64v-64h-64v-128h-64z" />
    <glyph glyph-name="bullet" unicode="&#x2022;" horiz-adv-x="256" 
d="M64 320v64h64v-64h-64z" />
    <glyph glyph-name="uni2023" unicode="&#x2023;" horiz-adv-x="256" 
d="M0 192v320h64v-64h64v-64h64v-64h-64v-64h-64v-64h-64z" />
    <glyph glyph-name="onedotenleader" unicode="&#x2024;" horiz-adv-x="128" 
d="M0 128v64h64v-64h-64z" />
    <glyph glyph-name="twodotenleader" unicode="&#x2025;" horiz-adv-x="256" 
d="M0 128v64h64v-64h-64zM128 128v64h64v-64h-64z" />
    <glyph glyph-name="ellipsis" unicode="&#x2026;" horiz-adv-x="384" 
d="M0 128v64h64v-64h-64zM128 128v64h64v-64h-64zM256 128v64h64v-64h-64z" />
    <glyph glyph-name="uni2027" unicode="&#x2027;" horiz-adv-x="256" 
d="M64 320v64h64v-64h-64z" />
    <glyph glyph-name="uni2038" unicode="&#x2038;" horiz-adv-x="256" 
d="M0 128v192h64v128h64v-128h64v-192h-64v128h-64v-128h-64z" />
    <glyph glyph-name="guilsinglleft" unicode="&#x2039;" horiz-adv-x="384" 
d="M192 128v64h64v-64h-64zM128 192v64h64v-64h-64zM64 256v64h64v-64h-64zM0 320v64h64v-64h-64zM64 384v64h64v-64h-64zM128 448v64h64v-64h-64zM192 512v64h64v-64h-64z" />
    <glyph glyph-name="guilsinglright" unicode="&#x203a;" horiz-adv-x="384" 
d="M0 128v64h64v-64h-64zM64 192v64h64v-64h-64zM128 256v64h64v-64h-64zM192 320v64h64v-64h-64zM128 384v64h64v-64h-64zM64 448v64h64v-64h-64zM0 512v64h64v-64h-64z" />
    <glyph glyph-name="uni203B" unicode="&#x203b;" horiz-adv-x="512" 
d="M192 128v64h64v-64h-64zM64 192v64h64v-64h-64zM320 192v64h64v-64h-64zM128 256v64h64v-64h-64zM256 256v64h64v-64h-64zM0 320v64h64v-64h-64zM192 320v64h64v-64h-64zM384 320v64h64v-64h-64zM128 384v64h64v-64h-64zM256 384v64h64v-64h-64zM64 448v64h64v-64h-64z
M320 448v64h64v-64h-64zM192 512v64h64v-64h-64z" />
    <glyph glyph-name="uni203D" unicode="&#x203d;" horiz-adv-x="384" 
d="M128 128v64h64v-64h-64zM256 448v128h-64v-128h64zM128 256v320h-64v-128h-64v192h320v-256h-128v-128h-64z" />
    <glyph glyph-name="uni203E" unicode="&#x203e;" horiz-adv-x="384" 
d="M0 640v64h320v-64h-320z" />
    <glyph glyph-name="uni2043" unicode="&#x2043;" horiz-adv-x="256" 
d="M64 320v64h64v-64h-64z" />
    <glyph glyph-name="uni204B" unicode="&#x204b;" horiz-adv-x="384" 
d="M0 128v512h256v-64h64v-192h-64v-64h-64v-192h-64v448h-64v-448h-64z" />
    <glyph glyph-name="uni204E" unicode="&#x204e;" horiz-adv-x="384" 
d="M0 192v64h64v-64h-64zM128 128v128h64v-128h-64zM256 192v64h64v-64h-64zM64 256v128h64v-128h-64zM192 256v128h64v-128h-64zM0 384v64h64v-64h-64zM256 384v64h64v-64h-64zM128 384v128h64v-128h-64z" />
    <glyph glyph-name="uni204F" unicode="&#x204f;" horiz-adv-x="256" 
d="M64 128v64h64v-64h-64zM0 192v64h64v-64h-64zM0 384v64h64v-64h-64z" />
    <glyph glyph-name="uni2053" unicode="&#x2053;" 
d="M256 384v64h64v-64h-64zM320 320v64h128v64h128v-64h-64v-64h-192zM0 384v64h64v64h192v-64h-128v-64h-128z" />
    <glyph glyph-name="uni2056" unicode="&#x2056;" 
d="M0 320v64h64v-64h-64zM192 320v64h64v-64h-64zM384 320v64h64v-64h-64z" />
    <glyph glyph-name="uni205A" unicode="&#x205a;" 
d="M64 320v64h64v-64h-64zM256 320v64h64v-64h-64z" />
    <glyph glyph-name="uni2070" unicode="&#x2070;" horiz-adv-x="512" 
d="M320 256v256h-128v-256h128zM128 192v64h-64v256h64v64h256v-64h64v-256h-64v-64h-256z" />
    <glyph glyph-name="uni2074" unicode="&#x2074;" horiz-adv-x="512" 
d="M256 256v192h-64v-128h-64v-64h128zM256 0v192h-192v192h64v128h64v64h192v-320h64v-64h-64v-192h-128z" />
    <glyph glyph-name="uni2075" unicode="&#x2075;" horiz-adv-x="512" 
d="M64 0v64h128v64h64v128h-64v64h-128v128h64v128h256v-64h-128v-64h-64v-64h128v-64h64v-192h-64v-64h-64v-64h-192z" />
    <glyph glyph-name="uni2076" unicode="&#x2076;" horiz-adv-x="512" 
d="M320 256v256h-128v-256h128zM128 192v64h-64v256h64v64h64v64h64v64h64v-128h64v-64h64v-256h-64v-64h-256zM320 704v64h64v-64h-64z" />
    <glyph glyph-name="uni2077" unicode="&#x2077;" horiz-adv-x="512" 
d="M128 0v128h64v128h64v128h64v64h-128v-64h-128v128h64v64h320v-128h-64v-128h-64v-128h-64v-128h-64v-64h-64z" />
    <glyph glyph-name="uni2078" unicode="&#x2078;" horiz-adv-x="512" 
d="M320 256v64h64v64h-64v64h-64v-64h-64v-64h64v-64h64zM320 512v64h64v64h-64v64h-64v-64h-64v-64h64v-64h64zM192 192v64h-64v192h64v64h-64v192h64v64h192v-64h64v-192h-64v-64h64v-192h-64v-64h-192z" />
    <glyph glyph-name="uni2079" unicode="&#x2079;" horiz-adv-x="512" 
d="M320 256v256h-128v-256h128zM64 0v64h64v64h128v64h-128v64h-64v256h64v64h256v-64h64v-320h-64v-64h-64v-64h-128v-64h-128z" />
    <glyph glyph-name="uni207D" unicode="&#x207d;" horiz-adv-x="512" 
d="M128 128v128h64v128h64v128h64v64h64v-128h-64v-128h-64v-128h-64v-64h-64z" />
    <glyph glyph-name="uni207E" unicode="&#x207e;" horiz-adv-x="512" 
d="M128 128v128h64v128h64v64h64v-128h-64v-128h-64v-64h-64z" />
    <glyph glyph-name="uni2080" unicode="&#x2080;" horiz-adv-x="384" 
d="M128 256v64h128v-64h-128zM64 320v192h64v-192h-64zM256 320v192h64v-192h-64zM128 512v64h128v-64h-128z" />
    <glyph glyph-name="uni2081" unicode="&#x2081;" horiz-adv-x="384" 
d="M64 256v64h64v192h-64v64h192v-64h-64v-192h64v-64h-192z" />
    <glyph glyph-name="uni2082" unicode="&#x2082;" horiz-adv-x="384" 
d="M64 256v64h64v64h64v-64h128v-64h-256zM192 384v64h64v-64h-64zM256 448v64h64v-64h-64zM64 512v64h192v-64h-192z" />
    <glyph glyph-name="uni2083" unicode="&#x2083;" horiz-adv-x="384" 
d="M64 128v64h128v-64h-128zM192 192v64h64v-64h-64zM256 256v128h64v-128h-64zM192 384v64h64v-64h-64zM256 448v64h64v-64h-64zM128 512v64h128v-64h-128z" />
    <glyph glyph-name="uni2084" unicode="&#x2084;" horiz-adv-x="384" 
d="M192 128v128h-128v192h64v-128h64v128h-64v64h64v64h64v-256h64v-64h-64v-128h-64z" />
    <glyph glyph-name="uni2085" unicode="&#x2085;" horiz-adv-x="384" 
d="M64 128v64h64v64h64v128h64v-192h-64v-64h-128zM64 384v192h256v-64h-192v-64h64v-64h-128z" />
    <glyph glyph-name="uni2086" unicode="&#x2086;" horiz-adv-x="384" 
d="M128 256v64h128v-64h-128zM256 320v128h64v-128h-64zM64 320v192h64v64h64v-64h64v-64h-128v-128h-64zM192 576v64h64v-64h-64z" />
    <glyph glyph-name="uni2087" unicode="&#x2087;" horiz-adv-x="384" 
d="M64 128v128h64v64h64v-128h-64v-64h-64zM192 320v128h64v64h-128v-64h-64v128h256v-192h-64v-64h-64z" />
    <glyph glyph-name="uni2088" unicode="&#x2088;" horiz-adv-x="384" 
d="M128 256v64h128v-64h-128zM64 320v128h64v-128h-64zM256 320v128h64v-128h-64zM128 448v64h128v-64h-128zM64 512v64h64v-64h-64zM256 512v64h64v-64h-64zM128 576v64h128v-64h-128z" />
    <glyph glyph-name="uni2089" unicode="&#x2089;" horiz-adv-x="384" 
d="M64 128v64h64v-64h-64zM128 192v64h64v-64h-64zM64 384v128h64v-128h-64zM192 256v64h-64v64h128v128h64v-192h-64v-64h-64zM128 512v64h128v-64h-128z" />
    <glyph glyph-name="uni208A" unicode="&#x208a;" horiz-adv-x="384" 
d="M128 256v128h-64v64h128v128h64v-128h64v-64h-128v-128h-64z" />
    <glyph glyph-name="uni208B" unicode="&#x208b;" horiz-adv-x="384" 
d="M64 384v64h256v-64h-256z" />
    <glyph glyph-name="uni208C" unicode="&#x208c;" horiz-adv-x="384" 
d="M64 320v64h256v-64h-256zM64 448v64h256v-64h-256z" />
    <glyph glyph-name="uni208D" unicode="&#x208d;" horiz-adv-x="384" 
d="M64 192v64h64v-64h-64zM128 320v64h64v-64h-64zM192 448v64h64v-64h-64zM256 576v64h64v-64h-64z" />
    <glyph glyph-name="uni208E" unicode="&#x208e;" horiz-adv-x="384" 
d="M64 192v64h64v-64h-64zM128 320v64h64v-64h-64zM192 384v64h64v-64h-64zM64 448v64h64v-64h-64zM256 448v64h64v-64h-64zM128 512v64h128v-64h-128z" />
    <glyph glyph-name="uni2092" unicode="&#x2092;" horiz-adv-x="384" 
d="M0 256v64h64v-64h-64zM128 256v64h64v-64h-64zM256 256v64h64v-64h-64z" />
    <glyph glyph-name="uni2093" unicode="&#x2093;" horiz-adv-x="384" 
d="M192 256v64h64v-64h-64zM64 448v64h64v-64h-64zM0 256v64h64v64h64v64h64v64h128v-64h-64v-64h-64v-64h-64v-64h-128z" />
    <glyph glyph-name="lira" unicode="&#x20a4;" horiz-adv-x="384" 
d="M0 128v128h64v64h-64v64h64v64h-64v64h64v128h256v-128h-64v64h-128v-64h64v-64h-64v-64h64v-64h-64v-128h192v-64h-320z" />
    <glyph glyph-name="Euro" unicode="&#x20ac;" horiz-adv-x="384" 
d="M128 128v64h-64v128h-64v128h64v128h64v64h192v-64h-128v-64h-64v-64h128v-128h-128v-64h64v-64h128v-64h-192z" />
    <glyph glyph-name="uni20AD" unicode="&#x20ad;" horiz-adv-x="384" 
d="M64 128v192h-64v128h64v192h64v-192h64v128h64v64h64v-128h-64v-64h64v-128h-64v-64h64v-128h-64v64h-64v128h-64v-192h-64z" />
    <glyph glyph-name="uni2105" unicode="&#x2105;" horiz-adv-x="384" 
d="M0 192v64h64v-64h-64zM320 192v64h-64v-64h64zM64 256v64h64v-64h-64zM192 128v192h192v-192h-192zM128 320v64h64v-64h-64zM192 384v64h64v-64h-64zM256 448v64h64v-64h-64zM320 512v64h64v-64h-64zM0 448v192h192v-64h-128v-64h128v-64h-192z" />
    <glyph glyph-name="trademark" unicode="&#x2122;" horiz-adv-x="384" 
d="M64 512v128h-64v64h384v-192h-64v64h-64v-64h-64v128h-64v-128h-64z" />
    <glyph glyph-name="uni2160" unicode="&#x2160;" 
d="M128 64v64h128v576h-128v64h320v-64h-128v-576h128v-64h-320z" />
    <glyph glyph-name="uni2161" unicode="&#x2161;" 
d="M384 128v576h-128v-576h128zM64 64v64h128v576h-128v64h512v-64h-128v-576h128v-64h-512z" />
    <glyph glyph-name="uni2162" unicode="&#x2162;" 
d="M256 128v576h-64v-576h64zM384 128v576h-64v-576h64zM0 64v64h128v576h-128v64h576v-64h-128v-576h128v-64h-576z" />
    <glyph glyph-name="uni2163" unicode="&#x2163;" 
d="M0 64v64h64v576h-64v64h320v-64h-64v-192h64v-192h64v192h64v192h-64v64h192v-64h-64v-256h-64v-192h-64v-192h-64v192h-64v192h-64v256h-64v-576h64v-64h-192z" />
    <glyph glyph-name="uni2164" unicode="&#x2164;" 
d="M256 64v192h-64v192h-64v256h-128v64h256v-64h-64v-192h64v-192h64v192h64v192h-64v64h256v-64h-128v-256h-64v-192h-64v-192h-64z" />
    <glyph glyph-name="uni2165" unicode="&#x2165;" 
d="M192 64v192h-64v192h-64v256h-64v64h192v-64h-64v-192h64v-192h64v192h64v192h-64v64h320v-64h-64v-576h64v-64h-192v64h64v576h-64v-256h-64v-192h-64v-192h-64z" />
    <glyph glyph-name="uni2166" unicode="&#x2166;" 
d="M192 320v384h-64v-384h64zM448 128v576h-64v-576h64zM128 64v192h-64v448h-64v64h576v-64h-64v-576h64v-64h-320v64h64v576h-64v-448h-64v-192h-64z" />
    <glyph glyph-name="uni2167" unicode="&#x2167;" 
d="M128 320v384h-64v-384h64zM384 128v576h-64v-576h64zM512 128v576h-64v-576h64zM64 64v192h-64v512h576v-704h-384v64h64v576h-64v-448h-64v-192h-64z" />
    <glyph glyph-name="uni2168" unicode="&#x2168;" 
d="M384 64v64h64v128h64v-128h64v-64h-192zM256 256v128h64v64h-64v128h64v-64h64v64h64v-128h-64v-64h64v-128h-64v64h-64v-64h-64zM0 64v64h64v576h-64v64h320v-64h-64v-128h-64v128h-64v-576h64v128h64v-128h64v-64h-320zM448 576v128h-64v64h192v-64h-64v-128h-64z" />
    <glyph glyph-name="uni2169" unicode="&#x2169;" 
d="M0 64v64h128v128h64v-128h64v-64h-256zM320 64v64h64v128h64v-128h128v-64h-256zM192 256v128h64v64h-64v128h64v-64h64v64h64v-128h-64v-64h64v-128h-64v64h-64v-64h-64zM128 576v128h-128v64h256v-64h-64v-128h-64zM384 576v128h-64v64h256v-64h-128v-128h-64z" />
    <glyph glyph-name="uni216A" unicode="&#x216a;" 
d="M0 64v64h64v128h64v-128h64v-64h-192zM128 256v128h64v64h-64v128h64v-64h64v64h64v-128h-64v-64h64v-128h-64v64h-64v-64h-64zM64 576v128h-64v64h192v-64h-64v-128h-64zM256 64v64h64v128h64v-128h64v576h-64v-128h-64v128h-64v64h320v-64h-64v-576h64v-64h-320z" />
    <glyph glyph-name="uni216B" unicode="&#x216b;" 
d="M192 128v192h-64v-192h64zM192 512v192h-64v-192h64zM320 128v576h-64v-256h-64v-64h64v-256h64zM448 128v576h-64v-576h64zM0 64v64h64v256h64v64h-64v256h-64v64h576v-64h-64v-576h64v-64h-576z" />
    <glyph glyph-name="arrowleft" unicode="&#x2190;" 
d="M256 192v64h-64v64h-64v64h-64v64h64v64h64v64h64v64h64v-128h256v-192h-256v-128h-64z" />
    <glyph glyph-name="arrowup" unicode="&#x2191;" 
d="M192 128v256h-128v64h64v64h64v64h64v64h64v-64h64v-64h64v-64h64v-64h-128v-256h-192z" />
    <glyph glyph-name="arrowright" unicode="&#x2192;" 
d="M320 192v128h-256v192h256v128h64v-64h64v-64h64v-64h64v-64h-64v-64h-64v-64h-64v-64h-64z" />
    <glyph glyph-name="arrowdown" unicode="&#x2193;" 
d="M256 128v64h-64v64h-64v64h-64v64h128v256h192v-256h128v-64h-64v-64h-64v-64h-64v-64h-64z" />
    <glyph glyph-name="uni21A2" unicode="&#x21a2;" 
d="M256 192v64h-64v64h-64v64h-64v64h64v64h64v64h64v64h64v-128h256v-64h-128v-64h128v-64h-256v-128h-64z" />
    <glyph glyph-name="uni21A3" unicode="&#x21a3;" 
d="M320 192v128h-256v64h128v64h-128v64h256v128h64v-64h64v-64h64v-64h64v-64h-64v-64h-64v-64h-64v-64h-64z" />
    <glyph glyph-name="uni21A4" unicode="&#x21a4;" 
d="M256 192v64h-64v64h-64v64h-64v64h64v64h64v64h64v64h64v-128h192v128h64v-448h-64v128h-192v-128h-64z" />
    <glyph glyph-name="uni21A5" unicode="&#x21a5;" 
d="M64 128v64h128v192h-128v64h64v64h64v64h64v64h64v-64h64v-64h64v-64h64v-64h-128v-192h128v-64h-448z" />
    <glyph glyph-name="uni21A6" unicode="&#x21a6;" 
d="M64 192v448h64v-128h192v128h64v-64h64v-64h64v-64h64v-64h-64v-64h-64v-64h-64v-64h-64v128h-192v-128h-64z" />
    <glyph glyph-name="uni21A7" unicode="&#x21a7;" 
d="M256 128v64h-64v64h-64v64h-64v64h128v192h-128v64h448v-64h-128v-192h128v-64h-64v-64h-64v-64h-64v-64h-64z" />
    <glyph glyph-name="uni21B6" unicode="&#x21b6;" horiz-adv-x="768" 
d="M128 64v64h-64v128h-64v128h64v-64h64v192h64v64h64v64h320v-64h64v-64h64v-256h-64v192h-64v64h-64v64h-192v-64h-64v-64h-64v-128h64v64h64v-128h-64v-128h-64v-64h-64z" />
    <glyph glyph-name="uni21B7" unicode="&#x21b7;" horiz-adv-x="768" 
d="M512 64v64h-64v128h-64v128h64v-64h64v128h-64v64h-64v64h-192v-64h-64v-64h-64v-192h-64v256h64v64h64v64h320v-64h64v-64h64v-192h64v64h64v-128h-64v-128h-64v-64h-64z" />
    <glyph glyph-name="uni21BA" unicode="&#x21ba;" 
d="M256 0v64h64v64h-192v64h-64v64h-64v320h64v64h64v64h256v-64h-192v-64h-64v-64h-64v-192h64v-64h64v-64h128v64h-64v64h128v-64h128v-64h64v-64h-64v-64h-128v-64h-128z" />
    <glyph glyph-name="uni21BB" unicode="&#x21bb;" 
d="M192 0v64h-128v64h-64v64h64v64h128v64h128v-64h-64v-64h128v64h64v64h64v192h-64v64h-64v64h-192v64h256v-64h64v-64h64v-320h-64v-64h-64v-64h-192v-64h64v-64h-128z" />
    <glyph glyph-name="arrowdblleft" unicode="&#x21d0;" 
d="M256 192v64h-64v64h-64v64h-64v64h64v64h64v64h64v64h64v-128h256v-64h-320v-64h320v-64h-256v-128h-64z" />
    <glyph glyph-name="arrowdblup" unicode="&#x21d1;" 
d="M192 128v256h-128v64h64v64h64v64h64v64h64v-64h64v-64h64v-64h64v-64h-128v-256h-64v320h-64v-320h-64z" />
    <glyph glyph-name="arrowdblright" unicode="&#x21d2;" 
d="M320 192v128h-256v64h320v64h-320v64h256v128h64v-64h64v-64h64v-64h64v-64h-64v-64h-64v-64h-64v-64h-64z" />
    <glyph glyph-name="arrowdbldown" unicode="&#x21d3;" 
d="M256 128v64h-64v64h-64v64h-64v64h128v256h64v-320h64v320h64v-256h128v-64h-64v-64h-64v-64h-64v-64h-64z" />
    <glyph glyph-name="uni21E6" unicode="&#x21e6;" 
d="M128 320v64h64v-64h-64zM64 384v64h64v-64h-64zM128 448v64h64v-64h-64zM256 192v64h-64v64h64v64h256v64h-256v64h-64v64h64v64h64v-128h256v-192h-256v-128h-64z" />
    <glyph glyph-name="uni21E7" unicode="&#x21e7;" 
d="M192 128v256h-128v64h64v64h64v-64h64v-256h64v256h64v64h64v-64h64v-64h-128v-256h-192zM192 512v64h64v-64h-64zM320 512v64h64v-64h-64zM256 576v64h64v-64h-64z" />
    <glyph glyph-name="uni21E8" unicode="&#x21e8;" 
d="M448 320v64h64v-64h-64zM512 384v64h64v-64h-64zM448 448v64h64v-64h-64zM320 192v128h-256v192h256v128h64v-64h64v-64h-64v-64h-256v-64h256v-64h64v-64h-64v-64h-64z" />
    <glyph glyph-name="uni21E9" unicode="&#x21e9;" 
d="M256 128v64h64v-64h-64zM192 192v64h64v-64h-64zM320 192v64h64v-64h-64zM128 256v64h-64v64h128v256h192v-256h128v-64h-64v-64h-64v64h-64v256h-64v-256h-64v-64h-64z" />
    <glyph glyph-name="minus" unicode="&#x2212;" 
d="M0 320v64h320v-64h-320z" />
    <glyph glyph-name="uni2213" unicode="&#x2213;" 
d="M128 128v128h-128v64h128v128h-128v64h320v-64h-128v-128h128v-64h-128v-128h-64z" />
    <glyph glyph-name="uni2214" unicode="&#x2214;" 
d="M128 128v128h-128v64h128v64h64v-64h128v-64h-128v-128h-64zM128 448v64h64v-64h-64z" />
    <glyph glyph-name="uni2215" unicode="&#x2215;" 
d="M0 128v128h64v128h64v128h64v128h64v64h64v-128h-64v-128h-64v-128h-64v-128h-64v-64h-64z" />
    <glyph glyph-name="uni2216" unicode="&#x2216;" 
d="M256 128v64h-64v128h-64v128h-64v128h-64v128h64v-64h64v-128h64v-128h64v-128h64v-128h-64z" />
    <glyph glyph-name="asteriskmath" unicode="&#x2217;" 
d="M0 192v64h64v-64h-64zM128 128v128h64v-128h-64zM256 192v64h64v-64h-64zM64 256v128h64v-128h-64zM192 256v128h64v-128h-64zM0 384v64h64v-64h-64zM256 384v64h64v-64h-64zM128 384v128h64v-128h-64z" />
    <glyph glyph-name="uni2218" unicode="&#x2218;" 
d="M128 320v64h-64v-64h64zM0 256v192h192v-192h-192z" />
    <glyph glyph-name="uni2219" unicode="&#x2219;" 
d="M64 384v64h64v-64h-64z" />
    <glyph glyph-name="proportional" unicode="&#x221d;" 
d="M64 256v64h128v-64h-128zM384 256v64h128v-64h-128zM192 320v64h64v-64h-64zM320 320v64h64v-64h-64zM512 320v64h64v-64h-64zM256 384v64h64v-64h-64zM0 320v192h64v-192h-64zM192 448v64h64v-64h-64zM320 448v64h64v-64h-64zM512 448v64h64v-64h-64zM64 512v64h128v-64
h-128zM384 512v64h128v-64h-128z" />
    <glyph glyph-name="infinity" unicode="&#x221e;" 
d="M64 256v64h128v-64h-128zM384 256v64h128v-64h-128zM192 320v64h64v-64h-64zM320 320v64h64v-64h-64zM256 384v64h64v-64h-64zM0 320v192h64v-192h-64zM192 448v64h64v-64h-64zM320 448v64h64v-64h-64zM512 320v192h64v-192h-64zM64 512v64h128v-64h-128zM384 512v64h128
v-64h-128z" />
    <glyph glyph-name="logicaland" unicode="&#x2227;" 
d="M0 192v64h64v-64h-64zM384 192v64h64v-64h-64zM64 256v64h64v-64h-64zM320 256v64h64v-64h-64zM128 320v64h64v-64h-64zM256 320v64h64v-64h-64zM192 384v64h64v-64h-64z" />
    <glyph glyph-name="logicalor" unicode="&#x2228;" 
d="M192 192v64h64v-64h-64zM128 256v64h64v-64h-64zM256 256v64h64v-64h-64zM64 320v64h64v-64h-64zM320 320v64h64v-64h-64zM0 384v64h64v-64h-64zM384 384v64h64v-64h-64z" />
    <glyph glyph-name="intersection" unicode="&#x2229;" 
d="M0 192v192h64v-192h-64zM320 192v192h64v-192h-64zM64 384v64h256v-64h-256z" />
    <glyph glyph-name="union" unicode="&#x222a;" 
d="M64 192v64h192v-64h-192zM0 256v192h64v-192h-64zM256 256v192h64v-192h-64z" />
    <glyph glyph-name="integral" unicode="&#x222b;" horiz-adv-x="256" 
d="M0 0v64h64v640h128v-64h-64v-640h-128z" />
    <glyph glyph-name="similar" unicode="&#x223c;" 
d="M256 384v64h64v-64h-64zM320 320v64h128v64h128v-64h-64v-64h-192zM0 384v64h64v64h192v-64h-128v-64h-128z" />
    <glyph glyph-name="uni223D" unicode="&#x223d;" 
d="M64 256v64h128v-64h-128zM384 256v64h128v-64h-128zM192 320v64h64v-64h-64zM256 384v64h64v-64h-64zM0 320v192h64v-192h-64zM320 448v64h64v-64h-64zM512 320v192h64v-192h-64zM64 512v64h128v-64h-128zM384 512v64h128v-64h-128z" />
    <glyph glyph-name="uni223E" unicode="&#x223e;" 
d="M64 256v64h128v-64h-128zM384 256v64h128v-64h-128zM320 320v64h64v-64h-64zM256 384v64h64v-64h-64zM0 320v192h64v-192h-64zM192 448v64h64v-64h-64zM512 320v192h64v-192h-64zM64 512v64h128v-64h-128zM384 512v64h128v-64h-128z" />
    <glyph glyph-name="notequal" unicode="&#x2260;" 
d="M192 128v64h-192v64h128v128h-128v64h64v64h64v-64h192v-64h-128v-128h128v-64h-64v-64h-64z" />
    <glyph glyph-name="equivalence" unicode="&#x2261;" 
d="M0 192v64h320v-64h-320zM0 320v64h320v-64h-320zM0 448v64h320v-64h-320z" />
    <glyph glyph-name="uni2262" unicode="&#x2262;" 
d="M192 128v64h-192v64h128v64h-128v64h128v64h-128v64h64v64h64v-64h192v-64h-128v-64h128v-64h-128v-64h128v-64h-64v-64h-64z" />
    <glyph glyph-name="lessequal" unicode="&#x2264;" 
d="M64 128v64h192v-64h-192zM192 256v64h64v-64h-64zM128 320v64h64v-64h-64zM64 384v64h64v-64h-64zM128 448v64h64v-64h-64zM192 512v64h64v-64h-64z" />
    <glyph glyph-name="greaterequal" unicode="&#x2265;" 
d="M64 128v64h192v-64h-192zM64 256v64h64v-64h-64zM128 320v64h64v-64h-64zM192 384v64h64v-64h-64zM128 448v64h64v-64h-64zM64 512v64h64v-64h-64z" />
    <glyph glyph-name="uni2266" unicode="&#x2266;" 
d="M64 64v64h192v-64h-192zM64 192v64h192v-64h-192zM192 320v64h64v-64h-64zM128 384v64h64v-64h-64zM64 448v64h64v-64h-64zM128 512v64h64v-64h-64zM192 576v64h64v-64h-64z" />
    <glyph glyph-name="uni2267" unicode="&#x2267;" 
d="M64 64v64h192v-64h-192zM64 192v64h192v-64h-192zM64 320v64h64v-64h-64zM128 384v64h64v-64h-64zM192 448v64h64v-64h-64zM128 512v64h64v-64h-64zM64 576v64h64v-64h-64z" />
    <glyph glyph-name="propersubset" unicode="&#x2282;" 
d="M64 192v64h256v-64h-256zM0 256v192h64v-192h-64zM64 448v64h256v-64h-256z" />
    <glyph glyph-name="propersuperset" unicode="&#x2283;" 
d="M0 192v64h256v-64h-256zM256 256v192h64v-192h-64zM0 448v64h256v-64h-256z" />
    <glyph glyph-name="uni22C0" unicode="&#x22c0;" 
d="M0 192v64h64v-64h-64zM384 192v64h64v-64h-64zM64 256v64h64v-64h-64zM320 256v64h64v-64h-64zM128 320v64h64v-64h-64zM256 320v64h64v-64h-64zM192 384v64h64v-64h-64z" />
    <glyph glyph-name="uni22C1" unicode="&#x22c1;" 
d="M192 192v64h64v-64h-64zM128 256v64h64v-64h-64zM256 256v64h64v-64h-64zM64 320v64h64v-64h-64zM320 320v64h64v-64h-64zM0 384v64h64v-64h-64zM384 384v64h64v-64h-64z" />
    <glyph glyph-name="uni22C2" unicode="&#x22c2;" 
d="M0 192v192h64v-192h-64zM320 192v192h64v-192h-64zM64 384v64h256v-64h-256z" />
    <glyph glyph-name="uni22C3" unicode="&#x22c3;" 
d="M64 192v64h192v-64h-192zM0 256v192h64v-192h-64zM256 256v192h64v-192h-64z" />
    <glyph glyph-name="dotmath" unicode="&#x22c5;" 
d="M64 320v64h64v-64h-64z" />
    <glyph glyph-name="filledbox" unicode="&#x25a0;" 
d="M0 128v576h576v-576h-576z" />
    <glyph glyph-name="H22073" unicode="&#x25a1;" 
d="M512 192v448h-448v-448h448zM0 128v576h576v-576h-576z" />
    <glyph glyph-name="uni25A2" unicode="&#x25a2;" 
d="M448 192v64h64v320h-64v64h-320v-64h-64v-320h64v-64h320zM64 128v64h-64v448h64v64h448v-64h64v-448h-64v-64h-448z" />
    <glyph glyph-name="uni25A3" unicode="&#x25a3;" 
d="M128 256v320h320v-320h-320zM512 192v448h-448v-448h448zM0 128v576h576v-576h-576z" />
    <glyph glyph-name="uni25A4" unicode="&#x25a4;" 
d="M512 192v64h-448v-64h448zM512 320v64h-448v-64h448zM512 448v64h-448v-64h448zM512 576v64h-448v-64h448zM0 128v576h576v-576h-576z" />
    <glyph glyph-name="uni25A5" unicode="&#x25a5;" 
d="M128 192v448h-64v-448h64zM256 192v448h-64v-448h64zM384 192v448h-64v-448h64zM512 192v448h-64v-448h64zM0 128v576h576v-576h-576z" />
    <glyph glyph-name="uni25A6" unicode="&#x25a6;" 
d="M128 192v64h-64v-64h64zM256 192v64h-64v-64h64zM384 192v64h-64v-64h64zM512 192v64h-64v-64h64zM128 320v64h-64v-64h64zM256 320v64h-64v-64h64zM384 320v64h-64v-64h64zM512 320v64h-64v-64h64zM128 448v64h-64v-64h64zM256 448v64h-64v-64h64zM384 448v64h-64v-64
h64zM512 448v64h-64v-64h64zM128 576v64h-64v-64h64zM256 576v64h-64v-64h64zM384 576v64h-64v-64h64zM512 576v64h-64v-64h64zM0 128v576h576v-576h-576z" />
    <glyph glyph-name="uni25A7" unicode="&#x25a7;" 
d="M192 256v64h64v-64h-64zM384 256v64h64v-64h-64zM128 320v64h64v-64h-64zM320 320v64h64v-64h-64zM256 384v64h64v-64h-64zM192 448v64h64v-64h-64zM384 448v64h64v-64h-64zM128 512v64h64v-64h-64zM320 512v64h64v-64h-64zM448 192v64h64v128h-64v64h64v128h-64v64h-128
v-64h-64v64h-128v-64h-64v-128h64v-64h-64v-128h64v-64h128v64h64v-64h128zM0 128v576h576v-576h-576z" />
    <glyph glyph-name="uni25A8" unicode="&#x25a8;" 
d="M128 256v64h64v-64h-64zM320 256v64h64v-64h-64zM192 320v64h64v-64h-64zM384 320v64h64v-64h-64zM256 384v64h64v-64h-64zM128 448v64h64v-64h-64zM320 448v64h64v-64h-64zM192 512v64h64v-64h-64zM384 512v64h64v-64h-64zM448 192v64h64v128h-64v64h64v128h-64v64h-128
v-64h-64v64h-128v-64h-64v-128h64v-64h-64v-128h64v-64h128v64h64v-64h128zM0 128v576h576v-576h-576z" />
    <glyph glyph-name="uni25A9" unicode="&#x25a9;" 
d="M128 256v128h128v-128h-128zM320 256v128h128v-128h-128zM256 384v64h64v-64h-64zM128 448v128h128v-128h-128zM320 448v128h128v-128h-128zM448 192v64h64v128h-64v64h64v128h-64v64h-128v-64h-64v64h-128v-64h-64v-128h64v-64h-64v-128h64v-64h128v64h64v-64h128z
M0 128v576h576v-576h-576z" />
    <glyph glyph-name="H18543" unicode="&#x25aa;" horiz-adv-x="384" 
d="M0 256v320h320v-320h-320z" />
    <glyph glyph-name="H18551" unicode="&#x25ab;" horiz-adv-x="384" 
d="M256 320v192h-192v-192h192zM0 256v320h320v-320h-320z" />
    <glyph glyph-name="filledrect" unicode="&#x25ac;" 
d="M0 256v320h576v-320h-576z" />
    <glyph glyph-name="uni25AD" unicode="&#x25ad;" 
d="M512 320v192h-448v-192h448zM0 256v320h576v-320h-576z" />
    <glyph glyph-name="uni25AE" unicode="&#x25ae;" horiz-adv-x="384" 
d="M0 128v576h320v-576h-320z" />
    <glyph glyph-name="uni25AF" unicode="&#x25af;" horiz-adv-x="384" 
d="M256 192v448h-192v-448h192zM0 128v576h320v-576h-320z" />
    <glyph glyph-name="triagup" unicode="&#x25b2;" 
d="M0 128v192h64v128h64v128h64v128h192v-128h64v-128h64v-128h64v-192h-576z" />
    <glyph glyph-name="uni25B3" unicode="&#x25b3;" 
d="M512 192v64h-64v128h-64v128h-64v128h-64v-128h-64v-128h-64v-128h-64v-64h448zM0 128v192h64v128h64v128h64v128h192v-128h64v-128h64v-128h64v-192h-576z" />
    <glyph glyph-name="uni25B6" unicode="&#x25b6;" 
d="M0 128v576h192v-64h128v-64h128v-64h128v-192h-128v-64h-128v-64h-128v-64h-192z" />
    <glyph glyph-name="uni25B7" unicode="&#x25b7;" 
d="M128 192v64h128v64h128v64h128v64h-128v64h-128v64h-128v64h-64v-448h64zM0 128v576h192v-64h128v-64h128v-64h128v-192h-128v-64h-128v-64h-128v-64h-192z" />
    <glyph glyph-name="triagrt" unicode="&#x25ba;" 
d="M0 128v576h192v-64h128v-64h128v-64h128v-192h-128v-64h-128v-64h-128v-64h-192z" />
    <glyph glyph-name="uni25BB" unicode="&#x25bb;" 
d="M128 192v64h128v64h128v64h128v64h-128v64h-128v64h-128v64h-64v-448h64zM0 128v576h192v-64h128v-64h128v-64h128v-192h-128v-64h-128v-64h-128v-64h-192z" />
    <glyph glyph-name="triagdn" unicode="&#x25bc;" 
d="M192 128v128h-64v128h-64v128h-64v192h576v-192h-64v-128h-64v-128h-64v-128h-192z" />
    <glyph glyph-name="uni25BD" unicode="&#x25bd;" 
d="M320 192v128h64v128h64v128h64v64h-448v-64h64v-128h64v-128h64v-128h64zM192 128v128h-64v128h-64v128h-64v192h576v-192h-64v-128h-64v-128h-64v-128h-192z" />
    <glyph glyph-name="uni25C0" unicode="&#x25c0;" 
d="M384 128v64h-128v64h-128v64h-128v192h128v64h128v64h128v64h192v-576h-192z" />
    <glyph glyph-name="uni25C1" unicode="&#x25c1;" 
d="M512 192v448h-64v-64h-128v-64h-128v-64h-128v-64h128v-64h128v-64h128v-64h64zM384 128v64h-128v64h-128v64h-128v192h128v64h128v64h128v64h192v-576h-192z" />
    <glyph glyph-name="triaglf" unicode="&#x25c4;" 
d="M384 128v64h-128v64h-128v64h-128v192h128v64h128v64h128v64h192v-576h-192z" />
    <glyph glyph-name="uni25C5" unicode="&#x25c5;" 
d="M512 192v448h-64v-64h-128v-64h-128v-64h-128v-64h128v-64h128v-64h128v-64h64zM384 128v64h-128v64h-128v64h-128v192h128v64h128v64h128v64h192v-576h-192z" />
    <glyph glyph-name="uni25C6" unicode="&#x25c6;" 
d="M256 128v64h-64v64h-64v64h-64v64h-64v64h64v64h64v64h64v64h64v64h64v-64h64v-64h64v-64h64v-64h64v-64h-64v-64h-64v-64h-64v-64h-64v-64h-64z" />
    <glyph glyph-name="uni25C7" unicode="&#x25c7;" 
d="M256 128v64h64v-64h-64zM192 192v64h64v-64h-64zM320 192v64h64v-64h-64zM128 256v64h64v-64h-64zM384 256v64h64v-64h-64zM64 320v64h64v-64h-64zM448 320v64h64v-64h-64zM0 384v64h64v-64h-64zM512 384v64h64v-64h-64zM64 448v64h64v-64h-64zM448 448v64h64v-64h-64z
M128 512v64h64v-64h-64zM384 512v64h64v-64h-64zM192 576v64h64v-64h-64zM320 576v64h64v-64h-64zM256 640v64h64v-64h-64z" />
    <glyph glyph-name="uni25C8" unicode="&#x25c8;" 
d="M256 128v64h64v-64h-64zM192 192v64h64v-64h-64zM320 192v64h64v-64h-64zM128 256v64h64v-64h-64zM384 256v64h64v-64h-64zM64 320v64h64v-64h-64zM448 320v64h64v-64h-64zM0 384v64h64v-64h-64zM512 384v64h64v-64h-64zM64 448v64h64v-64h-64zM256 320v64h-64v64h64v64
h64v-64h64v-64h-64v-64h-64zM448 448v64h64v-64h-64zM128 512v64h64v-64h-64zM384 512v64h64v-64h-64zM192 576v64h64v-64h-64zM320 576v64h64v-64h-64zM256 640v64h64v-64h-64z" />
    <glyph glyph-name="uni25C9" unicode="&#x25c9;" 
d="M256 256v64h-64v64h-64v64h64v64h64v64h64v-64h64v-64h64v-64h-64v-64h-64v-64h-64zM384 192v64h64v64h64v192h-64v64h-64v64h-192v-64h-64v-64h-64v-192h64v-64h64v-64h192zM128 128v64h-64v64h-64v320h64v64h64v64h320v-64h64v-64h64v-320h-64v-64h-64v-64h-320z" />
    <glyph glyph-name="circle" unicode="&#x25cb;" 
d="M384 192v64h64v64h64v192h-64v64h-64v64h-192v-64h-64v-64h-64v-192h64v-64h64v-64h192zM128 128v64h-64v64h-64v320h64v64h64v64h320v-64h64v-64h64v-320h-64v-64h-64v-64h-320z" />
    <glyph glyph-name="uni25CC" unicode="&#x25cc;" 
d="M192 128v64h64v-64h-64zM320 128v64h64v-64h-64zM64 192v64h64v-64h-64zM448 192v64h64v-64h-64zM0 320v64h64v-64h-64zM512 320v64h64v-64h-64zM0 448v64h64v-64h-64zM512 448v64h64v-64h-64zM64 576v64h64v-64h-64zM448 576v64h64v-64h-64zM192 640v64h64v-64h-64z
M320 640v64h64v-64h-64z" />
    <glyph glyph-name="uni25CD" unicode="&#x25cd;" 
d="M128 320v192h-64v-192h64zM512 320v192h-64v-192h64zM256 192v448h-64v-448h64zM384 192v448h-64v-448h64zM128 128v64h-64v64h-64v320h64v64h64v64h320v-64h64v-64h64v-320h-64v-64h-64v-64h-320z" />
    <glyph glyph-name="uni25CE" unicode="&#x25ce;" 
d="M256 256v64h64v-64h-64zM192 320v64h64v-64h-64zM320 320v64h64v-64h-64zM128 384v64h64v-64h-64zM384 384v64h64v-64h-64zM192 448v64h64v-64h-64zM320 448v64h64v-64h-64zM256 512v64h64v-64h-64zM384 192v64h64v64h64v192h-64v64h-64v64h-192v-64h-64v-64h-64v-192h64
v-64h64v-64h192zM128 128v64h-64v64h-64v320h64v64h64v64h320v-64h64v-64h64v-320h-64v-64h-64v-64h-320z" />
    <glyph glyph-name="H18533" unicode="&#x25cf;" 
d="M128 128v64h-64v64h-64v320h64v64h64v64h320v-64h64v-64h64v-320h-64v-64h-64v-64h-320z" />
    <glyph glyph-name="uni25E2" unicode="&#x25e2;" horiz-adv-x="384" 
d="M0 128v64h64v64h64v64h64v64h64v64h64v-320h-320z" />
    <glyph glyph-name="uni25E3" unicode="&#x25e3;" horiz-adv-x="384" 
d="M0 128v320h64v-64h64v-64h64v-64h64v-64h64v-64h-320z" />
    <glyph glyph-name="uni25E4" unicode="&#x25e4;" horiz-adv-x="384" 
d="M0 384v320h320v-64h-64v-64h-64v-64h-64v-64h-64v-64h-64z" />
    <glyph glyph-name="uni25E5" unicode="&#x25e5;" horiz-adv-x="384" 
d="M256 384v64h-64v64h-64v64h-64v64h-64v64h320v-320h-64z" />
    <glyph glyph-name="openbullet" unicode="&#x25e6;" horiz-adv-x="256" 
d="M64 256v64h64v-64h-64zM0 320v64h64v-64h-64zM128 320v64h64v-64h-64zM64 384v64h64v-64h-64z" />
    <glyph glyph-name="uni25EB" unicode="&#x25eb;" 
d="M256 192v448h-192v-448h192zM512 192v448h-192v-448h192zM0 128v576h576v-576h-576z" />
    <glyph glyph-name="uni25EF" unicode="&#x25ef;" 
d="M448 128v64h64v64h64v256h-64v64h-64v64h-256v-64h-64v-64h-64v-256h64v-64h64v-64h256zM128 64v64h-64v64h-64v384h64v64h64v64h384v-64h64v-64h64v-384h-64v-64h-64v-64h-384z" />
    <glyph glyph-name="uni25FB" unicode="&#x25fb;" horiz-adv-x="512" 
d="M384 256v320h-320v-320h320zM0 192v448h448v-448h-448z" />
    <glyph glyph-name="uni25FC" unicode="&#x25fc;" horiz-adv-x="512" 
d="M0 192v448h448v-448h-448z" />
    <glyph glyph-name="uni25FD" unicode="&#x25fd;" horiz-adv-x="448" 
d="M320 256v256h-256v-256h256zM0 192v384h384v-384h-384z" />
    <glyph glyph-name="uni25FE" unicode="&#x25fe;" horiz-adv-x="448" 
d="M0 192v384h384v-384h-384z" />
    <glyph glyph-name="uni2625" unicode="&#x2625;" horiz-adv-x="384" 
d="M192 384v64h64v64h-64v64h-64v-64h-64v-64h64v-64h64zM128 64v192h-128v64h64v64h-64v192h64v64h192v-64h64v-192h-64v-64h64v-64h-128v-192h-64z" />
    <glyph glyph-name="uni2639" unicode="&#x2639;" 
d="M192 256v128h192v-128h-64v64h-64v-64h-64zM192 448v64h64v-64h-64zM320 448v64h64v-64h-64zM384 192v64h64v64h64v192h-64v64h-64v64h-192v-64h-64v-64h-64v-192h64v-64h64v-64h192zM128 128v64h-64v64h-64v320h64v64h64v64h320v-64h64v-64h64v-320h-64v-64h-64v-64
h-320z" />
    <glyph glyph-name="smileface" unicode="&#x263a;" 
d="M192 256v128h64v-64h64v64h64v-128h-192zM192 448v64h64v-64h-64zM320 448v64h64v-64h-64zM384 192v64h64v64h64v192h-64v64h-64v64h-192v-64h-64v-64h-64v-192h64v-64h64v-64h192zM128 128v64h-64v64h-64v320h64v64h64v64h320v-64h64v-64h64v-320h-64v-64h-64v-64h-320z
" />
    <glyph glyph-name="female" unicode="&#x2640;" horiz-adv-x="384" 
d="M192 384v64h64v64h-64v64h-64v-64h-64v-64h64v-64h64zM128 64v128h-128v64h128v64h-64v64h-64v192h64v64h192v-64h64v-192h-64v-64h-64v-64h128v-64h-128v-128h-64z" />
    <glyph glyph-name="male" unicode="&#x2642;" horiz-adv-x="512" 
d="M192 192v64h64v64h-64v64h-64v-64h-64v-64h64v-64h64zM64 128v64h-64v192h64v64h192v-64h64v-192h-64v-64h-192zM256 448v64h64v-64h-64zM384 384v128h-64v64h-128v64h256v-256h-64z" />
    <glyph glyph-name="uni2646" unicode="&#x2646;" 
d="M320 128v64h64v128h-128v64h-64v-192h64v-64h64zM512 320v64h64v-64h-64zM0 384v64h64v-64h-64zM192 64v64h-64v320h-64v64h64v128h64v-192h128v-64h64v256h64v-320h64v-64h-64v-128h-64v-64h-192z" />
    <glyph glyph-name="uni2648" unicode="&#x2648;" 
d="M256 128v448h-64v64h-64v-64h-64v-128h-64v192h64v64h192v-64h64v64h192v-64h64v-192h-64v128h-64v64h-64v-64h-64v-448h-64z" />
    <glyph glyph-name="uni2649" unicode="&#x2649;" 
d="M192 128v64h192v-64h-192zM128 192v64h64v-64h-64zM384 192v64h64v-64h-64zM64 256v192h64v-192h-64zM448 256v192h64v-192h-64zM320 448v64h-64v-64h64zM192 384v64h-64v64h64v64h192v-64h64v-64h-64v-64h-192zM64 512v64h-64v128h64v-64h64v-128h-64zM448 512v128h64
v64h64v-128h-64v-64h-64z" />
    <glyph glyph-name="uni264A" unicode="&#x264a;" 
d="M448 192v64h-64v320h64v64h-320v-64h64v-320h-64v-64h320zM0 128v64h64v128h64v192h-64v128h-64v64h576v-64h-64v-128h-64v-192h64v-128h64v-64h-576z" />
    <glyph glyph-name="uni264B" unicode="&#x264b;" 
d="M128 128v64h-64v64h128v-64h128v64h64v64h128v-64h-64v-64h-64v-64h-256zM64 320v64h128v-64h-128zM320 320v128h64v-128h-64zM512 320v128h64v-128h-64zM0 384v128h64v-128h-64zM192 384v128h64v-128h-64zM384 448v64h128v-64h-128zM64 512v64h64v64h64v64h256v-64h64
v-64h-128v64h-128v-64h-64v-64h-128z" />
    <glyph glyph-name="uni264C" unicode="&#x264c;" 
d="M64 128v64h128v-64h-128zM0 192v128h64v-128h-64zM192 192v128h-128v64h128v256h64v-448h-64zM384 64v576h64v-512h64v128h64v-192h-192zM256 640v64h128v-64h-128z" />
    <glyph glyph-name="uni264D" unicode="&#x264d;" 
d="M448 128v64h64v64h64v-128h-128zM256 64v128h64v128h64v64h-64v192h-64v-384h-64v448h-64v-448h-64v448h-64v64h384v-64h192v-192h-64v128h-128v-64h64v-64h64v-128h-64v-128h-64v-64h-64v-64h-64z" />
    <glyph glyph-name="uni264E" unicode="&#x264e;" 
d="M0 64v64h576v-64h-576zM0 192v64h128v64h-64v256h64v-192h64v-128h64v-64h-256zM320 192v64h64v128h64v192h64v-256h-64v-64h128v-64h-256zM128 576v64h64v-64h-64zM384 576v64h64v-64h-64zM192 640v64h192v-64h-192z" />
    <glyph glyph-name="uni264F" unicode="&#x264f;" 
d="M448 128v192h-64v-192h64zM320 64v576h-64v-448h-64v448h-64v-448h-64v448h-64v64h384v-256h64v128h64v-128h64v-128h-64v-256h-192z" />
    <glyph glyph-name="uni2650" unicode="&#x2650;" horiz-adv-x="576" 
d="M64 0v128h64v128h-64v64h-64v64h128v-64h64v64h64v128h64v64h-64v-64h-128v64h64v64h128v64h128v-128h64v-192h-64v128h-64v-64h-64v-128h-64v-64h128v-64h64v-64h-128v64h-128v-128h-64v-64h-64z" />
    <glyph glyph-name="uni2651" unicode="&#x2651;" 
d="M512 320v128h-64v-128h64zM64 64v64h-64v128h64v-64h64v-64h128v64h64v64h64v192h-64v128h-64v-128h-64v-64h-64v64h-64v128h-64v128h64v-64h64v-128h64v128h64v64h64v-64h64v-128h192v-256h-128v-64h-64v-64h-64v-64h-256z" />
    <glyph glyph-name="uni2652" unicode="&#x2652;" 
d="M0 64v64h64v-64h-64zM512 64v64h64v-64h-64zM192 64v128h-64v-64h-64v128h64v64h64v-64h64v64h64v-64h64v64h64v-64h64v-128h-64v64h-64v-128h-64v128h-64v-128h-64zM0 448v64h64v-64h-64zM512 448v64h64v-64h-64zM192 448v128h-64v-64h-64v128h64v64h64v-64h64v64h64
v-64h64v64h64v-64h64v-128h-64v64h-64v-128h-64v128h-64v-128h-64z" />
    <glyph glyph-name="uni2653" unicode="&#x2653;" 
d="M0 64v64h64v64h64v64h64v64h-192v64h192v64h-64v64h-64v64h-64v64h128v-64h64v-64h64v-128h64v128h64v64h64v64h128v-64h-64v-64h-64v-64h-64v-64h192v-64h-192v-64h64v-64h64v-64h64v-64h-128v64h-64v64h-64v128h-64v-128h-64v-64h-64v-64h-128z" />
    <glyph glyph-name="uni2661" unicode="&#x2661;" 
d="M256 128v64h64v-64h-64zM192 192v128h64v-128h-64zM320 192v128h64v-128h-64zM128 320v64h64v-64h-64zM384 320v64h64v-64h-64zM64 384v64h64v-64h-64zM448 384v64h64v-64h-64zM0 448v256h64v-256h-64zM256 640v64h64v-64h-64zM512 448v256h64v-256h-64zM64 704v64h192
v-64h-192zM320 704v64h192v-64h-192z" />
    <glyph glyph-name="heart" unicode="&#x2665;" 
d="M256 128v64h-64v128h-64v64h-64v64h-64v256h64v64h192v-64h64v64h192v-64h64v-256h-64v-64h-64v-64h-64v-128h-64v-64h-64z" />
    <glyph glyph-name="uni2669" unicode="&#x2669;" horiz-adv-x="384" 
d="M64 0v128h64v64h128v576h64v-704h-64v-64h-192z" />
    <glyph glyph-name="musicalnote" unicode="&#x266a;" 
d="M448 192v64h64v-64h-64zM512 256v128h-64v128h64v-64h64v-192h-64zM64 0v128h64v64h128v576h64v-64h64v-128h64v-64h-128v-448h-64v-64h-192z" />
    <glyph glyph-name="uni3001" unicode="&#x3001;" 
d="M64 64v64h64v-64h-64zM0 128v64h64v-64h-64z" />
    <glyph glyph-name="uni3002" unicode="&#x3002;" 
d="M0 128v64h64v-64h-64z" />
    <glyph glyph-name="uni3007" unicode="&#x3007;" 
d="M384 192v64h64v64h64v192h-64v64h-64v64h-192v-64h-64v-64h-64v-192h64v-64h64v-64h192zM128 128v64h-64v64h-64v320h64v64h64v64h320v-64h64v-64h64v-320h-64v-64h-64v-64h-320z" />
    <glyph glyph-name="uni300C" unicode="&#x300c;" 
d="M192 320v448h320v-64h-256v-384h-64z" />
    <glyph glyph-name="uni300D" unicode="&#x300d;" 
d="M64 -64v64h256v384h64v-448h-320z" />
    <glyph glyph-name="uni300E" unicode="&#x300e;" 
d="M256 192v448h192v64h-256v-512h64zM128 128v640h384v-192h-192v-448h-192z" />
    <glyph glyph-name="uni300F" unicode="&#x300f;" 
d="M448 0v512h-64v-448h-192v-64h256zM128 -64v192h192v448h192v-640h-384z" />
    <glyph glyph-name="uni301C" unicode="&#x301c;" 
d="M256 384v64h64v-64h-64zM320 320v64h128v64h128v-64h-64v-64h-192zM0 384v64h64v64h192v-64h-128v-64h-128z" />
    <glyph glyph-name="uni3042" unicode="&#x3042;" 
d="M64 256v64h64v-64h-64zM320 192v192h-64v-192h64zM384 448v64h-128v-64h128zM64 0v64h-64v192h64v-128h64v-64h64v256h-64v64h64v128h-192v64h192v128h64v-128h256v-64h-64v-64h64v-64h64v-320h-64v-64h-128v64h64v64h64v192h-128v-192h-64v-64h-64v-64h-192z" />
    <glyph glyph-name="uni3044" unicode="&#x3044;" 
d="M512 128v192h-64v128h-64v128h64v-64h64v-128h64v-256h-64zM128 0v64h-64v128h-64v384h64v64h64v-128h-64v-256h64v-128h64v-64h64v64h64v-128h-192z" />
    <glyph glyph-name="uni3046" unicode="&#x3046;" 
d="M128 0v64h192v64h64v64h64v192h64v-256h-64v-64h-64v-64h-256zM0 384v64h128v64h256v-64h64v-64h-128v64h-128v-64h-192zM192 576v64h-64v64h128v-64h128v-64h-192z" />
    <glyph glyph-name="uni3048" unicode="&#x3048;" 
d="M0 0v64h64v64h64v64h64v-128h-64v-64h-128zM320 0v192h-128v64h64v64h64v-64h64v-192h64v64h128v-64h-64v-64h-192zM320 320v64h64v-64h-64zM64 384v64h128v64h256v-128h-64v64h-128v-64h-192zM192 576v64h-64v64h128v-64h128v-64h-192z" />
    <glyph glyph-name="uni304A" unicode="&#x304a;" 
d="M448 448v64h-64v128h64v-64h64v-128h-64zM64 0v64h64v128h-64v-128h-64v192h64v64h64v128h-128v64h128v192h64v-128h128v-64h-128v-128h256v-64h64v-256h-64v-64h-128v64h64v64h64v128h-64v64h-192v-320h-128z" />
    <glyph glyph-name="uni304B" unicode="&#x304b;" 
d="M192 0v64h128v384h64v-448h-192zM512 256v128h-64v128h64v-64h64v-192h-64zM384 512v64h64v-64h-64zM0 0v192h64v192h64v64h-128v64h128v192h64v-192h128v-64h-128v-128h-64v-192h-64v-128h-64z" />
    <glyph glyph-name="uni304C" unicode="&#x304c;" 
d="M192 0v64h128v384h64v-448h-192zM512 256v128h-64v128h64v-64h64v-192h-64zM384 512v64h64v-64h-64zM0 0v192h64v192h64v64h-128v64h128v192h64v-192h128v-64h-128v-128h-64v-192h-64v-128h-64zM384 640v128h64v-128h-64zM512 640v128h64v-128h-64z" />
    <glyph glyph-name="uni304D" unicode="&#x304d;" 
d="M64 0v64h-64v128h64v-64h64v-64h256v-64h-320zM448 448v64h64v-64h-64zM384 576v64h64v-64h-64zM384 128v64h-320v64h256v64h-256v64h192v64h-256v64h192v64h-64v128h64v-64h64v-64h128v-64h-64v-64h128v-64h-64v-128h64v-128h-64z" />
    <glyph glyph-name="uni304E" unicode="&#x304e;" 
d="M64 0v64h-64v128h64v-64h64v-64h256v-64h-320zM448 448v64h64v-64h-64zM384 128v64h-320v64h256v64h-256v64h192v64h-256v64h192v64h-64v128h64v-64h64v-64h128v-64h-64v-64h128v-64h-64v-128h64v-128h-64zM384 640v128h64v-128h-64zM512 640v128h64v-128h-64z" />
    <glyph glyph-name="uni304F" unicode="&#x304f;" 
d="M384 0v64h-64v64h-64v64h128v-64h64v-128h-64zM192 192v64h64v-64h-64zM64 256v128h64v-64h64v-64h-128zM128 384v64h64v-64h-64zM192 448v64h64v-64h-64zM256 512v128h64v64h64v-128h-64v-64h-64z" />
    <glyph glyph-name="uni3050" unicode="&#x3050;" 
d="M384 0v64h-64v64h-64v64h128v-64h64v-128h-64zM192 192v64h64v-64h-64zM64 256v128h64v-64h64v-64h-128zM128 384v64h64v-64h-64zM192 448v64h64v-64h-64zM384 448v128h64v-128h-64zM512 448v128h64v-128h-64zM256 512v128h64v64h64v-128h-64v-64h-64z" />
    <glyph glyph-name="uni3051" unicode="&#x3051;" 
d="M256 0v64h64v-64h-64zM64 64v64h-64v448h64v64h64v-128h-64v-320h64v64h64v-128h-64v-64h-64zM320 64v128h64v256h-192v64h192v192h64v-192h128v-64h-128v-320h-64v-64h-64z" />
    <glyph glyph-name="uni3052" unicode="&#x3052;" 
d="M256 0v64h64v-64h-64zM64 64v64h-64v448h64v64h64v-128h-64v-320h64v64h64v-128h-64v-64h-64zM320 64v128h64v256h-192v64h192v256h64v-256h128v-64h-128v-320h-64v-64h-64zM512 640v128h64v-128h-64z" />
    <glyph glyph-name="uni3053" unicode="&#x3053;" 
d="M64 0v64h-64v128h64v-64h64v-64h256v64h128v-64h-64v-64h-384zM64 192v64h64v-64h-64zM256 448v128h-192v64h256v-64h128v-64h-64v-64h-128z" />
    <glyph glyph-name="uni3054" unicode="&#x3054;" 
d="M64 0v64h-64v128h64v-64h64v-64h256v64h128v-64h-64v-64h-384zM64 192v64h64v-64h-64zM256 448v128h-192v64h256v-64h128v-64h-64v-64h-128zM384 640v128h64v-128h-64zM512 640v128h64v-128h-64z" />
    <glyph glyph-name="uni3055" unicode="&#x3055;" 
d="M128 0v64h-64v192h64v64h256v64h-64v64h-320v64h256v64h-64v128h64v-64h64v-64h192v-64h-128v-64h64v-128h64v-128h-64v64h-256v-64h-64v-64h64v-64h256v-64h-320z" />
    <glyph glyph-name="uni3056" unicode="&#x3056;" 
d="M128 0v64h-64v192h64v64h256v64h-64v64h-320v64h256v64h-64v128h64v-64h64v-64h192v-64h-128v-64h64v-128h64v-128h-64v64h-256v-64h-64v-64h64v-64h256v-64h-320zM384 640v128h64v-128h-64zM512 640v128h64v-128h-64z" />
    <glyph glyph-name="uni3057" unicode="&#x3057;" 
d="M128 0v64h-64v640h64v-576h64v-64h192v64h64v128h64v-192h-64v-64h-320z" />
    <glyph glyph-name="uni3058" unicode="&#x3058;" 
d="M320 512v128h64v-128h-64zM448 512v128h64v-128h-64zM128 0v64h-64v640h64v-576h64v-64h192v64h64v128h64v-192h-64v-64h-320z" />
    <glyph glyph-name="uni3059" unicode="&#x3059;" 
d="M128 256v128h64v-128h-64zM192 0v64h128v64h64v64h-192v64h192v128h-192v64h192v64h-320v64h320v128h64v-128h128v-64h-128v-448h-64v-64h-192z" />
    <glyph glyph-name="uni305A" unicode="&#x305a;" 
d="M128 256v128h64v-128h-64zM512 640v64h64v-64h-64zM192 0v64h128v64h64v64h-192v64h192v128h-192v64h192v64h-320v64h320v64h-64v128h64v-64h64v-128h128v-64h-128v-448h-64v-64h-192zM448 704v64h64v-64h-64z" />
    <glyph glyph-name="uni305B" unicode="&#x305b;" 
d="M192 0v64h-64v256h-128v64h128v256h64v-192h192v256h64v-192h128v-64h-128v-256h-128v64h64v128h-192v-256h64v-64h256v-64h-320z" />
    <glyph glyph-name="uni305C" unicode="&#x305c;" 
d="M192 0v64h-64v256h-128v64h128v256h64v-192h192v192h-64v128h64v-64h64v64h64v-128h-64v-128h128v-64h-128v-256h-128v64h64v128h-192v-256h64v-64h256v-64h-320z" />
    <glyph glyph-name="uni305D" unicode="&#x305d;" 
d="M192 0v64h256v-64h-256zM128 64v128h64v-128h-64zM192 192v64h64v-64h-64zM256 256v64h-256v64h128v64h128v64h128v-64h-64v-64h192v-64h-128v-64h-128zM384 512v64h-256v64h320v-128h-64z" />
    <glyph glyph-name="uni305E" unicode="&#x305e;" 
d="M192 0v64h256v-64h-256zM128 64v128h64v-128h-64zM192 192v64h64v-64h-64zM256 256v64h-256v64h128v64h128v64h128v-64h-64v-64h192v-64h-128v-64h-128zM384 512v64h-256v64h256v128h64v-256h-64zM512 640v128h64v-128h-64z" />
    <glyph glyph-name="uni305F" unicode="&#x305f;" 
d="M256 0v128h64v-64h256v-64h-320zM512 256v64h-192v64h256v-128h-64zM64 0v192h64v256h-128v64h192v192h64v-192h128v-64h-128v-64h-64v-256h-64v-128h-64z" />
    <glyph glyph-name="uni3060" unicode="&#x3060;" 
d="M256 0v128h64v-64h256v-64h-320zM512 256v64h-192v64h256v-128h-64zM64 0v192h64v256h-128v64h192v192h64v-192h128v-64h-128v-64h-64v-256h-64v-128h-64zM384 640v128h64v-128h-64zM512 640v128h64v-128h-64z" />
    <glyph glyph-name="uni3061" unicode="&#x3061;" 
d="M128 0v64h256v64h64v128h-64v64h-256v-64h-64v128h64v64h-128v64h128v64h64v128h64v-128h256v-64h-256v-64h-64v-64h256v-64h64v-256h-64v-64h-320z" />
    <glyph glyph-name="uni3062" unicode="&#x3062;" 
d="M128 0v64h256v64h64v128h-64v64h-256v-64h-64v128h64v64h-128v64h128v64h64v128h64v-128h256v-64h-256v-64h-64v-64h256v-64h64v-256h-64v-64h-320zM384 640v128h64v-128h-64zM512 640v128h64v-128h-64z" />
    <glyph glyph-name="uni3063" unicode="&#x3063;" 
d="M192 0v64h192v64h64v192h-64v64h-128v-64h-192v64h128v64h256v-64h64v-320h-64v-64h-256z" />
    <glyph glyph-name="uni3064" unicode="&#x3064;" 
d="M128 0v64h192v64h64v64h64v192h-64v64h-64v64h-128v-64h-192v64h128v64h256v-64h64v-64h64v-320h-64v-64h-64v-64h-256z" />
    <glyph glyph-name="uni3065" unicode="&#x3065;" 
d="M128 0v64h192v64h64v64h64v192h-64v64h-64v64h-128v-64h-192v64h128v64h256v-64h64v-64h64v-320h-64v-64h-64v-64h-256zM384 576v128h64v-128h-64zM512 576v128h64v-128h-64z" />
    <glyph glyph-name="uni3066" unicode="&#x3066;" 
d="M256 0v64h-64v64h128v-64h128v-64h-192zM128 128v256h64v64h64v-128h-64v-192h-64zM256 448v64h64v64h-64v-64h-256v64h192v64h320v-64h-64v-64h-64v-64h-128z" />
    <glyph glyph-name="uni3067" unicode="&#x3067;" 
d="M256 0v64h-64v64h128v-64h128v-64h-192zM128 128v256h64v64h64v-128h-64v-192h-64zM384 320v128h64v-128h-64zM512 320v128h64v-128h-64zM256 448v64h64v64h-64v-64h-256v64h192v64h320v-64h-64v-64h-64v-64h-128z" />
    <glyph glyph-name="uni3068" unicode="&#x3068;" 
d="M128 0v64h-64v192h64v-128h64v-64h320v-64h-384zM128 256v64h64v-64h-64zM192 320v128h-64v192h64v-128h64v-64h128v64h128v-64h-64v-64h-128v-64h-128z" />
    <glyph glyph-name="uni3069" unicode="&#x3069;" 
d="M128 0v64h-64v192h64v-128h64v-64h320v-64h-384zM128 256v64h64v-64h-64zM192 320v128h-64v192h64v-128h64v-64h128v64h128v-64h-64v-64h-128v-64h-128zM384 576v128h64v-128h-64zM512 576v128h64v-128h-64z" />
    <glyph glyph-name="uni306A" unicode="&#x306a;" 
d="M192 0v64h128v-64h-128zM448 64v64h64v-64h-64zM128 64v128h64v-128h-64zM320 64v128h-128v64h128v128h64v-192h64v-64h-64v-64h-64zM512 384v64h-64v64h-64v64h128v-64h64v-128h-64zM0 128v192h64v128h-64v64h128v192h64v-192h128v-64h-192v-192h-64v-128h-64z" />
    <glyph glyph-name="uni306B" unicode="&#x306b;" 
d="M192 64v192h64v-128h256v-64h-320zM256 256v64h64v-64h-64zM448 448v64h-192v64h256v-128h-64zM64 0v64h-64v512h64v64h64v-128h-64v-384h64v-128h-64z" />
    <glyph glyph-name="uni306C" unicode="&#x306c;" 
d="M256 64v64h64v-64h-64zM64 0v64h64v192h-64v-192h-64v256h64v320h64v-192h64v-64h-64v-64h64v64h64v64h-64v64h64v192h64v-192h128v-64h64v-320h64v-64h-64v-64h-192v64h128v64h-128v64h128v192h-64v64h-64v-128h-64v-192h-64v-128h-128z" />
    <glyph glyph-name="uni306D" unicode="&#x306d;" 
d="M320 0v64h128v-64h-128zM256 64v128h64v-128h-64zM128 0v128h-64v-64h-64v128h64v128h64v128h-128v64h128v192h64v-192h64v64h192v-64h64v-320h64v-128h-128v128h-128v64h128v192h-64v64h-64v-64h-64v-64h-64v-384h-64z" />
    <glyph glyph-name="uni306E" unicode="&#x306e;" 
d="M256 0v64h64v64h64v64h64v256h-64v128h64v-64h64v-384h-64v-64h-64v-64h-128zM64 64v64h64v64h64v192h64v192h-64v-64h-64v-64h-64v-320h-64v384h64v64h64v64h256v-64h-64v-256h-64v-192h-64v-64h-128z" />
    <glyph glyph-name="uni306F" unicode="&#x306f;" 
d="M384 64v128h-128v-128h128zM64 0v64h-64v512h64v128h64v-192h-64v-384h64v-128h-64zM192 0v256h192v192h-192v64h192v192h64v-192h128v-64h-128v-256h64v-64h64v-64h-128v-64h-256z" />
    <glyph glyph-name="uni3070" unicode="&#x3070;" 
d="M384 64v128h-128v-128h128zM64 0v64h-64v512h64v128h64v-192h-64v-384h64v-128h-64zM192 0v256h192v192h-192v64h192v192h64v64h64v-128h-64v-128h128v-64h-128v-256h64v-64h64v-64h-128v-64h-256zM576 640v128h64v-128h-64z" />
    <glyph glyph-name="uni3071" unicode="&#x3071;" 
d="M384 64v128h-128v-128h128zM64 0v64h-64v512h64v128h64v-192h-64v-384h64v-128h-64zM512 640v64h-64v-64h64zM192 0v256h192v192h-192v64h192v256h192v-192h-128v-64h128v-64h-128v-256h64v-64h64v-64h-128v-64h-256z" />
    <glyph glyph-name="uni3072" unicode="&#x3072;" 
d="M128 0v64h-64v384h64v64h-128v64h128v64h64v64h64v-192h-64v-128h-64v-256h64v-64h128v64h64v512h64v-64h64v-128h64v-128h-64v64h-64v-320h-64v-64h-256z" />
    <glyph glyph-name="uni3073" unicode="&#x3073;" 
d="M128 0v64h-64v384h64v64h-128v64h128v64h64v64h64v-192h-64v-128h-64v-256h64v-64h128v64h64v640h64v-192h64v-128h64v-128h-64v64h-64v-320h-64v-64h-256zM512 640v128h64v-128h-64z" />
    <glyph glyph-name="uni3074" unicode="&#x3074;" 
d="M512 640v64h-64v-64h64zM128 0v64h-64v384h64v64h-128v64h128v64h64v64h64v-192h-64v-128h-64v-256h64v-64h128v64h64v640h192v-192h-64v-128h64v-128h-64v64h-64v-320h-64v-64h-256z" />
    <glyph glyph-name="uni3075" unicode="&#x3075;" 
d="M512 64v128h-64v128h64v-64h64v-192h-64zM0 64v192h64v128h64v-256h-64v-64h-64zM384 320v64h64v-64h-64zM128 0v128h64v-64h128v128h-64v128h-64v128h64v-64h64v-128h64v-256h-256zM256 512v64h64v-64h-64zM320 576v64h-192v64h256v-128h-64z" />
    <glyph glyph-name="uni3076" unicode="&#x3076;" 
d="M512 64v128h-64v128h64v-64h64v-192h-64zM0 64v192h64v128h64v-256h-64v-64h-64zM384 320v64h64v-64h-64zM128 0v128h64v-64h128v128h-64v128h-64v128h64v-64h64v-128h64v-256h-256zM256 512v64h64v-64h-64zM320 576v64h-192v64h256v64h64v-128h-64v-64h-64zM512 640v128
h64v-128h-64z" />
    <glyph glyph-name="uni3077" unicode="&#x3077;" 
d="M512 64v128h-64v128h64v-64h64v-192h-64zM0 64v192h64v128h64v-256h-64v-64h-64zM384 320v64h64v-64h-64zM128 0v128h64v-64h128v128h-64v128h-64v128h64v-64h64v-128h64v-256h-256zM256 512v64h64v-64h-64zM512 512v64h-64v-64h64zM384 448v128h-64v64h-192v64h256v-64
h192v-192h-192z" />
    <glyph glyph-name="uni3078" unicode="&#x3078;" 
d="M512 64v64h-64v64h-64v64h-64v64h-64v64h-64v64h-64v-128h-64v-128h-64v192h64v128h64v128h64v-64h64v-128h64v-64h64v-64h64v-64h64v-64h64v-128h-64z" />
    <glyph glyph-name="uni3079" unicode="&#x3079;" 
d="M512 64v64h-64v64h-64v64h-64v64h-64v64h-64v64h-64v-128h-64v-128h-64v192h64v128h64v128h64v-64h64v-128h64v-64h64v-64h64v-64h64v-64h64v-128h-64zM320 512v128h64v-128h-64zM448 512v128h64v-128h-64z" />
    <glyph glyph-name="uni307A" unicode="&#x307a;" 
d="M512 64v64h-64v64h-64v64h-64v64h-64v64h-64v64h-64v-128h-64v-128h-64v192h64v128h64v128h64v-64h64v-128h64v-64h64v-64h64v-64h64v-64h64v-128h-64zM448 576v64h-64v-64h64zM320 512v192h192v-192h-192z" />
    <glyph glyph-name="uni307B" unicode="&#x307b;" 
d="M384 64v128h-128v-128h128zM192 0v256h192v128h-192v64h192v128h-192v64h384v-64h-128v-128h128v-64h-128v-192h64v-64h64v-64h-128v-64h-256zM64 0v64h-64v512h64v128h64v-192h-64v-384h64v-128h-64z" />
    <glyph glyph-name="uni307C" unicode="&#x307c;" 
d="M384 64v128h-128v-128h128zM64 0v64h-64v512h64v128h64v-192h-64v-384h64v-128h-64zM192 0v256h192v128h-192v64h192v128h-192v64h192v128h64v-128h64v128h64v-192h-128v-128h128v-64h-128v-192h64v-64h64v-64h-128v-64h-256z" />
    <glyph glyph-name="uni307D" unicode="&#x307d;" 
d="M384 64v128h-128v-128h128zM64 0v64h-64v512h64v128h64v-192h-64v-384h64v-128h-64zM576 640v64h-64v-64h64zM192 0v256h192v128h-192v64h192v128h-192v64h256v128h192v-192h-192v-128h128v-64h-128v-192h64v-64h64v-64h-128v-64h-256z" />
    <glyph glyph-name="uni307E" unicode="&#x307e;" 
d="M64 64v128h64v-128h-64zM128 0v64h192v128h-192v64h192v128h-256v64h256v64h-256v64h256v128h64v-128h128v-64h-128v-64h128v-64h-128v-192h64v-64h64v-128h-64v64h-64v-64h-256z" />
    <glyph glyph-name="uni307F" unicode="&#x307f;" 
d="M64 0v64h64v64h64v192h-64v-64h-64v-192h-64v256h64v64h128v192h-128v64h192v-256h128v128h64v-192h128v-64h-128v-192h-64v-64h-64v128h64v192h-128v-256h-64v-64h-128z" />
    <glyph glyph-name="uni3080" unicode="&#x3080;" 
d="M128 128v192h-64v-192h64zM512 384v64h-64v128h64v-64h64v-128h-64zM384 576v64h64v-64h-64zM64 0v64h-64v320h128v128h-128v64h128v128h64v-128h128v-64h-128v-448h192v64h64v128h64v-192h-64v-64h-384z" />
    <glyph glyph-name="uni3081" unicode="&#x3081;" 
d="M384 0v64h64v-64h-64zM64 0v64h64v128h64v64h-128v-192h-64v256h64v320h64v-192h64v-64h-64v-64h128v128h-64v64h64v192h64v-192h192v-64h64v-320h-64v-64h-64v128h64v192h-64v64h-128v-192h-64v-64h64v-128h-64v64h-64v-128h-128z" />
    <glyph glyph-name="uni3082" unicode="&#x3082;" 
d="M192 0v64h-64v256h-128v64h128v128h-128v64h192v128h64v-128h128v-64h-192v-128h192v-64h-192v-192h64v-64h192v64h64v128h64v-192h-64v-64h-320z" />
    <glyph glyph-name="uni3083" unicode="&#x3083;" 
d="M256 0v128h-64v128h-128v64h64v192h64v-128h64v64h64v128h64v-128h64v-64h64v-256h-128v64h64v128h-64v64h-64v-64h-64v-128h64v-192h-64z" />
    <glyph glyph-name="uni3084" unicode="&#x3084;" 
d="M256 0v128h-64v128h-64v128h-128v64h64v192h64v-128h128v64h64v128h64v-128h128v-64h64v-256h-64v-64h-128v64h64v64h64v128h-64v64h-128v-64h-64v-64h-64v-64h64v-128h64v-192h-64z" />
    <glyph glyph-name="uni3085" unicode="&#x3085;" 
d="M448 192v128h-64v-128h64zM256 0v128h64v192h-64v-128h-64v-64h-64v64h-64v256h64v64h64v-128h-64v-128h64v128h64v64h64v64h64v-64h64v-64h64v-256h-128v-64h-64v-64h-64z" />
    <glyph glyph-name="uni3086" unicode="&#x3086;" 
d="M448 192v64h64v192h-64v64h-64v-320h64zM64 128v128h-64v320h64v64h64v-128h-64v-192h64v128h64v64h64v-128h-64v-128h-64v-128h-64zM192 0v64h64v64h64v384h-64v64h64v128h64v-128h128v-64h64v-320h-64v-64h-128v-64h-64v-64h-128z" />
    <glyph glyph-name="uni3087" unicode="&#x3087;" 
d="M128 0v64h128v-64h-128zM64 64v128h64v-128h-64zM256 64v128h-128v64h128v256h64v-128h128v-64h-128v-64h64v-64h64v-128h-64v64h-64v-64h-64z" />
    <glyph glyph-name="uni3088" unicode="&#x3088;" 
d="M0 64v128h64v-128h-64zM64 0v64h192v128h-192v64h192v448h64v-192h192v-64h-192v-192h64v-64h64v-64h64v-64h-128v64h-64v-128h-256z" />
    <glyph glyph-name="uni3089" unicode="&#x3089;" 
d="M192 0v64h192v64h64v128h-64v64h-192v-64h-64v-64h-64v192h64v128h64v-128h256v-64h64v-256h-64v-64h-256zM320 576v64h-128v64h192v-64h64v-64h-128z" />
    <glyph glyph-name="uni308A" unicode="&#x308a;" 
d="M256 0v64h128v-64h-128zM384 64v128h64v320h-64v128h64v-64h64v-448h-64v-64h-64zM128 192v64h-64v320h64v128h64v-192h-64v-192h128v-64h-64v-64h-64z" />
    <glyph glyph-name="uni308B" unicode="&#x308b;" 
d="M128 0v128h64v-64h128v64h-128v64h192v-64h64v128h-64v64h-192v-64h-64v-64h-128v64h64v64h64v64h64v64h64v-64h192v-64h64v-256h-64v-64h-320zM256 448v64h64v-64h-64zM320 512v64h-256v64h384v-64h-64v-64h-64z" />
    <glyph glyph-name="uni308C" unicode="&#x308c;" 
d="M128 0v128h-64v-64h-64v128h64v128h64v128h-128v64h128v192h64v-192h64v64h192v-512h128v-64h-192v512h-64v-64h-64v-64h-64v-384h-64z" />
    <glyph glyph-name="uni308D" unicode="&#x308d;" 
d="M128 0v64h256v64h64v128h-64v64h-192v-64h-128v64h64v64h64v64h64v-64h192v-64h64v-256h-64v-64h-320zM256 448v64h64v-64h-64zM320 512v64h-192v64h320v-64h-64v-64h-64z" />
    <glyph glyph-name="uni308F" unicode="&#x308f;" 
d="M128 0v128h-64v-64h-64v128h64v128h64v128h-128v64h128v192h64v-192h64v64h256v-64h64v-384h-64v-64h-64v-64h-128v64h64v64h64v64h64v256h-64v64h-128v-64h-64v-64h-64v-384h-64z" />
    <glyph glyph-name="uni3092" unicode="&#x3092;" 
d="M128 0v64h-64v128h64v-64h64v-64h256v-64h-320zM320 128v128h-64v-64h-128v64h64v64h64v64h-128v-64h-64v-64h-64v128h64v64h64v64h-128v64h192v128h64v-128h192v-64h-256v-64h128v-64h192v-64h-128v-192h-64z" />
    <glyph glyph-name="uni3093" unicode="&#x3093;" 
d="M0 0v256h64v192h64v128h64v64h64v-128h-64v-128h-64v-64h64v-64h64v-128h64v-64h64v64h64v128h64v-192h-64v-64h-192v64h-64v128h-64v-64h-64v-128h-64z" />
    <glyph glyph-name="uni3094" unicode="&#x3094;" 
d="M128 0v64h192v64h64v64h64v192h64v-256h-64v-64h-64v-64h-256zM0 384v64h128v64h256v-64h64v-64h-128v64h-128v-64h-192zM192 576v64h-64v64h128v-64h128v64h64v-128h-256zM512 576v128h64v-128h-64z" />
    <glyph glyph-name="uni309B" unicode="&#x309b;" 
d="M0 576v128h64v-128h-64zM128 576v128h64v-128h-64z" />
    <glyph glyph-name="uni309C" unicode="&#x309c;" 
d="M128 576v64h-64v-64h64zM0 512v192h192v-192h-192z" />
    <glyph glyph-name="uni30A0" unicode="&#x30a0;" 
d="M0 192v64h320v-64h-320zM0 384v64h320v-64h-320z" />
    <glyph glyph-name="uni30A1" unicode="&#x30a1;" 
d="M64 0v64h64v64h64v192h64v-64h64v64h64v64h-320v64h384v-192h-64v-64h-128v-128h-64v-64h-128z" />
    <glyph glyph-name="uni30A2" unicode="&#x30a2;" 
d="M64 0v64h64v64h64v64h64v256h64v-128h64v64h64v64h64v128h-448v64h512v-256h-64v-64h-64v-64h-128v-128h-64v-64h-64v-64h-128z" />
    <glyph glyph-name="uni30A3" unicode="&#x30a3;" 
d="M64 256v64h128v-64h-128zM256 0v320h-64v64h128v-384h-64zM320 384v64h64v-64h-64zM384 448v64h64v-64h-64z" />
    <glyph glyph-name="uni30A4" unicode="&#x30a4;" 
d="M256 0v384h-64v-64h-192v64h128v64h128v64h64v64h128v-64h-64v-64h-64v-448h-64zM448 576v64h64v-64h-64z" />
    <glyph glyph-name="uni30A5" unicode="&#x30a5;" 
d="M192 0v64h128v64h64v192h-256v-128h-64v256h64v-64h128v64h64v-64h128v-320h-64v-64h-192zM192 448v64h64v-64h-64z" />
    <glyph glyph-name="uni30A6" unicode="&#x30a6;" 
d="M192 0v64h128v64h64v64h64v256h-320v-192h-64v384h64v-128h128v64h-64v128h64v-64h64v-128h192v-384h-64v-64h-64v-64h-192z" />
    <glyph glyph-name="uni30A7" unicode="&#x30a7;" 
d="M64 0v64h192v320h-128v64h320v-64h-128v-320h192v-64h-448z" />
    <glyph glyph-name="uni30A8" unicode="&#x30a8;" 
d="M0 0v64h256v448h-192v64h448v-64h-192v-448h256v-64h-576z" />
    <glyph glyph-name="uni30A9" unicode="&#x30a9;" 
d="M64 0v64h64v-64h-64zM128 64v64h64v-64h-64zM192 128v64h64v-64h-64zM256 0v64h64v128h-64v64h64v64h-256v64h256v128h64v-128h64v-64h-64v-320h-128z" />
    <glyph glyph-name="uni30AA" unicode="&#x30aa;" 
d="M0 0v64h64v64h64v64h64v64h64v-128h-64v-64h-64v-64h-128zM320 0v64h64v256h-64v-64h-64v128h64v64h-320v64h384v192h64v-192h128v-64h-128v-448h-128z" />
    <glyph glyph-name="uni30AB" unicode="&#x30ab;" 
d="M64 0v128h64v192h64v128h-128v64h128v192h64v-192h256v-512h-192v64h128v384h-192v-192h-64v-192h-64v-64h-64z" />
    <glyph glyph-name="uni30AC" unicode="&#x30ac;" 
d="M64 0v128h64v192h64v128h-128v64h128v192h64v-192h256v-512h-192v64h128v384h-192v-192h-64v-192h-64v-64h-64zM384 576v128h64v-128h-64zM512 576v128h64v-128h-64z" />
    <glyph glyph-name="uni30AD" unicode="&#x30ad;" 
d="M320 0v192h-256v64h192v128h-192v64h128v256h64v-128h64v-64h128v-64h-128v-128h192v-64h-128v-256h-64z" />
    <glyph glyph-name="uni30AE" unicode="&#x30ae;" 
d="M320 0v192h-256v64h192v128h-192v64h128v256h64v-128h64v-64h128v-64h-128v-128h192v-64h-128v-256h-64zM384 576v128h64v-128h-64zM512 576v128h64v-128h-64z" />
    <glyph glyph-name="uni30AF" unicode="&#x30af;" 
d="M128 0v64h128v64h64v64h64v128h64v256h-192v-128h-64v-128h-64v-64h-64v128h64v128h64v192h64v-64h256v-384h-64v-128h-64v-64h-64v-64h-192z" />
    <glyph glyph-name="uni30B0" unicode="&#x30b0;" 
d="M128 0v64h128v64h64v64h64v128h64v256h-192v-128h-64v-128h-64v-64h-64v128h64v128h64v192h64v-64h128v128h64v-128h64v-384h-64v-128h-64v-64h-64v-64h-192zM512 640v128h64v-128h-64z" />
    <glyph glyph-name="uni30B1" unicode="&#x30b1;" 
d="M128 0v64h64v64h64v64h64v320h-128v-128h-64v-64h-64v128h64v256h64v-128h384v-64h-192v-384h-64v-64h-64v-64h-128z" />
    <glyph glyph-name="uni30B2" unicode="&#x30b2;" 
d="M128 0v64h64v64h64v64h64v320h-128v-128h-64v-64h-64v128h64v256h64v-128h384v-64h-192v-384h-64v-64h-64v-64h-128zM384 640v128h64v-128h-64zM512 640v128h64v-128h-64z" />
    <glyph glyph-name="uni30B3" unicode="&#x30b3;" 
d="M64 0v64h384v448h-384v64h448v-576h-448z" />
    <glyph glyph-name="uni30B4" unicode="&#x30b4;" 
d="M64 0v64h384v448h-384v64h320v128h64v-128h64v-576h-448zM512 576v128h64v-128h-64z" />
    <glyph glyph-name="uni30B5" unicode="&#x30b5;" 
d="M128 0v64h128v64h64v64h64v256h-192v-192h-64v192h-128v64h128v192h64v-192h192v192h64v-192h128v-64h-128v-320h-64v-64h-64v-64h-192z" />
    <glyph glyph-name="uni30B6" unicode="&#x30b6;" 
d="M128 0v64h128v64h64v64h64v256h-192v-192h-64v192h-128v64h128v192h64v-192h192v192h64v64h64v-128h-64v-128h128v-64h-128v-320h-64v-64h-64v-64h-192zM576 640v128h64v-128h-64z" />
    <glyph glyph-name="uni30B7" unicode="&#x30b7;" 
d="M64 0v64h192v64h128v-64h-64v-64h-256zM384 128v64h64v-64h-64zM128 320v64h-64v64h128v-64h64v-64h-128zM448 192v128h64v192h64v-256h-64v-64h-64zM128 512v64h-64v64h128v-64h64v-64h-128z" />
    <glyph glyph-name="uni30B8" unicode="&#x30b8;" 
d="M64 0v64h192v64h128v-64h-64v-64h-256zM384 128v64h64v-64h-64zM128 320v64h-64v64h128v-64h64v-64h-128zM448 192v128h64v192h64v-256h-64v-64h-64zM128 512v64h-64v64h128v-64h64v-64h-128zM384 576v128h64v-128h-64zM512 576v128h64v-128h-64z" />
    <glyph glyph-name="uni30B9" unicode="&#x30b9;" 
d="M0 0v64h64v64h128v-64h-64v-64h-128zM448 0v64h-64v64h-64v64h-64v-64h-64v128h64v64h64v128h64v128h-320v64h384v-256h-64v-192h64v-64h64v-128h-64z" />
    <glyph glyph-name="uni30BA" unicode="&#x30ba;" 
d="M0 0v64h64v64h128v-64h-64v-64h-128zM448 0v64h-64v64h-64v64h-64v-64h-64v128h64v64h64v128h64v128h-320v64h320v128h64v-384h-64v-192h64v-64h64v-128h-64zM512 640v128h64v-128h-64z" />
    <glyph glyph-name="uni30BB" unicode="&#x30bb;" 
d="M192 0v64h-64v256h-128v64h64v64h64v256h64v-256h64v64h128v64h192v-256h-64v-128h-128v64h64v128h64v128h-64v-64h-128v-64h-128v-256h64v-64h256v-64h-320z" />
    <glyph glyph-name="uni30BC" unicode="&#x30bc;" 
d="M192 0v64h-64v256h-128v64h64v64h64v256h64v-256h64v64h128v64h192v-256h-64v-128h-128v64h64v128h64v128h-64v-64h-128v-64h-128v-256h64v-64h256v-64h-320zM384 640v128h64v-128h-64zM512 640v128h64v-128h-64z" />
    <glyph glyph-name="uni30BD" unicode="&#x30bd;" 
d="M128 0v64h128v64h128v-64h-64v-64h-192zM128 384v128h-64v128h64v-64h64v-192h-64zM384 128v128h64v384h64v-448h-64v-64h-64z" />
    <glyph glyph-name="uni30BE" unicode="&#x30be;" 
d="M128 0v64h128v64h128v-64h-64v-64h-192zM384 128v128h64v320h64v-384h-64v-64h-64zM128 384v128h-64v128h64v-64h64v-192h-64zM384 640v128h64v-128h-64zM512 640v128h64v-128h-64z" />
    <glyph glyph-name="uni30BF" unicode="&#x30bf;" 
d="M128 0v64h128v64h128v-64h-64v-64h-192zM384 128v128h-128v64h-64v64h128v-64h128v256h-192v-64h-64v-128h-64v-64h-64v128h64v128h64v128h64v-64h256v-448h-64v-64h-64z" />
    <glyph glyph-name="uni30C0" unicode="&#x30c0;" 
d="M128 0v64h128v64h128v-64h-64v-64h-192zM384 128v128h-128v64h-64v64h128v-64h128v256h-192v-64h-64v-128h-64v-64h-64v128h64v128h64v128h64v-64h128v128h64v-128h64v-448h-64v-64h-64zM512 640v128h64v-128h-64z" />
    <glyph glyph-name="uni30C1" unicode="&#x30c1;" 
d="M64 0v64h128v64h64v192h-256v64h256v128h-192v64h128v64h192v-64h-64v-192h192v-64h-192v-256h-64v-64h-192zM384 640v64h64v-64h-64z" />
    <glyph glyph-name="uni30C2" unicode="&#x30c2;" 
d="M64 0v64h128v64h64v192h-256v64h256v128h-192v64h128v64h192v-64h-64v-192h192v-64h-192v-256h-64v-64h-192zM448 512v128h64v-128h-64zM576 512v128h64v-128h-64zM384 640v64h64v-64h-64z" />
    <glyph glyph-name="uni30C3" unicode="&#x30c3;" 
d="M128 192v64h-64v128h64v-64h64v-128h-64zM128 0v64h128v64h64v64h64v192h64v-256h-64v-64h-64v-64h-192zM256 256v64h-64v128h64v-64h64v-128h-64z" />
    <glyph glyph-name="uni30C4" unicode="&#x30c4;" 
d="M128 0v64h128v64h128v-64h-64v-64h-192zM64 320v128h-64v128h64v-64h64v-192h-64zM384 128v128h64v320h64v-384h-64v-64h-64zM256 384v128h-64v128h64v-64h64v-192h-64z" />
    <glyph glyph-name="uni30C5" unicode="&#x30c5;" 
d="M128 0v64h128v64h128v-64h-64v-64h-192zM64 320v128h-64v128h64v-64h64v-192h-64zM384 128v128h64v320h64v-384h-64v-64h-64zM256 384v128h-64v128h64v-64h64v-192h-64zM384 640v128h192v-128h-192z" />
    <glyph glyph-name="uni30C6" unicode="&#x30c6;" horiz-adv-x="576" 
d="M64 0v64h128v64h64v192h-256v64h512v-64h-192v-256h-64v-64h-192zM64 576v64h384v-64h-384z" />
    <glyph glyph-name="uni30C7" unicode="&#x30c7;" 
d="M64 0v64h128v64h64v192h-256v64h512v-64h-192v-256h-64v-64h-192zM64 576v64h320v128h64v-192h-384zM512 640v128h64v-128h-64z" />
    <glyph glyph-name="uni30C8" unicode="&#x30c8;" 
d="M128 0v704h64v-256h128v-64h128v-64h64v-64h-128v64h-128v64h-64v-384h-64z" />
    <glyph glyph-name="uni30C9" unicode="&#x30c9;" 
d="M320 512v128h64v-128h-64zM448 512v128h64v-128h-64zM128 0v704h64v-256h128v-64h128v-64h64v-64h-128v64h-128v64h-64v-384h-64z" />
    <glyph glyph-name="uni30CA" unicode="&#x30ca;" 
d="M64 0v64h64v64h64v64h64v192h-256v64h256v256h64v-256h192v-64h-192v-256h-64v-64h-64v-64h-128z" />
    <glyph glyph-name="uni30CB" unicode="&#x30cb;" 
d="M0 64v64h512v-64h-512zM64 512v64h384v-64h-384z" />
    <glyph glyph-name="uni30CC" unicode="&#x30cc;" 
d="M64 0v64h64v64h128v-64h-64v-64h-128zM448 64v64h64v-64h-64zM256 128v64h64v-64h-64zM384 128v64h64v-64h-64zM320 192v64h64v-64h-64zM192 256v64h-64v64h128v-64h64v-64h-128zM384 256v128h64v192h-384v64h448v-320h-64v-64h-64z" />
    <glyph glyph-name="uni30CD" unicode="&#x30cd;" 
d="M0 128v64h64v64h128v-64h-64v-64h-128zM448 128v64h-64v64h128v-64h64v-64h-128zM256 0v256h-64v64h64v64h64v-64h64v-64h-64v-256h-64zM320 384v64h64v-64h-64zM384 448v64h-320v64h192v64h-64v64h128v-128h128v-128h-64z" />
    <glyph glyph-name="uni30CE" unicode="&#x30ce;" 
d="M64 0v64h64v64h128v-64h-64v-64h-128zM256 128v64h64v-64h-64zM320 192v128h64v128h64v192h64v-256h-64v-128h-64v-64h-64z" />
    <glyph glyph-name="uni30CF" unicode="&#x30cf;" 
d="M448 0v256h-64v192h-64v128h64v-64h64v-192h64v-320h-64zM0 0v128h64v192h64v320h64v-384h-64v-192h-64v-64h-64z" />
    <glyph glyph-name="uni30D0" unicode="&#x30d0;" 
d="M448 0v256h-64v192h-64v128h64v-64h64v-192h64v-320h-64zM0 0v128h64v192h64v320h64v-384h-64v-192h-64v-64h-64zM384 576v128h64v-128h-64zM512 576v128h64v-128h-64z" />
    <glyph glyph-name="uni30D1" unicode="&#x30d1;" 
d="M0 0v128h64v192h64v320h64v-384h-64v-192h-64v-64h-64zM512 576v64h-64v-64h64zM448 0v256h-64v192h-64v128h64v128h192v-192h-128v-192h64v-320h-64z" />
    <glyph glyph-name="uni30D2" unicode="&#x30d2;" 
d="M128 0v64h-64v640h64v-256h192v64h192v-64h-128v-64h-256v-256h64v-64h320v-64h-384z" />
    <glyph glyph-name="uni30D3" unicode="&#x30d3;" 
d="M128 0v64h-64v640h64v-256h192v64h192v-64h-128v-64h-256v-256h64v-64h320v-64h-384zM384 576v128h64v-128h-64zM512 576v128h64v-128h-64z" />
    <glyph glyph-name="uni30D4" unicode="&#x30d4;" 
d="M512 576v64h-64v-64h64zM128 0v64h-64v640h64v-256h128v64h128v192h192v-192h-128v-64h-128v-64h-192v-256h64v-64h320v-64h-384z" />
    <glyph glyph-name="uni30D5" unicode="&#x30d5;" 
d="M128 0v64h128v64h128v-64h-64v-64h-192zM384 128v128h64v320h-384v64h448v-448h-64v-64h-64z" />
    <glyph glyph-name="uni30D6" unicode="&#x30d6;" 
d="M128 0v64h128v64h128v-64h-64v-64h-192zM384 128v128h64v320h-384v64h320v128h64v-128h64v-448h-64v-64h-64zM512 640v128h64v-128h-64z" />
    <glyph glyph-name="uni30D7" unicode="&#x30d7;" 
d="M128 0v64h128v64h128v-64h-64v-64h-192zM512 640v64h-64v-64h64zM384 128v128h64v320h-384v64h320v128h192v-192h-64v-384h-64v-64h-64z" />
    <glyph glyph-name="uni30D8" unicode="&#x30d8;" 
d="M512 64v64h-64v64h-64v64h-64v64h-64v64h-128v-128h-64v-64h-64v128h64v128h64v64h128v-64h64v-64h64v-64h64v-64h64v-64h64v-128h-64z" />
    <glyph glyph-name="uni30D9" unicode="&#x30d9;" 
d="M512 64v64h-64v64h-64v64h-64v64h-64v64h-128v-128h-64v-64h-64v128h64v128h64v64h128v-64h64v-64h64v-64h64v-64h64v-64h64v-128h-64zM320 512v128h64v-128h-64zM448 512v128h64v-128h-64z" />
    <glyph glyph-name="uni30DA" unicode="&#x30da;" 
d="M512 64v64h-64v64h-64v64h-64v64h-64v64h-128v-128h-64v-64h-64v128h64v128h64v64h128v-64h64v-64h64v-64h64v-64h64v-64h64v-128h-64zM512 512v64h-64v-64h64zM384 448v192h192v-192h-192z" />
    <glyph glyph-name="uni30DB" unicode="&#x30db;" 
d="M0 64v128h64v128h64v-192h-64v-64h-64zM512 64v128h-64v128h64v-64h64v-192h-64zM192 0v64h64v384h-192v64h192v192h64v-192h192v-64h-192v-448h-128z" />
    <glyph glyph-name="uni30DC" unicode="&#x30dc;" 
d="M0 64v128h64v128h64v-192h-64v-64h-64zM512 64v128h-64v128h64v-64h64v-192h-64zM192 0v64h64v384h-192v64h192v192h64v-192h192v-64h-192v-448h-128zM384 576v128h64v-128h-64zM512 576v128h64v-128h-64z" />
    <glyph glyph-name="uni30DD" unicode="&#x30dd;" 
d="M0 64v128h64v128h64v-192h-64v-64h-64zM512 64v128h-64v128h64v-64h64v-192h-64zM192 0v64h64v384h-192v64h192v192h64v-192h192v-64h-192v-448h-128zM512 640v64h-64v-64h64zM384 576v192h192v-192h-192z" />
    <glyph glyph-name="uni30DE" unicode="&#x30de;" 
d="M320 256v64h64v-64h-64zM320 0v64h-64v128h-64v128h-64v128h64v-64h64v-128h64v-128h64v-128h-64zM384 320v128h64v128h-448v64h512v-256h-64v-64h-64z" />
    <glyph glyph-name="uni30DF" unicode="&#x30df;" 
d="M320 0v64h-128v64h-128v64h192v-64h128v-64h64v-64h-128zM256 320v64h-128v64h192v-64h64v-64h-128zM320 512v64h-64v64h-128v64h192v-64h64v-64h64v-64h-128z" />
    <glyph glyph-name="uni30E0" unicode="&#x30e0;" 
d="M0 0v192h64v192h64v192h64v128h64v-192h-64v-192h-64v-192h-64v-64h64v64h128v64h128v64h-64v128h64v-64h64v-128h64v-192h-64v128h-128v-64h-128v-64h-192z" />
    <glyph glyph-name="uni30E1" unicode="&#x30e1;" 
d="M0 0v64h128v64h128v-64h-64v-64h-192zM448 64v64h64v-64h-64zM256 128v64h64v-64h-64zM384 128v64h64v-64h-64zM320 192v64h-128v64h-64v64h128v-64h128v128h64v192h64v-256h-64v-128h-64v-64h-64z" />
    <glyph glyph-name="uni30E2" unicode="&#x30e2;" 
d="M256 0v64h-64v256h-192v64h192v192h-128v64h384v-64h-192v-192h256v-64h-256v-192h64v-64h192v-64h-256z" />
    <glyph glyph-name="uni30E3" unicode="&#x30e3;" 
d="M384 192v64h64v-64h-64zM256 0v128h-64v128h-128v64h64v192h64v-128h128v64h192v-192h-64v128h-64v-64h-128v-128h64v-192h-64z" />
    <glyph glyph-name="uni30E4" unicode="&#x30e4;" 
d="M384 256v64h64v-64h-64zM256 0v128h-64v192h-64v64h-128v64h128v64h-64v128h64v-64h64v-64h128v64h256v-192h-64v-64h-64v128h64v64h-128v-64h-192v-64h64v-192h64v-192h-64z" />
    <glyph glyph-name="uni30E5" unicode="&#x30e5;" 
d="M64 0v64h256v320h-192v64h256v-384h128v-64h-448z" />
    <glyph glyph-name="uni30E6" unicode="&#x30e6;" 
d="M64 0v64h320v448h-256v64h320v-512h128v-64h-512z" />
    <glyph glyph-name="uni30E7" unicode="&#x30e7;" 
d="M128 0v64h256v128h-192v64h192v128h-256v64h320v-448h-320z" />
    <glyph glyph-name="uni30E8" unicode="&#x30e8;" 
d="M64 0v64h384v256h-320v64h320v192h-384v64h448v-640h-448z" />
    <glyph glyph-name="uni30E9" unicode="&#x30e9;" 
d="M128 0v64h128v64h128v-64h-64v-64h-192zM384 128v128h64v128h-384v64h448v-256h-64v-64h-64zM128 576v64h320v-64h-320z" />
    <glyph glyph-name="uni30EA" unicode="&#x30ea;" 
d="M128 256v384h64v-384h-64zM192 0v64h128v64h64v64h64v512h64v-576h-64v-64h-64v-64h-192z" />
    <glyph glyph-name="uni30EB" unicode="&#x30eb;" 
d="M0 0v128h64v192h64v320h64v-384h-64v-192h-64v-64h-64zM256 0v704h64v-640h64v64h64v64h64v192h64v-256h-64v-64h-64v-64h-192z" />
    <glyph glyph-name="uni30EC" unicode="&#x30ec;" 
d="M384 128v128h64v128h64v-192h-64v-64h-64zM64 0v704h64v-640h128v64h128v-64h-64v-64h-256z" />
    <glyph glyph-name="uni30ED" unicode="&#x30ed;" 
d="M448 64v512h-320v-512h320zM64 0v640h448v-640h-448z" />
    <glyph glyph-name="uni30EE" unicode="&#x30ee;" 
d="M128 0v64h128v64h64v64h64v192h-256v-192h-64v256h384v-320h-64v-64h-64v-64h-192z" />
    <glyph glyph-name="uni30EF" unicode="&#x30ef;" 
d="M128 0v64h128v64h128v-64h-64v-64h-192zM384 128v128h64v320h-320v-256h-64v320h448v-448h-64v-64h-64z" />
    <glyph glyph-name="uni30F2" unicode="&#x30f2;" 
d="M128 0v64h128v64h128v-64h-64v-64h-192zM384 128v128h64v64h-384v64h384v192h-384v64h448v-448h-64v-64h-64z" />
    <glyph glyph-name="uni30F3" unicode="&#x30f3;" 
d="M64 0v64h192v64h128v-64h-64v-64h-256zM384 128v128h64v192h64v-256h-64v-64h-64zM128 448v64h-64v64h-64v64h128v-64h64v-128h-64z" />
    <glyph glyph-name="uni30F4" unicode="&#x30f4;" 
d="M192 0v64h128v64h64v64h64v256h-320v-128h-64v320h64v-128h128v64h-64v128h64v-64h64v-128h192v-384h-64v-64h-64v-64h-192zM384 640v128h64v-128h-64zM512 640v128h64v-128h-64z" />
    <glyph glyph-name="uni30F5" unicode="&#x30f5;" 
d="M64 0v64h64v-64h-64zM320 0v64h64v256h-128v-192h-64v-64h-64v128h64v128h-128v64h128v128h64v-128h192v-384h-128z" />
    <glyph glyph-name="uni30F6" unicode="&#x30f6;" 
d="M128 0v64h64v64h64v192h-64v-64h-64v-64h-64v128h64v192h64v-128h256v-64h-128v-256h-64v-64h-128z" />
    <glyph glyph-name="uni30F7" unicode="&#x30f7;" 
d="M128 0v64h128v64h128v-64h-64v-64h-192zM384 128v128h64v320h-320v-256h-64v320h320v128h64v-128h64v-448h-64v-64h-64zM512 640v128h64v-128h-64z" />
    <glyph glyph-name="uni30FA" unicode="&#x30fa;" 
d="M128 0v64h128v64h128v-64h-64v-64h-192zM384 128v128h64v64h-384v64h384v192h-384v64h320v128h64v-128h64v-448h-64v-64h-64zM512 640v128h64v-128h-64z" />
    <glyph glyph-name="uni30FB" unicode="&#x30fb;" 
d="M64 320v64h64v-64h-64z" />
    <glyph glyph-name="uni30FC" unicode="&#x30fc;" 
d="M64 320v64h448v-64h-448z" />
    <glyph glyph-name="uniFF01" unicode="&#xff01;" 
d="M64 128v64h64v-64h-64zM64 256v384h128v-256h-64v-128h-64z" />
    <glyph glyph-name="uniFF02" unicode="&#xff02;" 
d="M0 576v128h64v-128h-64zM128 576v128h64v-128h-64z" />
    <glyph glyph-name="uniFF03" unicode="&#xff03;" 
d="M192 320v128h-64v-128h64zM64 128v128h-64v64h64v128h-64v64h64v128h64v-128h64v128h64v-128h64v-64h-64v-128h64v-64h-64v-128h-64v128h-64v-128h-64z" />
    <glyph glyph-name="uniFF04" unicode="&#xff04;" 
d="M256 256v128h-64v-128h64zM128 448v64h-64v-64h64zM128 128v64h-128v64h128v128h-128v192h128v64h64v-64h128v-64h-128v-64h128v-256h-128v-64h-64z" />
    <glyph glyph-name="uniFF05" unicode="&#xff05;" 
d="M0 192v64h64v-64h-64zM320 192v64h-64v-64h64zM64 256v64h64v-64h-64zM192 128v192h192v-192h-192zM128 320v64h64v-64h-64zM192 384v64h64v-64h-64zM256 448v64h64v-64h-64zM128 512v64h-64v-64h64zM320 512v64h64v-64h-64zM0 448v192h192v-192h-192z" />
    <glyph glyph-name="uniFF06" unicode="&#xff06;" 
d="M64 128v64h64v64h64v64h64v-64h64v-128h-64v64h-64v-64h-128zM0 192v192h64v-192h-64zM128 320v64h64v-64h-64zM256 320v64h64v-64h-64zM128 512v64h-64v-64h64zM64 384v64h-64v192h192v-192h-64v-64h-64z" />
    <glyph glyph-name="uniFF07" unicode="&#xff07;" 
d="M64 576v128h64v-128h-64z" />
    <glyph glyph-name="uniFF08" unicode="&#xff08;" 
d="M128 64v64h64v-64h-64zM64 128v64h-64v384h64v64h64v-128h-64v-256h64v-128h-64zM128 640v64h64v-64h-64z" />
    <glyph glyph-name="uniFF09" unicode="&#xff09;" 
d="M0 64v64h64v-64h-64zM64 128v128h64v256h-64v128h64v-64h64v-384h-64v-64h-64zM0 640v64h64v-64h-64z" />
    <glyph glyph-name="uniFF0A" unicode="&#xff0a;" 
d="M128 192v64h64v-64h-64zM256 128v128h64v-128h-64zM384 192v64h64v-64h-64zM192 256v128h64v-128h-64zM320 256v128h64v-128h-64zM128 384v64h64v-64h-64zM384 384v64h64v-64h-64zM256 384v128h64v-128h-64z" />
    <glyph glyph-name="uniFF0B" unicode="&#xff0b;" 
d="M128 192v128h-128v64h128v128h64v-128h128v-64h-128v-128h-64z" />
    <glyph glyph-name="uniFF0C" unicode="&#xff0c;" 
d="M0 64v64h64v-64h-64zM64 128v64h64v-64h-64z" />
    <glyph glyph-name="uniFF0D" unicode="&#xff0d;" 
d="M0 320v64h320v-64h-320z" />
    <glyph glyph-name="uniFF0E" unicode="&#xff0e;" 
d="M0 128v64h64v-64h-64z" />
    <glyph glyph-name="uniFF0F" unicode="&#xff0f;" 
d="M0 128v128h64v128h64v128h64v128h64v64h64v-128h-64v-128h-64v-128h-64v-128h-64v-64h-64z" />
    <glyph glyph-name="uniFF1A" unicode="&#xff1a;" 
d="M64 192v64h64v-64h-64zM64 384v64h64v-64h-64z" />
    <glyph glyph-name="uniFF1B" unicode="&#xff1b;" 
d="M0 128v64h64v-64h-64zM64 192v64h64v-64h-64zM64 384v64h64v-64h-64z" />
    <glyph glyph-name="uniFF1C" unicode="&#xff1c;" 
d="M192 128v64h64v-64h-64zM128 192v64h64v-64h-64zM64 256v64h64v-64h-64zM0 320v64h64v-64h-64zM64 384v64h64v-64h-64zM128 448v64h64v-64h-64zM192 512v64h64v-64h-64z" />
    <glyph glyph-name="uniFF1D" unicode="&#xff1d;" 
d="M0 192v64h320v-64h-320zM0 384v64h320v-64h-320z" />
    <glyph glyph-name="uniFF1E" unicode="&#xff1e;" 
d="M0 128v64h64v-64h-64zM64 192v64h64v-64h-64zM128 256v64h64v-64h-64zM192 320v64h64v-64h-64zM128 384v64h64v-64h-64zM64 448v64h64v-64h-64zM0 512v64h64v-64h-64z" />
    <glyph glyph-name="uniFF1F" unicode="&#xff1f;" 
d="M128 128v64h64v-64h-64zM128 256v192h128v128h-192v-128h-64v192h320v-256h-128v-128h-64z" />
    <glyph glyph-name="uniFF3B" unicode="&#xff3b;" 
d="M0 64v640h192v-64h-128v-512h128v-64h-192z" />
    <glyph glyph-name="uniFF3C" unicode="&#xff3c;" 
d="M256 128v64h-64v128h-64v128h-64v128h-64v128h64v-64h64v-128h64v-128h64v-128h64v-128h-64z" />
    <glyph glyph-name="uniFF3D" unicode="&#xff3d;" 
d="M0 64v64h128v512h-128v64h192v-640h-192z" />
    <glyph glyph-name="uniFF3F" unicode="&#xff3f;" 
d="M0 64v64h320v-64h-320z" />
    <glyph glyph-name="uniFF5B" unicode="&#xff5b;" 
d="M128 64v64h64v-64h-64zM64 128v192h64v-192h-64zM0 320v128h64v-128h-64zM64 448v192h64v-192h-64zM128 640v64h64v-64h-64z" />
    <glyph glyph-name="uniFF5C" unicode="&#xff5c;" 
d="M0 64v640h64v-640h-64z" />
    <glyph glyph-name="uniFF5D" unicode="&#xff5d;" 
d="M0 64v64h64v-64h-64zM64 128v192h64v-192h-64zM128 320v128h64v-128h-64zM64 448v192h64v-192h-64zM0 640v64h64v-64h-64z" />
    <glyph glyph-name="uniFF5E" unicode="&#xff5e;" 
d="M256 384v64h64v-64h-64zM320 320v64h128v64h128v-64h-64v-64h-192zM0 384v64h64v64h192v-64h-128v-64h-128z" />
    <glyph glyph-name="uniFF61" unicode="&#xff61;" 
d="M128 128v64h-64v-64h64zM0 64v192h192v-192h-192z" />
    <glyph glyph-name="uniFFE4" unicode="&#xffe4;" 
d="M0 64v256h64v-256h-64zM0 448v256h64v-256h-64z" />
    <glyph glyph-name="uniFFE5" unicode="&#xffe5;" 
d="M128 128v128h-128v64h128v64h-128v64h128v64h64v-64h128v-64h-128v-64h128v-64h-128v-128h-64zM64 512v64h64v-64h-64zM192 512v64h64v-64h-64zM0 576v64h64v-64h-64zM256 576v64h64v-64h-64z" />
    <glyph glyph-name="uniFFED" unicode="&#xffed;" 
d="M256 448v256h-192v-256h192zM512 448v256h-192v-256h192zM0 0v768h576v-768h-192v64h128v320h-448v-384h-64z" />
    <glyph glyph-name="uniFFEE" unicode="&#xffee;" 
d="M192 320v128h-64v-64h-64v-64h128zM448 448v64h64v-64h-64zM0 0v64h64v64h64v128h-64v-64h-64v256h64v192h-64v64h512v-64h-128v-192h64v-64h-64v-320h128v128h64v-192h-256v640h-192v-128h128v-320h-64v-128h-64v-64h-128z" />
  </font>
</defs>
</svg>
