<?xml version="1.0" standalone="no"?>
<!DOCTYPE svg PUBLIC "-//W3C//DTD SVG 1.1//EN" "http://www.w3.org/Graphics/SVG/1.1/DTD/svg11.dtd" >
<svg>
<metadata>
Created by FontForge 20090622 at Sun May  8 22:03:32 2016
 By deploy user
Copyright (c) 2014 Caveras / Cliff Modes
</metadata>
<defs>
<font id="Gaiatype" horiz-adv-x="768" >
  <font-face 
    font-family="Gaiatype"
    font-weight="400"
    font-stretch="normal"
    units-per-em="1024"
    panose-1="0 0 4 0 0 0 0 0 0 0"
    ascent="819"
    descent="-205"
    x-height="576"
    cap-height="896"
    bbox="0 -128 896 896"
    underline-thickness="51"
    underline-position="127"
    unicode-range="U+0020-U+FFE6"
  />
<missing-glyph 
d="M576 128v704h-448v-704h448zM64 64v832h576v-832h-576z" />
    <glyph glyph-name=".notdef" 
d="M576 128v704h-448v-704h448zM64 64v832h576v-832h-576z" />
    <glyph glyph-name="NULL" 
 />
    <glyph glyph-name="nonmarkingreturn" horiz-adv-x="192" 
 />
    <glyph glyph-name="space" unicode=" " 
 />
    <glyph glyph-name="exclam" unicode="!" 
d="M256 0v128h128v-128h-128zM320 192v448h128v-320h-64v-128h-64z" />
    <glyph glyph-name="quotedbl" unicode="&#x22;" 
d="M192 512v192h64v-64h64v-128h-128zM384 512v192h64v-64h64v-128h-128zM256 704v64h64v-64h-64zM448 704v64h64v-64h-64z" />
    <glyph glyph-name="numbersign" unicode="#" 
d="M448 256v320h-128v-320h128zM192 64v128h-64v64h64v320h-64v64h64v128h128v-128h128v128h128v-128h64v-64h-64v-320h64v-64h-64v-128h-128v128h-128v-128h-128z" />
    <glyph glyph-name="dollar" unicode="$" 
d="M320 0v128h-64v64h-64v64h128v-64h128v192h-192v64h-64v192h64v64h64v128h128v-128h64v-64h64v-64h-128v64h-128v-192h192v-64h64v-192h-64v-64h-64v-128h-128z" />
    <glyph glyph-name="percent" unicode="%" 
d="M128 128v64h64v-64h-64zM192 192v64h64v-64h-64zM448 128v128h128v-128h-128zM256 256v64h64v-64h-64zM320 320v64h64v-64h-64zM384 384v64h64v-64h-64zM448 448v64h64v-64h-64zM128 448v128h128v-128h-128zM512 512v64h64v-64h-64z" />
    <glyph glyph-name="ampersand" unicode="&#x26;" 
d="M640 0v64h64v-64h-64zM448 64v64h64v-64h-64zM576 64v64h64v-64h-64zM512 128v64h64v-64h-64zM192 0v64h-64v128h64v64h64v-192h192v-64h-256zM448 192v64h64v-64h-64zM256 256v64h64v-64h-64zM384 256v64h64v-64h-64zM576 192v128h128v-64h-64v-64h-64zM448 448v256h64
v-256h-64zM320 320v64h-64v64h-64v256h64v64h192v-64h-128v-256h128v-64h-64v-64h-64z" />
    <glyph glyph-name="quotesingle" unicode="'" 
d="M256 448v64h64v-64h-64zM320 512v64h-64v128h128v-192h-64z" />
    <glyph glyph-name="parenleft" unicode="(" 
d="M576 0v64h64v-64h-64zM512 64v64h64v-64h-64zM448 128v128h64v-128h-64zM384 256v256h64v-256h-64zM448 512v128h64v-128h-64zM512 640v64h64v-64h-64zM576 704v64h64v-64h-64z" />
    <glyph glyph-name="parenright" unicode=")" 
d="M128 0v64h64v-64h-64zM192 64v64h64v-64h-64zM256 128v128h64v-128h-64zM320 256v256h64v-256h-64zM256 512v128h64v-128h-64zM192 640v64h64v-64h-64zM128 704v64h64v-64h-64z" />
    <glyph glyph-name="asterisk" unicode="*" 
d="M320 0v192h-64v-64h-64v-64h-64v128h64v64h64v64h64v64h-64v64h-64v64h-64v128h64v-64h64v-64h64v192h128v-192h64v64h64v64h64v-128h-64v-64h-64v-64h-64v-64h64v-64h64v-64h64v-128h-64v64h-64v64h-64v-192h-128z" />
    <glyph glyph-name="plus" unicode="+" 
d="M320 64v256h-256v64h256v256h64v-256h256v-64h-256v-256h-64z" />
    <glyph glyph-name="comma" unicode="," 
d="M256 64v64h64v-64h-64zM320 128v128h64v-128h-64z" />
    <glyph glyph-name="hyphen" unicode="-" 
d="M64 320v64h576v-64h-576z" />
    <glyph glyph-name="period" unicode="." 
d="M128 0v128h128v-128h-128z" />
    <glyph glyph-name="slash" unicode="/" 
d="M64 64v64h64v-64h-64zM128 128v64h64v-64h-64zM192 192v64h64v-64h-64zM256 256v64h64v-64h-64zM320 320v64h64v-64h-64zM384 384v64h64v-64h-64zM448 448v64h64v-64h-64zM512 512v64h64v-64h-64zM576 576v64h64v-64h-64zM640 640v64h64v-64h-64z" />
    <glyph glyph-name="zero" unicode="0" 
d="M448 128v384h-64v64h64v256h-128v-320h64v-64h-64v-320h128zM256 64v64h-64v704h64v64h256v-64h64v-704h-64v-64h-256z" />
    <glyph glyph-name="one" unicode="1" 
d="M256 64v64h64v640h-64v64h64v64h128v-768h64v-64h-256z" />
    <glyph glyph-name="two" unicode="2" 
d="M192 64v192h64v64h64v-192h128v64h128v-128h-384zM320 320v64h64v-64h-64zM384 384v64h64v384h128v-384h-64v-64h-128zM192 640v192h64v64h192v-64h-128v-192h-128z" />
    <glyph glyph-name="three" unicode="3" 
d="M256 64v64h-64v192h128v-192h128v320h-128v64h128v320h-128v-192h-128v192h64v64h256v-64h64v-256h-64v-128h64v-320h-64v-64h-256z" />
    <glyph glyph-name="four" unicode="4" 
d="M128 192v192h64v128h64v-256h64v-64h-192zM256 512v128h64v-128h-64zM384 64v576h-64v128h64v128h128v-640h64v-64h-64v-128h-128z" />
    <glyph glyph-name="five" unicode="5" 
d="M256 64v64h-64v128h128v-128h128v384h-128v-64h-128v448h384v-64h-320v-64h64v-192h192v-64h64v-384h-64v-64h-256z" />
    <glyph glyph-name="six" unicode="6" 
d="M256 64v64h-64v704h64v64h256v-64h64v-128h-128v128h-128v-704h128v384h-64v64h128v-64h64v-384h-64v-64h-256z" />
    <glyph glyph-name="seven" unicode="7" 
d="M320 64v384h64v192h64v192h-128v-128h-128v192h384v-192h-64v-192h-64v-448h-128z" />
    <glyph glyph-name="eight" unicode="8" 
d="M448 128v320h-64v64h64v320h-128v-704h128zM256 64v64h-64v320h64v128h-64v256h64v64h256v-64h64v-256h-64v-128h64v-320h-64v-64h-256z" />
    <glyph glyph-name="nine" unicode="9" 
d="M256 64v64h-64v128h128v-128h128v704h-128v-384h64v-64h-128v64h-64v384h64v64h256v-64h64v-704h-64v-64h-256z" />
    <glyph glyph-name="colon" unicode=":" 
d="M320 128v128h128v-128h-128zM320 512v128h128v-128h-128z" />
    <glyph glyph-name="semicolon" unicode=";" 
d="M320 0v64h64v-64h-64zM384 64v64h-64v128h128v-192h-64zM320 512v128h128v-128h-128z" />
    <glyph glyph-name="less" unicode="&#x3c;" 
d="M576 128v64h64v-64h-64zM512 192v64h64v-64h-64zM448 256v64h64v-64h-64zM384 320v64h64v-64h-64zM448 384v64h64v-64h-64zM512 448v64h64v-64h-64zM576 512v64h64v-64h-64z" />
    <glyph glyph-name="equal" unicode="=" 
d="M64 256v64h512v-64h-512zM64 448v64h512v-64h-512z" />
    <glyph glyph-name="greater" unicode="&#x3e;" 
d="M128 128v64h64v-64h-64zM192 192v64h64v-64h-64zM256 256v64h64v-64h-64zM320 320v64h64v-64h-64zM256 384v64h64v-64h-64zM192 448v64h64v-64h-64zM128 512v64h64v-64h-64z" />
    <glyph glyph-name="question" unicode="?" 
d="M256 0v128h128v-128h-128zM256 192v128h64v64h128v192h-192v-128h-128v128h64v64h320v-64h64v-192h-64v-64h-128v-128h-128z" />
    <glyph glyph-name="at" unicode="@" 
d="M192 0v64h320v-64h-320zM128 64v64h64v-64h-64zM256 128v64h-64v192h64v64h64v-256h64v-64h-128zM64 128v448h64v-448h-64zM448 128v64h-64v320h-192v64h256v-64h64v-320h64v-64h-128zM576 192v384h64v-384h-64zM128 576v64h64v-64h-64zM512 576v64h64v-64h-64zM192 640
v64h320v-64h-320z" />
    <glyph glyph-name="A" unicode="A" 
d="M128 64v192h64v-192h-64zM192 256v128h64v-128h-64zM256 384v128h64v-128h-64zM320 512v128h64v-128h-64zM448 64v128h-128v64h128v384h-64v128h64v128h128v-832h-128z" />
    <glyph glyph-name="B" unicode="B" 
d="M448 128v320h-64v64h64v320h-192v-64h64v-640h128zM192 64v832h320v-64h64v-320h-64v-64h64v-320h-64v-64h-320z" />
    <glyph glyph-name="C" unicode="C" 
d="M256 64v64h-64v704h64v64h256v-64h64v-192h-128v192h-128v-704h128v256h128v-256h-64v-64h-256z" />
    <glyph glyph-name="D" unicode="D" 
d="M448 128v704h-192v-64h64v-640h128zM128 64v64h64v704h-64v64h384v-64h64v-704h-64v-64h-384z" />
    <glyph glyph-name="E" unicode="E" 
d="M384 448v64h128v-64h-128zM192 64v832h384v-64h-320v-64h64v-640h256v-64h-384z" />
    <glyph glyph-name="F" unicode="F" 
d="M384 448v64h128v-64h-128zM192 64v832h384v-64h-320v-64h64v-704h-128z" />
    <glyph glyph-name="G" unicode="G" 
d="M256 64v64h-64v704h64v64h256v-64h64v-192h-128v192h-128v-704h128v320h-64v64h192v-448h-320z" />
    <glyph glyph-name="H" unicode="H" 
d="M192 64v832h128v-448h128v448h128v-832h-128v320h-192v-64h64v-256h-128z" />
    <glyph glyph-name="I" unicode="I" 
d="M256 64v64h64v704h-64v64h256v-64h-64v-704h64v-64h-256z" />
    <glyph glyph-name="J" unicode="J" 
d="M256 64v64h-64v128h128v-128h128v768h128v-768h-64v-64h-256z" />
    <glyph glyph-name="K" unicode="K" 
d="M384 512v128h64v-128h-64zM448 640v128h64v-128h-64zM192 64v832h128v-384h64v-64h64v-128h64v-128h64v-128h-128v128h-64v128h-64v-256h-128zM512 768v128h64v-128h-64z" />
    <glyph glyph-name="L" unicode="L" 
d="M192 64v832h128v-768h256v-64h-384z" />
    <glyph glyph-name="M" unicode="M" 
d="M128 64v832h64v-128h64v-128h64v-128h64v128h64v128h64v128h64v-832h-64v448h-64v-128h-64v-128h-64v128h-64v128h-64v-448h-64z" />
    <glyph glyph-name="N" unicode="N" 
d="M192 64v832h64v-128h64v-128h64v-128h64v384h128v-832h-128v256h-64v128h-64v128h-64v-512h-64z" />
    <glyph glyph-name="O" unicode="O" 
d="M448 128v704h-128v-704h128zM256 64v64h-64v704h64v64h256v-64h64v-704h-64v-64h-256z" />
    <glyph glyph-name="P" unicode="P" 
d="M192 64v768h-64v64h384v-64h64v-448h-64v-64h-128v64h64v448h-192v-64h64v-704h-128z" />
    <glyph glyph-name="Q" unicode="Q" 
d="M448 128v704h-128v-704h128zM512 -128v64h-64v64h-64v64h-128v64h-64v704h64v64h256v-64h64v-704h-64v-128h64v-128h-64z" />
    <glyph glyph-name="R" unicode="R" 
d="M576 -128v64h64v-64h-64zM512 -64v64h-64v320h-64v64h64v448h-192v-64h64v-704h-128v832h320v-64h64v-448h-64v-64h64v-384h-64z" />
    <glyph glyph-name="S" unicode="S" 
d="M256 64v64h-64v128h128v-128h128v256h-64v64h-128v64h-64v320h64v64h256v-64h64v-128h-128v128h-128v-256h64v-64h128v-64h64v-320h-64v-64h-256z" />
    <glyph glyph-name="T" unicode="T" 
d="M320 64v768h-192v64h512v-64h-256v-64h64v-704h-128z" />
    <glyph glyph-name="U" unicode="U" 
d="M256 64v64h-64v768h128v-768h128v768h128v-768h-64v-64h-256z" />
    <glyph glyph-name="V" unicode="V" 
d="M320 320v128h64v-128h-64zM384 448v128h64v-128h-64zM448 576v128h64v-128h-64zM128 64v832h128v-576h64v-128h-64v-128h-128zM512 704v192h64v-192h-64z" />
    <glyph glyph-name="W" unicode="W" 
d="M192 64v384h-64v448h128v-512h64v512h64v-512h64v512h128v-448h-64v-320h-64v-64h-64v192h-64v-128h-64v-64h-64z" />
    <glyph glyph-name="X" unicode="X" 
d="M192 64v128h64v-128h-64zM256 192v128h64v-128h-64zM448 640v128h64v-128h-64zM448 64v128h-64v128h-64v256h-64v192h-64v128h128v-128h64v-128h64v-256h64v-192h64v-128h-128zM512 768v128h64v-128h-64z" />
    <glyph glyph-name="Y" unicode="Y" 
d="M320 64v384h-64v192h-64v256h128v-192h64v-192h64v192h64v192h64v-256h-64v-192h-64v-384h-128z" />
    <glyph glyph-name="Z" unicode="Z" 
d="M192 64v128h64v192h64v192h64v192h64v64h-256v64h384v-128h-64v-192h-64v-192h-64v-192h-64v-64h256v-64h-384z" />
    <glyph glyph-name="bracketleft" unicode="[" 
d="M320 64v832h256v-64h-128v-704h128v-64h-256z" />
    <glyph glyph-name="backslash" unicode="\" 
d="M640 64v64h64v-64h-64zM576 128v64h64v-64h-64zM512 192v64h64v-64h-64zM448 256v64h64v-64h-64zM384 320v64h64v-64h-64zM320 384v64h64v-64h-64zM256 448v64h64v-64h-64zM192 512v64h64v-64h-64zM128 576v64h64v-64h-64zM64 640v64h64v-64h-64z" />
    <glyph glyph-name="bracketright" unicode="]" 
d="M192 64v64h128v704h-128v64h256v-832h-256z" />
    <glyph glyph-name="asciicircum" unicode="^" 
d="M192 640v64h64v-64h-64zM448 640v64h64v-64h-64zM256 704v64h64v-64h-64zM384 704v64h64v-64h-64zM320 768v64h64v-64h-64z" />
    <glyph glyph-name="underscore" unicode="_" 
d="M64 0v64h576v-64h-576z" />
    <glyph glyph-name="grave" unicode="`" 
d="M384 640v64h64v-64h-64zM320 704v64h64v-64h-64zM256 768v64h64v-64h-64z" />
    <glyph glyph-name="a" unicode="a" 
d="M256 64v64h-64v192h64v64h128v-64h-64v-192h128v-64h-192zM512 64v64h-64v384h-192v64h256v-64h64v-384h64v-64h-128z" />
    <glyph glyph-name="b" unicode="b" 
d="M320 64v64h128v384h-64v64h128v-64h64v-384h-64v-64h-192zM192 64v768h64v64h64v-768h-64v-64h-64z" />
    <glyph glyph-name="c" unicode="c" 
d="M256 64v64h-64v384h64v64h256v-64h64v-64h-128v64h-128v-384h128v128h128v-128h-64v-64h-256z" />
    <glyph glyph-name="d" unicode="d" 
d="M256 64v64h-64v384h64v64h128v-64h-64v-384h128v-64h-192zM512 64v64h-64v704h64v64h64v-768h64v-64h-128z" />
    <glyph glyph-name="e" unicode="e" 
d="M448 384v128h-128v-128h128zM256 64v64h-64v384h64v64h256v-64h64v-192h-256v-192h128v64h128v-64h-64v-64h-256z" />
    <glyph glyph-name="f" unicode="f" 
d="M320 64v448h-128v64h128v256h64v64h256v-128h-128v64h-64v-256h128v-64h-192v-64h64v-384h-128z" />
    <glyph glyph-name="g" unicode="g" 
d="M256 128v64h-64v320h64v64h192v-64h-128v-320h64v-64h-128zM256 -64v64h-64v64h128v-64h128v512h64v64h64v-576h-64v-64h-256z" />
    <glyph glyph-name="h" unicode="h" 
d="M448 64v448h-64v64h128v-64h64v-448h-128zM192 64v768h64v64h64v-832h-128z" />
    <glyph glyph-name="i" unicode="i" 
d="M320 64v448h64v64h64v-512h-128zM320 640v128h128v-128h-128z" />
    <glyph glyph-name="j" unicode="j" 
d="M192 -64v64h128v512h64v64h64v-576h-64v-64h-192zM320 640v128h128v-128h-128z" />
    <glyph glyph-name="k" unicode="k" 
d="M448 448v64h64v-64h-64zM512 512v64h64v-64h-64zM192 64v768h64v64h64v-512h64v64h64v-192h64v-128h64v-64h-128v64h-64v128h-64v-192h-128z" />
    <glyph glyph-name="l" unicode="l" 
d="M320 64v768h64v64h64v-832h-128z" />
    <glyph glyph-name="m" unicode="m" 
d="M128 64v512h384v-64h64v-448h-128v448h-64v-448h-64v448h-64v-448h-128z" />
    <glyph glyph-name="n" unicode="n" 
d="M192 64v512h320v-64h64v-448h-128v448h-128v-448h-128z" />
    <glyph glyph-name="o" unicode="o" 
d="M448 128v384h-128v-384h128zM256 64v64h-64v384h64v64h256v-64h64v-384h-64v-64h-256z" />
    <glyph glyph-name="p" unicode="p" 
d="M192 -64v640h320v-64h64v-320h-64v-64h-128v64h64v320h-128v-576h-128z" />
    <glyph glyph-name="q" unicode="q" 
d="M448 -64v576h-128v-320h64v-64h-128v64h-64v320h64v64h320v-640h-128z" />
    <glyph glyph-name="r" unicode="r" 
d="M192 64v512h128v-64h64v-64h-64v-384h-128zM448 384v128h-64v64h128v-64h64v-128h-128z" />
    <glyph glyph-name="s" unicode="s" 
d="M256 64v64h-64v64h128v-64h128v192h-192v64h-64v128h64v64h256v-64h64v-64h-128v64h-128v-128h192v-64h64v-192h-64v-64h-256z" />
    <glyph glyph-name="t" unicode="t" 
d="M320 64v448h-128v64h128v192h128v-192h128v-64h-192v-64h64v-384h-128z" />
    <glyph glyph-name="u" unicode="u" 
d="M256 64v64h128v-64h-128zM192 128v448h64v-448h-64zM448 64v64h-64v448h128v-448h64v-64h-128z" />
    <glyph glyph-name="v" unicode="v" 
d="M384 192v128h64v-128h-64zM448 320v128h64v-128h-64zM192 64v512h128v-384h64v-128h-192zM512 448v128h64v-128h-64z" />
    <glyph glyph-name="w" unicode="w" 
d="M192 64v192h-64v320h128v-320h64v320h64v-320h64v320h128v-320h-64v-192h-128v128h-64v-128h-128z" />
    <glyph glyph-name="x" unicode="x" 
d="M192 64v128h64v64h64v128h-64v64h-64v128h128v-128h128v128h128v-128h-64v-64h-64v-128h64v-64h64v-128h-128v128h-128v-128h-128z" />
    <glyph glyph-name="y" unicode="y" 
d="M192 -64v128h64v128h-64v384h128v-256h64v128h64v128h128v-64h-64v-128h-64v-128h-64v-128h-64v-128h-64v-64h-64z" />
    <glyph glyph-name="z" unicode="z" 
d="M192 64v64h64v128h64v128h64v128h-192v64h384v-64h-64v-128h-64v-128h-64v-128h192v-64h-384z" />
    <glyph glyph-name="braceleft" unicode="{" 
d="M320 64v64h-64v320h-64v64h64v320h64v64h192v-64h-128v-320h-64v-64h64v-320h128v-64h-192z" />
    <glyph glyph-name="bar" unicode="|" 
d="M256 64v832h128v-832h-128z" />
    <glyph glyph-name="braceright" unicode="}" 
d="M192 64v64h128v320h64v64h-64v320h-128v64h192v-64h64v-320h64v-64h-64v-320h-64v-64h-192z" />
    <glyph glyph-name="asciitilde" unicode="~" 
d="M192 320v64h64v-64h-64zM384 320v64h128v-64h-128zM256 384v64h128v-64h-128zM512 384v64h64v-64h-64z" />
    <glyph glyph-name="uni007F" 
d="M576 128v704h-448v-704h448zM64 64v832h576v-832h-576z" />
    <glyph glyph-name="uni00A0" unicode="&#xa0;" 
 />
    <glyph glyph-name="exclamdown" unicode="&#xa1;" 
d="M320 64v320h64v128h64v-448h-128zM320 576v128h128v-128h-128z" />
    <glyph glyph-name="cent" unicode="&#xa2;" 
d="M320 0v128h-64v64h-64v384h64v64h64v128h128v-128h64v-64h64v-64h-128v64h-128v-384h128v128h128v-128h-64v-64h-64v-128h-128z" />
    <glyph glyph-name="sterling" unicode="&#xa3;" 
d="M128 64v192h64v192h-64v128h64v256h64v64h256v-64h64v-64h-128v64h-128v-256h128v-128h-128v-192h-64v-128h384v-64h-512z" />
    <glyph glyph-name="currency" unicode="&#xa4;" 
d="M128 192v64h64v-64h-64zM512 192v64h64v-64h-64zM448 320v192h-192v-192h192zM192 256v320h320v-320h-320zM128 576v64h64v-64h-64zM512 576v64h64v-64h-64z" />
    <glyph glyph-name="yen" unicode="&#xa5;" 
d="M320 64v128h-128v64h128v64h-128v64h128v64h-64v192h-64v256h128v-192h64v-192h64v192h64v192h64v-256h-64v-192h-64v-64h128v-64h-128v-64h128v-64h-128v-128h-128z" />
    <glyph glyph-name="brokenbar" unicode="&#xa6;" 
d="M256 64v384h128v-384h-128zM256 512v384h128v-384h-128z" />
    <glyph glyph-name="section" unicode="&#xa7;" 
d="M448 384v128h-64v64h-64v-128h64v-64h64zM256 64v64h-64v64h128v-64h128v128h-64v64h-128v64h-64v192h64v64h-64v192h64v64h256v-64h64v-64h-128v64h-128v-128h64v-64h128v-64h64v-192h-64v-64h64v-192h-64v-64h-256z" />
    <glyph glyph-name="dieresis" unicode="&#xa8;" 
d="M256 704v64h64v-64h-64zM448 704v64h64v-64h-64z" />
    <glyph glyph-name="copyright" unicode="&#xa9;" 
d="M320 64v64h192v-64h-192zM192 128v64h128v-64h-128zM512 128v64h128v-64h-128zM128 192v64h64v-64h-64zM640 192v64h64v-64h-64zM320 256v64h192v-64h-192zM64 256v128h64v-128h-64zM256 320v64h64v-64h-64zM512 320v64h64v-64h-64zM704 256v128h64v-128h-64zM0 384v192
h64v-192h-64zM192 384v192h64v-192h-64zM768 384v192h64v-192h-64zM256 576v64h64v-64h-64zM512 576v64h64v-64h-64zM64 576v128h64v-128h-64zM320 640v64h192v-64h-192zM704 576v128h64v-128h-64zM128 704v64h64v-64h-64zM640 704v64h64v-64h-64zM192 768v64h128v-64h-128z
M512 768v64h128v-64h-128zM320 832v64h192v-64h-192z" />
    <glyph glyph-name="guillemotleft" unicode="&#xab;" 
d="M320 192v64h64v-64h-64zM512 192v64h64v-64h-64zM256 256v64h64v-64h-64zM448 256v64h64v-64h-64zM192 320v64h64v-64h-64zM384 320v64h64v-64h-64zM256 384v64h64v-64h-64zM448 384v64h64v-64h-64zM320 448v64h64v-64h-64zM512 448v64h64v-64h-64z" />
    <glyph glyph-name="logicalnot" unicode="&#xac;" 
d="M512 192v128h-448v64h576v-192h-128z" />
    <glyph glyph-name="uni00AD" unicode="&#xad;" 
d="M64 320v64h576v-64h-576z" />
    <glyph glyph-name="registered" unicode="&#xae;" 
d="M320 64v64h192v-64h-192zM192 128v64h128v-64h-128zM512 128v64h128v-64h-128zM128 192v64h64v-64h-64zM640 192v64h64v-64h-64zM512 256v64h64v-64h-64zM64 256v128h64v-128h-64zM448 320v64h64v-64h-64zM704 256v128h64v-128h-64zM0 384v192h64v-192h-64zM768 384v192
h64v-192h-64zM512 512v128h64v-128h-64zM64 576v128h64v-128h-64zM256 256v448h256v-64h-192v-128h192v-64h-64v-64h-64v64h-64v-192h-64zM704 576v128h64v-128h-64zM128 704v64h64v-64h-64zM640 704v64h64v-64h-64zM192 768v64h128v-64h-128zM512 768v64h128v-64h-128z
M320 832v64h192v-64h-192z" />
    <glyph glyph-name="macron" unicode="&#xaf;" 
d="M256 704v64h256v-64h-256z" />
    <glyph glyph-name="plusminus" unicode="&#xb1;" 
d="M64 64v64h576v-64h-576zM320 192v256h-256v64h256v256h64v-256h256v-64h-256v-256h-64z" />
    <glyph glyph-name="twosuperior" unicode="&#xb2;" 
d="M192 448v128h64v-64h128v-64h-192zM256 576v64h64v-64h-64zM192 704v128h64v-128h-64zM320 640v192h64v-192h-64zM256 832v64h64v-64h-64z" />
    <glyph glyph-name="threesuperior" unicode="&#xb3;" 
d="M256 448v64h64v-64h-64zM192 512v64h64v-64h-64zM320 512v128h64v-128h-64zM256 640v64h64v-64h-64zM192 768v64h64v-64h-64zM320 704v128h64v-128h-64zM256 832v64h64v-64h-64z" />
    <glyph glyph-name="acute" unicode="&#xb4;" 
d="M256 640v64h64v-64h-64zM320 704v64h64v-64h-64zM384 768v64h64v-64h-64z" />
    <glyph glyph-name="mu" unicode="&#xb5;" 
d="M512 64v64h64v-64h-64zM192 -64v640h128v-448h128v-64h-128v-128h-128zM448 128v448h64v-448h-64z" />
    <glyph glyph-name="paragraph" unicode="&#xb6;" 
d="M256 64v448h-64v64h-64v192h64v64h64v64h384v-64h-64v-768h-128v704h64v64h-128v-768h-128z" />
    <glyph glyph-name="periodcentered" unicode="&#xb7;" 
d="M256 256v128h128v-128h-128z" />
    <glyph glyph-name="cedilla" unicode="&#xb8;" 
d="M256 -64v64h192v-64h-192zM192 0v64h64v-64h-64zM448 0v64h64v-64h-64zM384 64v64h64v-64h-64z" />
    <glyph glyph-name="onesuperior" unicode="&#xb9;" 
d="M192 448v64h64v256h-64v64h64v64h64v-384h64v-64h-192z" />
    <glyph glyph-name="guillemotright" unicode="&#xbb;" 
d="M192 192v64h64v-64h-64zM384 192v64h64v-64h-64zM256 256v64h64v-64h-64zM448 256v64h64v-64h-64zM320 320v64h64v-64h-64zM512 320v64h64v-64h-64zM256 384v64h64v-64h-64zM448 384v64h64v-64h-64zM192 448v64h64v-64h-64zM384 448v64h64v-64h-64z" />
    <glyph glyph-name="onehalf" unicode="&#xbd;" 
d="M64 128v64h64v-64h-64zM512 64v128h64v-64h128v-64h-192zM128 192v64h64v-64h-64zM576 192v64h64v-64h-64zM192 256v64h64v-64h-64zM256 320v64h64v-64h-64zM320 384v64h64v-64h-64zM512 320v128h64v-128h-64zM640 256v192h64v-192h-64zM384 448v64h64v-64h-64zM576 448
v64h64v-64h-64zM448 512v64h64v-64h-64zM512 576v64h64v-64h-64zM576 640v64h64v-64h-64zM640 704v64h64v-64h-64zM64 448v64h64v256h-64v64h64v64h64v-384h64v-64h-192z" />
    <glyph glyph-name="questiondown" unicode="&#xbf;" 
d="M256 64v64h-64v192h64v64h128v128h128v-128h-64v-64h-128v-192h192v128h128v-128h-64v-64h-320zM384 576v128h128v-128h-128z" />
    <glyph glyph-name="Agrave" unicode="&#xc0;" 
d="M128 64v128h64v-128h-64zM192 192v128h64v-128h-64zM256 320v128h64v-128h-64zM320 448v128h64v-128h-64zM448 64v128h-128v64h128v320h-64v64h192v-576h-128zM512 704v64h64v-64h-64zM448 768v64h64v-64h-64zM384 832v64h64v-64h-64z" />
    <glyph glyph-name="Aacute" unicode="&#xc1;" 
d="M128 64v128h64v-128h-64zM192 192v128h64v-128h-64zM256 320v128h64v-128h-64zM320 448v128h64v-128h-64zM448 64v128h-128v64h128v320h-64v64h192v-576h-128zM384 704v64h64v-64h-64zM448 768v64h64v-64h-64zM512 832v64h64v-64h-64z" />
    <glyph glyph-name="Acircumflex" unicode="&#xc2;" 
d="M128 64v128h64v-128h-64zM192 192v128h64v-128h-64zM256 320v128h64v-128h-64zM320 448v128h64v-128h-64zM448 64v128h-128v64h128v320h-64v64h192v-576h-128zM256 704v64h64v-64h-64zM512 704v64h64v-64h-64zM320 768v64h64v-64h-64zM448 768v64h64v-64h-64zM384 832v64
h64v-64h-64z" />
    <glyph glyph-name="Atilde" unicode="&#xc3;" 
d="M128 64v128h64v-128h-64zM192 192v128h64v-128h-64zM256 320v128h64v-128h-64zM320 448v128h64v-128h-64zM448 64v128h-128v64h128v320h-64v64h192v-576h-128zM192 704v64h64v-64h-64zM384 704v64h128v-64h-128zM256 768v64h128v-64h-128zM512 768v64h64v-64h-64z" />
    <glyph glyph-name="Adieresis" unicode="&#xc4;" 
d="M128 64v128h64v-128h-64zM192 192v128h64v-128h-64zM256 320v128h64v-128h-64zM320 448v128h64v-128h-64zM448 64v128h-128v64h128v320h-64v64h192v-576h-128zM320 704v64h64v-64h-64zM512 704v64h64v-64h-64z" />
    <glyph glyph-name="Aring" unicode="&#xc5;" 
d="M128 64v128h64v-128h-64zM192 192v128h64v-128h-64zM256 320v128h64v-128h-64zM320 448v128h64v-128h-64zM448 64v128h-128v64h128v320h-64v64h192v-576h-128zM384 704v64h128v-64h-128zM320 768v64h64v-64h-64zM512 768v64h64v-64h-64zM384 832v64h128v-64h-128z" />
    <glyph glyph-name="AE" unicode="&#xc6;" 
d="M64 64v256h64v-256h-64zM128 320v192h64v-192h-64zM512 448v64h128v-64h-128zM192 512v128h64v-128h-64zM320 64v128h-128v64h128v384h-64v128h64v128h320v-64h-192v-704h192v-64h-320z" />
    <glyph glyph-name="Ccedilla" unicode="&#xc7;" 
d="M192 64v64h64v128h-64v576h64v64h256v-64h64v-192h-128v192h-128v-576h128v192h128v-192h-64v-64h-192v-64h256v-64h-384z" />
    <glyph glyph-name="Egrave" unicode="&#xc8;" 
d="M384 320v64h128v-64h-128zM192 64v576h384v-64h-320v-64h64v-384h256v-64h-384zM448 704v64h64v-64h-64zM384 768v64h64v-64h-64zM320 832v64h64v-64h-64z" />
    <glyph glyph-name="Eacute" unicode="&#xc9;" 
d="M384 320v64h128v-64h-128zM192 64v576h384v-64h-320v-64h64v-384h256v-64h-384zM320 704v64h64v-64h-64zM384 768v64h64v-64h-64zM448 832v64h64v-64h-64z" />
    <glyph glyph-name="Ecircumflex" unicode="&#xca;" 
d="M384 320v64h128v-64h-128zM192 64v576h384v-64h-320v-64h64v-384h256v-64h-384zM256 704v64h64v-64h-64zM512 704v64h64v-64h-64zM320 768v64h64v-64h-64zM448 768v64h64v-64h-64zM384 832v64h64v-64h-64z" />
    <glyph glyph-name="Edieresis" unicode="&#xcb;" 
d="M384 320v64h128v-64h-128zM192 64v576h384v-64h-320v-64h64v-384h256v-64h-384zM256 704v64h64v-64h-64zM448 704v64h64v-64h-64z" />
    <glyph glyph-name="Igrave" unicode="&#xcc;" 
d="M256 64v64h64v448h-64v64h256v-64h-64v-448h64v-64h-256zM448 704v64h64v-64h-64zM384 768v64h64v-64h-64zM320 832v64h64v-64h-64z" />
    <glyph glyph-name="Iacute" unicode="&#xcd;" 
d="M256 64v64h64v448h-64v64h256v-64h-64v-448h64v-64h-256zM320 704v64h64v-64h-64zM384 768v64h64v-64h-64zM448 832v64h64v-64h-64z" />
    <glyph glyph-name="Icircumflex" unicode="&#xce;" 
d="M256 64v64h64v448h-64v64h256v-64h-64v-448h64v-64h-256zM256 704v64h64v-64h-64zM512 704v64h64v-64h-64zM320 768v64h64v-64h-64zM448 768v64h64v-64h-64zM384 832v64h64v-64h-64z" />
    <glyph glyph-name="Idieresis" unicode="&#xcf;" 
d="M256 64v64h64v448h-64v64h256v-64h-64v-448h64v-64h-256zM256 704v64h64v-64h-64zM448 704v64h64v-64h-64z" />
    <glyph glyph-name="Eth" unicode="&#xd0;" 
d="M448 128v704h-192v-64h64v-192h64v-128h-64v-320h128zM128 64v64h64v320h-64v128h64v256h-64v64h384v-64h64v-704h-64v-64h-384z" />
    <glyph glyph-name="Ntilde" unicode="&#xd1;" 
d="M320 320v128h64v-128h-64zM192 64v576h64v-64h64v-128h-64v-384h-64zM448 64v128h-64v128h64v320h128v-576h-128zM192 704v64h64v-64h-64zM384 704v64h128v-64h-128zM256 768v64h128v-64h-128zM512 768v64h64v-64h-64z" />
    <glyph glyph-name="Ograve" unicode="&#xd2;" 
d="M448 128v448h-128v-448h128zM256 64v64h-64v448h64v64h256v-64h64v-448h-64v-64h-256zM448 704v64h64v-64h-64zM384 768v64h64v-64h-64zM320 832v64h64v-64h-64z" />
    <glyph glyph-name="Oacute" unicode="&#xd3;" 
d="M448 128v448h-128v-448h128zM256 64v64h-64v448h64v64h256v-64h64v-448h-64v-64h-256zM320 704v64h64v-64h-64zM384 768v64h64v-64h-64zM448 832v64h64v-64h-64z" />
    <glyph glyph-name="Ocircumflex" unicode="&#xd4;" 
d="M448 128v448h-128v-448h128zM256 64v64h-64v448h64v64h256v-64h64v-448h-64v-64h-256zM256 704v64h64v-64h-64zM512 704v64h64v-64h-64zM320 768v64h64v-64h-64zM448 768v64h64v-64h-64zM384 832v64h64v-64h-64z" />
    <glyph glyph-name="Otilde" unicode="&#xd5;" 
d="M448 128v448h-128v-448h128zM256 64v64h-64v448h64v64h256v-64h64v-448h-64v-64h-256zM192 704v64h64v-64h-64zM384 704v64h128v-64h-128zM256 768v64h128v-64h-128zM512 768v64h64v-64h-64z" />
    <glyph glyph-name="Odieresis" unicode="&#xd6;" 
d="M448 128v448h-128v-448h128zM256 64v64h-64v448h64v64h256v-64h64v-448h-64v-64h-256zM256 704v64h64v-64h-64zM448 704v64h64v-64h-64z" />
    <glyph glyph-name="multiply" unicode="&#xd7;" 
d="M128 128v64h64v-64h-64zM512 128v64h64v-64h-64zM192 192v64h64v-64h-64zM448 192v64h64v-64h-64zM256 256v64h64v-64h-64zM384 256v64h64v-64h-64zM320 320v64h64v-64h-64zM256 384v64h64v-64h-64zM384 384v64h64v-64h-64zM192 448v64h64v-64h-64zM448 448v64h64v-64
h-64zM128 512v64h64v-64h-64zM512 512v64h64v-64h-64z" />
    <glyph glyph-name="Oslash" unicode="&#xd8;" 
d="M128 64v64h64v-64h-64zM448 128v384h-64v192h64v128h-128v-320h64v-192h-64v-192h128zM256 64v64h-64v704h64v64h256v-64h64v-704h-64v-64h-256zM576 832v64h64v-64h-64z" />
    <glyph glyph-name="Ugrave" unicode="&#xd9;" 
d="M256 64v64h-64v512h128v-512h128v512h128v-512h-64v-64h-256zM448 704v64h64v-64h-64zM384 768v64h64v-64h-64zM320 832v64h64v-64h-64z" />
    <glyph glyph-name="Uacute" unicode="&#xda;" 
d="M256 64v64h-64v512h128v-512h128v512h128v-512h-64v-64h-256zM320 704v64h64v-64h-64zM384 768v64h64v-64h-64zM448 832v64h64v-64h-64z" />
    <glyph glyph-name="Ucircumflex" unicode="&#xdb;" 
d="M256 64v64h-64v512h128v-512h128v512h128v-512h-64v-64h-256zM256 704v64h64v-64h-64zM512 704v64h64v-64h-64zM320 768v64h64v-64h-64zM448 768v64h64v-64h-64zM384 832v64h64v-64h-64z" />
    <glyph glyph-name="Udieresis" unicode="&#xdc;" 
d="M256 64v64h-64v512h128v-512h128v512h128v-512h-64v-64h-256zM256 704v64h64v-64h-64zM448 704v64h64v-64h-64z" />
    <glyph glyph-name="Yacute" unicode="&#xdd;" 
d="M320 64v256h-64v128h-64v192h128v-128h64v-128h64v128h64v128h64v-192h-64v-128h-64v-256h-128zM320 704v64h64v-64h-64zM384 768v64h64v-64h-64zM448 832v64h64v-64h-64z" />
    <glyph glyph-name="Thorn" unicode="&#xde;" 
d="M192 64v832h128v-192h192v-64h64v-320h-64v-64h-128v64h64v320h-192v-64h64v-512h-128z" />
    <glyph glyph-name="germandbls" unicode="&#xdf;" 
d="M256 128v64h64v-64h-64zM64 64v192h64v256h64v256h64v64h64v-256h-64v-256h-64v-256h-128zM320 64v64h64v128h64v192h-64v64h64v320h-128v64h192v-64h64v-320h-64v-64h64v-192h-64v-128h-64v-64h-128z" />
    <glyph glyph-name="agrave" unicode="&#xe0;" 
d="M256 64v64h-64v192h64v64h128v-64h-64v-192h128v-64h-192zM512 64v64h-64v384h-192v64h256v-64h64v-384h64v-64h-128zM448 640v64h64v-64h-64zM384 704v64h64v-64h-64zM320 768v64h64v-64h-64z" />
    <glyph glyph-name="aacute" unicode="&#xe1;" 
d="M256 64v64h-64v192h64v64h128v-64h-64v-192h128v-64h-192zM512 64v64h-64v384h-192v64h256v-64h64v-384h64v-64h-128zM320 640v64h64v-64h-64zM384 704v64h64v-64h-64zM448 768v64h64v-64h-64z" />
    <glyph glyph-name="acircumflex" unicode="&#xe2;" 
d="M256 64v64h-64v192h64v64h128v-64h-64v-192h128v-64h-192zM512 64v64h-64v384h-192v64h256v-64h64v-384h64v-64h-128zM256 640v64h64v-64h-64zM512 640v64h64v-64h-64zM320 704v64h64v-64h-64zM448 704v64h64v-64h-64zM384 768v64h64v-64h-64z" />
    <glyph glyph-name="atilde" unicode="&#xe3;" 
d="M256 64v64h-64v192h64v64h128v-64h-64v-192h128v-64h-192zM512 64v64h-64v384h-192v64h256v-64h64v-384h64v-64h-128zM192 640v64h64v-64h-64zM384 640v64h128v-64h-128zM256 704v64h128v-64h-128zM512 704v64h64v-64h-64z" />
    <glyph glyph-name="adieresis" unicode="&#xe4;" 
d="M256 64v64h-64v192h64v64h128v-64h-64v-192h128v-64h-192zM512 64v64h-64v384h-192v64h256v-64h64v-384h64v-64h-128zM256 704v64h64v-64h-64zM448 704v64h64v-64h-64z" />
    <glyph glyph-name="aring" unicode="&#xe5;" 
d="M256 64v64h-64v192h64v64h128v-64h-64v-192h128v-64h-192zM512 64v64h-64v384h-192v64h256v-64h64v-384h64v-64h-128zM320 640v64h128v-64h-128zM256 704v64h64v-64h-64zM448 704v64h64v-64h-64zM320 768v64h128v-64h-128z" />
    <glyph glyph-name="ae" unicode="&#xe6;" 
d="M128 64v64h-64v192h64v64h128v-64h-64v-192h128v-64h-192zM512 384v128h-64v-128h64zM384 64v64h-64v384h-192v64h448v-64h64v-192h-192v-192h64v64h128v-64h-64v-64h-192z" />
    <glyph glyph-name="ccedilla" unicode="&#xe7;" 
d="M256 -64v64h192v-64h-192zM192 0v64h64v-64h-64zM448 0v64h64v-64h-64zM384 64v64h-128v64h-64v384h64v64h256v-64h64v-64h-128v64h-128v-384h128v128h128v-128h-64v-64h-64v-64h-64z" />
    <glyph glyph-name="egrave" unicode="&#xe8;" 
d="M448 384v128h-128v-128h128zM256 64v64h-64v384h64v64h256v-64h64v-192h-256v-192h128v64h128v-64h-64v-64h-256zM448 640v64h64v-64h-64zM384 704v64h64v-64h-64zM320 768v64h64v-64h-64z" />
    <glyph glyph-name="eacute" unicode="&#xe9;" 
d="M448 384v128h-128v-128h128zM256 64v64h-64v384h64v64h256v-64h64v-192h-256v-192h128v64h128v-64h-64v-64h-256zM320 640v64h64v-64h-64zM384 704v64h64v-64h-64zM448 768v64h64v-64h-64z" />
    <glyph glyph-name="ecircumflex" unicode="&#xea;" 
d="M448 384v128h-128v-128h128zM256 64v64h-64v384h64v64h256v-64h64v-192h-256v-192h128v64h128v-64h-64v-64h-256zM192 640v64h64v-64h-64zM448 640v64h64v-64h-64zM256 704v64h64v-64h-64zM384 704v64h64v-64h-64zM320 768v64h64v-64h-64z" />
    <glyph glyph-name="edieresis" unicode="&#xeb;" 
d="M448 384v128h-128v-128h128zM256 64v64h-64v384h64v64h256v-64h64v-192h-256v-192h128v64h128v-64h-64v-64h-256zM256 704v64h64v-64h-64zM448 704v64h64v-64h-64z" />
    <glyph glyph-name="igrave" unicode="&#xec;" 
d="M320 64v448h64v64h64v-512h-128zM448 640v64h64v-64h-64zM384 704v64h64v-64h-64zM320 768v64h64v-64h-64z" />
    <glyph glyph-name="iacute" unicode="&#xed;" 
d="M320 64v448h64v64h64v-512h-128zM320 640v64h64v-64h-64zM384 704v64h64v-64h-64zM448 768v64h64v-64h-64z" />
    <glyph glyph-name="icircumflex" unicode="&#xee;" 
d="M320 64v448h64v64h64v-512h-128zM256 576v64h64v-64h-64zM512 576v64h64v-64h-64zM320 640v64h64v-64h-64zM448 640v64h64v-64h-64zM384 704v64h64v-64h-64z" />
    <glyph glyph-name="idieresis" unicode="&#xef;" 
d="M320 64v448h64v64h64v-512h-128zM256 704v64h64v-64h-64zM448 704v64h64v-64h-64z" />
    <glyph glyph-name="eth" unicode="&#xf0;" 
d="M192 640v64h64v-64h-64zM256 64v64h-64v384h64v64h128v-64h-64v-384h128v576h64v-64h64v-512h-64v-64h-256zM256 704v64h64v-64h-64zM384 704v64h64v-64h-64zM320 768v64h64v-64h-64zM192 832v64h128v-64h-128zM384 832v64h128v-64h-128z" />
    <glyph glyph-name="ntilde" unicode="&#xf1;" 
d="M192 64v512h320v-64h64v-448h-128v448h-128v-448h-128zM192 640v64h64v-64h-64zM384 640v64h128v-64h-128zM256 704v64h128v-64h-128zM512 704v64h64v-64h-64z" />
    <glyph glyph-name="ograve" unicode="&#xf2;" 
d="M448 128v384h-128v-384h128zM256 64v64h-64v384h64v64h256v-64h64v-384h-64v-64h-256zM448 640v64h64v-64h-64zM384 704v64h64v-64h-64zM320 768v64h64v-64h-64z" />
    <glyph glyph-name="oacute" unicode="&#xf3;" 
d="M448 128v384h-128v-384h128zM256 64v64h-64v384h64v64h256v-64h64v-384h-64v-64h-256zM320 640v64h64v-64h-64zM384 704v64h64v-64h-64zM448 768v64h64v-64h-64z" />
    <glyph glyph-name="ocircumflex" unicode="&#xf4;" 
d="M448 128v384h-128v-384h128zM256 64v64h-64v384h64v64h256v-64h64v-384h-64v-64h-256zM256 640v64h64v-64h-64zM512 640v64h64v-64h-64zM320 704v64h64v-64h-64zM448 704v64h64v-64h-64zM384 768v64h64v-64h-64z" />
    <glyph glyph-name="otilde" unicode="&#xf5;" 
d="M448 128v384h-128v-384h128zM256 64v64h-64v384h64v64h256v-64h64v-384h-64v-64h-256zM192 640v64h64v-64h-64zM384 640v64h128v-64h-128zM256 704v64h128v-64h-128zM512 704v64h64v-64h-64z" />
    <glyph glyph-name="odieresis" unicode="&#xf6;" 
d="M448 128v320h-128v-320h128zM256 64v64h-64v320h64v64h256v-64h64v-320h-64v-64h-256zM256 704v64h64v-64h-64zM448 704v64h64v-64h-64z" />
    <glyph glyph-name="divide" unicode="&#xf7;" 
d="M256 128v128h128v-128h-128zM64 320v64h512v-64h-512zM256 448v128h128v-128h-128z" />
    <glyph glyph-name="oslash" unicode="&#xf8;" 
d="M128 64v64h64v-64h-64zM448 128v192h-64v128h64v64h-128v-192h64v-128h-64v-64h128zM256 64v64h-64v384h64v64h256v-64h64v-384h-64v-64h-256zM576 512v64h64v-64h-64z" />
    <glyph glyph-name="ugrave" unicode="&#xf9;" 
d="M256 64v64h128v-64h-128zM192 128v448h64v-448h-64zM448 64v64h-64v448h128v-448h64v-64h-128zM384 640v64h64v-64h-64zM320 704v64h64v-64h-64zM256 768v64h64v-64h-64z" />
    <glyph glyph-name="uacute" unicode="&#xfa;" 
d="M256 64v64h128v-64h-128zM192 128v448h64v-448h-64zM448 64v64h-64v448h128v-448h64v-64h-128zM256 640v64h64v-64h-64zM320 704v64h64v-64h-64zM384 768v64h64v-64h-64z" />
    <glyph glyph-name="ucircumflex" unicode="&#xfb;" 
d="M256 64v64h128v-64h-128zM192 128v448h64v-448h-64zM448 64v64h-64v448h128v-448h64v-64h-128zM192 640v64h64v-64h-64zM448 640v64h64v-64h-64zM256 704v64h64v-64h-64zM384 704v64h64v-64h-64zM320 768v64h64v-64h-64z" />
    <glyph glyph-name="udieresis" unicode="&#xfc;" 
d="M256 64v64h128v-64h-128zM192 128v448h64v-448h-64zM448 64v64h-64v448h128v-448h64v-64h-128zM256 704v64h64v-64h-64zM448 704v64h64v-64h-64z" />
    <glyph glyph-name="yacute" unicode="&#xfd;" 
d="M192 -64v128h64v128h-64v384h128v-256h64v128h64v128h128v-64h-64v-128h-64v-128h-64v-128h-64v-128h-64v-64h-64zM320 640v64h64v-64h-64zM384 704v64h64v-64h-64zM448 768v64h64v-64h-64z" />
    <glyph glyph-name="thorn" unicode="&#xfe;" 
d="M192 -64v896h64v64h64v-256h192v-64h64v-320h-64v-64h-128v64h64v320h-192v-64h64v-576h-128z" />
    <glyph glyph-name="ydieresis" unicode="&#xff;" 
d="M192 -64v128h64v128h-64v384h128v-256h64v128h64v128h128v-64h-64v-128h-64v-128h-64v-128h-64v-128h-64v-64h-64zM256 704v64h64v-64h-64zM448 704v64h64v-64h-64z" />
    <glyph glyph-name="Amacron" unicode="&#x100;" 
d="M128 64v128h64v-128h-64zM192 192v128h64v-128h-64zM256 320v128h64v-128h-64zM320 448v128h64v-128h-64zM448 64v128h-128v64h128v320h-64v64h192v-576h-128zM320 768v64h256v-64h-256z" />
    <glyph glyph-name="amacron" unicode="&#x101;" 
d="M256 64v64h-64v192h64v64h128v-64h-64v-192h128v-64h-192zM512 64v64h-64v384h-192v64h256v-64h64v-384h64v-64h-128zM256 704v64h256v-64h-256z" />
    <glyph glyph-name="Cacute" unicode="&#x106;" 
d="M256 64v64h-64v448h64v64h256v-64h64v-128h-128v128h-128v-448h128v128h128v-128h-64v-64h-256zM320 704v64h64v-64h-64zM384 768v64h64v-64h-64zM448 832v64h64v-64h-64z" />
    <glyph glyph-name="cacute" unicode="&#x107;" 
d="M256 64v64h-64v384h64v64h256v-64h64v-64h-128v64h-128v-384h128v128h128v-128h-64v-64h-256zM320 640v64h64v-64h-64zM384 704v64h64v-64h-64zM448 768v64h64v-64h-64z" />
    <glyph glyph-name="Ccircumflex" unicode="&#x108;" 
d="M256 64v64h-64v448h64v64h256v-64h64v-128h-128v128h-128v-448h128v128h128v-128h-64v-64h-256zM384 704v64h64v-64h-64zM320 768v64h64v-64h-64zM448 768v64h64v-64h-64zM256 832v64h64v-64h-64zM512 832v64h64v-64h-64z" />
    <glyph glyph-name="ccircumflex" unicode="&#x109;" 
d="M256 64v64h-64v384h64v64h256v-64h64v-64h-128v64h-128v-384h128v128h128v-128h-64v-64h-256zM256 640v64h64v-64h-64zM512 640v64h64v-64h-64zM320 704v64h64v-64h-64zM448 704v64h64v-64h-64zM384 768v64h64v-64h-64z" />
    <glyph glyph-name="Cdotaccent" unicode="&#x10a;" 
d="M256 64v64h-64v448h64v64h256v-64h64v-128h-128v128h-128v-448h128v128h128v-128h-64v-64h-256zM320 704v128h128v-128h-128z" />
    <glyph glyph-name="cdotaccent" unicode="&#x10b;" 
d="M256 64v64h-64v384h64v64h256v-64h64v-64h-128v64h-128v-384h128v128h128v-128h-64v-64h-256zM320 640v128h128v-128h-128z" />
    <glyph glyph-name="Ccaron" unicode="&#x10c;" 
d="M256 64v64h-64v448h64v64h256v-64h64v-128h-128v128h-128v-448h128v128h128v-128h-64v-64h-256zM384 704v64h64v-64h-64zM320 768v64h64v-64h-64zM448 768v64h64v-64h-64zM256 832v64h64v-64h-64zM512 832v64h64v-64h-64z" />
    <glyph glyph-name="ccaron" unicode="&#x10d;" 
d="M256 64v64h-64v384h64v64h256v-64h64v-64h-128v64h-128v-384h128v128h128v-128h-64v-64h-256zM384 640v64h64v-64h-64zM320 704v64h64v-64h-64zM448 704v64h64v-64h-64zM256 768v64h64v-64h-64zM512 768v64h64v-64h-64z" />
    <glyph glyph-name="Dcaron" unicode="&#x10e;" 
d="M448 128v448h-192v-64h64v-384h128zM128 64v64h64v448h-64v64h384v-64h64v-448h-64v-64h-384zM320 704v64h64v-64h-64zM256 768v64h64v-64h-64zM384 768v64h64v-64h-64zM192 832v64h64v-64h-64zM448 832v64h64v-64h-64z" />
    <glyph glyph-name="Dcroat" unicode="&#x110;" 
d="M448 128v704h-192v-64h64v-192h64v-128h-64v-320h128zM128 64v64h64v320h-64v128h64v256h-64v64h384v-64h64v-704h-64v-64h-384z" />
    <glyph glyph-name="Emacron" unicode="&#x112;" 
d="M384 320v64h128v-64h-128zM192 64v576h384v-64h-320v-64h64v-384h256v-64h-384zM256 704v64h256v-64h-256z" />
    <glyph glyph-name="emacron" unicode="&#x113;" 
d="M448 384v128h-128v-128h128zM256 64v64h-64v384h64v64h256v-64h64v-192h-256v-192h128v64h128v-64h-64v-64h-256zM256 704v64h256v-64h-256z" />
    <glyph glyph-name="Edotaccent" unicode="&#x116;" 
d="M384 320v64h128v-64h-128zM192 64v576h384v-64h-320v-64h64v-384h256v-64h-384zM320 704v128h128v-128h-128z" />
    <glyph glyph-name="edotaccent" unicode="&#x117;" 
d="M448 384v128h-128v-128h128zM256 64v64h-64v384h64v64h256v-64h64v-192h-256v-192h128v64h128v-64h-64v-64h-256zM320 640v128h128v-128h-128z" />
    <glyph glyph-name="Ecaron" unicode="&#x11a;" 
d="M384 320v64h128v-64h-128zM192 64v576h384v-64h-320v-64h64v-384h256v-64h-384zM320 704v64h64v-64h-64zM256 768v64h64v-64h-64zM384 768v64h64v-64h-64zM192 832v64h64v-64h-64zM448 832v64h64v-64h-64z" />
    <glyph glyph-name="ecaron" unicode="&#x11b;" 
d="M448 384v128h-128v-128h128zM256 64v64h-64v384h64v64h256v-64h64v-192h-256v-192h128v64h128v-64h-64v-64h-256zM320 640v64h64v-64h-64zM256 704v64h64v-64h-64zM384 704v64h64v-64h-64zM192 768v64h64v-64h-64zM448 768v64h64v-64h-64z" />
    <glyph glyph-name="Gcircumflex" unicode="&#x11c;" 
d="M256 64v64h-64v448h64v64h256v-64h64v-64h-128v64h-128v-448h128v192h-64v64h192v-320h-320zM192 704v64h64v-64h-64zM448 704v64h64v-64h-64zM256 768v64h64v-64h-64zM384 768v64h64v-64h-64zM320 832v64h64v-64h-64z" />
    <glyph glyph-name="gcircumflex" unicode="&#x11d;" 
d="M256 128v64h-64v320h64v64h192v-64h-128v-320h64v-64h-128zM256 -64v64h-64v64h128v-64h128v512h64v64h64v-576h-64v-64h-256zM256 640v64h64v-64h-64zM512 640v64h64v-64h-64zM320 704v64h64v-64h-64zM448 704v64h64v-64h-64zM384 768v64h64v-64h-64z" />
    <glyph glyph-name="Gdotaccent" unicode="&#x120;" 
d="M256 64v64h-64v448h64v64h256v-64h64v-64h-128v64h-128v-448h128v192h-64v64h192v-320h-320zM320 704v128h128v-128h-128z" />
    <glyph glyph-name="gdotaccent" unicode="&#x121;" 
d="M256 128v64h-64v320h64v64h192v-64h-128v-320h64v-64h-128zM256 -64v64h-64v64h128v-64h128v512h64v64h64v-576h-64v-64h-256zM320 640v128h128v-128h-128z" />
    <glyph glyph-name="Itilde" unicode="&#x128;" 
d="M256 64v64h64v448h-64v64h256v-64h-64v-448h64v-64h-256zM192 704v64h64v-64h-64zM384 704v64h128v-64h-128zM256 768v64h128v-64h-128zM512 768v64h64v-64h-64z" />
    <glyph glyph-name="itilde" unicode="&#x129;" 
d="M320 64v448h64v64h64v-512h-128zM192 640v64h64v-64h-64zM384 640v64h128v-64h-128zM256 704v64h128v-64h-128zM512 704v64h64v-64h-64z" />
    <glyph glyph-name="Imacron" unicode="&#x12a;" 
d="M256 64v64h64v448h-64v64h256v-64h-64v-448h64v-64h-256zM256 768v64h256v-64h-256z" />
    <glyph glyph-name="imacron" unicode="&#x12b;" 
d="M320 64v448h64v64h64v-512h-128zM256 704v64h256v-64h-256z" />
    <glyph glyph-name="Idotaccent" unicode="&#x130;" 
d="M256 64v64h64v448h-64v64h256v-64h-64v-448h64v-64h-256zM320 704v128h128v-128h-128z" />
    <glyph glyph-name="dotlessi" unicode="&#x131;" 
d="M320 64v448h64v64h64v-512h-128z" />
    <glyph glyph-name="Jcircumflex" unicode="&#x134;" 
d="M192 64v64h-64v128h128v-128h128v512h128v-512h-64v-64h-256zM256 704v64h64v-64h-64zM512 704v64h64v-64h-64zM320 768v64h64v-64h-64zM448 768v64h64v-64h-64zM384 832v64h64v-64h-64z" />
    <glyph glyph-name="jcircumflex" unicode="&#x135;" 
d="M192 -64v64h128v512h64v64h64v-576h-64v-64h-192zM256 640v64h64v-64h-64zM512 640v64h64v-64h-64zM320 704v64h64v-64h-64zM448 704v64h64v-64h-64zM384 768v64h64v-64h-64z" />
    <glyph glyph-name="uni0136" unicode="&#x136;" 
d="M448 640v128h64v-128h-64zM192 64v64h64v64h-64v704h128v-320h64v64h64v-192h64v-128h64v-128h-128v128h-64v128h-64v-320h256v-64h-384zM512 768v128h64v-128h-64z" />
    <glyph glyph-name="uni0137" unicode="&#x137;" 
d="M256 -64v64h192v-64h-192zM192 0v64h64v-64h-64zM448 0v64h64v-64h-64zM384 64v64h64v-64h-64zM448 512v64h64v-64h-64zM512 576v64h64v-64h-64zM192 128v704h64v64h64v-448h64v64h64v-192h64v-128h64v-64h-128v64h-64v128h-64v-192h-128z" />
    <glyph glyph-name="Lacute" unicode="&#x139;" 
d="M192 64v576h128v-512h256v-64h-384zM192 704v64h64v-64h-64zM256 768v64h64v-64h-64zM320 832v64h64v-64h-64z" />
    <glyph glyph-name="lacute" unicode="&#x13a;" 
d="M320 64v512h64v64h64v-576h-128zM320 704v64h64v-64h-64zM384 768v64h64v-64h-64zM448 832v64h64v-64h-64z" />
    <glyph glyph-name="uni013B" unicode="&#x13b;" 
d="M192 64v64h64v64h-64v704h128v-640h256v-64h-256v-64h256v-64h-384z" />
    <glyph glyph-name="uni013C" unicode="&#x13c;" 
d="M256 -64v64h192v-64h-192zM192 0v64h64v-64h-64zM448 0v64h64v-64h-64zM384 64v64h-64v704h64v64h64v-832h-64z" />
    <glyph glyph-name="Lslash" unicode="&#x141;" 
d="M64 320v64h64v-64h-64zM384 576v64h64v-64h-64zM192 64v320h-64v64h64v448h128v-320h64v-64h-64v-384h256v-64h-384z" />
    <glyph glyph-name="lslash" unicode="&#x142;" 
d="M192 320v64h64v-64h-64zM512 576v64h64v-64h-64zM320 64v320h-64v64h64v384h64v64h64v-320h64v-64h-64v-448h-128z" />
    <glyph glyph-name="Nacute" unicode="&#x143;" 
d="M320 320v128h64v-128h-64zM192 64v576h64v-64h64v-128h-64v-384h-64zM448 64v128h-64v128h64v320h128v-576h-128zM320 704v64h64v-64h-64zM384 768v64h64v-64h-64zM448 832v64h64v-64h-64z" />
    <glyph glyph-name="nacute" unicode="&#x144;" 
d="M192 64v512h320v-64h64v-448h-128v448h-128v-448h-128zM320 640v64h64v-64h-64zM384 704v64h64v-64h-64zM448 768v64h64v-64h-64z" />
    <glyph glyph-name="uni0145" unicode="&#x145;" 
d="M192 64v64h64v64h64v-64h256v-64h-384zM192 192v704h64v-128h64v-128h64v-128h64v384h128v-704h-128v128h-64v128h-64v128h-64v-384h-64z" />
    <glyph glyph-name="uni0146" unicode="&#x146;" 
d="M256 -64v64h192v-64h-192zM192 0v64h64v-64h-64zM448 0v64h64v-64h-64zM384 64v64h64v-64h-64zM192 128v512h320v-64h64v-448h-128v448h-128v-448h-128z" />
    <glyph glyph-name="Ncaron" unicode="&#x147;" 
d="M320 320v128h64v-128h-64zM192 64v576h64v-64h64v-128h-64v-384h-64zM448 64v128h-64v128h64v320h128v-576h-128zM320 704v64h64v-64h-64zM256 768v64h64v-64h-64zM384 768v64h64v-64h-64zM192 832v64h64v-64h-64zM448 832v64h64v-64h-64z" />
    <glyph glyph-name="ncaron" unicode="&#x148;" 
d="M192 64v512h320v-64h64v-448h-128v448h-128v-448h-128zM320 640v64h64v-64h-64zM256 704v64h64v-64h-64zM384 704v64h64v-64h-64zM192 768v64h64v-64h-64zM448 768v64h64v-64h-64z" />
    <glyph glyph-name="Omacron" unicode="&#x14c;" 
d="M448 128v448h-128v-448h128zM256 64v64h-64v448h64v64h256v-64h64v-448h-64v-64h-256zM256 768v64h256v-64h-256z" />
    <glyph glyph-name="omacron" unicode="&#x14d;" 
d="M448 128v384h-128v-384h128zM256 64v64h-64v384h64v64h256v-64h64v-384h-64v-64h-256zM256 704v64h256v-64h-256z" />
    <glyph glyph-name="OE" unicode="&#x152;" 
d="M512 448v64h128v-64h-128zM320 128v704h-128v-704h128zM128 64v64h-64v704h64v64h512v-64h-192v-704h192v-64h-512z" />
    <glyph glyph-name="oe" unicode="&#x153;" 
d="M512 384v128h-64v-128h64zM128 64v64h-64v384h64v64h192v-64h-128v-384h128v-64h-192zM384 64v64h-64v384h64v64h192v-64h64v-192h-192v-192h64v64h128v-64h-64v-64h-192z" />
    <glyph glyph-name="Racute" unicode="&#x154;" 
d="M576 -128v64h64v-64h-64zM512 -64v64h-64v256h-64v64h64v256h-192v-64h64v-448h-128v576h320v-64h64v-256h-64v-64h64v-320h-64zM320 704v64h64v-64h-64zM384 768v64h64v-64h-64zM448 832v64h64v-64h-64z" />
    <glyph glyph-name="racute" unicode="&#x155;" 
d="M192 64v512h128v-64h64v-64h-64v-384h-128zM448 384v128h-64v64h128v-64h64v-128h-128zM320 640v64h64v-64h-64zM384 704v64h64v-64h-64zM448 768v64h64v-64h-64z" />
    <glyph glyph-name="Rcaron" unicode="&#x158;" 
d="M576 -128v64h64v-64h-64zM512 -64v64h-64v256h-64v64h64v256h-192v-64h64v-448h-128v576h320v-64h64v-256h-64v-64h64v-320h-64zM320 704v64h64v-64h-64zM256 768v64h64v-64h-64zM384 768v64h64v-64h-64zM192 832v64h64v-64h-64zM448 832v64h64v-64h-64z" />
    <glyph glyph-name="rcaron" unicode="&#x159;" 
d="M192 64v512h128v-64h64v-64h-64v-384h-128zM448 384v128h-64v64h128v-64h64v-128h-128zM320 640v64h64v-64h-64zM256 704v64h64v-64h-64zM384 704v64h64v-64h-64zM192 768v64h64v-64h-64zM448 768v64h64v-64h-64z" />
    <glyph glyph-name="Sacute" unicode="&#x15a;" 
d="M256 64v64h-64v64h128v-64h128v128h-64v64h-128v64h-64v192h64v64h256v-64h64v-64h-128v64h-128v-128h64v-64h128v-64h64v-192h-64v-64h-256zM320 704v64h64v-64h-64zM384 768v64h64v-64h-64zM448 832v64h64v-64h-64z" />
    <glyph glyph-name="sacute" unicode="&#x15b;" 
d="M256 64v64h-64v64h128v-64h128v192h-192v64h-64v128h64v64h256v-64h64v-64h-128v64h-128v-128h192v-64h64v-192h-64v-64h-256zM320 640v64h64v-64h-64zM384 704v64h64v-64h-64zM448 768v64h64v-64h-64z" />
    <glyph glyph-name="Scircumflex" unicode="&#x15c;" 
d="M256 64v64h-64v64h128v-64h128v128h-64v64h-128v64h-64v192h64v64h256v-64h64v-64h-128v64h-128v-128h64v-64h128v-64h64v-192h-64v-64h-256zM256 704v64h64v-64h-64zM512 704v64h64v-64h-64zM320 768v64h64v-64h-64zM448 768v64h64v-64h-64zM384 832v64h64v-64h-64z" />
    <glyph glyph-name="scircumflex" unicode="&#x15d;" 
d="M256 64v64h-64v64h128v-64h128v192h-192v64h-64v128h64v64h256v-64h64v-64h-128v64h-128v-128h192v-64h64v-192h-64v-64h-256zM256 640v64h64v-64h-64zM512 640v64h64v-64h-64zM320 704v64h64v-64h-64zM448 704v64h64v-64h-64zM384 768v64h64v-64h-64z" />
    <glyph glyph-name="Scedilla" unicode="&#x15e;" 
d="M192 64v64h64v128h-64v128h128v-128h128v192h-64v64h-128v64h-64v256h64v64h256v-64h64v-128h-128v128h-128v-192h64v-64h128v-64h64v-256h-64v-64h-192v-64h256v-64h-384z" />
    <glyph glyph-name="scedilla" unicode="&#x15f;" 
d="M256 -64v64h192v-64h-192zM192 0v64h64v-64h-64zM448 0v64h64v-64h-64zM384 64v64h-128v64h-64v64h128v-64h128v192h-192v64h-64v128h64v64h256v-64h64v-64h-128v64h-128v-128h192v-64h64v-192h-64v-64h-64v-64h-64z" />
    <glyph glyph-name="Scaron" unicode="&#x160;" 
d="M256 64v64h-64v64h128v-64h128v128h-64v64h-128v64h-64v192h64v64h256v-64h64v-64h-128v64h-128v-128h64v-64h128v-64h64v-192h-64v-64h-256zM384 704v64h64v-64h-64zM320 768v64h64v-64h-64zM448 768v64h64v-64h-64zM256 832v64h64v-64h-64zM512 832v64h64v-64h-64z" />
    <glyph glyph-name="scaron" unicode="&#x161;" 
d="M256 64v64h-64v64h128v-64h128v192h-192v64h-64v128h64v64h256v-64h64v-64h-128v64h-128v-128h192v-64h64v-192h-64v-64h-256zM384 640v64h64v-64h-64zM320 704v64h64v-64h-64zM448 704v64h64v-64h-64zM256 768v64h64v-64h-64zM512 768v64h64v-64h-64z" />
    <glyph glyph-name="uni0162" unicode="&#x162;" 
d="M192 64v64h64v64h64v-64h256v-64h-384zM320 192v640h-192v64h512v-64h-256v-64h64v-576h-128z" />
    <glyph glyph-name="uni0163" unicode="&#x163;" 
d="M256 -64v64h192v-64h-192zM192 0v64h64v-64h-64zM448 0v64h64v-64h-64zM384 64v64h-64v448h-128v64h128v192h128v-192h128v-64h-192v-64h64v-448h-64z" />
    <glyph glyph-name="Utilde" unicode="&#x168;" 
d="M256 64v64h-64v512h128v-512h128v512h128v-512h-64v-64h-256zM192 704v64h64v-64h-64zM384 704v64h128v-64h-128zM256 768v64h128v-64h-128zM512 768v64h64v-64h-64z" />
    <glyph glyph-name="utilde" unicode="&#x169;" 
d="M256 64v64h128v-64h-128zM192 128v448h64v-448h-64zM448 64v64h-64v448h128v-448h64v-64h-128zM192 640v64h64v-64h-64zM384 640v64h128v-64h-128zM256 704v64h128v-64h-128zM512 704v64h64v-64h-64z" />
    <glyph glyph-name="Umacron" unicode="&#x16a;" 
d="M256 64v64h-64v512h128v-512h128v512h128v-512h-64v-64h-256zM256 768v64h256v-64h-256z" />
    <glyph glyph-name="umacron" unicode="&#x16b;" 
d="M256 64v64h128v-64h-128zM192 128v448h64v-448h-64zM448 64v64h-64v448h128v-448h64v-64h-128zM256 704v64h256v-64h-256z" />
    <glyph glyph-name="Uring" unicode="&#x16e;" 
d="M256 64v64h-64v512h128v-512h128v512h128v-512h-64v-64h-256zM320 704v64h128v-64h-128zM256 768v64h64v-64h-64zM448 768v64h64v-64h-64zM320 832v64h128v-64h-128z" />
    <glyph glyph-name="uring" unicode="&#x16f;" 
d="M256 64v64h128v-64h-128zM192 128v448h64v-448h-64zM448 64v64h-64v448h128v-448h64v-64h-128zM320 640v64h128v-64h-128zM256 704v64h64v-64h-64zM448 704v64h64v-64h-64zM320 768v64h128v-64h-128z" />
    <glyph glyph-name="Wcircumflex" unicode="&#x174;" 
d="M192 64v320h-64v256h128v-320h64v320h64v-320h64v320h128v-256h-64v-256h-64v-64h-64v128h-64v-64h-64v-64h-64zM192 704v64h64v-64h-64zM448 704v64h64v-64h-64zM256 768v64h64v-64h-64zM384 768v64h64v-64h-64zM320 832v64h64v-64h-64z" />
    <glyph glyph-name="wcircumflex" unicode="&#x175;" 
d="M192 64v192h-64v320h128v-320h64v320h64v-320h64v320h128v-320h-64v-192h-128v128h-64v-128h-128zM192 640v64h64v-64h-64zM448 640v64h64v-64h-64zM256 704v64h64v-64h-64zM384 704v64h64v-64h-64zM320 768v64h64v-64h-64z" />
    <glyph glyph-name="Ycircumflex" unicode="&#x176;" 
d="M320 64v256h-64v128h-64v192h128v-128h64v-128h64v128h64v128h64v-192h-64v-128h-64v-256h-128zM256 704v64h64v-64h-64zM512 704v64h64v-64h-64zM320 768v64h64v-64h-64zM448 768v64h64v-64h-64zM384 832v64h64v-64h-64z" />
    <glyph glyph-name="ycircumflex" unicode="&#x177;" 
d="M192 -64v128h64v128h-64v384h128v-256h64v128h64v128h128v-64h-64v-128h-64v-128h-64v-128h-64v-128h-64v-64h-64zM256 640v64h64v-64h-64zM512 640v64h64v-64h-64zM320 704v64h64v-64h-64zM448 704v64h64v-64h-64zM384 768v64h64v-64h-64z" />
    <glyph glyph-name="Ydieresis" unicode="&#x178;" 
d="M320 64v256h-64v128h-64v192h128v-128h64v-128h64v128h64v128h64v-192h-64v-128h-64v-256h-128zM256 704v64h64v-64h-64zM448 704v64h64v-64h-64z" />
    <glyph glyph-name="Zacute" unicode="&#x179;" 
d="M192 64v192h64v64h64v64h64v64h64v128h-256v64h384v-192h-64v-64h-64v-64h-64v-64h-64v-128h256v-64h-384zM320 704v64h64v-64h-64zM384 768v64h64v-64h-64zM448 832v64h64v-64h-64z" />
    <glyph glyph-name="zacute" unicode="&#x17a;" 
d="M192 64v64h64v128h64v128h64v128h-192v64h384v-64h-64v-128h-64v-128h-64v-128h192v-64h-384zM320 640v64h64v-64h-64zM384 704v64h64v-64h-64zM448 768v64h64v-64h-64z" />
    <glyph glyph-name="Zdotaccent" unicode="&#x17b;" 
d="M192 64v192h64v64h64v64h64v64h64v128h-256v64h384v-192h-64v-64h-64v-64h-64v-64h-64v-128h256v-64h-384zM320 704v128h128v-128h-128z" />
    <glyph glyph-name="zdotaccent" unicode="&#x17c;" 
d="M192 64v64h64v128h64v128h64v128h-192v64h384v-64h-64v-128h-64v-128h-64v-128h192v-64h-384zM320 640v128h128v-128h-128z" />
    <glyph glyph-name="Zcaron" unicode="&#x17d;" 
d="M192 64v192h64v64h64v64h64v64h64v128h-256v64h384v-192h-64v-64h-64v-64h-64v-64h-64v-128h256v-64h-384zM384 704v64h64v-64h-64zM320 768v64h64v-64h-64zM448 768v64h64v-64h-64zM256 832v64h64v-64h-64zM512 832v64h64v-64h-64z" />
    <glyph glyph-name="zcaron" unicode="&#x17e;" 
d="M192 64v64h64v128h64v128h64v128h-192v64h384v-64h-64v-128h-64v-128h-64v-128h192v-64h-384zM384 640v64h64v-64h-64zM320 704v64h64v-64h-64zM448 704v64h64v-64h-64zM256 768v64h64v-64h-64zM512 768v64h64v-64h-64z" />
    <glyph glyph-name="uni0186" unicode="&#x186;" 
d="M256 64v64h-64v256h128v-256h128v704h-128v-192h-128v192h64v64h256v-64h64v-704h-64v-64h-256z" />
    <glyph glyph-name="uni018E" unicode="&#x18e;" 
d="M256 448v64h128v-64h-128zM192 64v64h256v640h64v64h-320v64h384v-832h-384z" />
    <glyph glyph-name="uni0190" unicode="&#x190;" 
d="M384 448v64h128v-64h-128zM256 64v64h-64v320h64v128h-64v256h64v64h256v-64h64v-192h-128v192h-128v-704h128v192h128v-192h-64v-64h-256z" />
    <glyph glyph-name="uni01B5" unicode="&#x1b5;" 
 />
    <glyph glyph-name="uni01CD" unicode="&#x1cd;" 
d="M128 64v128h64v-128h-64zM192 192v128h64v-128h-64zM256 320v128h64v-128h-64zM320 448v128h64v-128h-64zM448 64v128h-128v64h128v320h-64v64h192v-576h-128zM384 704v64h64v-64h-64zM320 768v64h64v-64h-64zM448 768v64h64v-64h-64zM256 832v64h64v-64h-64zM512 832v64
h64v-64h-64z" />
    <glyph glyph-name="uni01CE" unicode="&#x1ce;" 
d="M256 64v64h-64v192h64v64h128v-64h-64v-192h128v-64h-192zM512 64v64h-64v384h-192v64h256v-64h64v-384h64v-64h-128zM384 640v64h64v-64h-64zM320 704v64h64v-64h-64zM448 704v64h64v-64h-64zM256 768v64h64v-64h-64zM512 768v64h64v-64h-64z" />
    <glyph glyph-name="uni01CF" unicode="&#x1cf;" 
d="M256 64v64h64v448h-64v64h256v-64h-64v-448h64v-64h-256zM384 704v64h64v-64h-64zM320 768v64h64v-64h-64zM448 768v64h64v-64h-64zM256 832v64h64v-64h-64zM512 832v64h64v-64h-64z" />
    <glyph glyph-name="uni01D0" unicode="&#x1d0;" 
d="M320 64v448h64v64h64v-512h-128zM384 640v64h64v-64h-64zM320 704v64h64v-64h-64zM448 704v64h64v-64h-64zM256 768v64h64v-64h-64zM512 768v64h64v-64h-64z" />
    <glyph glyph-name="uni01D1" unicode="&#x1d1;" 
d="M448 128v448h-128v-448h128zM256 64v64h-64v448h64v64h256v-64h64v-448h-64v-64h-256zM384 704v64h64v-64h-64zM320 768v64h64v-64h-64zM448 768v64h64v-64h-64zM256 832v64h64v-64h-64zM512 832v64h64v-64h-64z" />
    <glyph glyph-name="uni01D2" unicode="&#x1d2;" 
d="M448 128v384h-128v-384h128zM256 64v64h-64v384h64v64h256v-64h64v-384h-64v-64h-256zM384 640v64h64v-64h-64zM320 704v64h64v-64h-64zM448 704v64h64v-64h-64zM256 768v64h64v-64h-64zM512 768v64h64v-64h-64z" />
    <glyph glyph-name="uni01D3" unicode="&#x1d3;" 
d="M256 64v64h-64v512h128v-512h128v512h128v-512h-64v-64h-256zM384 704v64h64v-64h-64zM320 768v64h64v-64h-64zM448 768v64h64v-64h-64zM256 832v64h64v-64h-64zM512 832v64h64v-64h-64z" />
    <glyph glyph-name="uni01D4" unicode="&#x1d4;" 
d="M256 64v64h128v-64h-128zM192 128v448h64v-448h-64zM448 64v64h-64v448h128v-448h64v-64h-128zM320 640v64h64v-64h-64zM256 704v64h64v-64h-64zM384 704v64h64v-64h-64zM192 768v64h64v-64h-64zM448 768v64h64v-64h-64z" />
    <glyph glyph-name="uni01DD" unicode="&#x1dd;" 
d="M448 128v128h-128v-128h128zM256 64v64h-64v192h256v192h-128v-64h-128v64h64v64h256v-64h64v-384h-64v-64h-256z" />
    <glyph glyph-name="uni01E2" unicode="&#x1e2;" 
d="M64 64v192h64v-192h-64zM512 320v64h128v-64h-128zM128 256v192h64v-192h-64zM192 448v128h64v-128h-64zM320 64v128h-128v64h128v320h-64v64h384v-64h-192v-448h192v-64h-320zM256 768v64h256v-64h-256z" />
    <glyph glyph-name="uni01E3" unicode="&#x1e3;" 
d="M128 64v64h-64v192h64v64h128v-64h-64v-192h128v-64h-192zM512 384v128h-64v-128h64zM384 64v64h-64v384h-192v64h448v-64h64v-192h-192v-192h64v64h128v-64h-64v-64h-192zM256 704v64h256v-64h-256z" />
    <glyph glyph-name="Gcaron" unicode="&#x1e6;" 
d="M256 64v64h-64v448h64v64h256v-64h64v-64h-128v64h-128v-448h128v192h-64v64h192v-320h-320zM384 704v64h64v-64h-64zM320 768v64h64v-64h-64zM448 768v64h64v-64h-64zM256 832v64h64v-64h-64zM512 832v64h64v-64h-64z" />
    <glyph glyph-name="gcaron" unicode="&#x1e7;" 
d="M256 128v64h-64v320h64v64h192v-64h-128v-320h64v-64h-128zM256 -64v64h-64v64h128v-64h128v512h64v64h64v-576h-64v-64h-256zM384 640v64h64v-64h-64zM320 704v64h64v-64h-64zM448 704v64h64v-64h-64zM256 768v64h64v-64h-64zM512 768v64h64v-64h-64z" />
    <glyph glyph-name="uni01F0" unicode="&#x1f0;" 
d="M192 -64v64h128v512h64v64h64v-576h-64v-64h-192zM320 640v64h64v-64h-64zM256 704v64h64v-64h-64zM384 704v64h64v-64h-64zM192 768v64h64v-64h-64zM448 768v64h64v-64h-64z" />
    <glyph glyph-name="uni01F4" unicode="&#x1f4;" 
d="M256 64v64h-64v448h64v64h256v-64h64v-64h-128v64h-128v-448h128v192h-64v64h192v-320h-320zM320 704v64h64v-64h-64zM384 768v64h64v-64h-64zM448 832v64h64v-64h-64z" />
    <glyph glyph-name="uni01F5" unicode="&#x1f5;" 
d="M256 128v64h-64v320h64v64h192v-64h-128v-320h64v-64h-128zM256 -64v64h-64v64h128v-64h128v512h64v64h64v-576h-64v-64h-256zM320 640v64h64v-64h-64zM384 704v64h64v-64h-64zM448 768v64h64v-64h-64z" />
    <glyph glyph-name="uni01F8" unicode="&#x1f8;" 
d="M320 320v128h64v-128h-64zM192 64v576h64v-64h64v-128h-64v-384h-64zM448 64v128h-64v128h64v320h128v-576h-128zM384 704v64h64v-64h-64zM320 768v64h64v-64h-64zM256 832v64h64v-64h-64z" />
    <glyph glyph-name="uni01F9" unicode="&#x1f9;" 
d="M192 64v512h320v-64h64v-448h-128v448h-128v-448h-128zM384 640v64h64v-64h-64zM320 704v64h64v-64h-64zM256 768v64h64v-64h-64z" />
    <glyph glyph-name="AEacute" unicode="&#x1fc;" 
d="M64 64v192h64v-192h-64zM512 320v64h128v-64h-128zM128 256v192h64v-192h-64zM192 448v128h64v-128h-64zM320 64v128h-128v64h128v320h-64v64h384v-64h-192v-448h192v-64h-320zM320 704v64h64v-64h-64zM384 768v64h64v-64h-64zM448 832v64h64v-64h-64z" />
    <glyph glyph-name="aeacute" unicode="&#x1fd;" 
d="M128 64v64h-64v192h64v64h128v-64h-64v-192h128v-64h-192zM512 384v128h-64v-128h64zM384 64v64h-64v384h-192v64h448v-64h64v-192h-192v-192h64v64h128v-64h-64v-64h-192zM320 640v64h64v-64h-64zM384 704v64h64v-64h-64zM448 768v64h64v-64h-64z" />
    <glyph glyph-name="uni0218" unicode="&#x218;" 
d="M320 0v64h64v-64h-64zM384 64v128h-128v64h-64v128h128v-128h128v192h-64v64h-128v64h-64v256h64v64h256v-64h64v-128h-128v128h-128v-192h64v-64h128v-64h64v-256h-64v-64h-64v-128h-64z" />
    <glyph glyph-name="uni0219" unicode="&#x219;" 
d="M320 0v64h64v-64h-64zM384 64v128h-128v64h-64v64h128v-64h128v192h-192v64h-64v128h64v64h256v-64h64v-64h-128v64h-128v-128h192v-64h64v-192h-64v-64h-64v-128h-64z" />
    <glyph glyph-name="uni021A" unicode="&#x21a;" 
d="M320 0v64h64v-64h-64zM384 64v128h-64v640h-192v64h512v-64h-256v-64h64v-704h-64z" />
    <glyph glyph-name="uni021B" unicode="&#x21b;" 
d="M320 0v64h64v-64h-64zM384 64v128h-64v448h-128v64h128v192h128v-192h128v-64h-192v-64h64v-512h-64z" />
    <glyph glyph-name="uni0226" unicode="&#x226;" 
d="M128 64v128h64v-128h-64zM192 192v128h64v-128h-64zM256 320v128h64v-128h-64zM320 448v128h64v-128h-64zM448 64v128h-128v64h128v320h-64v64h192v-576h-128zM384 704v128h128v-128h-128z" />
    <glyph glyph-name="uni0227" unicode="&#x227;" 
d="M256 64v64h-64v192h64v64h128v-64h-64v-192h128v-64h-192zM512 64v64h-64v384h-192v64h256v-64h64v-384h64v-64h-128zM320 640v128h128v-128h-128z" />
    <glyph glyph-name="uni0228" unicode="&#x228;" 
d="M384 512v64h128v-64h-128zM192 64v64h64v64h-64v704h384v-64h-320v-64h64v-512h256v-64h-256v-64h256v-64h-384z" />
    <glyph glyph-name="uni0229" unicode="&#x229;" 
d="M256 -64v64h192v-64h-192zM192 0v64h64v-64h-64zM448 0v64h64v-64h-64zM448 448v128h-128v-128h128zM384 64v64h-128v64h-64v384h64v64h256v-64h64v-192h-256v-192h128v64h128v-64h-64v-64h-64v-64h-64z" />
    <glyph glyph-name="uni022E" unicode="&#x22e;" 
d="M448 128v448h-128v-448h128zM256 64v64h-64v448h64v64h256v-64h64v-448h-64v-64h-256zM320 704v128h128v-128h-128z" />
    <glyph glyph-name="uni022F" unicode="&#x22f;" 
d="M448 128v384h-128v-384h128zM256 64v64h-64v384h64v64h256v-64h64v-384h-64v-64h-256zM320 640v128h128v-128h-128z" />
    <glyph glyph-name="uni0232" unicode="&#x232;" 
d="M320 64v256h-64v128h-64v192h128v-128h64v-128h64v128h64v128h64v-192h-64v-128h-64v-256h-128zM256 768v64h256v-64h-256z" />
    <glyph glyph-name="uni0233" unicode="&#x233;" 
d="M192 -64v128h64v128h-64v384h128v-256h64v128h64v128h128v-64h-64v-128h-64v-128h-64v-128h-64v-128h-64v-64h-64zM256 704v64h256v-64h-256z" />
    <glyph glyph-name="uni0241" unicode="&#x241;" 
d="M256 64v320h64v64h128v256h-192v-128h-128v128h64v64h320v-64h64v-256h-64v-64h-128v-320h-128z" />
    <glyph glyph-name="uni0242" unicode="&#x242;" 
d="M256 64v192h64v64h128v256h-192v-128h-128v128h64v64h320v-64h64v-256h-64v-64h-128v-192h-128z" />
    <glyph glyph-name="uni0245" unicode="&#x245;" 
d="M512 64v192h64v-192h-64zM448 256v128h64v-128h-64zM384 384v128h64v-128h-64zM320 512v128h64v-128h-64zM128 64v832h128v-128h64v-128h-64v-576h-128z" />
    <glyph glyph-name="tilde" unicode="&#x2dc;" 
d="M192 320v64h64v-64h-64zM384 320v64h128v-64h-128zM256 384v64h128v-64h-128zM512 384v64h64v-64h-64z" />
    <glyph glyph-name="Pi" unicode="&#x3a0;" 
d="M192 64v640h-64v64h512v-64h-128v-64h64v-576h-128v640h-192v-64h64v-576h-128z" />
    <glyph glyph-name="uni03BC" unicode="&#x3bc;" 
d="M512 64v64h64v-64h-64zM192 -64v640h128v-448h128v-64h-128v-128h-128zM448 128v448h64v-448h-64z" />
    <glyph glyph-name="pi" unicode="&#x3c0;" 
d="M192 64v448h-64v64h448v-64h-64v-384h64v-64h-128v64h-64v384h-128v-448h-64z" />
    <glyph glyph-name="uni0418" unicode="&#x418;" 
d="M192 64v832h64v-448h64v128h64v128h64v192h128v-832h-128v448h-64v-128h-64v-128h-64v-192h-64z" />
    <glyph glyph-name="uni042F" unicode="&#x42f;" 
d="M128 -128v64h64v-64h-64zM192 -64v384h64v64h-64v448h64v64h320v-832h-128v704h64v64h-192v-448h64v-64h-64v-320h-64v-64h-64z" />
    <glyph glyph-name="uni1EBC" unicode="&#x1ebc;" 
d="M384 320v64h128v-64h-128zM192 64v576h384v-64h-320v-64h64v-384h256v-64h-384zM192 704v64h64v-64h-64zM384 704v64h128v-64h-128zM256 768v64h128v-64h-128zM512 768v64h64v-64h-64z" />
    <glyph glyph-name="uni1EBD" unicode="&#x1ebd;" 
d="M448 384v128h-128v-128h128zM256 64v64h-64v384h64v64h256v-64h64v-192h-256v-192h128v64h128v-64h-64v-64h-256zM192 640v64h64v-64h-64zM384 640v64h128v-64h-128zM256 704v64h128v-64h-128zM512 704v64h64v-64h-64z" />
    <glyph glyph-name="Ygrave" unicode="&#x1ef2;" 
d="M320 64v256h-64v128h-64v192h128v-128h64v-128h64v128h64v128h64v-192h-64v-128h-64v-256h-128zM448 704v64h64v-64h-64zM384 768v64h64v-64h-64zM320 832v64h64v-64h-64z" />
    <glyph glyph-name="ygrave" unicode="&#x1ef3;" 
d="M192 -64v128h64v128h-64v384h128v-256h64v128h64v128h128v-64h-64v-128h-64v-128h-64v-128h-64v-128h-64v-64h-64zM448 640v64h64v-64h-64zM384 704v64h64v-64h-64zM320 768v64h64v-64h-64z" />
    <glyph glyph-name="uni1EF8" unicode="&#x1ef8;" 
d="M320 64v256h-64v128h-64v192h128v-128h64v-128h64v128h64v128h64v-192h-64v-128h-64v-256h-128zM192 704v64h64v-64h-64zM384 704v64h128v-64h-128zM256 768v64h128v-64h-128zM512 768v64h64v-64h-64z" />
    <glyph glyph-name="uni1EF9" unicode="&#x1ef9;" 
d="M192 -64v128h64v128h-64v384h128v-256h64v128h64v128h128v-64h-64v-128h-64v-128h-64v-128h-64v-128h-64v-64h-64zM192 640v64h64v-64h-64zM384 640v64h128v-64h-128zM256 704v64h128v-64h-128zM512 704v64h64v-64h-64z" />
    <glyph glyph-name="uni2010" unicode="&#x2010;" 
d="M64 320v64h576v-64h-576z" />
    <glyph glyph-name="uni2011" unicode="&#x2011;" 
d="M64 320v64h576v-64h-576z" />
    <glyph glyph-name="figuredash" unicode="&#x2012;" 
d="M64 320v64h576v-64h-576z" />
    <glyph glyph-name="endash" unicode="&#x2013;" 
d="M0 320v64h640v-64h-640z" />
    <glyph glyph-name="emdash" unicode="&#x2014;" 
d="M0 320v64h704v-64h-704z" />
    <glyph glyph-name="uni2015" unicode="&#x2015;" 
d="M0 320v128h704v-128h-704z" />
    <glyph glyph-name="quoteleft" unicode="&#x2018;" 
d="M256 512v192h64v-64h64v-128h-128zM320 704v64h64v-64h-64z" />
    <glyph glyph-name="quoteright" unicode="&#x2019;" 
d="M256 448v64h64v-64h-64zM320 512v64h-64v128h128v-192h-64z" />
    <glyph glyph-name="quotesinglbase" unicode="&#x201a;" 
d="M256 0v64h64v-64h-64zM320 64v64h-64v128h128v-192h-64z" />
    <glyph glyph-name="quotereversed" unicode="&#x201b;" 
d="M320 512v64h64v-64h-64zM256 576v192h128v-128h-64v-64h-64z" />
    <glyph glyph-name="quotedblleft" unicode="&#x201c;" 
d="M192 512v192h64v-64h64v-128h-128zM384 512v192h64v-64h64v-128h-128zM256 704v64h64v-64h-64zM448 704v64h64v-64h-64z" />
    <glyph glyph-name="quotedblright" unicode="&#x201d;" 
d="M192 512v64h64v-64h-64zM384 512v64h64v-64h-64zM256 576v64h-64v128h128v-192h-64zM448 576v64h-64v128h128v-192h-64z" />
    <glyph glyph-name="quotedblbase" unicode="&#x201e;" 
d="M192 0v64h64v-64h-64zM384 0v64h64v-64h-64zM256 64v64h-64v128h128v-192h-64zM448 64v64h-64v128h128v-192h-64z" />
    <glyph glyph-name="uni201F" unicode="&#x201f;" 
d="M256 512v64h64v-64h-64zM448 512v64h64v-64h-64zM192 576v192h128v-128h-64v-64h-64zM384 576v192h128v-128h-64v-64h-64z" />
    <glyph glyph-name="dagger" unicode="&#x2020;" 
d="M320 0v640h-128v128h128v128h128v-128h128v-128h-128v-640h-128z" />
    <glyph glyph-name="daggerdbl" unicode="&#x2021;" 
d="M320 0v128h-128v128h128v384h-128v128h128v128h128v-128h128v-128h-128v-384h128v-128h-128v-128h-128z" />
    <glyph glyph-name="bullet" unicode="&#x2022;" 
d="M320 320v128h128v-128h-128z" />
    <glyph glyph-name="uni2023" unicode="&#x2023;" 
d="M256 128v640h64v-64h64v-64h64v-64h64v-64h64v-128h-64v-64h-64v-64h-64v-64h-64v-64h-64z" />
    <glyph glyph-name="onedotenleader" unicode="&#x2024;" 
d="M320 256v128h64v-128h-64z" />
    <glyph glyph-name="twodotenleader" unicode="&#x2025;" 
d="M192 256v128h128v-128h-128zM448 256v128h128v-128h-128z" />
    <glyph glyph-name="ellipsis" unicode="&#x2026;" 
d="M64 0v128h128v-128h-128zM320 0v128h128v-128h-128zM576 0v128h128v-128h-128z" />
    <glyph glyph-name="uni2027" unicode="&#x2027;" 
d="M320 256v128h128v-128h-128z" />
    <glyph glyph-name="perthousand" unicode="&#x2030;" 
d="M64 128v64h64v-64h-64zM128 192v64h64v-64h-64zM320 128v128h128v-128h-128zM512 128v128h128v-128h-128zM192 256v64h64v-64h-64zM256 320v64h64v-64h-64zM320 384v64h64v-64h-64zM384 448v64h64v-64h-64zM64 448v128h128v-128h-128zM448 512v64h64v-64h-64z" />
    <glyph glyph-name="uni2038" unicode="&#x2038;" 
d="M192 64v64h64v-64h-64zM448 64v64h64v-64h-64zM256 128v64h64v-64h-64zM384 128v64h64v-64h-64zM320 192v64h64v-64h-64z" />
    <glyph glyph-name="guilsinglleft" unicode="&#x2039;" 
d="M512 192v64h64v-64h-64zM448 256v64h64v-64h-64zM384 320v64h64v-64h-64zM448 384v64h64v-64h-64zM512 448v64h64v-64h-64z" />
    <glyph glyph-name="guilsinglright" unicode="&#x203a;" 
d="M192 192v64h64v-64h-64zM256 256v64h64v-64h-64zM320 320v64h64v-64h-64zM256 384v64h64v-64h-64zM192 448v64h64v-64h-64z" />
    <glyph glyph-name="uni203B" unicode="&#x203b;" 
d="M320 64v64h64v-64h-64zM128 128v64h64v-64h-64zM512 128v64h64v-64h-64zM192 192v64h64v-64h-64zM448 192v64h64v-64h-64zM256 256v64h64v-64h-64zM384 256v64h64v-64h-64zM64 320v64h64v-64h-64zM320 320v64h64v-64h-64zM576 320v64h64v-64h-64zM256 384v64h64v-64h-64z
M384 384v64h64v-64h-64zM192 448v64h64v-64h-64zM448 448v64h64v-64h-64zM128 512v64h64v-64h-64zM512 512v64h64v-64h-64zM320 576v64h64v-64h-64z" />
    <glyph glyph-name="uni203D" unicode="&#x203d;" 
d="M256 0v128h128v-128h-128zM448 384v192h-128v-192h128zM256 192v128h-64v128h-64v128h64v64h320v-64h64v-192h-64v-64h-128v-128h-128z" />
    <glyph glyph-name="uni203E" unicode="&#x203e;" 
d="M64 832v64h576v-64h-576z" />
    <glyph glyph-name="uni2043" unicode="&#x2043;" 
d="M128 320v64h384v-64h-384z" />
    <glyph glyph-name="fraction" unicode="&#x2044;" 
d="M128 128v64h64v-64h-64zM192 192v64h64v-64h-64zM256 256v64h64v-64h-64zM320 320v64h64v-64h-64zM384 384v64h64v-64h-64zM448 448v64h64v-64h-64zM512 512v64h64v-64h-64z" />
    <glyph glyph-name="uni204B" unicode="&#x204b;" 
d="M192 64v768h-64v64h384v-64h64v-64h64v-192h-64v-64h-64v-448h-128v768h-128v-64h64v-704h-128z" />
    <glyph glyph-name="uni2056" unicode="&#x2056;" 
d="M64 256v128h128v-128h-128zM320 256v128h128v-128h-128zM576 256v128h128v-128h-128z" />
    <glyph glyph-name="franc" unicode="&#x20a3;" 
d="M384 448v64h128v-64h-128zM192 64v128h-64v128h64v576h384v-64h-320v-64h64v-448h128v-128h-128v-128h-128z" />
    <glyph glyph-name="Euro" unicode="&#x20ac;" 
d="M256 64v64h-64v256h-64v64h64v64h-64v64h64v256h64v64h256v-64h64v-128h-128v128h-128v-256h128v-64h-128v-64h128v-64h-128v-256h128v128h128v-128h-64v-64h-256z" />
    <glyph glyph-name="trademark" unicode="&#x2122;" 
d="M448 576v128h64v-128h-64zM128 576v256h-64v64h192v-64h-64v-256h-64zM320 576v320h64v-64h64v-128h-64v-128h-64zM576 576v128h-64v128h64v64h64v-320h-64z" />
    <glyph glyph-name="uni2160" unicode="&#x2160;" 
d="M128 64v192h64v192h64v128h-64v-64h-128v64h64v64h64v64h192v-128h-64v-256h-64v-256h-128z" />
    <glyph glyph-name="uni2161" unicode="&#x2161;" 
d="M64 512v64h64v-64h-64zM128 576v64h64v-64h-64zM64 64v128h64v128h64v64h64v64h64v128h-64v64h-64v64h192v-64h64v-192h-64v-64h-64v-64h-64v-64h-64v-128h192v-64h-320z" />
    <glyph glyph-name="uni2162" unicode="&#x2162;" 
d="M64 128v64h64v-64h-64zM128 576v64h64v-64h-64zM128 64v64h128v64h64v128h-64v64h-128v64h128v64h64v128h-128v64h192v-64h64v-128h-64v-64h-64v-64h64v-64h64v-128h-64v-64h-64v-64h-192z" />
    <glyph glyph-name="uni2163" unicode="&#x2163;" 
d="M192 64v64h64v64h-192v128h64v128h64v128h64v128h64v-192h-64v-128h-64v-128h64v64h64v128h64v64h64v-128h-64v-128h64v-64h-128v-128h-128z" />
    <glyph glyph-name="uni2164" unicode="&#x2164;" 
d="M64 128v64h64v-64h-64zM128 64v64h128v64h64v64h64v64h-64v64h-192v128h64v128h64v64h192v-64h-128v-64h-64v-128h128v-64h64v-192h-64v-64h-64v-64h-192z" />
    <glyph glyph-name="uni2165" unicode="&#x2165;" 
d="M128 64v64h-64v320h64v64h64v-128h-64v-192h64v-64h64v64h64v128h-64v128h64v-64h64v-64h64v-128h-64v-64h-64v-64h-192zM192 512v64h64v-64h-64zM256 576v64h64v-64h-64zM320 640v64h128v-64h-128z" />
    <glyph glyph-name="uni2166" unicode="&#x2166;" 
d="M128 64v192h64v128h64v128h64v128h-192v-128h-64v192h384v-128h-64v-128h-64v-192h-64v-192h-128z" />
    <glyph glyph-name="uni2167" unicode="&#x2167;" 
d="M128 128v64h64v-64h-64zM64 192v128h64v-128h-64zM128 320v64h64v-64h-64zM320 448v64h64v-64h-64zM192 64v64h64v64h64v128h-64v64h-64v64h-64v192h64v64h192v-64h64v-128h-64v64h-64v64h-64v-64h-64v-64h64v-64h64v-64h64v-64h64v-128h-64v-64h-64v-64h-128z" />
    <glyph glyph-name="uni2168" unicode="&#x2168;" 
d="M64 64v64h128v-64h-128zM256 384v64h64v-64h-64zM128 320v64h-64v192h64v-128h64v-64h64v-64h-128zM128 576v64h64v-64h-64zM192 128v64h64v64h64v128h64v192h-64v64h-128v64h192v-64h64v-320h-64v-128h-64v-64h-128z" />
    <glyph glyph-name="uni2169" unicode="&#x2169;" 
d="M256 128v64h64v128h64v256h-64v64h-64v-64h-64v-128h-64v-256h64v-64h64zM128 64v64h-64v384h64v128h64v64h192v-64h64v-384h-64v-128h-64v-64h-192z" />
    <glyph glyph-name="arrowleft" unicode="&#x2190;" 
d="M192 192v64h64v-64h-64zM128 256v64h-64v64h64v64h64v-64h448v-64h-448v-64h-64zM192 448v64h64v-64h-64z" />
    <glyph glyph-name="arrowup" unicode="&#x2191;" 
d="M192 448v64h64v-64h-64zM448 448v64h64v-64h-64zM320 64v448h-64v64h64v64h64v-64h64v-64h-64v-448h-64z" />
    <glyph glyph-name="arrowright" unicode="&#x2192;" 
d="M448 192v64h64v-64h-64zM512 256v64h-448v64h448v64h64v-64h64v-64h-64v-64h-64zM448 448v64h64v-64h-64z" />
    <glyph glyph-name="arrowdown" unicode="&#x2193;" 
d="M192 192v64h64v-64h-64zM448 192v64h64v-64h-64zM320 64v64h-64v64h64v448h64v-448h64v-64h-64v-64h-64z" />
    <glyph glyph-name="uni2196" unicode="&#x2196;" 
d="M512 128v64h64v-64h-64zM448 192v64h64v-64h-64zM384 256v64h64v-64h-64zM320 320v64h64v-64h-64zM256 384v64h64v-64h-64zM64 384v256h256v-64h-64v-128h-128v-64h-64z" />
    <glyph glyph-name="uni2197" unicode="&#x2197;" 
d="M128 128v64h64v-64h-64zM192 192v64h64v-64h-64zM256 256v64h64v-64h-64zM320 320v64h64v-64h-64zM384 384v64h64v-64h-64zM576 384v64h-128v128h-64v64h256v-256h-64z" />
    <glyph glyph-name="uni2198" unicode="&#x2198;" 
d="M384 256v64h64v-64h-64zM384 64v64h64v128h128v64h64v-256h-256zM320 320v64h64v-64h-64zM256 384v64h64v-64h-64zM192 448v64h64v-64h-64zM128 512v64h64v-64h-64z" />
    <glyph glyph-name="uni2199" unicode="&#x2199;" 
d="M64 64v256h64v-64h128v-128h64v-64h-256zM256 256v64h64v-64h-64zM320 320v64h64v-64h-64zM384 384v64h64v-64h-64zM448 448v64h64v-64h-64zM512 512v64h64v-64h-64z" />
    <glyph glyph-name="uni219E" unicode="&#x219e;" 
d="M128 64v64h-64v704h64v64h512v-64h-448v-320h384v-64h-320v-320h384v-64h-512z" />
    <glyph glyph-name="uni219F" unicode="&#x219f;" 
d="M320 512v128h64v-128h-64zM256 640v128h64v-128h-64zM64 64v768h64v-768h-64zM192 768v64h64v-64h-64zM128 832v64h64v-64h-64zM576 64v64h-64v128h-64v128h-64v128h128v-64h64v-64h64v512h64v-768h-64v-64h-64z" />
    <glyph glyph-name="uni21A0" unicode="&#x21a0;" 
d="M64 64v832h64v-384h128v-448h-192z" />
    <glyph glyph-name="uni21A1" unicode="&#x21a1;" 
d="M0 64v128h128v-64h-64v-64h-64zM128 192v128h64v-128h-64zM192 320v64h64v-64h-64zM192 576v64h64v-64h-64zM512 64v128h-64v64h-64v128h-128v192h64v-64h64v64h64v64h64v-192h64v-128h64v-64h64v-128h64v-64h-256zM128 640v128h64v-128h-64zM512 640v128h64v-128h-64z
M64 768v64h-64v64h128v-128h-64zM576 768v128h128v-64h-64v-64h-64z" />
    <glyph glyph-name="uni21A2" unicode="&#x21a2;" 
d="M256 128v192h64v-192h-64zM576 320v64h64v-64h-64zM384 64v384h64v-64h64v-64h-64v-256h-64zM512 384v64h64v-64h-64zM64 64v512h64v-192h128v-64h-128v-192h128v-64h-192z" />
    <glyph glyph-name="uni21A3" unicode="&#x21a3;" 
d="M128 64v64h128v-64h-128zM256 128v64h64v-64h-64zM384 128v192h64v-192h-64zM64 128v256h64v-64h128v64h64v-128h-192v-128h-64zM128 384v64h128v-64h-128zM448 64v64h128v192h-128v64h128v192h64v-512h-192z" />
    <glyph glyph-name="uni21A4" unicode="&#x21a4;" 
d="M128 64v320h64v-320h-64zM576 320v64h64v-64h-64zM384 64v384h64v-64h64v-64h-64v-256h-64zM512 384v64h64v-64h-64zM128 512v64h64v-64h-64z" />
    <glyph glyph-name="uni21A6" unicode="&#x21a6;" 
d="M448 64v64h128v-64h-128zM384 128v64h64v-64h-64zM256 128v128h64v-128h-64zM576 128v128h64v-128h-64zM448 256v64h128v-64h-128zM256 320v128h64v-128h-64zM384 320v128h64v-128h-64zM576 384v64h64v-64h-64zM64 64v448h192v-64h-128v-128h128v-64h-128v-128h128v-64
h-192zM448 448v64h128v-64h-128z" />
    <glyph glyph-name="arrowdblleft" unicode="&#x21d0;" 
d="M320 128v64h-64v64h-64v64h-64v64h64v64h64v64h64v64h64v-128h256v-192h-256v-128h-64z" />
    <glyph glyph-name="arrowdblup" unicode="&#x21d1;" 
d="M256 64v256h-128v64h64v64h64v64h64v64h64v-64h64v-64h64v-64h64v-64h-128v-256h-192z" />
    <glyph glyph-name="arrowdblright" unicode="&#x21d2;" 
d="M384 128v128h-256v192h256v128h64v-64h64v-64h64v-64h64v-64h-64v-64h-64v-64h-64v-64h-64z" />
    <glyph glyph-name="arrowdbldown" unicode="&#x21d3;" 
d="M320 64v64h-64v64h-64v64h-64v64h128v256h192v-256h128v-64h-64v-64h-64v-64h-64v-64h-64z" />
    <glyph glyph-name="uni21D6" unicode="&#x21d6;" 
d="M384 64v64h-64v64h-64v64h-64v-64h-64v320h320v-64h-64v-64h64v-64h64v-64h64v-64h-64v-64h-64v-64h-64z" />
    <glyph glyph-name="uni21D7" unicode="&#x21d7;" 
d="M256 64v64h-64v64h-64v64h64v64h64v64h64v64h-64v64h320v-320h-64v64h-64v-64h-64v-64h-64v-64h-64z" />
    <glyph glyph-name="uni21D8" unicode="&#x21d8;" 
d="M256 64v64h64v64h-64v64h-64v64h-64v64h64v64h64v64h64v-64h64v-64h64v-64h64v64h64v-320h-320z" />
    <glyph glyph-name="uni21D9" unicode="&#x21d9;" 
d="M128 64v320h64v-64h64v64h64v64h64v64h64v-64h64v-64h64v-64h-64v-64h-64v-64h-64v-64h64v-64h-320z" />
    <glyph glyph-name="upblock" unicode="&#x2580;" 
d="M64 384v320h640v-320h-640z" />
    <glyph glyph-name="uni2581" unicode="&#x2581;" 
d="M64 64v128h640v-128h-640z" />
    <glyph glyph-name="uni2582" unicode="&#x2582;" 
d="M64 64v192h640v-192h-640z" />
    <glyph glyph-name="uni2583" unicode="&#x2583;" 
d="M64 64v256h640v-256h-640z" />
    <glyph glyph-name="dnblock" unicode="&#x2584;" 
d="M64 64v320h640v-320h-640z" />
    <glyph glyph-name="uni2585" unicode="&#x2585;" 
d="M64 64v384h640v-384h-640z" />
    <glyph glyph-name="uni2586" unicode="&#x2586;" 
d="M64 64v448h640v-448h-640z" />
    <glyph glyph-name="uni2587" unicode="&#x2587;" 
d="M64 64v576h640v-576h-640z" />
    <glyph glyph-name="block" unicode="&#x2588;" 
d="M64 64v640h640v-640h-640z" />
    <glyph glyph-name="uni2589" unicode="&#x2589;" 
d="M64 64v640h576v-640h-576z" />
    <glyph glyph-name="uni258A" unicode="&#x258a;" 
d="M64 64v640h448v-640h-448z" />
    <glyph glyph-name="uni258B" unicode="&#x258b;" 
d="M64 64v640h384v-640h-384z" />
    <glyph glyph-name="lfblock" unicode="&#x258c;" 
d="M64 64v640h320v-640h-320z" />
    <glyph glyph-name="uni258D" unicode="&#x258d;" 
d="M64 64v640h256v-640h-256z" />
    <glyph glyph-name="uni258E" unicode="&#x258e;" 
d="M64 64v640h192v-640h-192z" />
    <glyph glyph-name="uni258F" unicode="&#x258f;" 
d="M64 64v640h128v-640h-128z" />
    <glyph glyph-name="rtblock" unicode="&#x2590;" 
d="M320 64v640h384v-640h-384z" />
    <glyph glyph-name="uni2594" unicode="&#x2594;" 
d="M64 576v128h640v-128h-640z" />
    <glyph glyph-name="uni2595" unicode="&#x2595;" 
d="M576 64v640h128v-640h-128z" />
    <glyph glyph-name="uni2596" unicode="&#x2596;" 
d="M64 64v320h320v-320h-320z" />
    <glyph glyph-name="uni2597" unicode="&#x2597;" 
d="M384 64v320h320v-320h-320z" />
    <glyph glyph-name="uni2598" unicode="&#x2598;" 
d="M64 384v320h320v-320h-320z" />
    <glyph glyph-name="uni2599" unicode="&#x2599;" 
d="M64 64v640h320v-320h320v-320h-640z" />
    <glyph glyph-name="uni259A" unicode="&#x259a;" 
d="M384 64v320h320v-320h-320zM64 384v320h320v-320h-320z" />
    <glyph glyph-name="uni259B" unicode="&#x259b;" 
d="M64 64v640h640v-320h-320v-320h-320z" />
    <glyph glyph-name="uni259C" unicode="&#x259c;" 
d="M384 64v320h-320v320h640v-640h-320z" />
    <glyph glyph-name="uni259D" unicode="&#x259d;" 
d="M384 384v320h320v-320h-320z" />
    <glyph glyph-name="uni259E" unicode="&#x259e;" 
d="M64 64v320h320v-320h-320zM384 384v320h320v-320h-320z" />
    <glyph glyph-name="uni259F" unicode="&#x259f;" 
d="M64 64v320h320v320h320v-640h-640z" />
    <glyph glyph-name="filledbox" unicode="&#x25a0;" 
d="M64 0v640h640v-640h-640z" />
    <glyph glyph-name="H22073" unicode="&#x25a1;" 
d="M640 64v512h-512v-512h512zM64 0v640h640v-640h-640z" />
    <glyph glyph-name="uni25A2" unicode="&#x25a2;" 
d="M128 0v64h512v-64h-512zM64 64v512h64v-512h-64zM640 64v512h64v-512h-64zM128 576v64h512v-64h-512z" />
    <glyph glyph-name="uni25A3" unicode="&#x25a3;" 
d="M256 192v256h256v-256h-256zM640 64v512h-512v-512h512zM64 0v640h640v-640h-640z" />
    <glyph glyph-name="H18543" unicode="&#x25aa;" 
d="M256 192v256h256v-256h-256z" />
    <glyph glyph-name="H18551" unicode="&#x25ab;" 
d="M448 256v128h-128v-128h128zM256 192v256h256v-256h-256z" />
    <glyph glyph-name="uni25B0" unicode="&#x25b0;" 
d="M0 0v64h64v128h64v128h64v128h64v128h64v64h64v-64h64v-128h64v-128h64v-128h64v-128h64v-64h-704z" />
    <glyph glyph-name="uni25B1" unicode="&#x25b1;" 
d="M0 0v64h64v128h64v-128h448v128h64v-128h64v-64h-704zM128 192v128h64v-128h-64zM512 192v128h64v-128h-64zM192 320v128h64v-128h-64zM448 320v128h64v-128h-64zM256 448v128h64v-128h-64zM384 448v128h64v-128h-64zM320 576v64h64v-64h-64z" />
    <glyph glyph-name="triagup" unicode="&#x25b2;" 
d="M64 192v64h64v64h64v64h64v64h64v64h128v-64h64v-64h64v-64h64v-64h64v-64h-640z" />
    <glyph glyph-name="uni25B3" unicode="&#x25b3;" 
d="M64 192v64h64v64h64v-64h384v64h64v-64h64v-64h-640zM192 320v64h64v-64h-64zM512 320v64h64v-64h-64zM256 384v64h64v-64h-64zM448 384v64h64v-64h-64zM320 448v64h128v-64h-128z" />
    <glyph glyph-name="uni25B4" unicode="&#x25b4;" 
d="M192 384v128h64v64h64v64h64v64h64v-64h64v-64h64v-64h64v-128h-448z" />
    <glyph glyph-name="uni25B5" unicode="&#x25b5;" 
d="M192 384v128h64v-64h320v64h64v-128h-448zM256 512v64h64v-64h-64zM512 512v64h64v-64h-64zM320 576v64h64v-64h-64zM448 576v64h64v-64h-64zM384 640v64h64v-64h-64z" />
    <glyph glyph-name="uni25B6" unicode="&#x25b6;" 
d="M256 128v640h64v-64h64v-64h64v-64h64v-64h64v-128h-64v-64h-64v-64h-64v-64h-64v-64h-64z" />
    <glyph glyph-name="uni25B7" unicode="&#x25b7;" 
d="M384 256v64h64v-64h-64zM448 320v64h64v-64h-64zM512 384v128h64v-128h-64zM448 512v64h64v-64h-64zM384 576v64h64v-64h-64zM256 128v640h64v-64h64v-64h-64v-384h64v-64h-64v-64h-64z" />
    <glyph glyph-name="uni25B8" unicode="&#x25b8;" 
d="M192 320v448h128v-64h64v-64h64v-64h64v-64h-64v-64h-64v-64h-64v-64h-128z" />
    <glyph glyph-name="uni25B9" unicode="&#x25b9;" 
d="M320 384v64h64v-64h-64zM384 448v64h64v-64h-64zM448 512v64h64v-64h-64zM384 576v64h64v-64h-64zM320 640v64h64v-64h-64zM192 320v448h128v-64h-64v-320h64v-64h-128z" />
    <glyph glyph-name="triagrt" unicode="&#x25ba;" 
d="M256 128v576h64v-64h64v-64h64v-64h64v-64h64v-64h-64v-64h-64v-64h-64v-64h-64v-64h-64z" />
    <glyph glyph-name="uni25BB" unicode="&#x25bb;" 
d="M384 256v64h64v-64h-64zM448 320v64h64v-64h-64zM512 384v64h64v-64h-64zM448 448v64h64v-64h-64zM384 512v64h64v-64h-64zM256 128v576h64v-64h64v-64h-64v-320h64v-64h-64v-64h-64z" />
    <glyph glyph-name="triagdn" unicode="&#x25bc;" 
d="M320 192v64h-64v64h-64v64h-64v64h-64v64h640v-64h-64v-64h-64v-64h-64v-64h-64v-64h-128z" />
    <glyph glyph-name="uni25BD" unicode="&#x25bd;" 
d="M320 192v64h128v-64h-128zM256 256v64h64v-64h-64zM448 256v64h64v-64h-64zM192 320v64h64v-64h-64zM512 320v64h64v-64h-64zM128 384v64h-64v64h640v-64h-64v-64h-64v64h-384v-64h-64z" />
    <glyph glyph-name="uni25BE" unicode="&#x25be;" 
d="M320 384v64h-64v64h-64v64h-64v128h448v-128h-64v-64h-64v-64h-64v-64h-64z" />
    <glyph glyph-name="uni25BF" unicode="&#x25bf;" 
d="M320 384v64h64v-64h-64zM256 448v64h64v-64h-64zM384 448v64h64v-64h-64zM192 512v64h64v-64h-64zM448 512v64h64v-64h-64zM128 576v128h448v-128h-64v64h-320v-64h-64z" />
    <glyph glyph-name="uni25C0" unicode="&#x25c0;" 
d="M512 128v64h-64v64h-64v64h-64v64h-64v128h64v64h64v64h64v64h64v64h64v-640h-64z" />
    <glyph glyph-name="uni25C1" unicode="&#x25c1;" 
d="M384 256v64h64v-64h-64zM320 320v64h64v-64h-64zM256 384v128h64v-128h-64zM320 512v64h64v-64h-64zM384 576v64h64v-64h-64zM512 128v64h-64v64h64v384h-64v64h64v64h64v-640h-64z" />
    <glyph glyph-name="uni25C2" unicode="&#x25c2;" 
d="M384 320v64h-64v64h-64v64h-64v64h64v64h64v64h64v64h128v-448h-128z" />
    <glyph glyph-name="uni25C3" unicode="&#x25c3;" 
d="M320 384v64h64v-64h-64zM256 448v64h64v-64h-64zM192 512v64h64v-64h-64zM256 576v64h64v-64h-64zM320 640v64h64v-64h-64zM384 320v64h64v320h-64v64h128v-448h-128z" />
    <glyph glyph-name="triaglf" unicode="&#x25c4;" 
d="M512 128v64h-64v64h-64v64h-64v64h-64v64h64v64h64v64h64v64h64v64h64v-576h-64z" />
    <glyph glyph-name="uni25C5" unicode="&#x25c5;" 
d="M384 256v64h64v-64h-64zM320 320v64h64v-64h-64zM256 384v64h64v-64h-64zM320 448v64h64v-64h-64zM384 512v64h64v-64h-64zM512 128v64h-64v64h64v320h-64v64h64v64h64v-576h-64z" />
    <glyph glyph-name="uni25C6" unicode="&#x25c6;" 
d="M320 64v64h-64v64h-64v64h-64v64h-64v64h64v64h64v64h64v64h64v64h64v-64h64v-64h64v-64h64v-64h64v-64h-64v-64h-64v-64h-64v-64h-64v-64h-64z" />
    <glyph glyph-name="uni25C7" unicode="&#x25c7;" 
d="M320 64v64h64v-64h-64zM256 128v64h64v-64h-64zM384 128v64h64v-64h-64zM192 192v64h64v-64h-64zM448 192v64h64v-64h-64zM128 256v64h64v-64h-64zM512 256v64h64v-64h-64zM64 320v64h64v-64h-64zM576 320v64h64v-64h-64zM128 384v64h64v-64h-64zM512 384v64h64v-64h-64z
M192 448v64h64v-64h-64zM448 448v64h64v-64h-64zM256 512v64h64v-64h-64zM384 512v64h64v-64h-64zM320 576v64h64v-64h-64z" />
    <glyph glyph-name="uni25C8" unicode="&#x25c8;" 
d="M320 64v64h64v-64h-64zM256 128v64h64v-64h-64zM384 128v64h64v-64h-64zM192 192v64h64v-64h-64zM448 192v64h64v-64h-64zM128 256v64h64v-64h-64zM512 256v64h64v-64h-64zM64 320v64h64v-64h-64zM576 320v64h64v-64h-64zM128 384v64h64v-64h-64zM512 384v64h64v-64h-64z
M192 448v64h64v-64h-64zM320 192v64h-64v64h-64v64h64v64h64v64h64v-64h64v-64h64v-64h-64v-64h-64v-64h-64zM448 448v64h64v-64h-64zM256 512v64h64v-64h-64zM384 512v64h64v-64h-64zM320 576v64h64v-64h-64z" />
    <glyph glyph-name="uni25C9" unicode="&#x25c9;" 
d="M192 0v64h384v-64h-384zM128 64v64h64v-64h-64zM576 64v64h64v-64h-64zM64 128v384h64v-384h-64zM256 128v64h-64v256h64v64h256v-64h64v-256h-64v-64h-256zM640 128v384h64v-384h-64zM128 512v64h64v-64h-64zM576 512v64h64v-64h-64zM192 576v64h384v-64h-384z" />
    <glyph glyph-name="circle" unicode="&#x25cb;" 
d="M192 0v64h384v-64h-384zM128 64v64h64v-64h-64zM576 64v64h64v-64h-64zM64 128v384h64v-384h-64zM640 128v384h64v-384h-64zM128 512v64h64v-64h-64zM576 512v64h64v-64h-64zM192 576v64h384v-64h-384z" />
    <glyph glyph-name="uni25CC" unicode="&#x25cc;" 
d="M256 0v64h64v-64h-64zM448 0v64h64v-64h-64zM128 64v64h64v-64h-64zM576 64v64h64v-64h-64zM64 192v64h64v-64h-64zM640 192v64h64v-64h-64zM64 384v64h64v-64h-64zM640 384v64h64v-64h-64zM128 512v64h64v-64h-64zM576 512v64h64v-64h-64zM256 576v64h64v-64h-64z
M448 576v64h64v-64h-64z" />
    <glyph glyph-name="uni25CE" unicode="&#x25ce;" 
d="M192 0v64h384v-64h-384zM128 64v64h64v-64h-64zM576 64v64h64v-64h-64zM256 128v64h256v-64h-256zM192 192v256h64v-256h-64zM512 192v256h64v-256h-64zM64 128v384h64v-384h-64zM256 448v64h256v-64h-256zM640 128v384h64v-384h-64zM128 512v64h64v-64h-64zM576 512v64
h64v-64h-64zM192 576v64h384v-64h-384z" />
    <glyph glyph-name="H18533" unicode="&#x25cf;" 
d="M192 0v64h-64v64h-64v384h64v64h64v64h384v-64h64v-64h64v-384h-64v-64h-64v-64h-384z" />
    <glyph glyph-name="uni25D0" unicode="&#x25d0;" 
d="M576 64v64h64v-64h-64zM640 128v384h64v-384h-64zM576 512v64h64v-64h-64zM192 0v64h-64v64h-64v384h64v64h64v64h384v-64h-192v-512h192v-64h-384z" />
    <glyph glyph-name="uni25D1" unicode="&#x25d1;" 
d="M128 64v64h64v-64h-64zM64 128v384h64v-384h-64zM128 512v64h64v-64h-64zM192 0v64h192v512h-192v64h384v-64h64v-64h64v-384h-64v-64h-64v-64h-384z" />
    <glyph glyph-name="uni25D2" unicode="&#x25d2;" 
d="M192 0v64h-64v64h-64v384h64v-192h512v192h64v-384h-64v-64h-64v-64h-384zM128 512v64h64v-64h-64zM576 512v64h64v-64h-64zM192 576v64h384v-64h-384z" />
    <glyph glyph-name="uni25D3" unicode="&#x25d3;" 
d="M192 0v64h384v-64h-384zM128 64v64h64v-64h-64zM576 64v64h64v-64h-64zM64 128v384h64v64h64v64h384v-64h64v-64h64v-384h-64v192h-512v-192h-64z" />
    <glyph glyph-name="uni25D4" unicode="&#x25d4;" 
d="M192 0v64h384v-64h-384zM128 64v64h64v-64h-64zM576 64v64h64v-64h-64zM64 128v384h64v-384h-64zM128 512v64h64v-64h-64zM640 128v192h-256v256h-192v64h384v-64h64v-64h64v-384h-64z" />
    <glyph glyph-name="uni25D5" unicode="&#x25d5;" 
d="M128 512v64h64v-64h-64zM192 0v64h-64v64h-64v384h64v-192h256v256h-192v64h384v-64h64v-64h64v-384h-64v-64h-64v-64h-384z" />
    <glyph glyph-name="uni25D6" unicode="&#x25d6;" 
d="M192 0v64h-64v64h-64v384h64v64h64v64h192v-640h-192z" />
    <glyph glyph-name="uni25D7" unicode="&#x25d7;" 
d="M384 0v640h192v-64h64v-64h64v-384h-64v-64h-64v-64h-192z" />
    <glyph glyph-name="uni25DC" unicode="&#x25dc;" 
d="M64 320v192h64v64h64v64h192v-320h-320z" />
    <glyph glyph-name="uni25DD" unicode="&#x25dd;" 
d="M384 320v320h192v-64h64v-64h64v-192h-320z" />
    <glyph glyph-name="uni25DE" unicode="&#x25de;" 
d="M384 0v320h320v-192h-64v-64h-64v-64h-192z" />
    <glyph glyph-name="uni25DF" unicode="&#x25df;" 
d="M192 0v64h-64v64h-64v192h320v-320h-192z" />
    <glyph glyph-name="uni25E0" unicode="&#x25e0;" 
d="M64 320v192h64v64h64v64h384v-64h64v-64h64v-192h-640z" />
    <glyph glyph-name="uni25E1" unicode="&#x25e1;" 
d="M192 0v64h-64v64h-64v192h640v-192h-64v-64h-64v-64h-384z" />
    <glyph glyph-name="uni25E2" unicode="&#x25e2;" 
d="M384 0v64h64v64h64v64h64v64h64v64h64v-320h-320z" />
    <glyph glyph-name="uni25E3" unicode="&#x25e3;" 
d="M64 0v320h64v-64h64v-64h64v-64h64v-64h64v-64h-320z" />
    <glyph glyph-name="uni25E4" unicode="&#x25e4;" 
d="M64 320v320h320v-64h-64v-64h-64v-64h-64v-64h-64v-64h-64z" />
    <glyph glyph-name="uni25E5" unicode="&#x25e5;" 
d="M640 320v64h-64v64h-64v64h-64v64h-64v64h320v-320h-64z" />
    <glyph glyph-name="uni25E7" unicode="&#x25e7;" 
d="M640 64v512h-256v-512h256zM64 0v640h640v-640h-640z" />
    <glyph glyph-name="uni25EF" unicode="&#x25ef;" 
d="M192 0v64h320v-64h-320zM128 64v64h64v-64h-64zM512 64v64h64v-64h-64zM64 128v64h64v-64h-64zM576 128v64h64v-64h-64zM0 192v320h64v-320h-64zM640 192v320h64v-320h-64zM64 512v64h64v-64h-64zM576 512v64h64v-64h-64zM128 576v64h64v-64h-64zM512 576v64h64v-64h-64z
M192 640v64h320v-64h-320z" />
    <glyph glyph-name="uni25F0" unicode="&#x25f0;" 
d="M640 64v512h-256v-256h-256v-256h512zM64 0v640h640v-640h-640z" />
    <glyph glyph-name="uni25F1" unicode="&#x25f1;" 
d="M640 64v512h-512v-256h256v-256h256zM64 0v640h640v-640h-640z" />
    <glyph glyph-name="uni25F2" unicode="&#x25f2;" 
d="M384 64v256h256v256h-512v-512h256zM64 0v640h640v-640h-640z" />
    <glyph glyph-name="uni25F3" unicode="&#x25f3;" 
d="M640 64v256h-256v256h-256v-512h512zM64 0v640h640v-640h-640z" />
    <glyph glyph-name="uni25F4" unicode="&#x25f4;" 
d="M192 0v64h384v-64h-384zM128 64v64h64v-64h-64zM576 64v64h64v-64h-64zM640 128v384h64v-384h-64zM576 512v64h64v-64h-64zM64 128v384h64v64h64v64h384v-64h-192v-256h-256v-192h-64z" />
    <glyph glyph-name="uni25F5" unicode="&#x25f5;" 
d="M576 64v64h64v-64h-64zM192 0v64h-64v64h-64v384h64v-192h256v-256h192v-64h-384zM640 128v384h64v-384h-64zM128 512v64h64v-64h-64zM576 512v64h64v-64h-64zM192 576v64h384v-64h-384z" />
    <glyph glyph-name="uni25F6" unicode="&#x25f6;" 
d="M128 64v64h64v-64h-64zM64 128v384h64v-384h-64zM192 0v64h192v256h256v192h64v-384h-64v-64h-64v-64h-384zM128 512v64h64v-64h-64zM576 512v64h64v-64h-64zM192 576v64h384v-64h-384z" />
    <glyph glyph-name="uni25F7" unicode="&#x25f7;" 
d="M192 0v64h384v-64h-384zM128 64v64h64v-64h-64zM576 64v64h64v-64h-64zM64 128v384h64v-384h-64zM128 512v64h64v-64h-64zM640 128v192h-256v256h-192v64h384v-64h64v-64h64v-384h-64z" />
    <glyph glyph-name="uni2613" unicode="&#x2613;" 
d="M576 320v64h-64v128h-64v64h-64v128h-64v-192h64v-192h192zM256 0v64h192v64h64v64h-128v64h-64v64h-64v192h-64v64h-128v64h128v64h64v64h192v-64h64v-128h64v-64h64v-128h64v-64h64v-64h64v-64h-64v-64h-192v-64h64v-64h-384z" />
    <glyph glyph-name="uni2614" unicode="&#x2614;" 
d="M512 0v128h64v128h64v-64h64v64h-64v64h128v-64h64v-128h64v-64h-64v-64h-64v64h-64v-64h-64v64h-64v-64h-64zM128 0v128h128v64h64v448h128v-576h-64v-64h-256zM512 576v64h64v-64h-64zM640 576v64h64v-64h-64zM448 640v64h64v-64h-64zM576 640v64h64v-64h-64zM768 576
v64h-64v64h128v-64h64v-64h-128z" />
    <glyph glyph-name="uni2615" unicode="&#x2615;" 
d="M768 128v64h-64v-64h64zM128 -64v128h64v128h128v-64h320v192h256v-320h-512v-64h-256zM640 512v64h128v64h-384v-128h256zM384 384v64h-128v64h-64v128h64v64h128v64h320v-64h128v-64h64v-64h-64v-64h-64v-64h-128v-64h-256z" />
    <glyph glyph-name="uni2616" unicode="&#x2616;" 
d="M576 320v64h-64v-64h64zM320 384v64h-64v-64h64zM192 256v64h-64v192h64v64h128v-64h64v-192h-64v-64h-128zM768 64v256h-64v128h64v128h-64v-64h-64v-320h-128v-64h-64v-64h320zM320 -64v192h64v64h-64v64h64v64h64v128h64v192h64v64h256v-64h64v-192h-64v-64h64v-384
h-64v-64h-512z" />
    <glyph glyph-name="uni2617" unicode="&#x2617;" 
d="M704 192v64h-64v-64h64zM576 256v64h-128v64h-64v64h128v-64h192v-64h64v64h-64v64h-128v64h-128v64h-128v64h-64v-128h64v-128h64v-64h64v-64h128zM256 -64v128h128v64h64v64h-64v64h-64v64h-64v64h-64v128h-64v192h64v64h256v-64h64v-64h64v-64h128v-64h64v-64h64v-64
h64v-384h-128v128h-64v-128h-64v-64h-128v128h64v64h-64v-64h-64v-128h-192z" />
    <glyph glyph-name="uni2618" unicode="&#x2618;" 
d="M128 -64v192h64v64h256v-64h64v-128h-64v-64h-320zM576 -64v320h128v-256h-64v-64h-64zM448 384v128h-64v64h-64v-64h64v-128h64zM128 256v256h64v128h64v64h192v-64h64v-128h64v-192h-64v-64h-384z" />
    <glyph glyph-name="uni2625" unicode="&#x2625;" 
d="M448 448v256h-192v-256h192zM320 64v192h-256v64h192v64h-64v64h-64v256h64v64h320v-64h64v-256h-64v-64h-64v-64h192v-64h-256v-192h-64z" />
    <glyph glyph-name="uni262F" unicode="&#x262f;" 
d="M576 64v64h64v-64h-64zM448 128v64h64v-64h-64zM384 448v64h-64v-64h64zM640 128v384h64v-384h-64zM576 512v64h64v-64h-64zM192 0v64h-64v64h-64v384h64v64h64v64h384v-64h-128v-64h64v-128h-64v-64h-64v-64h-64v-128h64v-64h192v-64h-384z" />
    <glyph glyph-name="uni2630" unicode="&#x2630;" 
d="M448 64v64h-64v-64h64zM640 64v64h-128v-64h128zM384 192v64h-192v-64h192zM512 192v64h-64v-64h64zM640 192v64h-64v-64h64zM320 320v64h-64v-64h64zM512 320v64h-128v-64h128zM448 448v64h-256v-64h256zM576 448v64h-64v-64h64zM512 576v64h-192v-64h192zM192 0v64h128
v64h-128v-64h-64v640h512v-64h64v-640h-512z" />
    <glyph glyph-name="uni2631" unicode="&#x2631;" 
d="M640 0v64h64v-64h-64zM448 64v64h-64v-64h64zM384 192v64h-192v-64h192zM512 192v64h-64v-64h64zM640 192v64h-64v-64h64zM320 320v64h-64v-64h64zM512 320v64h-128v-64h128zM448 448v64h-256v-64h256zM576 448v64h-64v-64h64zM512 576v64h-192v-64h192zM192 0v64h128v64
h-128v-64h-64v640h512v-64h64v-512h-192v-64h64v-64h-384z" />
    <glyph glyph-name="uni2632" unicode="&#x2632;" 
d="M448 64v64h-64v-64h64zM576 0v128h128v-64h-64v-64h-64zM384 192v64h-192v-64h192zM320 320v64h-64v-64h64zM512 320v64h-128v-64h128zM448 448v64h-256v-64h256zM576 448v64h-64v-64h64zM512 576v64h-192v-64h192zM192 0v64h128v64h-128v-64h-64v640h512v-64h64v-448
h-64v64h-64v-64h-64v64h-64v-64h64v-192h-320z" />
    <glyph glyph-name="uni2633" unicode="&#x2633;" 
d="M512 0v192h192v-64h-64v-64h-64v-64h-64zM384 192v64h-192v-64h192zM320 320v64h-64v-64h64zM512 320v64h-128v-64h128zM448 448v64h-256v-64h256zM576 448v64h-64v-64h64zM512 576v64h-192v-64h192zM192 0v64h128v64h-128v-64h-64v640h512v-64h64v-384h-256v-128h-64
v-64h64v-64h-256z" />
    <glyph glyph-name="smileface" unicode="&#x263a;" 
d="M192 0v64h384v-64h-384zM128 64v64h64v-64h-64zM576 64v64h64v-64h-64zM256 128v64h256v-64h-256zM192 192v64h64v-64h-64zM512 192v64h64v-64h-64zM256 384v64h64v-64h-64zM448 384v64h64v-64h-64zM64 128v384h64v-384h-64zM640 128v384h64v-384h-64zM128 512v64h64v-64
h-64zM576 512v64h64v-64h-64zM192 576v64h384v-64h-384z" />
    <glyph glyph-name="invsmileface" unicode="&#x263b;" 
d="M512 128v64h64v64h-64v-64h-256v64h-64v-64h64v-64h256zM320 384v64h-64v-64h64zM512 384v64h-64v-64h64zM192 0v64h-64v64h-64v384h64v64h64v64h384v-64h64v-64h64v-384h-64v-64h-64v-64h-384z" />
    <glyph glyph-name="spade" unicode="&#x2660;" 
d="M320 64v64h64v128h-64v-64h-128v64h-64v128h64v64h64v64h64v64h64v64h64v-64h64v-64h64v-64h64v-64h64v-128h-64v-64h-128v64h-64v-128h64v-64h-192z" />
    <glyph glyph-name="uni2661" unicode="&#x2661;" 
d="M384 64v64h64v-64h-64zM320 128v64h64v-64h-64zM448 128v64h64v-64h-64zM256 192v64h64v-64h-64zM512 192v64h64v-64h-64zM192 256v64h64v-64h-64zM576 256v64h64v-64h-64zM384 448v64h64v-64h-64zM128 320v256h64v-256h-64zM320 512v64h64v-64h-64zM448 512v64h64v-64
h-64zM640 320v256h64v-256h-64zM192 576v64h128v-64h-128zM512 576v64h128v-64h-128z" />
    <glyph glyph-name="uni2662" unicode="&#x2662;" 
d="M384 64v64h64v-64h-64zM320 128v64h64v-64h-64zM448 128v64h64v-64h-64zM256 192v64h64v-64h-64zM512 192v64h64v-64h-64zM192 256v64h64v-64h-64zM576 256v64h64v-64h-64zM128 320v64h64v-64h-64zM640 320v64h64v-64h-64zM192 384v64h64v-64h-64zM576 384v64h64v-64h-64
zM256 448v64h64v-64h-64zM512 448v64h64v-64h-64zM320 512v64h64v-64h-64zM448 512v64h64v-64h-64zM384 576v64h64v-64h-64z" />
    <glyph glyph-name="club" unicode="&#x2663;" 
d="M320 64v64h64v128h-64v-64h-128v64h-64v128h64v64h128v-64h64v64h-64v128h64v64h64v-64h64v-128h-64v-64h64v64h128v-64h64v-128h-64v-64h-128v64h-64v-128h64v-64h-192z" />
    <glyph glyph-name="uni2664" unicode="&#x2664;" 
d="M192 192v64h128v-64h-128zM320 64v64h64v128h64v-128h64v-64h-192zM512 192v64h128v-64h-128zM320 256v64h64v-64h-64zM448 256v64h64v-64h-64zM128 256v128h64v-128h-64zM640 256v128h64v-128h-64zM192 384v64h64v-64h-64zM576 384v64h64v-64h-64zM256 448v64h64v-64
h-64zM512 448v64h64v-64h-64zM320 512v64h64v-64h-64zM448 512v64h64v-64h-64zM384 576v64h64v-64h-64z" />
    <glyph glyph-name="heart" unicode="&#x2665;" 
d="M384 64v64h-64v64h-64v64h-64v64h-64v256h64v64h128v-64h64v-64h64v64h64v64h128v-64h64v-256h-64v-64h-64v-64h-64v-64h-64v-64h-64z" />
    <glyph glyph-name="diamond" unicode="&#x2666;" 
d="M384 64v64h-64v64h-64v64h-64v64h-64v64h64v64h64v64h64v64h64v64h64v-64h64v-64h64v-64h64v-64h64v-64h-64v-64h-64v-64h-64v-64h-64v-64h-64z" />
    <glyph glyph-name="uni2667" unicode="&#x2667;" 
d="M192 192v64h128v-64h-128zM320 64v64h64v128h64v-128h64v-64h-192zM512 192v64h128v-64h-128zM320 256v64h64v-64h-64zM448 256v64h64v-64h-64zM128 256v128h64v-128h-64zM640 256v128h64v-128h-64zM192 384v64h128v-64h-128zM512 384v64h128v-64h-128zM320 448v128h64
v-128h-64zM448 448v128h64v-128h-64zM384 576v64h64v-64h-64z" />
    <glyph glyph-name="uni3001" unicode="&#x3001;" 
d="M192 0v128h64v-128h-64zM128 128v64h64v-64h-64z" />
    <glyph glyph-name="uni3002" unicode="&#x3002;" 
d="M192 0v64h128v-64h-128zM128 64v128h64v-128h-64zM320 64v128h64v-128h-64zM192 192v64h128v-64h-128z" />
    <glyph glyph-name="uni300C" unicode="&#x300c;" 
d="M256 256v512h192v-64h-128v-448h-64z" />
    <glyph glyph-name="uni300D" unicode="&#x300d;" 
d="M256 0v64h128v448h64v-512h-192z" />
    <glyph glyph-name="uni300E" unicode="&#x300e;" 
d="M320 320v320h64v64h-128v-384h64zM192 256v512h256v-192h-64v-320h-192z" />
    <glyph glyph-name="uni300F" unicode="&#x300f;" 
d="M448 64v384h-64v-320h-64v-64h128zM256 0v192h64v320h192v-512h-256z" />
    <glyph glyph-name="uni301C" unicode="&#x301c;" 
d="M128 320v64h64v-64h-64zM384 320v64h192v-64h-192zM192 384v64h192v-64h-192zM576 384v64h64v-64h-64z" />
    <glyph glyph-name="uni3041" unicode="&#x3041;" 
d="M128 64v64h64v-64h-64zM320 64v64h128v-64h-128zM192 128v64h64v-64h-64zM64 128v128h64v-128h-64zM128 256v64h64v-64h-64zM448 128v192h64v-192h-64zM320 384v64h-64v-64h64zM256 192v128h-64v128h-128v64h128v64h64v-64h192v-64h-64v-64h64v-64h-128v-128h-64z" />
    <glyph glyph-name="uni3042" unicode="&#x3042;" 
d="M384 64v64h128v-64h-128zM128 128v64h128v-64h-128zM512 128v64h64v-64h-64zM256 192v64h64v-64h-64zM64 192v128h64v-128h-64zM128 320v64h64v-64h-64zM576 192v192h64v-192h-64zM320 256v64h-64v64h-64v64h64v128h-128v64h128v64h64v-64h192v-64h-192v-128h64v64h64
v-64h128v-64h-192v-128h-64z" />
    <glyph glyph-name="uni3043" unicode="&#x3043;" 
d="M192 192v64h64v-64h-64zM256 256v64h64v-64h-64zM448 128v64h-64v64h64v128h64v-256h-64zM384 384v64h64v-64h-64zM128 64v64h-64v384h64v-320h64v-128h-64z" />
    <glyph glyph-name="uni3044" unicode="&#x3044;" 
d="M192 192v64h64v-64h-64zM256 256v64h64v-64h-64zM576 128v64h-64v64h64v128h64v-256h-64zM512 384v64h64v-64h-64zM448 448v64h64v-64h-64zM128 64v64h-64v448h64v-384h64v-128h-64z" />
    <glyph glyph-name="uni3045" unicode="&#x3045;" 
d="M192 64v64h128v-64h-128zM320 128v64h64v-64h-64zM64 320v64h128v-64h-128zM384 192v192h64v-192h-64zM192 384v64h192v-64h-192zM192 512v64h128v-64h-128z" />
    <glyph glyph-name="uni3046" unicode="&#x3046;" 
d="M192 64v64h192v-64h-192zM384 128v64h64v-64h-64zM448 192v64h64v-64h-64zM64 384v64h192v-64h-192zM512 256v192h64v-192h-64zM256 448v64h256v-64h-256zM256 576v64h128v-64h-128zM192 640v64h64v-64h-64z" />
    <glyph glyph-name="uni3047" unicode="&#x3047;" 
d="M64 64v64h64v-64h-64zM320 64v64h192v-64h-192zM128 128v64h64v-64h-64zM256 128v64h-64v64h64v64h64v-192h-64zM320 320v64h-192v64h320v-64h-64v-64h-64zM192 512v64h128v-64h-128z" />
    <glyph glyph-name="uni3048" unicode="&#x3048;" 
d="M64 64v64h64v-64h-64zM448 64v64h192v-64h-192zM128 128v64h64v-64h-64zM192 192v64h64v-64h-64zM256 256v64h64v-64h-64zM384 128v192h64v-192h-64zM320 320v64h64v-64h-64zM384 384v64h-256v64h384v-64h-64v-64h-64zM320 576v64h128v-64h-128zM256 640v64h64v-64h-64z
" />
    <glyph glyph-name="uni3049" unicode="&#x3049;" 
d="M320 64v64h128v-64h-128zM64 128v128h64v-128h-64zM448 128v192h64v-192h-64zM512 320v64h64v-64h-64zM448 384v64h64v-64h-64zM128 64v64h64v128h-64v64h64v128h-128v64h128v64h64v-64h128v-64h-128v-64h192v-64h-192v-256h-128z" />
    <glyph glyph-name="uni304A" unicode="&#x304a;" 
d="M448 64v64h128v-64h-128zM128 128v64h64v-64h-64zM64 192v64h64v-64h-64zM128 256v64h64v-64h-64zM576 128v192h64v-192h-64zM512 320v64h64v-64h-64zM640 448v64h64v-64h-64zM576 512v64h64v-64h-64zM192 64v64h64v192h-64v64h64v128h-192v64h192v128h64v-128h192v-64
h-192v-64h192v-64h-192v-320h-128z" />
    <glyph glyph-name="uni304B" unicode="&#x304b;" 
d="M320 64v64h64v-64h-64zM64 128v64h64v-64h-64zM256 128v64h64v-64h-64zM128 192v128h64v-128h-64zM384 128v320h64v-320h-64zM576 256v64h-64v64h64v64h64v-192h-64zM512 448v64h64v-64h-64zM448 512v64h64v-64h-64zM192 320v128h-128v64h192v192h64v-192h64v-64h-128
v-128h-64z" />
    <glyph glyph-name="uni304C" unicode="&#x304c;" 
d="M320 64v64h64v-64h-64zM64 128v64h64v-64h-64zM256 128v64h64v-64h-64zM128 192v128h64v-128h-64zM384 128v320h64v-320h-64zM576 256v64h-64v64h64v64h64v-192h-64zM512 448v64h64v-64h-64zM448 512v64h64v-64h-64zM576 512v64h64v-64h-64zM512 576v64h64v-64h-64z
M640 576v64h64v-64h-64zM192 320v128h-128v64h192v192h64v-192h64v-64h-128v-128h-64zM576 640v64h64v-64h-64z" />
    <glyph glyph-name="uni304D" unicode="&#x304d;" 
d="M192 64v64h256v-64h-256zM448 128v64h64v-64h-64zM128 128v128h64v-128h-64zM192 256v64h192v64h-320v64h256v64h-192v64h128v128h64v-128h192v-64h-128v-64h192v-64h-128v-128h-256z" />
    <glyph glyph-name="uni304E" unicode="&#x304e;" 
d="M192 64v64h256v-64h-256zM448 128v64h64v-64h-64zM128 128v128h64v-128h-64zM512 576v64h64v-64h-64zM640 576v64h64v-64h-64zM192 256v64h192v64h-320v64h256v64h-192v64h128v128h64v-128h192v-64h-128v-64h192v-64h-128v-128h-256zM448 640v64h64v-64h-64zM576 640v64
h64v-64h-64z" />
    <glyph glyph-name="uni304F" unicode="&#x304f;" 
d="M384 64v128h64v-128h-64zM320 192v64h64v-64h-64zM192 256v64h128v-64h-128zM128 320v128h64v-128h-64zM192 448v64h128v-64h-128zM320 512v64h64v-64h-64zM384 576v128h64v-128h-64z" />
    <glyph glyph-name="uni3050" unicode="&#x3050;" 
d="M384 64v128h64v-128h-64zM320 192v64h64v-64h-64zM192 256v64h128v-64h-128zM128 320v128h64v-128h-64zM192 448v64h128v-64h-128zM320 512v64h64v-64h-64zM512 576v64h64v-64h-64zM640 576v64h64v-64h-64zM384 576v128h128v-64h-64v-64h-64zM576 640v64h64v-64h-64z" />
    <glyph glyph-name="uni3051" unicode="&#x3051;" 
d="M320 64v64h64v-64h-64zM384 128v64h64v-64h-64zM192 256v64h64v-64h-64zM128 128v64h-64v448h64v-384h64v-128h-64zM448 192v320h-192v64h192v128h64v-128h128v-64h-128v-320h-64z" />
    <glyph glyph-name="uni3052" unicode="&#x3052;" 
d="M320 64v64h64v-64h-64zM384 128v64h64v-64h-64zM192 256v64h64v-64h-64zM128 128v64h-64v448h64v-384h64v-128h-64zM640 576v64h64v-64h-64zM768 576v64h64v-64h-64zM448 192v320h-192v64h192v128h64v-128h128v-64h-128v-320h-64zM576 640v64h64v-64h-64zM704 640v64h64
v-64h-64z" />
    <glyph glyph-name="uni3053" unicode="&#x3053;" 
d="M192 64v64h384v-64h-384zM128 128v128h64v-128h-64zM192 256v64h64v-64h-64zM320 448v64h-128v64h320v-64h-128v-64h-64z" />
    <glyph glyph-name="uni3054" unicode="&#x3054;" 
d="M192 64v64h384v-64h-384zM128 128v128h64v-128h-64zM192 256v64h64v-64h-64zM320 448v64h-128v64h320v-64h-128v-64h-64zM512 576v64h64v-64h-64zM640 576v64h64v-64h-64zM448 640v64h64v-64h-64zM576 640v64h64v-64h-64z" />
    <glyph glyph-name="uni3055" unicode="&#x3055;" 
d="M256 64v64h256v-64h-256zM192 128v64h64v-64h-64zM128 192v128h64v-128h-64zM448 256v64h-256v64h192v128h-256v64h192v128h64v-128h192v-64h-128v-128h64v-128h-64z" />
    <glyph glyph-name="uni3056" unicode="&#x3056;" 
d="M256 64v64h256v-64h-256zM192 128v64h64v-64h-64zM128 192v128h64v-128h-64zM640 576v64h64v-64h-64zM448 256v64h-256v64h192v128h-256v64h192v128h64v-128h128v64h64v-128h-128v-128h64v-128h-64zM448 640v64h64v-64h-64zM576 640v64h64v-64h-64z" />
    <glyph glyph-name="uni3057" unicode="&#x3057;" 
d="M192 64v64h192v-64h-192zM384 128v64h64v-64h-64zM448 192v64h64v-64h-64zM512 256v64h64v-64h-64zM128 128v512h64v-512h-64z" />
    <glyph glyph-name="uni3058" unicode="&#x3058;" 
d="M192 64v64h192v-64h-192zM384 128v64h64v-64h-64zM448 192v64h64v-64h-64zM512 256v64h64v-64h-64zM384 448v64h64v-64h-64zM320 512v64h64v-64h-64zM512 512v64h64v-64h-64zM128 128v512h64v-512h-64zM448 576v64h64v-64h-64z" />
    <glyph glyph-name="uni3059" unicode="&#x3059;" 
d="M256 64v64h64v-64h-64zM320 128v128h-64v64h64v64h-64v-64h-64v128h128v64h-320v64h320v128h64v-128h256v-64h-256v-384h-64z" />
    <glyph glyph-name="uni305A" unicode="&#x305a;" 
d="M256 64v64h64v-64h-64zM640 576v64h64v-64h-64zM320 128v128h-64v64h64v64h-64v-64h-64v128h128v64h-320v64h320v128h64v-128h128v64h64v-64h64v-64h-256v-384h-64zM448 640v64h64v-64h-64zM576 640v64h64v-64h-64z" />
    <glyph glyph-name="uni305B" unicode="&#x305b;" 
d="M256 64v64h320v-64h-320zM192 128v256h-192v64h192v128h64v-128h192v192h64v-192h128v-64h-128v-192h-64v64h-64v64h64v64h-192v-256h-64z" />
    <glyph glyph-name="uni305C" unicode="&#x305c;" 
d="M256 64v64h320v-64h-320zM576 512v64h64v-64h-64zM704 512v64h64v-64h-64zM192 128v256h-192v64h192v128h64v-128h192v192h128v-64h-64v-128h128v-64h-128v-192h-64v64h-64v64h64v64h-192v-256h-64zM640 576v64h64v-64h-64z" />
    <glyph glyph-name="uni305D" unicode="&#x305d;" 
d="M384 64v64h128v-64h-128zM320 128v64h64v-64h-64zM192 576v64h64v-64h-64zM256 192v192h-192v64h256v64h-64v64h128v64h64v-128h-64v-64h256v-64h-320v-192h-64zM448 640v64h64v-64h-64z" />
    <glyph glyph-name="uni305E" unicode="&#x305e;" 
d="M384 64v64h128v-64h-128zM320 128v64h64v-64h-64zM192 576v64h64v-64h-64zM256 192v192h-192v64h256v64h-64v64h128v64h64v-128h-64v-64h256v-64h-320v-192h-64zM512 576v64h64v-64h-64zM640 576v64h64v-64h-64zM448 640v64h64v-64h-64zM576 640v64h64v-64h-64z" />
    <glyph glyph-name="uni305F" unicode="&#x305f;" 
d="M384 64v64h256v-64h-256zM64 64v128h64v-128h-64zM320 128v128h64v-128h-64zM128 192v128h64v-128h-64zM192 320v128h64v-128h-64zM448 320v64h-128v64h256v-64h-64v-64h-64zM256 448v64h-192v64h192v128h64v-128h128v-64h-128v-64h-64z" />
    <glyph glyph-name="uni3060" unicode="&#x3060;" 
d="M384 64v64h256v-64h-256zM64 64v128h64v-128h-64zM320 128v128h64v-128h-64zM128 192v128h64v-128h-64zM192 320v128h64v-128h-64zM448 320v64h-128v64h256v-64h-64v-64h-64zM512 576v64h64v-64h-64zM640 576v64h64v-64h-64zM256 448v64h-192v64h192v128h64v-128h128v-64
h-128v-64h-64zM448 640v64h64v-64h-64zM576 640v64h64v-64h-64z" />
    <glyph glyph-name="uni3061" unicode="&#x3061;" 
d="M256 64v64h192v-64h-192zM448 128v64h64v-64h-64zM512 192v192h64v-192h-64zM320 384v64h192v-64h-192zM192 256v256h-128v64h192v128h64v-128h128v-64h-192v-128h64v-64h-64v-64h-64z" />
    <glyph glyph-name="uni3062" unicode="&#x3062;" 
d="M256 64v64h192v-64h-192zM448 128v64h64v-64h-64zM512 192v192h64v-192h-64zM320 384v64h192v-64h-192zM512 576v64h64v-64h-64zM640 576v64h64v-64h-64zM192 256v256h-128v64h192v128h64v-128h128v-64h-192v-128h64v-64h-64v-64h-64zM448 640v64h64v-64h-64zM576 640v64
h64v-64h-64z" />
    <glyph glyph-name="uni3063" unicode="&#x3063;" 
d="M192 64v64h128v-64h-128zM320 128v64h64v-64h-64zM384 192v64h64v-64h-64zM64 320v64h128v-64h-128zM448 256v128h64v-128h-64zM192 384v64h256v-64h-256z" />
    <glyph glyph-name="uni3064" unicode="&#x3064;" 
d="M192 64v64h192v-64h-192zM384 128v64h128v-64h-128zM512 192v64h64v-64h-64zM576 256v128h64v-128h-64zM64 384v64h192v-64h-192zM512 384v64h64v-64h-64zM256 448v64h256v-64h-256z" />
    <glyph glyph-name="uni3065" unicode="&#x3065;" 
d="M192 64v64h192v-64h-192zM384 128v64h128v-64h-128zM512 192v64h64v-64h-64zM576 256v128h64v-128h-64zM64 384v64h192v-64h-192zM512 384v64h64v-64h-64zM256 448v64h256v-64h-256zM512 512v64h64v-64h-64zM640 512v64h64v-64h-64zM448 576v64h64v-64h-64zM576 576v64
h64v-64h-64z" />
    <glyph glyph-name="uni3066" unicode="&#x3066;" 
d="M384 64v64h128v-64h-128zM320 128v64h64v-64h-64zM256 192v256h64v-256h-64zM320 448v64h64v-64h-64zM384 512v64h-320v64h512v-64h-128v-64h-64z" />
    <glyph glyph-name="uni3067" unicode="&#x3067;" 
d="M384 64v64h128v-64h-128zM320 128v64h64v-64h-64zM256 192v256h64v-256h-64zM512 384v64h64v-64h-64zM640 384v64h64v-64h-64zM320 448v64h64v-64h-64zM448 448v64h64v-64h-64zM576 448v64h64v-64h-64zM384 512v64h-320v64h512v-64h-128v-64h-64z" />
    <glyph glyph-name="uni3068" unicode="&#x3068;" 
d="M128 64v64h448v-64h-448zM64 128v128h64v-128h-64zM128 256v64h64v-64h-64zM192 320v64h64v192h64v-128h192v-64h-192v-64h-128zM192 576v64h64v-64h-64z" />
    <glyph glyph-name="uni3069" unicode="&#x3069;" 
d="M128 64v64h448v-64h-448zM64 128v128h64v-128h-64zM128 256v64h64v-64h-64zM192 320v64h64v192h64v-128h192v-64h-192v-64h-128zM192 576v64h64v-64h-64zM384 576v64h64v-64h-64zM512 576v64h64v-64h-64zM320 640v64h64v-64h-64zM448 640v64h64v-64h-64z" />
    <glyph glyph-name="uni306A" unicode="&#x306a;" 
d="M320 64v64h128v-64h-128zM576 64v64h64v-64h-64zM256 128v64h64v-64h-64zM64 128v128h64v-128h-64zM128 256v128h64v-128h-64zM448 128v64h-128v64h128v128h64v-192h64v-64h-128zM576 384v128h64v-128h-64zM512 512v64h64v-64h-64zM192 384v128h-128v64h192v128h64v-128
h64v-64h-128v-128h-64z" />
    <glyph glyph-name="uni306B" unicode="&#x306b;" 
d="M384 128v64h256v-64h-256zM192 192v64h64v-64h-64zM320 192v128h64v-128h-64zM128 64v64h-64v384h64v-320h64v-128h-64zM448 448v64h-128v64h320v-64h-128v-64h-64zM128 512v128h64v-128h-64z" />
    <glyph glyph-name="uni306C" unicode="&#x306c;" 
d="M128 64v64h64v-64h-64zM384 64v64h128v-64h-128zM576 64v64h64v-64h-64zM192 128v64h64v-64h-64zM320 128v64h64v-64h-64zM512 128v64h64v-64h-64zM384 192v64h128v-64h-128zM256 192v128h64v-128h-64zM64 128v256h64v-256h-64zM576 192v192h64v-192h-64zM512 384v64h64
v-64h-64zM192 320v64h-64v192h64v-128h64v-128h-64zM320 320v128h-64v64h64v192h64v-192h128v-64h-128v-128h-64z" />
    <glyph glyph-name="uni306D" unicode="&#x306d;" 
d="M384 64v64h128v-64h-128zM576 64v64h64v-64h-64zM64 128v64h64v-64h-64zM320 128v64h64v-64h-64zM512 128v64h64v-64h-64zM384 192v64h128v-64h-128zM576 192v256h64v-256h-64zM64 448v64h64v-64h-64zM320 448v64h64v-64h-64zM512 448v64h64v-64h-64zM384 512v64h128v-64
h-128zM192 64v128h-64v128h64v64h-64v64h64v256h64v-256h64v-64h-64v-320h-64z" />
    <glyph glyph-name="uni306E" unicode="&#x306e;" 
d="M192 64v64h64v-64h-64zM384 64v64h128v-64h-128zM128 128v64h64v-64h-64zM512 128v64h64v-64h-64zM256 128v128h64v-128h-64zM64 192v192h64v-192h-64zM128 384v64h64v-64h-64zM576 192v256h64v-256h-64zM192 448v64h64v-64h-64zM512 448v64h64v-64h-64zM320 256v256h-64
v64h256v-64h-128v-256h-64z" />
    <glyph glyph-name="uni306F" unicode="&#x306f;" 
d="M320 64v64h128v-64h-128zM576 64v64h64v-64h-64zM256 128v64h64v-64h-64zM192 256v64h64v-64h-64zM128 64v64h-64v512h64v-384h64v-192h-64zM448 128v64h-128v64h128v256h-192v64h192v128h64v-128h128v-64h-128v-320h64v-64h-128z" />
    <glyph glyph-name="uni3070" unicode="&#x3070;" 
d="M320 64v64h128v-64h-128zM576 64v64h64v-64h-64zM256 128v64h64v-64h-64zM192 256v64h64v-64h-64zM128 64v64h-64v512h64v-384h64v-192h-64zM640 576v64h64v-64h-64zM768 576v64h64v-64h-64zM448 128v64h-128v64h128v256h-192v64h192v128h64v-128h128v-64h-128v-320h64
v-64h-128zM576 640v64h64v-64h-64zM704 640v64h64v-64h-64z" />
    <glyph glyph-name="uni3071" unicode="&#x3071;" 
d="M320 64v64h128v-64h-128zM576 64v64h64v-64h-64zM256 128v64h64v-64h-64zM192 256v64h64v-64h-64zM128 64v64h-64v512h64v-384h64v-192h-64zM640 576v64h64v-64h-64zM448 128v64h-128v64h128v256h-192v64h192v128h64v-128h128v-64h-128v-320h64v-64h-128zM576 640v128h64
v-128h-64zM704 640v128h64v-128h-64zM640 768v64h64v-64h-64z" />
    <glyph glyph-name="uni3072" unicode="&#x3072;" 
d="M192 64v64h128v-64h-128zM128 128v64h64v-64h-64zM320 128v64h64v-64h-64zM384 192v64h64v-64h-64zM640 256v64h64v-64h-64zM64 192v192h64v-192h-64zM576 320v64h64v-64h-64zM128 384v64h64v-64h-64zM64 576v64h64v-64h-64zM192 448v64h-64v64h128v64h64v-128h-64v-64
h-64zM448 256v384h64v-192h64v-64h-64v-128h-64z" />
    <glyph glyph-name="uni3073" unicode="&#x3073;" 
d="M192 64v64h128v-64h-128zM128 128v64h64v-64h-64zM320 128v64h64v-64h-64zM384 192v64h64v-64h-64zM640 256v64h64v-64h-64zM64 192v192h64v-192h-64zM576 320v64h64v-64h-64zM128 384v64h64v-64h-64zM448 256v320h64v-128h64v-64h-64v-128h-64zM64 576v64h64v-64h-64z
M192 448v64h-64v64h128v64h64v-128h-64v-64h-64zM512 576v64h64v-64h-64zM640 576v64h64v-64h-64zM448 640v64h64v-64h-64zM576 640v64h64v-64h-64z" />
    <glyph glyph-name="uni3074" unicode="&#x3074;" 
d="M192 64v64h128v-64h-128zM128 128v64h64v-64h-64zM320 128v64h64v-64h-64zM384 192v64h64v-64h-64zM640 256v64h64v-64h-64zM64 192v192h64v-192h-64zM576 320v64h64v-64h-64zM128 384v64h64v-64h-64zM448 256v320h64v-128h64v-64h-64v-128h-64zM576 512v64h64v-64h-64z
M64 576v64h64v-64h-64zM192 448v64h-64v64h128v64h64v-128h-64v-64h-64zM512 576v128h64v-128h-64zM640 576v128h64v-128h-64zM576 704v64h64v-64h-64z" />
    <glyph glyph-name="uni3075" unicode="&#x3075;" 
d="M320 64v64h64v-64h-64zM64 128v64h64v-64h-64zM256 128v64h64v-64h-64zM0 192v64h64v-64h-64zM128 192v64h64v-64h-64zM640 192v64h64v-64h-64zM192 256v64h64v-64h-64zM384 128v192h64v-192h-64zM576 256v64h64v-64h-64zM320 320v64h64v-64h-64zM512 320v64h64v-64h-64z
M256 384v64h64v-64h-64zM384 384v64h128v-64h-128zM320 448v128h128v-64h-64v-64h-64zM256 576v64h64v-64h-64z" />
    <glyph glyph-name="uni3076" unicode="&#x3076;" 
d="M320 64v64h64v-64h-64zM64 128v64h64v-64h-64zM256 128v64h64v-64h-64zM0 192v64h64v-64h-64zM128 192v64h64v-64h-64zM640 192v64h64v-64h-64zM192 256v64h64v-64h-64zM384 128v192h64v-192h-64zM576 256v64h64v-64h-64zM320 320v64h64v-64h-64zM512 320v64h64v-64h-64z
M256 384v64h64v-64h-64zM384 384v64h128v-64h-128zM320 448v128h128v-64h-64v-64h-64zM256 576v64h64v-64h-64zM512 576v64h64v-64h-64zM640 576v64h64v-64h-64zM448 640v64h64v-64h-64zM576 640v64h64v-64h-64z" />
    <glyph glyph-name="uni3077" unicode="&#x3077;" 
d="M320 64v64h64v-64h-64zM64 128v64h64v-64h-64zM256 128v64h64v-64h-64zM0 192v64h64v-64h-64zM128 192v64h64v-64h-64zM640 192v64h64v-64h-64zM192 256v64h64v-64h-64zM384 128v192h64v-192h-64zM576 256v64h64v-64h-64zM320 320v64h64v-64h-64zM512 320v64h64v-64h-64z
M256 384v64h64v-64h-64zM384 384v64h128v-64h-128zM576 448v64h64v-64h-64zM320 448v128h128v-64h-64v-64h-64zM256 576v64h64v-64h-64zM512 512v128h64v-128h-64zM640 512v128h64v-128h-64zM576 640v64h64v-64h-64z" />
    <glyph glyph-name="uni3078" unicode="&#x3078;" 
d="M576 192v64h128v-64h-128zM512 256v64h64v-64h-64zM64 320v64h128v-64h-128zM448 320v64h64v-64h-64zM192 384v64h64v-64h-64zM384 384v64h64v-64h-64zM256 448v64h128v-64h-128z" />
    <glyph glyph-name="uni3079" unicode="&#x3079;" 
d="M576 192v64h128v-64h-128zM512 256v64h64v-64h-64zM64 320v64h128v-64h-128zM448 320v64h64v-64h-64zM192 384v64h64v-64h-64zM384 384v64h64v-64h-64zM256 448v64h128v-64h-128zM448 512v64h64v-64h-64zM576 512v64h64v-64h-64zM384 576v64h64v-64h-64zM512 576v64h64
v-64h-64z" />
    <glyph glyph-name="uni307A" unicode="&#x307a;" 
d="M576 192v64h128v-64h-128zM512 256v64h64v-64h-64zM64 320v64h128v-64h-128zM448 320v64h64v-64h-64zM192 384v64h64v-64h-64zM384 384v64h64v-64h-64zM256 448v64h128v-64h-128zM512 448v64h64v-64h-64zM448 512v128h64v-128h-64zM576 512v128h64v-128h-64zM512 640v64
h64v-64h-64z" />
    <glyph glyph-name="uni307B" unicode="&#x307b;" 
d="M320 64v64h128v-64h-128zM576 64v64h64v-64h-64zM256 128v64h64v-64h-64zM192 256v64h64v-64h-64zM128 64v64h-64v512h64v-384h64v-192h-64zM448 128v64h-128v64h128v192h-192v64h192v64h-128v64h320v-64h-128v-64h128v-64h-128v-256h64v-64h-128z" />
    <glyph glyph-name="uni307C" unicode="&#x307c;" 
d="M320 64v64h128v-64h-128zM576 64v64h64v-64h-64zM256 128v64h64v-64h-64zM192 256v64h64v-64h-64zM128 64v64h-64v512h64v-384h64v-192h-64zM448 128v64h-128v64h128v192h-192v64h192v64h-128v64h192v64h64v-64h64v-64h-128v-64h128v-64h-128v-256h64v-64h-128zM640 640
v64h64v-64h-64zM448 704v64h64v-64h-64zM576 704v64h64v-64h-64z" />
    <glyph glyph-name="uni307D" unicode="&#x307d;" 
d="M320 64v64h128v-64h-128zM576 64v64h64v-64h-64zM256 128v64h64v-64h-64zM192 256v64h64v-64h-64zM128 64v64h-64v512h64v-384h64v-192h-64zM448 128v64h-128v64h128v192h-192v64h192v64h-128v64h256v-64h-64v-64h128v-64h-128v-256h64v-64h-128zM640 576v64h64v-64h-64z
M576 640v128h64v-128h-64zM704 640v128h64v-128h-64zM640 768v64h64v-64h-64z" />
    <glyph glyph-name="uni307E" unicode="&#x307e;" 
d="M192 64v64h128v-64h-128zM448 64v64h64v-64h-64zM128 128v64h64v-64h-64zM320 128v64h-128v64h128v128h-192v64h192v64h-192v64h192v128h64v-128h192v-64h-192v-64h192v-64h-192v-192h64v-64h-128z" />
    <glyph glyph-name="uni307F" unicode="&#x307f;" 
d="M384 64v64h64v-64h-64zM128 128v64h128v-64h-128zM448 128v128h64v-128h-64zM64 192v128h64v-128h-64zM640 256v64h64v-64h-64zM128 320v64h64v-64h-64zM256 192v192h-64v64h128v128h-192v64h256v-192h128v128h64v-192h64v-64h-64v-64h-64v128h-192v-192h-64z" />
    <glyph glyph-name="uni3080" unicode="&#x3080;" 
d="M256 64v64h256v-64h-256zM64 256v64h64v-64h-64zM512 128v192h64v-192h-64zM192 128v64h-64v64h64v64h-64v64h128v-256h-64zM448 320v128h64v-128h-64zM576 384v128h64v-128h-64zM512 512v64h64v-64h-64zM256 384v128h-192v64h192v128h64v-128h64v-64h-64v-128h-64z" />
    <glyph glyph-name="uni3081" unicode="&#x3081;" 
d="M320 64v64h128v-64h-128zM128 128v64h64v-64h-64zM448 128v64h64v-64h-64zM192 192v64h64v-64h-64zM512 192v64h64v-64h-64zM256 256v64h64v-64h-64zM64 192v192h64v-192h-64zM576 256v128h64v-128h-64zM512 384v64h64v-64h-64zM192 320v64h-64v192h64v-128h64v-128h-64z
M320 320v128h-64v64h128v128h64v-128h64v-64h-128v-128h-64z" />
    <glyph glyph-name="uni3082" unicode="&#x3082;" 
d="M320 64v64h128v-64h-128zM256 128v64h64v-64h-64zM448 128v64h64v-64h-64zM512 192v128h64v-128h-64zM192 192v192h-128v64h128v64h-128v64h192v128h64v-128h128v-64h-192v-64h192v-64h-192v-192h-64z" />
    <glyph glyph-name="uni3083" unicode="&#x3083;" 
d="M320 64v192h64v-192h-64zM384 256v64h128v-64h-128zM512 320v64h64v-64h-64zM256 256v128h-192v64h128v128h64v-128h64v128h64v-128h128v-64h-192v-128h-64z" />
    <glyph glyph-name="uni3084" unicode="&#x3084;" 
d="M320 64v192h64v-192h-64zM384 320v64h192v-64h-192zM576 384v64h64v-64h-64zM256 256v128h-256v64h192v128h64v-128h64v-192h-64zM320 448v256h64v-192h192v-64h-256z" />
    <glyph glyph-name="uni3085" unicode="&#x3085;" 
d="M256 64v64h64v-64h-64zM192 320v64h64v-64h-64zM448 256v128h64v-128h-64zM128 128v64h-64v256h64v-128h64v-192h-64zM320 128v256h-64v64h64v128h64v-128h64v-64h-64v-128h64v-64h-64v-64h-64z" />
    <glyph glyph-name="uni3086" unicode="&#x3086;" 
d="M256 64v64h64v-64h-64zM512 256v64h64v-64h-64zM192 320v128h64v-128h-64zM576 320v128h64v-128h-64zM256 448v64h64v-64h-64zM512 448v64h64v-64h-64zM128 192v64h-64v384h64v-320h64v-128h-64zM320 128v128h64v256h-64v64h64v128h64v-128h64v-64h-64v-256h64v-64h-128
v-64h-64z" />
    <glyph glyph-name="uni3087" unicode="&#x3087;" 
d="M128 64v64h128v-64h-128zM384 64v64h64v-64h-64zM64 128v64h64v-64h-64zM256 128v64h-128v64h128v256h64v-64h128v-64h-128v-192h64v-64h-128z" />
    <glyph glyph-name="uni3088" unicode="&#x3088;" 
d="M128 64v64h192v-64h-192zM512 64v64h64v-64h-64zM64 128v64h64v-64h-64zM320 128v64h-192v64h192v448h64v-192h192v-64h-192v-256h128v-64h-192z" />
    <glyph glyph-name="uni3089" unicode="&#x3089;" 
d="M256 64v64h192v-64h-192zM448 128v64h64v-64h-64zM256 320v64h64v-64h-64zM512 192v192h64v-192h-64zM320 384v64h192v-64h-192zM192 192v64h-64v320h64v-256h64v-128h-64zM320 512v128h64v-128h-64zM256 640v64h64v-64h-64z" />
    <glyph glyph-name="uni308A" unicode="&#x308a;" 
d="M320 0v64h64v-64h-64zM384 64v128h64v-128h-64zM192 256v384h64v-256h64v-64h-64v-64h-64zM448 192v512h64v-512h-64z" />
    <glyph glyph-name="uni308B" unicode="&#x308b;" 
d="M192 128v64h64v-64h-64zM256 64v64h128v64h128v-64h-64v-64h-192zM256 192v64h128v-64h-128zM64 256v64h64v-64h-64zM512 192v128h64v-128h-64zM128 320v64h64v-64h-64zM448 320v64h64v-64h-64zM192 384v64h64v64h64v-64h128v-64h-256zM320 512v64h-192v64h320v-64h-64
v-64h-64z" />
    <glyph glyph-name="uni308C" unicode="&#x308c;" 
d="M64 128v64h64v-64h-64zM576 128v64h64v-64h-64zM640 192v64h64v-64h-64zM64 448v64h64v-64h-64zM320 448v64h64v-64h-64zM512 192v320h64v-320h-64zM384 512v64h128v-64h-128zM192 64v128h-64v128h64v64h-64v64h64v256h64v-256h64v-64h-64v-320h-64z" />
    <glyph glyph-name="uni308D" unicode="&#x308d;" 
d="M256 64v64h192v-64h-192zM192 128v64h64v-64h-64zM448 128v64h64v-64h-64zM64 256v64h64v-64h-64zM512 192v128h64v-128h-64zM128 320v64h64v-64h-64zM448 320v64h64v-64h-64zM192 384v64h64v64h64v-64h128v-64h-256zM320 512v64h-192v64h320v-64h-64v-64h-64z" />
    <glyph glyph-name="uni308E" unicode="&#x308e;" 
d="M320 64v64h128v-64h-128zM64 128v64h64v-64h-64zM448 128v256h64v-256h-64zM320 384v64h128v-64h-128zM192 64v128h-64v64h64v128h-128v64h128v64h64v-128h64v-64h-64v-256h-64z" />
    <glyph glyph-name="uni308F" unicode="&#x308f;" 
d="M320 64v64h192v-64h-192zM64 128v64h64v-64h-64zM512 128v64h64v-64h-64zM576 192v192h64v-192h-64zM512 384v64h64v-64h-64zM64 448v64h64v-64h-64zM320 448v64h192v-64h-192zM192 64v128h-64v128h64v64h-64v64h64v256h64v-256h64v-64h-64v-320h-64z" />
    <glyph glyph-name="uni3092" unicode="&#x3092;" 
d="M256 64v64h320v-64h-320zM192 128v128h64v-128h-64zM128 320v64h64v-64h-64zM448 384v64h128v-64h-128zM320 192v64h-64v64h64v64h-128v64h64v64h64v-64h64v-64h64v-64h-64v-128h-64zM320 512v64h-256v64h256v64h64v-64h128v-64h-128v-64h-64z" />
    <glyph glyph-name="uni3093" unicode="&#x3093;" 
d="M384 64v64h128v-64h-128zM64 64v128h64v-128h-64zM512 128v64h64v-64h-64zM128 192v128h64v-128h-64zM320 128v256h64v-256h-64zM576 192v192h64v-192h-64zM192 320v128h64v192h64v-256h-64v-64h-64z" />
    <glyph glyph-name="uni3094" unicode="&#x3094;" 
d="M192 64v64h192v-64h-192zM384 128v64h64v-64h-64zM448 192v64h64v-64h-64zM64 384v64h192v-64h-192zM512 256v192h64v-192h-64zM256 448v64h256v-64h-256zM256 576v64h128v-64h-128zM512 576v64h64v-64h-64zM640 576v64h64v-64h-64zM192 640v64h64v-64h-64zM448 640v64
h64v-64h-64zM576 640v64h64v-64h-64z" />
    <glyph glyph-name="uni309B" unicode="&#x309b;" 
d="M512 640v64h64v-64h-64zM640 640v64h64v-64h-64zM448 704v64h64v-64h-64zM576 704v64h64v-64h-64z" />
    <glyph glyph-name="uni309C" unicode="&#x309c;" 
d="M576 576v64h64v-64h-64zM512 640v128h64v-128h-64zM640 640v128h64v-128h-64zM576 768v64h64v-64h-64z" />
    <glyph glyph-name="uni30A1" unicode="&#x30a1;" 
d="M192 0v64h64v-64h-64zM256 64v64h64v-64h-64zM320 128v128h128v-64h-64v-64h-64zM448 256v64h-320v64h448v-64h-64v-64h-64z" />
    <glyph glyph-name="uni30A2" unicode="&#x30a2;" 
d="M128 64v64h128v-64h-128zM256 128v64h64v-64h-64zM320 192v256h128v-64h-64v-192h-64zM448 448v64h64v-64h-64zM512 512v64h-448v64h576v-64h-64v-64h-64z" />
    <glyph glyph-name="uni30A3" unicode="&#x30a3;" 
d="M128 128v64h128v-64h-128zM320 0v192h64v-192h-64zM256 192v64h64v-64h-64zM320 256v64h64v-64h-64zM384 320v64h64v-64h-64zM448 384v64h64v-64h-64z" />
    <glyph glyph-name="uni30A4" unicode="&#x30a4;" 
d="M64 256v64h128v-64h-128zM192 320v64h128v-64h-128zM384 64v320h64v-320h-64zM320 384v64h64v-64h-64zM384 448v64h64v-64h-64zM448 512v64h64v-64h-64zM512 576v128h64v-128h-64z" />
    <glyph glyph-name="uni30A5" unicode="&#x30a5;" 
d="M256 0v64h64v-64h-64zM320 64v64h64v-64h-64zM384 128v64h64v-64h-64zM128 192v192h128v64h64v-64h192v-192h-64v128h-256v-128h-64z" />
    <glyph glyph-name="uni30A6" unicode="&#x30a6;" 
d="M192 64v64h128v-64h-128zM320 128v64h64v-64h-64zM384 192v64h64v-64h-64zM448 256v128h64v-128h-64zM128 384v256h64v-64h128v128h64v-128h192v-192h-64v128h-320v-128h-64z" />
    <glyph glyph-name="uni30A7" unicode="&#x30a7;" 
d="M128 64v64h192v192h-128v64h320v-64h-128v-192h192v-64h-448z" />
    <glyph glyph-name="uni30A8" unicode="&#x30a8;" 
d="M64 128v64h256v320h-192v64h448v-64h-192v-320h256v-64h-576z" />
    <glyph glyph-name="uni30A9" unicode="&#x30a9;" 
d="M128 64v64h128v-64h-128zM256 128v64h64v-64h-64zM384 0v192h-64v64h64v64h-256v64h256v64h64v-64h128v-64h-128v-320h-64z" />
    <glyph glyph-name="uni30AA" unicode="&#x30aa;" 
d="M64 192v64h128v-64h-128zM192 256v64h64v-64h-64zM256 320v64h64v-64h-64zM384 64v64h-64v64h64v192h-64v64h64v64h-320v64h320v128h64v-128h192v-64h-192v-448h-64z" />
    <glyph glyph-name="uni30AB" unicode="&#x30ab;" 
d="M128 64v64h64v-64h-64zM448 64v64h64v-64h-64zM192 128v64h64v-64h-64zM384 128v64h64v-64h-64zM512 128v128h64v-128h-64zM256 192v128h64v-128h-64zM576 256v192h-192v-128h-64v128h-256v64h256v192h64v-192h256v-256h-64z" />
    <glyph glyph-name="uni30AC" unicode="&#x30ac;" 
d="M128 64v64h64v-64h-64zM448 64v64h64v-64h-64zM192 128v64h64v-64h-64zM384 128v64h64v-64h-64zM512 128v128h64v-128h-64zM256 192v128h64v-128h-64zM512 576v64h64v-64h-64zM640 576v64h64v-64h-64zM576 256v192h-192v-128h-64v128h-256v64h256v192h64v-192h256v-256
h-64zM448 640v64h64v-64h-64zM576 640v64h64v-64h-64z" />
    <glyph glyph-name="uni30AD" unicode="&#x30ad;" 
d="M320 64v256h-256v64h256v64h-192v64h192v192h64v-128h192v-64h-192v-64h256v-64h-256v-320h-64z" />
    <glyph glyph-name="uni30AE" unicode="&#x30ae;" 
d="M640 576v64h64v-64h-64zM320 64v256h-256v64h256v64h-192v64h192v192h64v-128h128v64h64v-128h-192v-64h256v-64h-256v-320h-64zM448 640v64h64v-64h-64zM576 640v64h64v-64h-64z" />
    <glyph glyph-name="uni30AF" unicode="&#x30af;" 
d="M128 64v64h128v-64h-128zM256 128v64h64v-64h-64zM320 192v64h64v-64h-64zM384 256v64h64v-64h-64zM128 384v64h64v-64h-64zM448 320v128h64v-128h-64zM192 448v64h64v-64h-64zM512 448v128h-192v-64h-64v192h64v-64h256v-192h-64z" />
    <glyph glyph-name="uni30B0" unicode="&#x30b0;" 
d="M128 64v64h128v-64h-128zM256 128v64h64v-64h-64zM320 192v64h64v-64h-64zM384 256v64h64v-64h-64zM128 384v64h64v-64h-64zM448 320v128h64v-128h-64zM192 448v64h64v-64h-64zM512 448v128h-192v-64h-64v192h64v-64h192v64h64v-256h-64zM640 640v64h64v-64h-64zM448 704
v64h64v-64h-64zM576 704v64h64v-64h-64z" />
    <glyph glyph-name="uni30B1" unicode="&#x30b1;" 
d="M192 64v64h64v-64h-64zM256 128v64h64v-64h-64zM320 192v128h64v-128h-64zM64 384v64h64v-64h-64zM128 448v64h64v-64h-64zM384 320v192h-192v192h64v-128h384v-64h-192v-192h-64z" />
    <glyph glyph-name="uni30B2" unicode="&#x30b2;" 
d="M192 64v64h64v-64h-64zM256 128v64h64v-64h-64zM320 192v128h64v-128h-64zM64 384v64h64v-64h-64zM128 448v64h64v-64h-64zM384 320v192h-192v192h64v-128h384v-64h-192v-192h-64zM512 640v64h64v-64h-64zM640 640v64h64v-64h-64zM448 704v64h64v-64h-64zM576 704v64h64
v-64h-64z" />
    <glyph glyph-name="uni30B3" unicode="&#x30b3;" 
d="M128 128v64h384v320h-384v64h448v-448h-448z" />
    <glyph glyph-name="uni30B4" unicode="&#x30b4;" 
d="M128 128v64h384v320h-384v64h448v-448h-448zM512 640v64h64v-64h-64zM640 640v64h64v-64h-64zM448 704v64h64v-64h-64zM576 704v64h64v-64h-64z" />
    <glyph glyph-name="uni30B5" unicode="&#x30b5;" 
d="M256 0v64h64v-64h-64zM320 64v64h64v-64h-64zM384 128v128h64v-128h-64zM192 256v192h-128v64h128v128h64v-128h192v192h64v-192h128v-64h-128v-192h-64v192h-192v-192h-64z" />
    <glyph glyph-name="uni30B6" unicode="&#x30b6;" 
d="M256 0v64h64v-64h-64zM320 64v64h64v-64h-64zM384 128v128h64v-128h-64zM576 576v64h64v-64h-64zM704 576v64h64v-64h-64zM192 256v192h-128v64h128v128h64v-128h192v192h128v-64h-64v-128h128v-64h-128v-192h-64v192h-192v-192h-64zM640 640v64h64v-64h-64z" />
    <glyph glyph-name="uni30B7" unicode="&#x30b7;" 
d="M128 64v64h128v-64h-128zM256 128v64h128v-64h-128zM384 192v64h64v-64h-64zM448 256v64h64v-64h-64zM192 320v64h64v-64h-64zM512 320v64h64v-64h-64zM128 384v64h64v-64h-64zM256 512v64h64v-64h-64zM192 576v64h64v-64h-64z" />
    <glyph glyph-name="uni30B8" unicode="&#x30b8;" 
d="M128 64v64h128v-64h-128zM256 128v64h128v-64h-128zM384 192v64h64v-64h-64zM448 256v64h64v-64h-64zM192 320v64h64v-64h-64zM512 320v64h64v-64h-64zM128 384v64h64v-64h-64zM256 512v64h64v-64h-64zM192 576v64h64v-64h-64zM448 576v64h64v-64h-64zM576 576v64h64v-64
h-64zM384 640v64h64v-64h-64zM512 640v64h64v-64h-64z" />
    <glyph glyph-name="uni30B9" unicode="&#x30b9;" 
d="M64 64v64h128v-64h-128zM512 64v64h128v-64h-128zM192 128v64h64v-64h-64zM448 128v64h64v-64h-64zM256 192v64h64v-64h-64zM384 192v64h64v-64h-64zM320 256v64h64v-64h-64zM384 320v64h64v-64h-64zM448 384v64h64v-64h-64zM512 448v64h-384v64h448v-128h-64z" />
    <glyph glyph-name="uni30BA" unicode="&#x30ba;" 
d="M64 64v64h128v-64h-128zM512 64v64h128v-64h-128zM192 128v64h64v-64h-64zM448 128v64h64v-64h-64zM256 192v64h64v-64h-64zM384 192v64h64v-64h-64zM320 256v64h64v-64h-64zM384 320v64h64v-64h-64zM448 384v64h64v-64h-64zM512 448v64h-384v64h384v64h64v-192h-64z
M640 576v64h64v-64h-64zM448 640v64h64v-64h-64zM576 640v64h64v-64h-64z" />
    <glyph glyph-name="uni30BB" unicode="&#x30bb;" 
d="M256 64v64h320v-64h-320zM448 320v64h64v-64h-64zM192 128v320h-128v64h128v192h64v-192h384v-64h-64v-64h-64v64h-256v-320h-64z" />
    <glyph glyph-name="uni30BC" unicode="&#x30bc;" 
d="M256 64v64h320v-64h-320zM448 320v64h64v-64h-64zM512 576v64h64v-64h-64zM640 576v64h64v-64h-64zM192 128v320h-128v64h128v192h64v-192h384v-64h-64v-64h-64v64h-256v-320h-64zM448 640v64h64v-64h-64zM576 640v64h64v-64h-64z" />
    <glyph glyph-name="uni30BD" unicode="&#x30bd;" 
d="M192 64v64h128v-64h-128zM320 128v64h64v-64h-64zM384 192v64h64v-64h-64zM448 256v128h64v-128h-64zM192 384v128h64v-128h-64zM128 512v64h64v-64h-64zM512 384v256h64v-256h-64z" />
    <glyph glyph-name="uni30BE" unicode="&#x30be;" 
d="M192 64v64h128v-64h-128zM320 128v64h64v-64h-64zM384 192v64h64v-64h-64zM448 256v128h64v-128h-64zM192 384v128h64v-128h-64zM128 512v64h64v-64h-64zM512 384v192h64v-192h-64zM448 576v64h64v-64h-64zM576 576v64h64v-64h-64zM384 640v64h64v-64h-64zM512 640v64h64
v-64h-64z" />
    <glyph glyph-name="uni30BF" unicode="&#x30bf;" 
d="M64 64v64h192v-64h-192zM256 128v64h128v-64h-128zM384 192v64h64v-64h-64zM448 256v64h64v-64h-64zM384 320v64h64v-64h-64zM128 384v64h128v-64h-128zM320 384v64h64v-64h-64zM512 320v128h64v-128h-64zM256 448v64h64v-64h-64zM320 512v64h64v-64h-64zM576 448v128
h-192v128h64v-64h192v-192h-64z" />
    <glyph glyph-name="uni30C0" unicode="&#x30c0;" 
d="M64 64v64h192v-64h-192zM256 128v64h128v-64h-128zM384 192v64h64v-64h-64zM448 256v64h64v-64h-64zM384 320v64h64v-64h-64zM128 384v64h128v-64h-128zM320 384v64h64v-64h-64zM512 320v128h64v-128h-64zM256 448v64h64v-64h-64zM320 512v64h64v-64h-64zM576 448v128
h-192v128h64v-64h128v64h64v-256h-64zM704 640v64h64v-64h-64zM512 704v64h64v-64h-64zM640 704v64h64v-64h-64z" />
    <glyph glyph-name="uni30C1" unicode="&#x30c1;" 
d="M128 64v64h128v-64h-128zM256 128v64h64v-64h-64zM320 192v192h-256v64h256v64h-192v64h256v-128h256v-64h-256v-192h-64zM384 576v64h192v-64h-192z" />
    <glyph glyph-name="uni30C2" unicode="&#x30c2;" 
d="M128 64v64h128v-64h-128zM256 128v64h64v-64h-64zM320 192v192h-256v64h256v64h-192v64h256v-128h256v-64h-256v-192h-64zM384 576v64h128v64h64v-128h-192zM640 640v64h64v-64h-64zM448 704v64h64v-64h-64zM576 704v64h64v-64h-64z" />
    <glyph glyph-name="uni30C3" unicode="&#x30c3;" 
d="M256 0v64h64v-64h-64zM320 64v64h64v-64h-64zM384 128v64h64v-64h-64zM192 256v64h64v-64h-64zM128 320v64h64v-64h-64zM320 320v64h64v-64h-64zM448 192v192h64v-192h-64zM256 384v64h64v-64h-64z" />
    <glyph glyph-name="uni30C4" unicode="&#x30c4;" 
d="M256 64v64h64v-64h-64zM320 128v64h64v-64h-64zM384 192v64h64v-64h-64zM448 256v64h64v-64h-64zM512 320v128h64v-128h-64zM128 384v128h64v-128h-64zM64 512v64h64v-64h-64zM320 448v128h64v-128h-64zM256 576v64h64v-64h-64zM576 448v192h64v-192h-64z" />
    <glyph glyph-name="uni30C5" unicode="&#x30c5;" 
d="M256 64v64h64v-64h-64zM320 128v64h64v-64h-64zM384 192v64h64v-64h-64zM448 256v64h64v-64h-64zM512 320v128h64v-128h-64zM128 384v128h64v-128h-64zM64 512v64h64v-64h-64zM320 448v128h64v-128h-64zM576 448v128h64v-128h-64zM256 576v64h64v-64h-64zM512 576v64h64
v-64h-64zM640 576v64h64v-64h-64zM448 640v64h64v-64h-64zM576 640v64h64v-64h-64z" />
    <glyph glyph-name="uni30C6" unicode="&#x30c6;" 
d="M128 64v64h128v-64h-128zM256 128v64h64v-64h-64zM320 192v192h-256v64h576v-64h-256v-192h-64zM192 576v64h320v-64h-320z" />
    <glyph glyph-name="uni30C7" unicode="&#x30c7;" 
d="M128 64v64h128v-64h-128zM256 128v64h64v-64h-64zM320 192v192h-256v64h576v-64h-256v-192h-64zM192 576v64h256v-64h-256zM512 576v64h64v-64h-64zM640 576v64h64v-64h-64zM448 640v64h64v-64h-64zM576 640v64h64v-64h-64z" />
    <glyph glyph-name="uni30C8" unicode="&#x30c8;" 
d="M448 320v64h128v-64h-128zM256 64v640h64v-256h128v-64h-128v-320h-64z" />
    <glyph glyph-name="uni30C9" unicode="&#x30c9;" 
d="M448 320v64h128v-64h-128zM512 576v64h64v-64h-64zM640 576v64h64v-64h-64zM256 64v640h64v-256h128v-64h-128v-320h-64zM448 640v64h64v-64h-64zM576 640v64h64v-64h-64z" />
    <glyph glyph-name="uni30CA" unicode="&#x30ca;" 
d="M128 64v64h128v-64h-128zM256 128v64h64v-64h-64zM320 192v256h-256v64h256v192h64v-192h256v-64h-256v-256h-64z" />
    <glyph glyph-name="uni30CB" unicode="&#x30cb;" 
d="M64 128v64h576v-64h-576zM192 512v64h320v-64h-320z" />
    <glyph glyph-name="uni30CC" unicode="&#x30cc;" 
d="M128 64v64h128v-64h-128zM256 128v64h64v-64h-64zM512 128v64h64v-64h-64zM320 192v64h64v-64h-64zM448 192v64h64v-64h-64zM384 256v64h64v-64h-64zM320 320v64h64v-64h-64zM192 384v64h128v-64h-128zM448 320v128h64v-128h-64zM512 448v128h-384v64h448v-192h-64z" />
    <glyph glyph-name="uni30CD" unicode="&#x30cd;" 
d="M64 256v64h128v-64h-128zM576 256v64h64v-64h-64zM448 320v64h128v-64h-128zM320 64v256h-128v64h128v64h128v-64h-64v-320h-64zM448 448v64h-320v64h448v-64h-64v-64h-64zM256 640v64h192v-64h-192z" />
    <glyph glyph-name="uni30CE" unicode="&#x30ce;" 
d="M128 64v64h128v-64h-128zM256 128v64h64v-64h-64zM320 192v64h64v-64h-64zM384 256v64h64v-64h-64zM448 320v128h64v-128h-64zM512 448v192h64v-192h-64z" />
    <glyph glyph-name="uni30CF" unicode="&#x30cf;" 
d="M64 64v64h64v-64h-64zM128 128v64h64v-64h-64zM576 64v192h64v-192h-64zM192 192v128h64v-128h-64zM512 256v128h64v-128h-64zM448 384v128h64v-128h-64zM256 320v256h64v-256h-64zM384 512v64h64v-64h-64z" />
    <glyph glyph-name="uni30D0" unicode="&#x30d0;" 
d="M64 64v64h64v-64h-64zM128 128v64h64v-64h-64zM576 64v192h64v-192h-64zM192 192v128h64v-128h-64zM512 256v128h64v-128h-64zM448 384v128h64v-128h-64zM256 320v256h64v-256h-64zM384 512v64h64v-64h-64zM512 576v64h64v-64h-64zM640 576v64h64v-64h-64zM448 640v64h64
v-64h-64zM576 640v64h64v-64h-64z" />
    <glyph glyph-name="uni30D1" unicode="&#x30d1;" 
d="M64 64v64h64v-64h-64zM128 128v64h64v-64h-64zM576 64v192h64v-192h-64zM192 192v128h64v-128h-64zM512 256v128h64v-128h-64zM448 384v128h64v-128h-64zM256 320v256h64v-256h-64zM384 512v64h64v-64h-64zM576 512v64h64v-64h-64zM512 576v128h64v-128h-64zM640 576v128
h64v-128h-64zM576 704v64h64v-64h-64z" />
    <glyph glyph-name="uni30D2" unicode="&#x30d2;" 
d="M192 64v64h384v-64h-384zM384 448v64h128v-64h-128zM128 128v512h64v-192h192v-64h-192v-256h-64z" />
    <glyph glyph-name="uni30D3" unicode="&#x30d3;" 
d="M192 64v64h384v-64h-384zM384 448v64h128v-64h-128zM128 128v512h64v-192h192v-64h-192v-256h-64zM512 576v64h64v-64h-64zM640 576v64h64v-64h-64zM448 640v64h64v-64h-64zM576 640v64h64v-64h-64z" />
    <glyph glyph-name="uni30D4" unicode="&#x30d4;" 
d="M192 64v64h384v-64h-384zM384 448v64h128v-64h-128zM576 512v64h64v-64h-64zM128 128v512h64v-192h192v-64h-192v-256h-64zM512 576v128h64v-128h-64zM640 576v128h64v-128h-64zM576 704v64h64v-64h-64z" />
    <glyph glyph-name="uni30D5" unicode="&#x30d5;" 
d="M192 64v64h128v-64h-128zM320 128v64h64v-64h-64zM384 192v64h64v-64h-64zM448 256v128h64v-128h-64zM512 384v128h-384v64h448v-192h-64z" />
    <glyph glyph-name="uni30D6" unicode="&#x30d6;" 
d="M192 64v64h128v-64h-128zM320 128v64h64v-64h-64zM384 192v64h64v-64h-64zM448 256v128h64v-128h-64zM512 384v128h-384v64h448v-192h-64zM576 576v64h64v-64h-64zM704 576v64h64v-64h-64zM512 640v64h64v-64h-64zM640 640v64h64v-64h-64z" />
    <glyph glyph-name="uni30D7" unicode="&#x30d7;" 
d="M192 64v64h128v-64h-128zM320 128v64h64v-64h-64zM384 192v64h64v-64h-64zM448 256v128h64v-128h-64zM512 384v128h-384v64h384v128h64v-128h64v-64h-64v-128h-64zM640 576v128h64v-128h-64zM576 704v64h64v-64h-64z" />
    <glyph glyph-name="uni30D8" unicode="&#x30d8;" 
d="M576 192v64h128v-64h-128zM512 256v64h64v-64h-64zM64 320v64h128v-64h-128zM448 320v64h64v-64h-64zM192 384v64h64v-64h-64zM384 384v64h64v-64h-64zM256 448v64h128v-64h-128z" />
    <glyph glyph-name="uni30D9" unicode="&#x30d9;" 
d="M576 192v64h128v-64h-128zM512 256v64h64v-64h-64zM64 320v64h128v-64h-128zM448 320v64h64v-64h-64zM192 384v64h64v-64h-64zM384 384v64h64v-64h-64zM256 448v64h128v-64h-128zM448 512v64h64v-64h-64zM576 512v64h64v-64h-64zM384 576v64h64v-64h-64zM512 576v64h64
v-64h-64z" />
    <glyph glyph-name="uni30DA" unicode="&#x30da;" 
d="M576 192v64h128v-64h-128zM512 256v64h64v-64h-64zM64 320v64h128v-64h-128zM448 320v64h64v-64h-64zM192 384v64h64v-64h-64zM384 384v64h64v-64h-64zM256 448v64h128v-64h-128zM512 448v64h64v-64h-64zM448 512v128h64v-128h-64zM576 512v128h64v-128h-64zM512 640v64
h64v-64h-64z" />
    <glyph glyph-name="uni30DB" unicode="&#x30db;" 
d="M64 192v64h64v-64h-64zM576 192v128h64v-128h-64zM128 256v128h64v-128h-64zM512 320v64h64v-64h-64zM320 64v64h-64v64h64v320h-256v64h256v128h64v-128h256v-64h-256v-448h-64z" />
    <glyph glyph-name="uni30DC" unicode="&#x30dc;" 
d="M64 192v64h64v-64h-64zM576 192v128h64v-128h-64zM128 256v128h64v-128h-64zM512 320v64h64v-64h-64zM640 576v64h64v-64h-64zM320 64v64h-64v64h64v320h-256v64h256v128h64v-128h128v64h64v-64h64v-64h-256v-448h-64zM448 640v64h64v-64h-64zM576 640v64h64v-64h-64z
" />
    <glyph glyph-name="uni30DD" unicode="&#x30dd;" 
d="M64 192v64h64v-64h-64zM576 192v128h64v-128h-64zM128 256v128h64v-128h-64zM512 320v64h64v-64h-64zM320 64v64h-64v64h64v320h-256v64h256v128h64v-128h128v128h64v-128h64v-64h-256v-448h-64zM640 576v128h64v-128h-64zM576 704v64h64v-64h-64z" />
    <glyph glyph-name="uni30DE" unicode="&#x30de;" 
d="M384 128v64h64v-64h-64zM320 192v64h64v-64h-64zM256 256v64h64v-64h-64zM384 256v64h64v-64h-64zM448 320v64h64v-64h-64zM512 384v64h64v-64h-64zM576 448v64h-512v64h576v-128h-64z" />
    <glyph glyph-name="uni30DF" unicode="&#x30df;" 
d="M448 64v64h128v-64h-128zM320 128v64h128v-64h-128zM128 192v64h192v-64h-192zM448 256v64h128v-64h-128zM320 320v64h128v-64h-128zM192 384v64h128v-64h-128zM448 448v64h128v-64h-128zM320 512v64h128v-64h-128zM192 576v64h128v-64h-128z" />
    <glyph glyph-name="uni30E0" unicode="&#x30e0;" 
d="M64 64v64h64v64h64v-64h128v-64h-256zM320 128v64h192v-64h-192zM576 64v128h64v-128h-64zM192 192v128h64v-128h-64zM512 192v128h64v-128h-64zM256 320v128h64v-128h-64zM320 448v192h64v-192h-64z" />
    <glyph glyph-name="uni30E1" unicode="&#x30e1;" 
d="M128 64v64h64v-64h-64zM192 128v64h64v-64h-64zM256 192v64h64v-64h-64zM512 128v128h64v-128h-64zM320 256v64h64v-64h-64zM448 256v64h64v-64h-64zM384 320v64h-64v64h128v-128h-64zM192 448v64h128v-64h-128zM448 448v192h64v-192h-64z" />
    <glyph glyph-name="uni30E2" unicode="&#x30e2;" 
d="M384 64v64h192v-64h-192zM320 128v256h-256v64h256v128h-128v64h320v-64h-128v-128h256v-64h-256v-256h-64z" />
    <glyph glyph-name="uni30E3" unicode="&#x30e3;" 
d="M384 128v64h64v-64h-64zM256 0v256h-192v64h192v128h64v-128h256v-64h-64v-64h-64v64h-128v-256h-64z" />
    <glyph glyph-name="uni30E4" unicode="&#x30e4;" 
d="M320 64v192h64v-192h-64zM448 320v64h64v-64h-64zM256 256v192h-192v64h128v192h64v-192h384v-64h-64v-64h-64v64h-192v-192h-64z" />
    <glyph glyph-name="uni30E5" unicode="&#x30e5;" 
d="M128 0v64h256v192h-192v64h256v-256h128v-64h-448z" />
    <glyph glyph-name="uni30E6" unicode="&#x30e6;" 
d="M64 128v64h384v320h-256v64h320v-384h128v-64h-576z" />
    <glyph glyph-name="uni30E7" unicode="&#x30e7;" 
d="M128 0v64h256v128h-256v64h256v64h-256v64h320v-384h-320z" />
    <glyph glyph-name="uni30E8" unicode="&#x30e8;" 
d="M128 64v64h384v192h-384v64h384v192h-384v64h448v-576h-448z" />
    <glyph glyph-name="uni30E9" unicode="&#x30e9;" 
d="M192 64v64h128v-64h-128zM320 128v64h64v-64h-64zM384 192v64h64v-64h-64zM448 256v128h64v-128h-64zM512 384v64h-384v64h448v-128h-64zM192 576v64h320v-64h-320z" />
    <glyph glyph-name="uni30EA" unicode="&#x30ea;" 
d="M256 0v64h64v-64h-64zM320 64v64h64v-64h-64zM384 128v128h64v-128h-64zM192 256v384h64v-256h64v-64h-64v-64h-64zM448 256v448h64v-448h-64z" />
    <glyph glyph-name="uni30EB" unicode="&#x30eb;" 
d="M0 0v64h64v-64h-64zM64 64v64h64v-64h-64zM128 128v128h64v-128h-64zM448 192v64h64v-64h-64zM512 256v64h64v-64h-64zM576 320v64h64v-64h-64zM192 256v320h64v-320h-64zM320 64v576h64v-448h64v-64h-64v-64h-64z" />
    <glyph glyph-name="uni30EC" unicode="&#x30ec;" 
d="M320 192v64h64v-64h-64zM384 256v64h64v-64h-64zM448 320v64h64v-64h-64zM512 384v64h64v-64h-64zM192 64v576h64v-448h64v-64h-64v-64h-64z" />
    <glyph glyph-name="uni30ED" unicode="&#x30ed;" 
d="M512 192v320h-320v-320h320zM128 128v448h448v-448h-448z" />
    <glyph glyph-name="uni30EE" unicode="&#x30ee;" 
d="M256 0v64h64v-64h-64zM320 64v64h64v-64h-64zM384 128v64h64v-64h-64zM128 192v192h384v-192h-64v128h-256v-128h-64z" />
    <glyph glyph-name="uni30EF" unicode="&#x30ef;" 
d="M192 64v64h64v-64h-64zM256 128v64h64v-64h-64zM320 192v64h64v-64h-64zM384 256v64h64v-64h-64zM448 320v128h64v-128h-64zM128 448v192h448v-192h-64v128h-320v-128h-64z" />
    <glyph glyph-name="uni30F0" unicode="&#x30f0;" 
d="M384 320v192h-128v-192h128zM384 64v192h-320v64h128v192h-64v64h256v128h64v-128h128v-64h-128v-192h192v-64h-192v-192h-64z" />
    <glyph glyph-name="uni30F1" unicode="&#x30f1;" 
d="M64 128v64h256v128h64v-128h256v-64h-576zM384 320v128h64v-128h-64zM448 448v64h-256v64h320v-128h-64z" />
    <glyph glyph-name="uni30F2" unicode="&#x30f2;" 
d="M192 64v64h128v-64h-128zM320 128v64h64v-64h-64zM384 192v64h64v-64h-64zM448 256v128h-320v64h384v128h-384v64h448v-256h-64v-128h-64z" />
    <glyph glyph-name="uni30F3" unicode="&#x30f3;" 
d="M128 64v64h128v-64h-128zM256 128v64h128v-64h-128zM384 192v64h64v-64h-64zM448 256v64h64v-64h-64zM512 320v64h64v-64h-64zM256 448v64h64v-64h-64zM128 512v64h128v-64h-128z" />
    <glyph glyph-name="uni30F4" unicode="&#x30f4;" 
d="M192 64v64h128v-64h-128zM320 128v64h64v-64h-64zM384 192v64h64v-64h-64zM448 256v128h64v-128h-64zM576 576v64h64v-64h-64zM704 576v64h64v-64h-64zM128 384v256h64v-64h128v128h64v-128h192v-192h-64v128h-320v-128h-64zM512 640v64h64v-64h-64zM640 640v64h64v-64
h-64z" />
    <glyph glyph-name="uni30F5" unicode="&#x30f5;" 
d="M128 0v64h64v-64h-64zM320 0v64h128v-64h-128zM192 64v64h64v-64h-64zM448 64v192h-128v-128h-64v128h-192v64h192v128h64v-128h192v-256h-64z" />
    <glyph glyph-name="uni30F6" unicode="&#x30f6;" 
d="M192 0v64h64v-64h-64zM256 64v64h64v-64h-64zM64 192v64h64v-64h-64zM320 128v128h-192v192h64v-128h320v-64h-128v-128h-64z" />
    <glyph glyph-name="uni30F7" unicode="&#x30f7;" 
d="M192 64v64h64v-64h-64zM256 128v64h64v-64h-64zM320 192v64h64v-64h-64zM384 256v64h64v-64h-64zM448 320v128h64v-128h-64zM128 448v192h448v-192h-64v128h-320v-128h-64zM576 640v64h64v-64h-64zM704 640v64h64v-64h-64zM512 704v64h64v-64h-64zM640 704v64h64v-64h-64
z" />
    <glyph glyph-name="uni30F8" unicode="&#x30f8;" 
d="M384 320v192h-128v-192h128zM576 576v64h64v-64h-64zM704 576v64h64v-64h-64zM384 64v192h-320v64h128v192h-64v64h256v128h64v-128h128v-64h-128v-192h192v-64h-192v-192h-64zM512 640v64h64v-64h-64zM640 640v64h64v-64h-64z" />
    <glyph glyph-name="uni30F9" unicode="&#x30f9;" 
d="M64 128v64h256v128h64v-128h256v-64h-576zM384 320v128h64v-128h-64zM448 448v64h-256v64h320v-128h-64zM512 576v64h64v-64h-64zM640 576v64h64v-64h-64zM448 640v64h64v-64h-64zM576 640v64h64v-64h-64z" />
    <glyph glyph-name="uni30FA" unicode="&#x30fa;" 
d="M192 64v64h128v-64h-128zM320 128v64h64v-64h-64zM384 192v64h64v-64h-64zM448 256v128h-320v64h384v128h-384v64h448v-256h-64v-128h-64zM576 640v64h64v-64h-64zM704 640v64h64v-64h-64zM512 704v64h64v-64h-64zM640 704v64h64v-64h-64z" />
    <glyph glyph-name="uni30FB" unicode="&#x30fb;" 
d="M320 256v128h128v-128h-128z" />
    <glyph glyph-name="uni30FC" unicode="&#x30fc;" 
d="M192 320v64h448v-64h-448zM128 384v64h64v-64h-64z" />
    <glyph glyph-name="uni3127" unicode="&#x3127;" 
d="M64 256v128h512v-128h-512z" />
    <glyph glyph-name="uniFF01" unicode="&#xff01;" 
d="M320 64v128h64v-128h-64zM320 256v384h64v-384h-64z" />
    <glyph glyph-name="uniFF02" unicode="&#xff02;" 
d="M192 512v192h64v-64h64v-128h-128zM384 512v192h64v-64h64v-128h-128zM256 704v64h64v-64h-64zM448 704v64h64v-64h-64z" />
    <glyph glyph-name="uniFF06" unicode="&#xff06;" 
d="M192 64v64h192v-64h-192zM512 64v64h128v-64h-128zM384 128v128h64v-64h64v-64h-128zM512 192v64h64v-64h-64zM128 128v192h64v-192h-64zM576 256v128h64v-128h-64zM320 256v64h-128v192h64v-128h128v-128h-64zM384 384v128h64v-128h-64zM256 512v64h128v-64h-128z" />
    <glyph glyph-name="uniFF08" unicode="&#xff08;" 
d="M384 64v64h64v-64h-64zM320 128v128h64v-128h-64zM256 256v256h64v-256h-64zM320 512v128h64v-128h-64zM384 640v64h64v-64h-64z" />
    <glyph glyph-name="uniFF09" unicode="&#xff09;" 
d="M256 64v64h64v-64h-64zM320 128v128h64v-128h-64zM384 256v256h64v-256h-64zM320 512v128h64v-128h-64zM256 640v64h64v-64h-64z" />
    <glyph glyph-name="uniFF0A" unicode="&#xff0a;" 
d="M128 128v64h64v-64h-64zM512 128v64h64v-64h-64zM192 192v64h64v-64h-64zM448 192v64h64v-64h-64zM192 448v64h64v-64h-64zM448 448v64h64v-64h-64zM128 512v64h64v-64h-64zM512 512v64h64v-64h-64zM320 64v192h-64v64h64v64h-64v64h64v192h64v-192h64v-64h-64v-64h64
v-64h-64v-192h-64z" />
    <glyph glyph-name="uniFF0B" unicode="&#xff0b;" 
d="M320 128v192h-192v64h192v192h64v-192h192v-64h-192v-192h-64z" />
    <glyph glyph-name="uniFF0D" unicode="&#xff0d;" 
d="M128 320v64h448v-64h-448z" />
    <glyph glyph-name="uniFF0E" unicode="&#xff0e;" 
d="M384 0v128h128v-128h-128z" />
    <glyph glyph-name="uniFF0F" unicode="&#xff0f;" 
d="M64 64v64h64v-64h-64zM128 128v64h64v-64h-64zM192 192v64h64v-64h-64zM256 256v64h64v-64h-64zM320 320v64h64v-64h-64zM384 384v64h64v-64h-64zM448 448v64h64v-64h-64zM512 512v64h64v-64h-64z" />
    <glyph glyph-name="uniFF10" unicode="&#xff10;" 
d="M192 64v64h256v-64h-256zM128 128v448h64v-448h-64zM448 128v448h64v-448h-64zM192 576v64h256v-64h-256z" />
    <glyph glyph-name="uniFF11" unicode="&#xff11;" 
d="M192 64v64h64v384h-64v64h64v64h64v-512h64v-64h-192z" />
    <glyph glyph-name="uniFF12" unicode="&#xff12;" 
d="M128 64v128h64v-64h256v64h64v-128h-384zM192 192v64h64v-64h-64zM256 256v64h64v-64h-64zM320 320v64h64v-64h-64zM384 384v64h64v-64h-64zM128 448v128h64v-128h-64zM448 448v128h64v-128h-64zM192 576v64h256v-64h-256z" />
    <glyph glyph-name="uniFF13" unicode="&#xff13;" 
d="M192 64v64h256v-64h-256zM128 128v128h64v-128h-64zM448 128v192h64v-192h-64zM256 320v64h192v-64h-192zM128 448v128h64v-128h-64zM448 384v192h64v-192h-64zM192 576v64h256v-64h-256z" />
    <glyph glyph-name="uniFF14" unicode="&#xff14;" 
d="M192 384v64h64v-64h-64zM256 448v64h64v-64h-64zM320 512v64h64v-64h-64zM384 64v64h64v64h-320v192h64v-128h256v320h-64v64h128v-384h64v-64h-64v-64h64v-64h-192z" />
    <glyph glyph-name="uniFF15" unicode="&#xff15;" 
d="M192 64v64h256v-64h-256zM128 128v128h64v-128h-64zM448 128v256h64v-256h-64zM128 384v256h384v-64h-320v-128h256v-64h-320z" />
    <glyph glyph-name="uniFF16" unicode="&#xff16;" 
d="M192 64v64h256v-64h-256zM448 128v192h64v-192h-64zM128 128v448h64v-192h256v-64h-256v-192h-64zM448 512v64h64v-64h-64zM192 576v64h256v-64h-256z" />
    <glyph glyph-name="uniFF17" unicode="&#xff17;" 
d="M320 64v384h64v-384h-64zM384 448v64h64v-64h-64zM128 512v128h384v-128h-64v64h-256v-64h-64z" />
    <glyph glyph-name="uniFF18" unicode="&#xff18;" 
d="M192 64v64h256v-64h-256zM128 128v192h64v-192h-64zM448 128v192h64v-192h-64zM192 320v64h256v-64h-256zM128 384v192h64v-192h-64zM448 384v192h64v-192h-64zM192 576v64h256v-64h-256z" />
    <glyph glyph-name="uniFF19" unicode="&#xff19;" 
d="M192 64v64h256v-64h-256zM128 128v64h64v-64h-64zM128 384v192h64v-192h-64zM448 128v192h-256v64h256v192h64v-448h-64zM192 576v64h256v-64h-256z" />
    <glyph glyph-name="uniFF1A" unicode="&#xff1a;" 
d="M320 64v128h64v-128h-64zM320 320v128h64v-128h-64z" />
    <glyph glyph-name="uniFF1D" unicode="&#xff1d;" 
d="M128 192v64h448v-64h-448zM128 384v64h448v-64h-448z" />
    <glyph glyph-name="uniFF1F" unicode="&#xff1f;" 
d="M320 64v128h64v-128h-64zM320 256v128h64v-128h-64zM384 384v64h64v-64h-64zM192 448v128h64v-128h-64zM448 448v128h64v-128h-64zM256 576v64h192v-64h-192z" />
    <glyph glyph-name="uniFF20" unicode="&#xff20;" 
d="M128 0v64h192v-64h-192zM448 0v64h128v-64h-128zM64 64v192h64v-192h-64zM128 256v64h64v-64h-64zM192 320v64h64v-64h-64zM320 64v64h64v256h64v-64h64v-64h-64v-192h-128zM512 320v64h64v-64h-64zM256 384v64h128v-64h-128z" />
    <glyph glyph-name="uniFF21" unicode="&#xff21;" 
d="M0 64v64h64v128h64v-128h64v-64h-192zM384 64v64h64v128h64v-128h64v-64h-192zM128 256v128h64v-64h192v64h64v-128h-320zM192 384v128h64v64h64v-64h64v-128h-64v64h-64v-64h-64z" />
    <glyph glyph-name="uniFF22" unicode="&#xff22;" 
d="M448 128v192h64v-192h-64zM448 384v128h64v-128h-64zM64 64v64h64v384h-64v64h384v-64h-256v-128h256v-64h-256v-192h256v-64h-384z" />
    <glyph glyph-name="uniFF23" unicode="&#xff23;" 
d="M192 64v64h192v-64h-192zM128 128v64h64v-64h-64zM384 128v64h64v-64h-64zM448 192v64h64v-64h-64zM64 192v256h64v-256h-64zM448 384v64h64v-64h-64zM128 448v64h64v-64h-64zM384 448v64h64v-64h-64zM192 512v64h192v-64h-192z" />
    <glyph glyph-name="uniFF24" unicode="&#xff24;" 
d="M384 128v64h64v-64h-64zM448 192v256h64v-256h-64zM384 448v64h64v-64h-64zM64 64v64h64v384h-64v64h320v-64h-192v-384h192v-64h-320z" />
    <glyph glyph-name="uniFF25" unicode="&#xff25;" 
d="M64 64v64h64v384h-64v64h448v-128h-64v64h-256v-128h192v-128h-64v64h-128v-192h256v64h64v-128h-448z" />
    <glyph glyph-name="uniFF26" unicode="&#xff26;" 
d="M64 64v64h64v384h-64v64h448v-128h-64v64h-256v-128h192v-128h-64v64h-128v-192h128v-64h-256z" />
    <glyph glyph-name="uniFF27" unicode="&#xff27;" 
d="M128 128v64h64v-64h-64zM192 64v64h192v128h-64v64h192v-64h-64v-192h-256zM64 192v256h64v-256h-64zM448 384v64h64v-64h-64zM128 448v64h64v-64h-64zM384 448v64h64v-64h-64zM192 512v64h192v-64h-192z" />
    <glyph glyph-name="uniFF28" unicode="&#xff28;" 
d="M64 64v64h64v384h-64v64h192v-64h-64v-128h256v128h-64v64h192v-64h-64v-384h64v-64h-192v64h64v192h-256v-192h64v-64h-192z" />
    <glyph glyph-name="uniFF29" unicode="&#xff29;" 
d="M192 64v64h64v384h-64v64h192v-64h-64v-384h64v-64h-192z" />
    <glyph glyph-name="uniFF2A" unicode="&#xff2a;" 
d="M192 64v64h128v-64h-128zM128 128v64h64v-64h-64zM320 128v384h-64v64h192v-64h-64v-384h-64z" />
    <glyph glyph-name="uniFF2B" unicode="&#xff2b;" 
d="M320 64v64h64v64h64v-64h64v-64h-192zM320 192v64h64v-64h-64zM256 256v64h64v-64h-64zM256 384v64h64v-64h-64zM64 64v64h64v384h-64v64h192v-64h-64v-128h64v-64h-64v-192h64v-64h-192zM320 448v128h192v-64h-128v-64h-64z" />
    <glyph glyph-name="uniFF2C" unicode="&#xff2c;" 
d="M64 64v64h64v384h-64v64h192v-64h-64v-384h256v64h64v-128h-448z" />
    <glyph glyph-name="uniFF2D" unicode="&#xff2d;" 
d="M256 64v128h64v-128h-64zM192 192v128h64v-128h-64zM320 192v128h64v-128h-64zM0 64v64h64v384h-64v64h128v-128h64v-128h-64v-192h64v-64h-192zM384 64v64h64v192h-64v128h64v128h128v-64h-64v-384h64v-64h-192z" />
    <glyph glyph-name="uniFF2E" unicode="&#xff2e;" 
d="M320 256v64h64v-64h-64zM256 320v64h64v-64h-64zM64 64v64h64v384h-64v64h128v-128h64v-64h-64v-256h64v-64h-192zM448 64v128h-64v64h64v256h-64v64h192v-64h-64v-384h64v-64h-128z" />
    <glyph glyph-name="uniFF2F" unicode="&#xff2f;" 
d="M192 64v64h192v-64h-192zM128 128v64h64v-64h-64zM384 128v64h64v-64h-64zM64 192v256h64v-256h-64zM448 192v256h64v-256h-64zM128 448v64h64v-64h-64zM384 448v64h64v-64h-64zM192 512v64h192v-64h-192z" />
    <glyph glyph-name="uniFF30" unicode="&#xff30;" 
d="M384 384v128h64v-128h-64zM64 64v64h64v384h-64v64h320v-64h-192v-128h192v-64h-192v-192h64v-64h-192z" />
    <glyph glyph-name="uniFF31" unicode="&#xff31;" 
d="M192 64v64h192v-64h-192zM448 64v64h64v-64h-64zM128 128v64h64v-64h-64zM384 128v64h64v-64h-64zM192 192v64h192v-64h-192zM64 192v256h64v-256h-64zM448 192v256h64v-256h-64zM128 448v64h64v-64h-64zM384 448v64h64v-64h-64zM192 512v64h192v-64h-192z" />
    <glyph glyph-name="uniFF32" unicode="&#xff32;" 
d="M320 64v64h64v64h64v-64h64v-64h-192zM320 192v64h64v-64h-64zM384 384v128h64v-128h-64zM64 64v64h64v384h-64v64h320v-64h-192v-128h192v-64h-64v-64h-64v64h-64v-192h64v-64h-192z" />
    <glyph glyph-name="uniFF33" unicode="&#xff33;" 
d="M192 64v64h192v-64h-192zM64 64v192h64v-64h64v-64h-64v-64h-64zM384 128v128h64v-128h-64zM320 256v64h64v-64h-64zM128 320v64h192v-64h-192zM64 384v128h64v-128h-64zM128 512v64h192v-64h-192zM384 384v64h-64v64h64v64h64v-192h-64z" />
    <glyph glyph-name="uniFF34" unicode="&#xff34;" 
d="M192 64v64h64v384h-128v-64h-64v128h448v-128h-64v64h-128v-384h64v-64h-192z" />
    <glyph glyph-name="uniFF35" unicode="&#xff35;" 
d="M192 64v64h256v-64h-256zM128 128v384h-64v64h192v-64h-64v-384h-64zM448 128v384h-64v64h192v-64h-64v-384h-64z" />
    <glyph glyph-name="uniFF36" unicode="&#xff36;" 
d="M256 64v64h128v-64h-128zM192 128v128h64v-128h-64zM384 128v128h64v-128h-64zM128 256v256h-64v64h192v-64h-64v-256h-64zM448 256v256h-64v64h192v-64h-64v-256h-64z" />
    <glyph glyph-name="uniFF37" unicode="&#xff37;" 
d="M192 256v128h64v-128h-64zM320 256v128h64v-128h-64zM256 384v128h64v-128h-64zM64 64v448h-64v64h128v-320h64v-128h-64v-64h-64zM448 64v64h-64v128h64v320h128v-64h-64v-448h-64z" />
    <glyph glyph-name="uniFF38" unicode="&#xff38;" 
d="M64 64v64h64v64h64v-64h64v-64h-192zM320 64v64h64v64h64v-64h64v-64h-192zM192 192v64h64v-64h-64zM320 192v64h64v-64h-64zM256 256v128h64v-128h-64zM192 384v64h64v-64h-64zM320 384v64h64v-64h-64zM128 448v64h-64v64h192v-64h-64v-64h-64zM384 448v64h-64v64h192
v-64h-64v-64h-64z" />
    <glyph glyph-name="uniFF39" unicode="&#xff39;" 
d="M192 64v64h64v192h64v-192h64v-64h-192zM192 320v64h64v-64h-64zM320 320v64h64v-64h-64zM128 384v128h-64v64h192v-64h-64v-128h-64zM384 384v128h-64v64h192v-64h-64v-128h-64z" />
    <glyph glyph-name="uniFF3A" unicode="&#xff3a;" 
d="M64 64v64h64v64h64v-64h256v64h64v-128h-448zM192 192v128h64v-128h-64zM256 320v128h64v-128h-64zM64 448v128h384v-64h-64v-64h-64v64h-192v-64h-64z" />
    <glyph glyph-name="uniFF3C" unicode="&#xff3c;" 
d="M512 64v64h64v-64h-64zM448 128v64h64v-64h-64zM384 192v64h64v-64h-64zM320 256v64h64v-64h-64zM256 320v64h64v-64h-64zM192 384v64h64v-64h-64zM128 448v64h64v-64h-64zM64 512v64h64v-64h-64z" />
    <glyph glyph-name="uniFF41" unicode="&#xff41;" 
d="M192 64v64h128v-64h-128zM384 64v64h64v-64h-64zM128 128v128h64v-128h-64zM320 128v128h-128v64h128v64h64v-256h-64zM128 384v64h192v-64h-192z" />
    <glyph glyph-name="uniFF42" unicode="&#xff42;" 
d="M320 128v192h64v-192h-64zM128 64v512h64v-192h128v-64h-128v-192h128v-64h-192z" />
    <glyph glyph-name="uniFF43" unicode="&#xff43;" 
d="M192 64v64h128v-64h-128zM320 128v64h64v-64h-64zM128 128v256h64v-256h-64zM320 320v64h64v-64h-64zM192 384v64h128v-64h-128z" />
    <glyph glyph-name="uniFF44" unicode="&#xff44;" 
d="M128 128v192h64v-192h-64zM192 64v64h128v192h-128v64h128v192h64v-512h-192z" />
    <glyph glyph-name="uniFF45" unicode="&#xff45;" 
d="M192 64v64h128v-64h-128zM320 128v64h64v-64h-64zM128 128v256h64v-64h128v64h64v-128h-192v-128h-64zM192 384v64h128v-64h-128z" />
    <glyph glyph-name="uniFF46" unicode="&#xff46;" 
d="M128 64v64h64v-64h-64zM192 128v192h-64v64h64v128h64v-128h64v-64h-64v-192h-64zM256 512v64h64v-64h-64z" />
    <glyph glyph-name="uniFF47" unicode="&#xff47;" 
d="M192 0v64h128v-64h-128zM128 64v128h64v-128h-64zM320 64v128h64v-128h-64zM192 192v64h128v-64h-128zM128 256v64h64v-64h-64zM320 256v64h64v-64h-64zM192 320v64h64v64h128v-64h-64v-64h-128z" />
    <glyph glyph-name="uniFF48" unicode="&#xff48;" 
d="M320 64v256h64v-256h-64zM128 64v512h64v-192h128v-64h-128v-256h-64z" />
    <glyph glyph-name="uniFF49" unicode="&#xff49;" 
d="M192 64v320h64v-320h-64zM192 448v64h64v-64h-64z" />
    <glyph glyph-name="uniFF4A" unicode="&#xff4a;" 
d="M192 64v64h128v-64h-128zM128 128v64h64v-64h-64zM320 128v256h64v-256h-64zM320 448v64h64v-64h-64z" />
    <glyph glyph-name="uniFF4B" unicode="&#xff4b;" 
d="M320 64v64h64v-64h-64zM256 128v128h64v-128h-64zM256 320v64h64v-64h-64zM320 384v64h64v-64h-64zM128 64v512h64v-256h64v-64h-64v-192h-64z" />
    <glyph glyph-name="uniFF4C" unicode="&#xff4c;" 
d="M192 64v512h64v-448h64v-64h-128z" />
    <glyph glyph-name="uniFF4D" unicode="&#xff4d;" 
d="M448 64v256h64v-256h-64zM192 64v256h-64v64h320v-64h-64v-256h-64v256h-64v-256h-64z" />
    <glyph glyph-name="uniFF4E" unicode="&#xff4e;" 
d="M384 64v256h64v-256h-64zM192 64v256h-64v64h256v-64h-128v-256h-64z" />
    <glyph glyph-name="uniFF4F" unicode="&#xff4f;" 
d="M192 64v64h128v-64h-128zM128 128v192h64v-192h-64zM320 128v192h64v-192h-64zM192 320v64h128v-64h-128z" />
    <glyph glyph-name="uniFF50" unicode="&#xff50;" 
d="M320 256v128h64v-128h-64zM128 0v448h192v-64h-128v-128h128v-64h-128v-192h-64z" />
    <glyph glyph-name="uniFF51" unicode="&#xff51;" 
d="M128 256v128h64v-128h-64zM320 0v192h-128v64h128v128h-128v64h192v-448h-64z" />
    <glyph glyph-name="uniFF52" unicode="&#xff52;" 
d="M192 64v320h64v-320h-64zM128 384v64h64v-64h-64zM256 384v64h128v-64h-128z" />
    <glyph glyph-name="uniFF53" unicode="&#xff53;" 
d="M192 64v64h128v-64h-128zM128 128v64h64v-64h-64zM320 128v128h64v-128h-64zM192 256v64h128v-64h-128zM128 320v64h64v-64h-64zM192 384v64h192v-64h-192z" />
    <glyph glyph-name="uniFF54" unicode="&#xff54;" 
d="M256 64v64h64v-64h-64zM192 128v192h-64v64h64v128h64v-128h64v-64h-64v-192h-64z" />
    <glyph glyph-name="uniFF55" unicode="&#xff55;" 
d="M192 64v64h128v-64h-128zM384 64v64h64v-64h-64zM128 128v256h64v-256h-64zM320 128v256h64v-256h-64z" />
    <glyph glyph-name="uniFF56" unicode="&#xff56;" 
d="M256 64v64h64v-64h-64zM192 128v128h64v-128h-64zM320 128v128h64v-128h-64zM128 256v128h64v-128h-64zM384 256v128h64v-128h-64z" />
    <glyph glyph-name="uniFF57" unicode="&#xff57;" 
d="M192 64v64h64v-64h-64zM320 64v64h64v-64h-64zM128 128v128h64v-128h-64zM256 128v128h64v-128h-64zM384 128v128h64v-128h-64zM64 256v128h64v-128h-64zM448 256v128h64v-128h-64z" />
    <glyph glyph-name="uniFF58" unicode="&#xff58;" 
d="M128 64v64h64v-64h-64zM384 64v64h64v-64h-64zM192 128v64h64v-64h-64zM320 128v64h64v-64h-64zM256 192v64h64v-64h-64zM192 256v64h64v-64h-64zM320 256v64h64v-64h-64zM128 320v64h64v-64h-64zM384 320v64h64v-64h-64z" />
    <glyph glyph-name="uniFF59" unicode="&#xff59;" 
d="M192 0v64h64v-64h-64zM256 64v128h64v-128h-64zM192 192v128h64v-128h-64zM320 192v128h64v-128h-64zM128 320v64h64v-64h-64zM384 320v64h64v-64h-64z" />
    <glyph glyph-name="uniFF5A" unicode="&#xff5a;" 
d="M128 64v64h64v64h64v-64h128v-64h-256zM256 192v128h-128v64h256v-64h-64v-128h-64z" />
    <glyph glyph-name="uniFFE0" unicode="&#xffe0;" 
d="M0 0v64h64v-64h-64zM128 0v64h128v-64h-128zM448 0v64h192v-64h-192zM256 64v64h64v-64h-64zM384 64v64h64v-64h-64zM64 64v128h64v-128h-64zM320 256v128h-128v-128h128zM512 448v128h-320v-128h320zM320 128v64h-192v448h448v-256h-192v-128h192v-64h-192v-64h-64z
M64 704v64h576v-64h-576z" />
    <glyph glyph-name="uniFFE1" unicode="&#xffe1;" 
d="M512 0v64h64v-64h-64zM384 64v64h128v-64h-128zM0 64v192h64v-192h-64zM256 128v128h64v-128h-64zM512 192v64h64v-64h-64zM384 256v64h128v-64h-128zM640 256v64h64v-64h-64zM320 320v64h64v-64h-64zM576 320v64h64v-64h-64zM128 0v320h-128v128h64v-64h128v64h64v-128
h-64v-320h-64zM384 384v64h64v-64h-64zM512 384v64h64v-64h-64zM448 448v64h64v-64h-64zM64 448v128h128v-64h-64v-64h-64zM256 512v64h64v-64h-64zM384 512v64h64v-64h-64zM512 512v64h64v-64h-64zM0 576v64h64v-64h-64zM192 576v64h64v-64h-64zM320 576v64h64v-64h-64z
M64 640v64h64v-64h-64zM128 704v64h64v-64h-64zM576 576v64h-192v128h64v-64h192v-128h-64z" />
    <glyph glyph-name="uniFFE5" unicode="&#xffe5;" 
d="M320 448v256h-256v-256h256zM640 448v256h-256v-256h256zM0 0v768h704v-768h-128v64h64v320h-576v-384h-64z" />
    <glyph glyph-name="uniFFE6" unicode="&#xffe6;" 
d="M0 64v64h64v-64h-64zM64 128v64h64v-64h-64zM448 64v64h192v64h64v-128h-256zM128 192v64h64v-64h-64zM192 256v64h-64v64h128v-128h-64zM0 384v64h64v-64h-64zM512 448v64h64v-64h-64zM576 512v64h64v-64h-64zM384 128v576h-192v-128h128v-192h-64v128h-128v-64h-64v128
h64v128h-128v64h704v-64h-256v-256h64v-64h-64v-256h-64z" />
  </font>
</defs>
</svg>
