<?xml version="1.0" standalone="no"?>
<!DOCTYPE svg PUBLIC "-//W3C//DTD SVG 1.1//EN" "http://www.w3.org/Graphics/SVG/1.1/DTD/svg11.dtd" >
<svg xmlns="http://www.w3.org/2000/svg">
<metadata>
<json>
<![CDATA[
{
	"fontFamily": "White-Knight",
	"majorVersion": 1,
	"minorVersion": 1,
	"copyright": "Rhinophant Graphics",
	"designer": "Eric Amate",
	"description": "White Knight\nFont generated by IcoMoon.",
	"version": "Version 1.1",
	"fontId": "White-Knight",
	"psName": "White-Knight",
	"subFamily": "Regular",
	"fullName": "White-Knight"
}
]]>
</json>
</metadata>
<defs>
<font id="White-Knight" horiz-adv-x="1024">
<font-face units-per-em="1024" ascent="960" descent="-64" />
<missing-glyph horiz-adv-x="1024" />
<glyph unicode="&#x20;" horiz-adv-x="512" d="" />
<glyph unicode="&#x21;" glyph-name="ex2" data-tags="ex2" horiz-adv-x="344" d="M181.115 242.428c-4.653-3.73-9.007-7.856-13.224-12.070-4.017-4.017-15.912-13.388-15.912-19.844 0-16.056 0-32.112 0-48.168 0-1.093 7.283 4.371 6.628 3.848 4.653 3.73 9.007 7.853 13.219 12.068 4.022 4.017 15.912 13.39 15.912 19.847 0 16.056 0 32.112 0 48.168 0.005 1.093-7.28-4.376-6.623-3.848zM275.792 789.705h-38.665c0.282 5.469 0.559 10.938 0.843 16.408 0.010 0.193-0.231 0.164-0.617 0-31.91 0-63.815 0-95.722 0-6.464 0-15.832-11.895-19.849-15.912-0.152-0.152-0.34-0.328-0.513-0.496h-53.225v-512.863h59.159c0.229-5.226 0.455-10.457 0.682-15.683 0.079-1.835 42.86-0.732 48.199-0.732 6.459 0 15.827 11.895 19.844 15.914 0.154 0.152 0.34 0.33 0.513 0.496h79.346v512.868h0.005zM184.282 420.371c-2.122-41.394-4.243-82.785-6.365-124.178-3.174 0-6.351 0-9.527 0-5.72 0-4.715-0.017-4.942 5.245-0.812 18.787-1.626 37.576-2.44 56.359-3.133 72.458-6.266 144.918-9.397 217.379-2.813 65.060-5.626 130.115-8.439 195.177 19.676 0 39.351 0 59.027 0-5.968-116.66-11.945-233.322-17.918-349.981zM70.991 279.787v506.973h47.089c-5.106-4.667-12.42-11.593-12.212-16.408 5.065-117.129 10.129-234.259 15.196-351.39 1.9-43.98 3.805-87.96 5.705-131.943 0.104-2.411 0.207-4.819 0.311-7.23l-56.089-0.002zM272.847 279.787h-73.236c5.062 4.65 11.972 11.174 12.239 16.408 5.973 116.657 11.952 233.319 17.925 349.979 2.399 46.86 4.802 93.723 7.201 140.584h35.871v-506.97z" />
<glyph unicode="&#x2c;" glyph-name="comma" data-tags="comma" horiz-adv-x="241" d="M68.345 350.755v-73.713h9.717c0-5.493 0-10.989 0-16.485-3.6-20.499-7.198-40.996-10.796-61.498-0.458-2.611 2.372-0.356 3.319 0.287 5.985 4.092 11.307 9.363 16.41 14.467 20.899 20.897 44.033 40.996 63.897 63.229h21.754v73.713h-104.3zM110.612 277.040h18.696c0-4.352 0-8.696 0-13.048-8.484-8.484-16.971-16.971-25.458-25.453 2.257 12.834 4.513 25.667 6.762 38.501zM129.31 283.807c0-1.657 0-3.311 0-4.968h-18.378c0.927 5.269 1.854 10.546 2.777 15.815 0.002 0.022-0.007 0.024-0.005 0.048 0.072 0.376 0.12 0.754 0.12 1.117 0 0.063 0 0.13 0 0.195 4.041 0 8.082 0 12.123 0 6.112 0.002 3.362-6.888 3.362-12.208zM165.071 312.627c0 2.777 1.561 19.151-1.269 19.151-16.661 0-33.321 0-49.977 0-6.464 0-15.832-11.892-19.849-15.912s-15.912-13.39-15.912-19.847c0-5.724 0-11.451 0-17.176h-7.914v70.11h100.695v-70.11h-18.339c2.991 3.393 5.908 6.844 8.72 10.353 5.599 6.982 3.844 14.789 3.844 23.43z" />
<glyph unicode="&#x2d;" glyph-name="uniE836" horiz-adv-x="344" d="M289.305 490.657c-4.59 0-9.185 0-13.783 0v31.491h-207.209v-46.615c-0.27-0.287-0.53-0.551-0.763-0.788-4.017-4.017-15.912-13.39-15.912-19.847 0-15.859 0-31.724 0-47.585 5.558 0 11.119 0 16.677 0v-31.491h207.211v46.615c0.267 0.284 0.527 0.551 0.761 0.785 4.017 4.024 15.912 13.395 15.912 19.849 0 11.030 0 22.057 0 33.085-0.002 4.809 3.107 14.5-2.895 14.5zM70.722 519.739h202.395v-29.082c-15.993 0-31.984 0-47.978 0-45.912 0-91.825 0-137.739 0-5.106 0-12.013-7.415-16.677-12.513v41.596zM87.399 454.894c33.993 0 67.986 0 101.981 0 21.166 0 42.338 0 63.504 0 6.341 0 3.73-6.136 3.564-11.825-56.349 0-112.7 0-169.052 0 0.002 3.942 0.002 7.882 0.002 11.825zM273.114 378.224h-202.392v29.082c61.905 0 123.81 0 185.715 0 5.103 0 12.017 7.415 16.68 12.513v-41.596h-0.002z" />
<glyph unicode="&#x2e;" glyph-name="point" data-tags="point" horiz-adv-x="241" d="M177.348 337.82c-1.524 1.527-3.049 3.049-4.566 4.569v8.612h-8.612c-1.524 1.524-3.049 3.046-4.566 4.566-3.824 3.82-5.048 3.174-10.621 3.203-16.034 0.079-32.069 0.157-48.105 0.241-3.509 0.017-7.654-4.142-10.996-8.010h-21.508v-24.316c-0.373-0.419-0.747-0.836-1.12-1.252-2.543-2.324-6.616-5.989-6.616-8.665 0-7.023 0-14.043 0-21.065 0-4.039 4.234-7.495 7.735-10.464v-8.333h8.614c2.577-2.574 5.156-5.159 7.733-7.735 1.881-1.878 15.252 0 17.841 0 8.814 0 17.636 0 26.45 0 7.521 0 9.257 0.104 15.194 5.614 0.766 0.713 1.556 1.414 2.329 2.122h26.25v24.577c0.696 0.72 1.435 1.411 2.122 2.143 6.209 6.596 5.611 9.351 5.611 18.093-0.005 6.738 1.544 11.386-3.169 16.102zM153.107 287.058c-8.571 0-17.135 0-25.701 0-4.571 0-22.009-2.796-25.369 0.561-7.432 7.434-14.869 14.869-22.301 22.303-3.856 3.856-1.594 16.928-1.262 23.404 2.329 2.596 4.66 5.195 6.986 7.796 8.749-0.046 17.501-0.087 26.248-0.132 6.466-0.031 12.93-0.063 19.392-0.094 1.284-0.007 6.613 0.797 7.591-0.183 7.576-7.574 15.146-15.146 22.725-22.72 3.584-3.584 1.871-15.158 1.356-21.964-3.222-2.991-6.445-5.98-9.664-8.971zM170.372 348.594v-3.795c-1.264 1.262-2.531 2.531-3.795 3.795h3.795zM85.489 345.794c-4.903-5.472-9.807-10.946-14.71-16.417v19.218h17.070c-0.91-1.096-1.715-2.078-2.36-2.801zM70.775 279.323v3.786c0.087-0.082 0.178-0.166 0.258-0.25 1.18-1.178 2.358-2.358 3.54-3.54l-3.798 0.005zM170.372 279.323h-21.205c7.145 6.481 14.375 12.935 21.205 19.738v-19.738z" />
<glyph unicode="&#x30;" glyph-name="uniE800" data-tags="0" horiz-adv-x="480" d="M412.262 789.705h-63.523c-5.469 5.469-10.938 10.938-16.408 16.408-0.715 0.715-5.842 0-6.787 0-6.555 0-13.108 0-19.664 0-18.751 0-37.499 0-56.25 0-16.095 0-32.187 0-48.281 0-8.781 0-17.186 1.854-24.295-3.846-4.954-3.971-9.742-8.203-14.442-12.562h-94.624v-512.863h63.518c5.443-5.445 10.888-10.888 16.331-16.331 0.708-0.708 4.898-0.077 5.823-0.077 6.281 0 12.562 0 18.842 0 18.575 0 37.15 0 55.725 0 17.419 0 34.841 0 52.26 0 4.559 0 9.118 0 13.679 0 8.954 0 16.473 10.141 22.245 15.914 0.164 0.164 0.33 0.33 0.494 0.494h95.354v512.863zM70.931 279.787v506.975h88.529c-15.119-14.373-29.244-30.173-43.799-44.729-3.509-3.511-13.031-11.105-15.382-17.275-0.701-1.226-0.956-2.151-0.532-2.572 0-120.091 0-240.181 0-360.274 0-17.381 0-34.759 0-52.137 0-5.209 13.207-14.377 16.634-17.804 4.060-4.060 8.123-8.121 12.184-12.184h-57.633zM344.736 658.464c0-115.309 0-230.615 0-345.926-5.448-5.448-10.893-10.893-16.34-16.34-26.258 0-52.513 0-78.77 0-17.133 0-34.267 0-51.4 0-7.355 0-12.783-1.765-17.963 3.413-12.302 12.304-24.605 24.61-36.909 36.914-4.058 4.058-7.844 5.804-7.844 11.365 0 20.068 0 40.134 0 60.202 0 115.306 0 230.615 0 345.924 5.448 5.448 10.893 10.893 16.34 16.34 26.255 0 52.513 0 78.768 0 17.133 0 34.265 0 51.398 0 7.357 0 12.786 1.768 17.966-3.413 12.304-12.304 24.608-24.605 36.912-36.909 4.058-4.058 7.844-5.806 7.844-11.365 0-20.071 0-40.139 0-60.205zM409.317 279.787h-89.463c8.826 8.824 17.65 17.648 26.477 26.474 5.236 5.236 10.469 10.471 15.704 15.704 5.476 5.474 18.467 14.58 18.467 22.419 0 14.023 0 28.047 0 42.075 0 72.359 0 144.721 0 217.083 0 51.169 0 102.338 0 153.506 0 1.356-0.785 1.683-1.804 2.7-5.484 5.484-10.97 10.97-16.453 16.453-3.519 3.519-7.039 7.039-10.56 10.56h57.635v-506.975z" />
<glyph unicode="&#x31;" glyph-name="uniE801" data-tags="1" horiz-adv-x="344" d="M275.934 789.705h-86.060c0.024 5.469 0.046 10.938 0.065 16.408-0.002-0.282-18.44-14.508-19.849-15.914-0.164-0.164-0.33-0.33-0.496-0.496h-101.408v-101.41c-0.164-0.164-0.33-0.33-0.496-0.496-1.286-1.288-18.163-17.597-15.914-19.849 1.676-1.676 11.15 7.259 16.408 12.458v-403.566h48.866c-4.571-5.72-12.882-16.408-13.077-16.408 32.112 0 64.227 0 96.339 0 6.461 0 15.83 11.895 19.847 15.914 0.092 0.092 0.246 0.265 0.441 0.494h55.333v512.866zM71.131 786.762h95.522c-31.84-31.84-63.68-63.68-95.522-95.522v95.522zM71.131 279.79v403.575c0.226 0.231 0.405 0.412 0.496 0.501 27.512 27.512 55.024 55.024 82.537 82.537-0.462-115.812-0.922-231.624-1.387-347.438-0.164-40.922-0.328-81.843-0.491-122.767-4.183 0-8.366 0-12.547 0-6.461 0-15.83-11.895-19.849-15.914-0.092-0.092-0.246-0.265-0.441-0.494h-48.317zM272.989 279.79h-49.989c4.569 5.72 12.882 16.408 13.077 16.408-16.058 0-32.114 0-48.17 0 0.467 117.129 0.934 234.259 1.402 351.388 0.185 46.391 0.368 92.782 0.554 139.175h83.127v-506.97z" />
<glyph unicode="&#x32;" glyph-name="uniE802" data-tags="2" horiz-adv-x="480" d="M412.262 774.365v15.343h-15.353c-5.445 5.443-10.888 10.888-16.331 16.331-1.811 1.809-13.877 0.077-16.273 0.077-33.432 0-66.866 0-100.298 0-35.142 0-70.286 0-105.427 0-7.526 0-15.049 0-22.575 0-5.944 0-14.515-8.277-22.004-16.408h-46.013v-47.178c-0.164-0.164-0.33-0.33-0.496-0.496-1.286-1.288-18.163-17.597-15.914-19.849 1.676-1.676 11.15 7.259 16.408 12.458v-453.868c-0.164-0.164-0.33-0.33-0.496-0.494-1.394-1.394-15.659-19.847-15.914-19.847 112.556 0 225.112 0 337.668 0 1.221 0 2.442 0 3.661 0 6.461 0 15.83 11.895 19.847 15.914 1.394 1.394 15.659 19.847 15.914 19.847-5.469 0-10.938 0-16.408 0v320.986c0.161 0.161 0.323 0.323 0.484 0.484 5.125 5.125 15.924 13.282 15.924 21.354 0 5.19 0 10.38 0 15.57 0 18.32 0 36.642 0 54.962 0 14.893 0 29.783 0 44.674 0.005 8.121-10.885 14.734-16.403 20.14zM409.317 786.762v-9.465c-3.155 3.155-6.31 6.31-9.465 9.465h9.465zM70.934 786.762h40.387c-3.593-3.998-6.803-7.704-9.154-10.055-10.411-10.411-20.822-20.822-31.233-31.233v41.288zM70.934 737.597c0.226 0.229 0.405 0.412 0.496 0.501 10.751 10.751 21.504 21.504 32.254 32.254 57.743 0 115.487 0 173.228 0 22.517 0 45.033 0 67.55 0 1.541 0 4.723-4.446 5.724-5.448 6.493-6.493 12.988-12.985 19.478-19.476 5.934-5.932 11.866-11.866 17.8-17.797 1.58-1.582 5.448-3.978 5.448-6.413 0-38.508 0-77.015 0-115.525-78.635-78.638-157.275-157.273-235.911-235.911-28.687-28.687-57.377-57.375-86.065-86.062l-0.002 453.877zM409.317 296.195c-106.015 0-212.028 0-318.043 0 77.325 77.325 154.653 154.653 231.978 231.978 28.687 28.687 57.375 57.375 86.062 86.062v-318.040z" />
<glyph unicode="&#x33;" glyph-name="uniE803" data-tags="3" horiz-adv-x="480" d="M428.67 354.437c0 9.674 0 19.343 0 29.017 0 71.803 0 143.604 0 215.407 0 52.537 0 105.073 0 157.61 0 5.344-11.579 13.050-15.045 16.518-0.453 0.455-0.91 0.908-1.363 1.363v15.353h-15.353c-5.368 5.368-10.736 10.736-16.107 16.107-1.984 1.982-12.651 0.303-15.249 0.303-14.088 0-28.175 0-42.263 0-55.391 0-110.781 0-166.172 0-6.389 0-12.778 0-19.168 0-9.178 0-16.75-10.163-22.804-16.408h-47.159v-47.178c-0.164-0.164-0.33-0.33-0.496-0.496-1.286-1.288-18.163-17.597-15.914-19.849 1.676-1.676 11.15 7.259 16.408 12.458v-405.201c-9.224-9.139-17.927-19.317-16.408-20.836 5.469-5.469 10.938-10.938 16.408-16.408v-15.353h15.179c4.588-5.351 12.822-16.408 18.072-16.408 25.061 0 50.121 0 75.182 0 38.398 0 76.798 0 115.198 0 13.513 0 27.028 0 40.541 0 10.84 0 14.115-0.766 23.132 7.16 3.4 2.989 6.714 6.093 9.985 9.25h46.983v45.608c7.006 6.782 13.364 13.917 16.294 20.755 1.226 2.851 0.118 8.277 0.118 11.227zM409.317 786.762v-9.462c-3.155 3.155-6.307 6.31-9.465 9.462h9.465zM70.934 786.762h41.29c-13.763-13.763-27.527-27.527-41.29-41.29v41.29zM70.934 737.597c0.226 0.229 0.405 0.412 0.496 0.501 10.751 10.751 21.504 21.504 32.254 32.254 57.743 0 115.487 0 173.228 0 22.517 0 45.033 0 67.55 0 1.541 0 4.723-4.446 5.724-5.448 6.493-6.493 12.988-12.985 19.478-19.476 5.934-5.932 11.866-11.866 17.8-17.797 1.021-1.021 5.448-4.169 5.448-5.744 0-56.91 0-113.823 0-170.735-73.409 0-146.823 0-220.233 0-6.461 0-15.83-11.897-19.849-15.914-1.394-1.394-15.659-19.849-15.914-19.849 85.333 0 170.663 0 255.996 0 0-53.339 0-106.677 0-160.018 0-14.281 0-28.557 0-42.839-5.448-5.448-10.893-10.893-16.34-16.34-56.282 0-112.561 0-168.842 0-23.705 0-47.409 0-71.114 0-1.768 0-2.379 1.279-3.653 2.553-5.236 5.236-10.469 10.469-15.704 15.704-9.973 9.973-19.943 19.943-29.913 29.916-1.276 1.274-8.663-4.665-16.41-12.061v405.293zM70.931 289.252c3.155-3.155 6.31-6.31 9.465-9.465h-9.465v9.465zM409.317 279.787h-41.056c7.75 7.629 15.281 15.514 22.927 23.163 4.862 4.862 11.608 10.594 18.13 16.697v-39.86z" />
<glyph unicode="&#x34;" glyph-name="uniE804" data-tags="4" horiz-adv-x="480" d="M428.67 551.155c-5.469 0-10.938 0-16.408 0v238.55h-279.751c0.961 5.081 1.922 10.165 2.88 15.247 0.624 3.297-13.754-8.983-14.907-10.069-1.486-1.397-3.579-3.177-5.862-5.178h-46.634v-186.912c-5.431-28.745-10.861-57.491-16.292-86.238-0.039-0.388-0.077-0.773-0.116-1.161 5.469 0 10.938 0 16.408 0v-238.55h276.75c0-5.469 0-10.938 0-16.408 0 0.255 18.452 14.52 19.847 15.914 0.152 0.152 0.337 0.328 0.511 0.494h47.166v253.954c0.166 0.173 0.342 0.356 0.494 0.511 1.394 1.394 15.659 19.847 15.914 19.847zM409.317 786.762v-235.607c-9.604 0-19.213 0-28.818 0 0 17.2 0 34.398 0 51.597 0-0.255-18.452-14.52-19.847-15.914-4.019-4.017-15.914-13.388-15.914-19.849 0-5.279 0-10.556 0-15.834-84.579 0-169.158 0-253.737 0-3.581 0-3.885-1.744-3.345 1.11 1.397 7.386 2.791 14.775 4.188 22.161 5.599 29.636 11.196 59.27 16.798 88.907 7.774 41.141 15.545 82.284 23.317 123.427h277.357zM70.934 786.762h40.401c-5.269-4.833-10.563-10.445-11.471-15.247-9.643-51.046-19.288-102.092-28.931-153.138v168.385zM70.931 279.787v235.607c91.269 0 182.538 0 273.805 0 0-78.537 0-157.071 0-235.607h-273.805zM409.317 279.787h-41.040c5.084 4.658 12.222 11.401 12.222 16.408 0 73.065 0 146.132 0 219.197 2.916 0 5.833 0 8.749 0 1.221 0 2.442 0 3.661 0 5.007 0 11.752 7.138 16.408 12.222v-247.827z" />
<glyph unicode="&#x35;" glyph-name="uniE805" data-tags="5" horiz-adv-x="480" d="M428.67 367.813c0 18.221 0 36.442 0 54.663 0 26.838 0 53.673 0 80.511 0 1.929-7.861 7.858-9.161 9.159-2.416 2.416-4.833 4.831-7.249 7.249v266.361c0.166 0.173 0.342 0.359 0.494 0.511 1.394 1.394 15.659 19.849 15.914 19.849-112.556 0-225.114 0-337.67 0-1.219 0-2.44 0-3.658 0-6.461 0-15.83-11.897-19.849-15.914-4.017-4.017-15.914-13.388-15.914-19.849 0-58.565 0-117.129 0-175.694 0-25.636 0-51.272 0-76.906 0-3.877 2.697-2.358 6.331-2.358 3.36 0 6.719 0 10.079 0v-185.951c-9.224-9.139-17.927-19.317-16.408-20.836 5.469-5.469 10.938-10.938 16.408-16.408v-15.353h15.179c4.588-5.351 12.822-16.408 18.072-16.408 25.061 0 50.121 0 75.182 0 38.398 0 76.798 0 115.198 0 13.513 0 27.028 0 40.541 0 10.84 0 14.115-0.766 23.132 7.16 3.4 2.989 6.714 6.093 9.985 9.25h46.983v45.608c7.006 6.782 13.364 13.917 16.294 20.755 2.608 6.076 0.118 18.207 0.118 24.601zM409.317 522.34c-3.521 3.519-7.042 7.039-10.563 10.56-5.236 5.233-10.469 10.469-15.704 15.704-1.404 1.404-1.907 2.553-3.805 2.553-60.739 0-121.476 0-182.216 0-31.207 0-62.413 0-93.62 0-5.349 0-10.698 0-16.046 0-0.055 0-0.026 14.845-0.026 15.673 0 67.841 0 135.683 0 203.524 100.635 0 201.272 0 301.907 0 1.221 0 2.442 0 3.661 0 5.007 0 11.752 7.138 16.408 12.222v-260.237zM70.931 515.395c6.069 0 12.133 0 18.202 0 72.123 0 144.247 0 216.367 0 10.707 0 21.414 0 32.119 0 6.493 0 6.796 0.323 11.5-4.381 12.395-12.393 24.791-24.788 37.184-37.181 6.755-6.753 6.604-7.042 6.604-16.424 0-48.291 0-96.579 0-144.868-5.448-5.448-10.893-10.893-16.34-16.34-56.282 0-112.561 0-168.842 0-23.705 0-47.409 0-71.114 0-1.768 0-2.379 1.279-3.653 2.553-5.236 5.236-10.469 10.469-15.704 15.704-9.973 9.973-19.943 19.943-29.913 29.916-1.276 1.274-8.663-4.665-16.41-12.061v183.083zM70.931 289.252c3.155-3.155 6.31-6.31 9.465-9.465h-9.465v9.465zM409.317 279.787h-41.056c7.75 7.629 15.281 15.514 22.927 23.163 4.862 4.862 11.608 10.594 18.13 16.697v-39.86z" />
<glyph unicode="&#x36;" glyph-name="uniE806" data-tags="6" horiz-adv-x="480" d="M412.756 689.93c4.019 4.017 15.914 13.388 15.914 19.849 0 14.483 0 28.969 0 43.453 0 8.407-9.467 15.442-16.408 21.429v15.047h-15.353c-2.416 2.416-4.833 4.831-7.249 7.249-1.327 1.327-7.222 9.161-9.19 9.161-6.264 0-12.525 0-18.789 0-68.66 0-137.318 0-205.976 0-6.69 0-13.38 0-20.071 0-6.815 0-15.695-11.377-20.49-16.408h-47.157v-47.178c-0.14-0.14-0.279-0.279-0.417-0.417-8.289-8.289-15.991-14.291-15.991-25.684 0-58.215 0-116.431 0-174.646 0-68.812 0-137.624 0-206.433 0-7.572 0-15.141 0-22.713 0-5.551 2.346-6.375 6.604-10.635 3.268-3.268 6.536-6.538 9.804-9.804v-15.353h15.353c4.010-4.010 8.017-8.017 12.027-12.027 4.976-4.973 5.751-4.381 12.783-4.381 67.427 0 134.854 0 202.281 0 10.23 0 20.458 0 30.689 0 9.956 0 17.364 8.894 24.186 16.408h46.954v46.716c7.805 6.97 16.408 14.707 16.408 24.499 0 32.721 0 65.445 0 98.166 0 15.647 0 31.293 0 46.94 0 9.383 0.152 9.672-6.604 16.424-3.268 3.268-6.536 6.536-9.804 9.804v170.095c0.226 0.195 0.402 0.347 0.494 0.438zM409.317 786.762v-9.44c-0.181 0.176-0.376 0.354-0.551 0.527-2.969 2.972-5.944 5.941-8.913 8.913h9.465zM70.934 786.762h41.29c-4.398-4.398-8.795-8.795-13.195-13.195-9.366-9.366-18.732-18.732-28.097-28.097v41.292zM70.931 279.787v9.465c3.155-3.155 6.31-6.31 9.465-9.465h-9.465zM409.317 279.787h-41.266c0.306 0.318 0.612 0.641 0.915 0.944 12.395 12.393 24.791 24.788 37.184 37.184 0.987 0.987 2.057 1.987 3.164 2.998v-41.126zM409.317 522.34c-8.145 8.145-16.292 16.29-24.434 24.434-4.973 4.973-5.751 4.381-12.786 4.381-30.462 0-60.927 0-91.392 0-48.397 0-96.796 0-145.195 0-6.461 0-15.83-11.897-19.849-15.914-1.394-1.394-15.659-19.849-15.914-19.849 59.054 0 118.109 0 177.163 0 22.517 0 45.033 0 67.55 0 1.541 0 4.723-4.446 5.724-5.448 6.493-6.493 12.988-12.985 19.478-19.476 5.934-5.932 11.866-11.866 17.8-17.797 1.416-1.416 5.448-4.005 5.448-6.204 0-51.311 0-102.622 0-153.933-5.448-5.448-10.893-10.893-16.34-16.34-57.746 0-115.487 0-173.233 0-22.515 0-45.033 0-67.548 0-1.541 0-4.725 4.446-5.727 5.448-6.493 6.493-12.985 12.985-19.476 19.478-5.932 5.934-11.863 11.866-17.797 17.8-1.021 1.021-5.448 4.166-5.448 5.741 0 122.172 0 244.345 0 366.517 0 14.279 0 28.555 0 42.836 5.448 5.448 10.893 10.893 16.34 16.34 57.743 0 115.487 0 173.228 0 22.517 0 45.033 0 67.55 0 1.541 0 4.723-4.446 5.724-5.448 6.493-6.493 12.988-12.985 19.478-19.476 5.934-5.932 11.866-11.866 17.8-17.797 2.507-2.509 5.448-4.068 5.448-7.646 0-15.322 0-30.645 0-45.969 0 0.195 10.688 8.504 16.408 13.077v-164.756z" />
<glyph unicode="&#x37;" glyph-name="uniE807" data-tags="7" horiz-adv-x="480" d="M428.67 806.115c-112.556 0-225.114 0-337.67 0-1.219 0-2.44 0-3.658 0-6.461 0-15.83-11.897-19.849-15.914-1.394-1.394-15.659-19.849-15.914-19.849 5.469 0 10.938 0 16.408 0v-484.135c-4.988-7.451-9.973-14.9-14.96-22.349-5.513-8.236 7.853 2.625 9.106 3.726 3.348 2.943 6.77 6.023 10.079 9.25h340.047v503.486c4.985 7.449 9.975 14.9 14.96 22.349 1.002 0.978 1.486 2.122 1.452 3.437zM70.934 770.352c106.107 0 212.211 0 318.315 0 0.937 0 1.871 0 2.808 0-48.907-73.065-97.815-146.132-146.725-219.197-12.513 0-25.027 0-37.538 0-6.461 0-15.83-11.897-19.849-15.914-4.212-4.214-8.337-8.569-12.068-13.219 0.527 0.657-4.939-6.628-3.846-6.628 16.056 0 32.112 0 48.168 0 0.419 0 0.853 0.055 1.296 0.149-3.054-4.559-6.105-9.12-9.156-13.679-47.135-70.416-94.27-140.832-141.405-211.247v479.735zM409.317 279.787h-334.159c3.964 4.080 7.668 8.39 10.736 12.976 60.672 90.641 121.346 181.281 182.021 271.922 47.133 70.416 94.27 140.832 141.405 211.247v-496.145z" />
<glyph unicode="&#x38;" glyph-name="uniE808" data-tags="8" horiz-adv-x="480" d="M428.67 344.366c-5.469 6.628-10.938 13.255-16.408 19.883v371.851c4.186 5.072 8.376 10.146 12.562 15.22 0.089 0.106 4.906 5.57 3.848 6.628-5.469 5.469-10.938 10.938-16.408 16.408v15.353h-15.179c-4.588 5.349-12.824 16.408-18.074 16.408-25.061 0-50.124 0-75.182 0-38.4 0-76.8 0-115.198 0-13.513 0-27.028 0-40.541 0-10.84 0-14.117 0.766-23.134-7.157-3.427-3.010-6.784-6.115-10.115-9.25h-46.853v-46.75c-9.375-8.778-18.25-18.539-16.408-20.771 5.469-6.628 10.938-13.255 16.408-19.883v-371.849c-4.188-5.072-8.376-10.149-12.562-15.22-0.089-0.106-4.906-5.568-3.846-6.628 5.469-5.469 10.938-10.938 16.408-16.408v-15.353h15.179c4.588-5.351 12.822-16.408 18.072-16.408 25.061 0 50.121 0 75.182 0 38.398 0 76.798 0 115.198 0 13.513 0 27.028 0 40.541 0 10.84 0 14.115-0.766 23.132 7.16 3.427 3.013 6.784 6.115 10.115 9.25h46.853v47.178c0.164 0.164 0.33 0.335 0.494 0.499 1.491 1.479 18.154 17.128 15.916 19.839zM409.317 367.817c-50.167 60.785-100.332 121.57-150.498 182.358 15.090 18.284 30.178 36.567 45.269 54.851 35.077 42.501 70.156 85.003 105.23 127.507v-364.715zM376.567 296.195c-56.282 0-112.561 0-168.842 0-23.705 0-47.409 0-71.114 0-1.768 0-2.379 1.279-3.653 2.553-5.236 5.236-10.469 10.469-15.704 15.704-9.676 9.676-19.351 19.351-29.025 29.027 45.984 55.716 91.965 111.434 137.949 167.149 15.331-18.575 30.66-37.153 45.993-55.728 39.652-48.045 79.307-96.091 118.96-144.141-4.853-4.855-9.708-9.71-14.563-14.565zM103.681 770.352c56.282 0 112.561 0 168.842 0 23.705 0 47.409 0 71.112 0 1.765 0 2.379-1.279 3.653-2.553 5.236-5.233 10.471-10.469 15.704-15.704 9.674-9.674 19.348-19.348 29.025-29.025-45.984-55.716-91.968-111.434-137.949-167.149-15.331 18.575-30.66 37.153-45.991 55.728-39.652 48.045-79.305 96.091-118.957 144.138 4.853 4.858 9.708 9.713 14.56 14.565zM409.317 777.298c-3.155 3.155-6.31 6.307-9.465 9.462h9.465v-9.462zM70.934 786.762h40.796c-13.477-12.913-26.342-26.59-39.419-39.86-0.458-0.407-0.915-0.816-1.378-1.235v41.095zM70.934 698.735c50.167-60.785 100.334-121.57 150.498-182.355-15.090-18.284-30.181-36.567-45.269-54.851-35.077-42.501-70.153-85.003-105.23-127.507v364.713zM70.931 289.252c3.155-3.155 6.31-6.31 9.465-9.465h-9.465v9.465zM409.317 279.787h-40.799c13.951 13.366 27.245 27.551 40.799 41.256v-41.256z" />
<glyph unicode="&#x39;" glyph-name="uniE809" data-tags="9" horiz-adv-x="480" d="M422.066 764.548c-3.268 3.268-6.536 6.536-9.804 9.807v15.353h-15.35c-4.007 4.010-8.015 8.017-12.025 12.027-4.973 4.973-5.751 4.381-12.786 4.381-67.427 0-134.854 0-202.281 0-10.23 0-20.461 0-30.691 0-9.953 0-17.361-8.894-24.184-16.408h-46.957v-46.718c-7.805-6.97-16.408-14.707-16.408-24.497 0-32.721 0-65.445 0-98.169 0-15.647 0-31.293 0-46.937 0-9.383-0.149-9.672 6.604-16.424 3.268-3.268 6.536-6.536 9.804-9.804v-170.095c-0.229-0.197-0.402-0.352-0.496-0.443-4.017-4.017-15.914-13.388-15.914-19.847 0-14.486 0-28.967 0-43.453 0-8.41 9.465-15.44 16.408-21.427v-15.047h15.353c2.416-2.416 4.831-4.833 7.249-7.249 1.327-1.327 7.222-9.161 9.192-9.161 6.264 0 12.525 0 18.789 0 68.658 0 137.316 0 205.973 0 6.69 0 13.383 0 20.071 0 6.818 0 15.697 11.379 20.492 16.408h47.154v47.176c0.14 0.14 0.279 0.279 0.419 0.419 8.289 8.289 15.991 14.291 15.991 25.682 0 58.215 0 116.431 0 174.646 0 68.812 0 137.624 0 206.436 0 7.569 0 15.141 0 22.71 0 5.551-2.346 6.375-6.604 10.635zM409.317 786.762v-9.462c-3.155 3.155-6.307 6.31-9.462 9.462h9.462zM70.934 786.762h41.266c-0.306-0.315-0.612-0.638-0.915-0.944-12.393-12.393-24.788-24.788-37.184-37.184-0.987-0.987-2.057-1.987-3.164-2.998v41.126zM70.934 544.21c8.145-8.145 16.292-16.29 24.434-24.434 4.976-4.973 5.751-4.381 12.783-4.381 30.465 0 60.93 0 91.394 0 48.399 0 96.796 0 145.195 0 6.461 0 15.83 11.897 19.847 15.914 1.394 1.394 15.659 19.849 15.914 19.849-59.054 0-118.109 0-177.163 0-22.517 0-45.033 0-67.548 0-1.541 0-4.725 4.446-5.727 5.448-6.493 6.493-12.985 12.985-19.478 19.476-5.932 5.932-11.866 11.866-17.797 17.797-1.416 1.416-5.448 4.005-5.448 6.204 0 51.311 0 102.619 0 153.93 5.448 5.448 10.895 10.895 16.343 16.343 57.743 0 115.487 0 173.23 0 22.517 0 45.033 0 67.55 0 1.539 0 4.723-4.446 5.724-5.448 6.493-6.493 12.985-12.985 19.476-19.478 5.934-5.932 11.866-11.866 17.797-17.797 1.021-1.021 5.448-4.166 5.448-5.744 0-122.17 0-244.342 0-366.514 0-14.281 0-28.557 0-42.839-5.448-5.448-10.89-10.89-16.338-16.338-57.746 0-115.487 0-173.23 0-22.515 0-45.033 0-67.548 0-1.541 0-4.725 4.446-5.727 5.448-6.493 6.49-12.985 12.985-19.478 19.476-5.932 5.934-11.866 11.866-17.797 17.8-2.507 2.507-5.448 4.065-5.448 7.646 0 15.322 0 30.645 0 45.969 0-0.195-10.688-8.504-16.408-13.077v164.751zM70.934 279.787v9.44c0.183-0.173 0.378-0.352 0.551-0.527 2.972-2.969 5.941-5.944 8.913-8.913h-9.465zM409.317 279.787h-41.29c4.398 4.398 8.793 8.795 13.195 13.195 9.363 9.366 18.729 18.729 28.095 28.095v-41.29z" />
<glyph unicode="&#x3f;" glyph-name="int2" data-tags="int2" horiz-adv-x="344" d="M181.115 242.428c-4.653-3.73-9.007-7.856-13.224-12.070-4.017-4.017-15.912-13.388-15.912-19.844 0-16.056 0-32.112 0-48.168 0-1.093 7.283 4.371 6.628 3.848 4.653 3.73 9.007 7.853 13.219 12.068 4.022 4.017 15.912 13.39 15.912 19.847 0 16.056 0 32.112 0 48.168 0.005 1.093-7.28-4.376-6.623-3.848zM292.197 675.892c0 17.407 0 34.809 0 52.214 0 25.646 0 51.296 0 76.945 0-0.238-15.654-12.357-19.196-15.343h-204.957v-512.861h84.066c-0.043-5.469-0.087-10.938-0.132-16.408 0 0.311 18.428 14.5 19.847 15.914 0.152 0.152 0.34 0.328 0.513 0.494h103.453v355.643c6.688 6.237 13.325 12.985 16.294 19.9 2.493 5.818 0.113 17.39 0.113 23.502zM256.439 621.725c-14.286-14.288-28.574-28.569-42.86-42.855-7.981-7.981-15.965-15.967-23.946-23.948 0 13.455 0 26.913 0 40.368 4.67 4.641 9.342 9.282 14.007 13.922 5.479 5.445 10.96 10.888 16.439 16.333 5.883 5.847 19.29 15.040 19.29 23.204 0 26.643 0 53.293 0 79.938 0-0.255-18.452-14.52-19.844-15.914-9.944-9.944-19.888-19.885-29.831-29.827 0 5.221 0 10.442 0 15.663 22.248 22.248 44.498 44.495 66.746 66.741 0-47.872 0-95.749 0-143.625zM70.991 279.787v506.973h198.989c-22.103-22.101-44.204-44.202-66.307-66.302-10.7-10.7-21.402-21.402-32.098-32.1-5.269-5.269-17.643-14.132-17.643-21.874 0-7.745 0-15.49 0-23.233 0 0.255 18.452 14.52 19.849 15.914 9.944 9.944 19.883 19.885 29.827 29.829 0-23.991 0-47.98 0-71.972-6.288-6.254-12.583-12.504-18.876-18.758-9.609-9.551-30.862-24.625-30.862-38.029 0-21.889 0-43.778 0-65.669-0.436-53.842-0.867-107.689-1.303-161.531-0.144-17.749-0.287-35.498-0.429-53.247h-81.147zM272.847 279.787h-97.328c5.079 4.655 12.188 11.367 12.224 16.408 0.532 66.107 1.062 132.217 1.599 198.332 0.169 0.604 0.287 1.202 0.287 1.768 0 11.382 0 22.763 0 34.147 0.048 5.582 0.089 11.162 0.137 16.745 13.181 13.178 26.354 26.351 39.534 39.532 11.82 11.82 23.635 23.635 35.462 35.455 2.403 2.406 5.202 4.949 8.085 7.596v-349.981z" />
<glyph unicode="&#x41;" glyph-name="A" data-tags="A" horiz-adv-x="480" d="M427.511 575.12c-5.079-0.715-10.165-1.431-15.244-2.143v216.729h-70.787c-3.039 5.448-6.071 10.89-9.111 16.34-1.337 2.391-27.541 0.067-30.405 0.067-19.050 0-38.094 0-57.146 0-6.351 0-12.701 0-19.052 0-7.035 0-9.698-1.956-15.615-7.157-3.437-3.022-6.82-6.119-10.173-9.25h-131.991v-276.153c-2.536-2.863-4.764-5.534-6.351-7.218-1.101-1.17-13.479-15.391-10.069-14.907 5.472 0.768 10.946 1.539 16.417 2.31v-216.895h31.712c0.017-5.469 0.031-10.938 0.048-16.408 0 0.241 18.462 14.527 19.849 15.914 0.152 0.152 0.34 0.328 0.511 0.494h224.638c0-5.469 0-10.938 0-16.408 0 0.255 18.452 14.52 19.844 15.914 0.152 0.152 0.34 0.328 0.513 0.494h47.164v277.485c2.047 2.343 3.844 4.465 5.178 5.886 1.098 1.17 13.479 15.389 10.069 14.907zM409.317 786.76v-214.195c-9.599-1.353-19.211-2.702-28.815-4.056 0 29.545 0 59.085 0 88.63 0 19.719 0 39.44 0 59.157 0 4.436-1.736 6.56-4.012 10.637-8.617 15.452-17.229 30.901-25.846 46.352-2.507 4.491-5.009 8.983-7.516 13.474h66.189zM134.507 657.137c-0.051 19.56-0.108 39.12-0.159 58.68 18.178 18.178 36.355 36.358 54.536 54.536 28.519 0 57.038 0 85.562 0 4.431 0 20.584 2.772 23.021-1.594 7.343-13.166 14.686-26.337 22.026-39.501 7.851-14.074 15.702-28.146 23.546-42.22 1.857-3.333 1.703-4.829 1.703-8.691 0-21.395 0-42.793 0-64.186 0-16.892 0-33.781 0-50.675-69.963-9.838-139.926-19.678-209.889-29.516-0.116 41.052-0.226 82.11-0.344 123.167zM70.931 786.76h125.941c-18.83-17.867-36.582-37.129-54.856-55.405-8.952-8.949-17.903-17.901-26.852-26.848-7.042-7.047-16.608-13.987-16.576-24.471 0.142-50.372 0.282-100.741 0.419-151.113-2.878-0.405-5.758-0.809-8.636-1.214-1.787-0.25-3.574-0.501-5.363-0.754-4.255-0.6-9.453-5.252-14.076-10.17v269.973zM70.931 279.785v214.364c9.385 1.32 18.773 2.642 28.158 3.962 0.197-72.776 0.4-145.549 0.602-218.323h-28.76zM123.285 279.785c5.089 4.658 12.239 11.413 12.224 16.408-0.193 68.988-0.381 137.971-0.573 206.958 69.934 9.833 139.871 19.668 209.805 29.504 0-84.29 0-168.58 0-252.867h-221.456zM409.317 279.785h-41.040c5.084 4.658 12.224 11.401 12.224 16.408 0 80.499 0 160.994 0 241.488 2.738 0.385 5.469 0.771 8.207 1.154 1.787 0.25 3.574 0.501 5.363 0.754 4.619 0.653 10.348 6.076 15.244 11.435v-271.238z" />
<glyph unicode="&#x42;" glyph-name="B" data-tags="B" horiz-adv-x="480" d="M428.672 344.366c-5.469 5.431-10.941 10.861-16.408 16.292v376.947c0.159 0.164 0.33 0.332 0.494 0.494 1.072 1.077 16.497 19.767 15.912 19.849-5.469 0.771-10.941 1.546-16.408 2.314v29.444h-208.654c-37.177 5.245-74.344 10.488-111.52 15.736-1.585 0.226-3.167 0.45-4.754 0.672-5.7 0.804-16.492-12.557-19.849-15.912-4.017-4.017-15.912-13.39-15.912-19.849 0-117.129 0-234.259 0-351.39 0-52.84 0-105.685 0-158.528 0.388 0.043 0.775 0.077 1.161 0.116 38.482 5.433 76.966 10.866 115.451 16.297h244.070v46.687c9.188 9.108 17.937 19.322 16.417 20.832zM86.376 296.106c1.18 0.164 0.963 0.313 0.963 1.874 0 5.45 0 10.89 0 16.338 0 24.531 0 49.057 0 73.585 0 75.856 0 151.712 0 227.568 0 49.943 0 99.891 0 149.831 100.274-14.149 200.543-28.3 300.816-42.448 0.438-0.058 0.869-0.123 1.308-0.183-62.724-62.721-125.448-125.445-188.166-188.166-1.279-1.279-18.163-17.612-15.912-19.847 60.132-59.706 120.265-119.412 180.397-179.119-91.618-12.93-183.234-25.86-274.85-38.788-1.522-0.214-3.037-0.429-4.556-0.645zM409.317 363.581c-62.064 61.623-124.13 123.251-186.196 184.877 62.066 62.066 124.13 124.135 186.196 186.199v-371.076zM409.317 786.76v-26.084c-61.614 8.696-123.227 17.393-184.836 26.084h184.836zM409.317 279.785h-220.259c66.753 9.421 133.508 18.842 200.263 28.261 1.585 0.224 3.169 0.448 4.756 0.667 2.23 0.315 8.576 5.563 15.244 11.94v-40.871h-0.005z" />
<glyph unicode="&#x43;" glyph-name="C" data-tags="C" horiz-adv-x="480" d="M428.672 344.366c-1.674 1.674-11.153-7.263-16.408-12.463v282.716c9.224 9.139 17.925 19.317 16.408 20.834-5.469 5.469-10.941 10.938-16.408 16.408v137.845h-137.85c-5.467 5.469-10.936 10.938-16.408 16.408-2.254 2.254-18.563-14.628-19.851-15.912-0.161-0.164-0.33-0.332-0.494-0.496h-169.673v-169.666c-0.157-0.157-0.315-0.315-0.472-0.472-4.595-4.595-15.936-13.332-15.936-20.641 0-2.878 0-5.763 0-8.641 0-12.639 0-25.275 0-37.911 0-64.378 0-128.764 0-193.14 0-4.896 5.669-8.126 8.959-11.41 2.483-2.483 4.968-4.968 7.451-7.454v-63.523h63.518c1.373-1.373 2.75-2.75 4.121-4.121 2.897-2.895 9.176-12.292 13.65-12.292 52.888 0 105.777 0 158.66 0 9.915 0 19.825 0 29.737 0 2.155 0 4.304 0 6.459 0 7.136 0 16.063 11.516 20.535 15.991 0.142 0.142 0.277 0.279 0.419 0.421h47.183v47.183c0.159 0.164 0.33 0.33 0.494 0.494 1.276 1.281 18.158 17.59 15.904 19.842zM409.317 328.952c-0.226-0.231-0.405-0.412-0.489-0.501-10.758-10.751-21.511-21.504-32.259-32.259-58.273 0-116.549 0-174.822 0-2.798 0-16.114-1.958-18.228 0.157-7.61 7.608-15.218 15.218-22.828 22.828-23.649 23.647-47.301 47.304-70.95 70.955-6.016 6.016-2.399 22.296-2.399 30.161 0 28.040 0 56.077 0 84.114 0 42.371 0 84.74 0 127.104 45.62 45.627 91.247 91.247 136.87 136.87 56.233-56.231 112.467-112.46 168.698-168.691 1.279-1.276 8.665 4.662 16.408 12.058v-282.798zM409.317 786.76v-131.952c-43.985 43.987-87.967 87.967-131.957 131.952h131.957zM70.931 786.76h163.787c-40.657-40.657-81.313-81.311-121.97-121.968-13.939-13.937-27.878-27.876-41.815-41.813l-0.002 163.78zM70.931 279.785v57.635c8.757-8.757 17.511-17.511 26.267-26.265 10.454-10.459 20.909-20.914 31.363-31.365l-57.63-0.005zM409.317 279.785h-41.29c13.763 13.766 27.527 27.529 41.29 41.292v-41.292z" />
<glyph unicode="&#x44;" glyph-name="D" data-tags="D" horiz-adv-x="480" d="M427.605 636.522c-5.113 5.115-10.226 10.228-15.338 15.341v137.843h-137.85c-5.113 5.115-10.226 10.228-15.343 15.343-1.854 1.854-4.455 1.064-7.023 1.064-9.573 0-19.146 0-28.716 0-45.331 0-90.662 0-135.993 0-6.461 0-15.827-11.895-19.849-15.912-4.017-4.017-15.912-13.39-15.912-19.849 0-117.129 0-234.259 0-351.39 0-51.27 0-102.54 0-153.81 0-3.061-1.129-4.718 2.095-4.718 11.521 0 23.040 0 34.566 0 36.794 0 73.595 0 110.391 0 7.865 0 15.729 0 23.594 0 6.717 0 15.851 11.801 20.355 16.408h169.685v169.688c8.311 8.232 16.408 14.722 16.408 26.45 0 33.605 0 67.21 0 100.813 0 16.164 0 32.331 0 48.496-0.002 3.658 1.753 11.413-1.069 14.233zM409.317 786.76v-131.955c-38.759 38.764-77.52 77.52-116.279 116.282-5.226 5.224-10.452 10.45-15.678 15.673h131.957zM254.052 296.195c-54.875 0-109.748 0-164.616 0-4.634 0-2.098 21.458-2.098 25.446 0 26.626 0 53.252 0 79.878 0 122.943 0 245.891 0 368.829 44.271 0 88.541 0 132.807 0 3.858 0 6.168-4.068 8.79-6.697 8.98-8.98 17.961-17.959 26.944-26.939 26.944-26.944 53.885-53.885 80.832-80.829 16.497-16.499 32.996-32.998 49.497-49.497 1.086-1.084 6.697-5.221 6.697-6.878 0-6.847 0-13.694 0-20.54 0-47.973 0-95.946 0-143.919-46.28-46.282-92.57-92.565-138.854-138.852zM245.51 279.785c1.332 1.329 2.661 2.659 3.988 3.988 22.306 22.308 44.613 44.611 66.924 66.921 25.528 25.53 51.053 51.056 76.591 76.588 5.433 5.438 10.871 10.873 16.304 16.306v-163.807l-163.807 0.002z" />
<glyph unicode="&#x45;" glyph-name="E" data-tags="E" horiz-adv-x="480" d="M412.267 785.756c0.164 0.173 0.34 0.359 0.494 0.511 1.392 1.394 15.659 19.849 15.912 19.849-55.648 0-111.299 0-166.947 0-33.685 0-67.372 0-101.054 0-7.844 0-15.688 0-23.531 0-7.955 0-15.914-8.723-22.66-16.408h-46.492v-47.019c-7.107-6.459-16.408-13.795-16.408-23.103 0-19.192 0-38.383 0-57.572 0-74.746 0-149.492 0-224.235 0-31.469 0-62.945 0-94.417 0-8.99 0-17.987 0-26.978 0-2.948-0.995-6.779 1.173-8.949 5.079-5.077 10.156-10.161 15.235-15.235v-15.353h15.353c1.471-1.471 2.943-2.945 4.412-4.414 4.27-4.27 8.626-11.993 15.047-11.993 24.319 0 48.635 0 72.954 0 72.386 0 144.776 0 217.155 0 6.464 0 15.832 11.895 19.849 15.914 1.392 1.394 15.659 19.847 15.912 19.847-5.469 0-10.941 0-16.408 0v489.556zM409.317 296.195c-49.196 0-98.39 0-147.592 0-33.685 0-67.372 0-101.054 0-7.844 0-15.688 0-23.531 0-5.857 0-14.442 12.81-18.264 16.632-10.486 10.486-20.969 20.971-31.459 31.459-1.161 1.161-0.075 8.619-0.075 10.149 0 24.16 0 48.317 0 72.485 0 29.492 0 58.981 0 88.473 44.967 0 89.935 0 134.905 0 6.461 0 15.83 11.897 19.849 15.914 1.392 1.392 15.659 19.847 15.912 19.847-56.888 0-113.779 0-170.665 0 0 34.605 0 69.212 0 103.816 0 33.013 0 66.028 0 99.041 5.448 5.448 10.89 10.893 16.34 16.34 96.408 0 192.819 0 289.23 0 5.004 0 11.75 7.138 16.408 12.222v-486.377h-0.002zM107.814 782.355c-12.292-12.292-24.591-24.589-36.883-36.883v41.288h40.955c-1.426-1.616-2.796-3.128-4.072-4.405zM70.931 279.785v9.465c3.155-3.157 6.31-6.31 9.462-9.465h-9.462z" />
<glyph unicode="&#x46;" glyph-name="F" data-tags="F" horiz-adv-x="480" d="M428.672 806.113c-55.648 0-111.299 0-166.947 0-33.685 0-67.372 0-101.054 0-7.844 0-15.688 0-23.531 0-7.955 0-15.914-8.723-22.66-16.408h-46.492v-47.012c-7.047-6.377-16.408-13.739-16.408-22.847 0-17.547 0-35.096 0-52.645 0-72.988 0-145.969 0-218.954 0-62.606 0-125.209 0-187.812 0 0.255 18.455 14.52 19.849 15.914 0.152 0.152 0.337 0.328 0.511 0.494h340.327v508.914c0.164 0.173 0.344 0.359 0.494 0.511 1.392 1.394 15.659 19.847 15.912 19.847zM107.814 782.355c-12.292-12.292-24.591-24.589-36.883-36.883v41.288h40.955c-1.426-1.616-2.796-3.128-4.072-4.405zM409.317 279.785h-334.198c5.084 4.658 12.22 11.401 12.22 16.408 0 73.067 0 146.135 0 219.2 44.963 0 89.921 0 134.883 0 6.464 0 15.832 11.895 19.851 15.914 1.392 1.392 15.659 19.847 15.912 19.847-56.884 0-113.765 0-170.646 0 0 34.602 0 69.202 0 103.807 0 33.018 0 66.035 0 99.053 5.448 5.448 10.893 10.89 16.34 16.34 96.411 0 192.819 0 289.23 0 5.009 0 11.755 7.138 16.408 12.222v-502.79z" />
<glyph unicode="&#x47;" glyph-name="G" data-tags="G" horiz-adv-x="480" d="M425.252 465.88c-4.333 0-8.66 0-12.993 0v148.738c9.224 9.139 17.925 19.317 16.408 20.834-5.467 5.469-10.936 10.938-16.408 16.408v137.845h-137.845c-5.469 5.469-10.941 10.938-16.408 16.408-2.254 2.254-18.563-14.628-19.851-15.912-0.164-0.164-0.332-0.332-0.499-0.496h-169.673v-169.666c-0.154-0.157-0.315-0.315-0.47-0.472-4.595-4.595-15.936-13.332-15.936-20.641 0-2.878 0-5.763 0-8.641 0-12.639 0-25.275 0-37.911 0-64.378 0-128.764 0-193.14 0-4.896 5.669-8.126 8.956-11.41 2.485-2.483 4.968-4.968 7.456-7.454v-63.523h63.518c1.373-1.373 2.748-2.75 4.121-4.121 2.892-2.895 9.173-12.292 13.645-12.292 61.746 0 123.482 0 185.228 0 3.099 0 6.194 0 9.289 0 7.591 0 16.326 11.442 21.101 16.215 0.060 0.060 0.132 0.13 0.193 0.193h47.183v45.914c8.251 7.692 16.408 16.338 16.408 22.159 0 12.258 0 24.516 0 36.777 0 26.14 0 52.286 0 78.426-0.005 4.805 1.288 5.763-3.425 5.763zM409.317 465.88c-3.82 0-7.639 0-11.459 0-46.617 0-93.237 0-139.849 0-6.464 0-15.832-11.897-19.851-15.914-1.397-1.394-15.659-19.849-15.914-19.849 53.452 0 106.909 0 160.36 0 4.576 0 10.305 2.31 10.305-2.902 0-12.985 0-25.966 0-38.952 0-25.244 0-50.485 0-75.728-5.448-5.448-10.893-10.89-16.34-16.338-58.273 0-116.549 0-174.822 0-2.798 0-16.114-1.958-18.228 0.154-7.61 7.608-15.218 15.218-22.828 22.828-23.649 23.647-47.301 47.304-70.95 70.955-6.016 6.016-2.399 22.296-2.399 30.161 0 28.040 0 56.077 0 84.117 0 42.369 0 84.738 0 127.102 45.62 45.625 91.247 91.247 136.87 136.868 56.233-56.231 112.467-112.46 168.698-168.691 1.279-1.276 8.665 4.665 16.408 12.058v-145.87zM409.317 786.76v-131.952c-43.985 43.987-87.967 87.967-131.957 131.952h131.957zM70.931 786.76h163.787c-40.657-40.657-81.313-81.311-121.97-121.968-13.939-13.937-27.878-27.876-41.815-41.813l-0.002 163.78zM70.931 279.785v57.635c8.757-8.757 17.511-17.511 26.267-26.265 10.454-10.459 20.909-20.914 31.363-31.365l-57.63-0.005zM409.317 279.785h-41.29c9.891 9.896 19.789 19.794 29.685 29.687 2.596 2.599 6.967 6.365 11.603 10.577v-40.264h0.002z" />
<glyph unicode="&#x48;" glyph-name="H" data-tags="H" horiz-adv-x="480" d="M428.672 551.155c-5.469 0-10.941 0-16.408 0v238.55h-31.763c0 5.469 0 10.938 0 16.408 0-0.253-18.452-14.52-19.844-15.912-0.152-0.152-0.34-0.33-0.513-0.496h-224.635c0 5.469 0 10.938 0 16.408 0-0.253-18.452-14.52-19.849-15.912-0.152-0.152-0.335-0.33-0.508-0.496h-47.164v-253.951c-0.166-0.176-0.342-0.359-0.494-0.511-1.394-1.394-15.659-19.849-15.914-19.849 5.469 0 10.938 0 16.408 0v-238.55h31.76c0-5.469 0-10.938 0-16.408 0 0.255 18.455 14.52 19.849 15.914 0.152 0.152 0.34 0.328 0.511 0.494h224.638c0-5.469 0-10.938 0-16.408 0 0.255 18.452 14.52 19.844 15.914 0.152 0.152 0.34 0.328 0.513 0.494h47.164v253.951c0.164 0.173 0.344 0.356 0.494 0.513 1.392 1.392 15.659 19.847 15.912 19.847zM409.317 786.76v-235.607c-9.599 0-19.211 0-28.815 0 0 32.146 0 64.287 0 96.43 0 46.396 0 92.784 0 139.177h28.815zM356.965 786.76c-5.084-4.658-12.224-11.398-12.224-16.408 0-73.065 0-146.135 0-219.2-69.741 0-139.488 0-209.229 0 0 32.146 0 64.287 0 96.43 0 46.396 0 92.784 0 139.177h221.454zM70.931 786.76h41.037c-5.086-4.658-12.222-11.398-12.222-16.408 0-73.065 0-146.135 0-219.2-2.916 0-5.83 0-8.747 0-1.219 0-2.442 0-3.661 0-5.004 0-11.75-7.136-16.408-12.22v247.827zM70.931 279.785v235.607c9.602 0 19.213 0 28.815 0 0-32.143 0-64.287 0-96.433 0-46.391 0-92.782 0-139.175h-28.815zM123.285 279.785c5.084 4.658 12.224 11.401 12.224 16.408 0 73.067 0 146.135 0 219.2 69.741 0 139.488 0 209.229 0 0-32.143 0-64.287 0-96.433 0-46.391 0-92.782 0-139.175h-221.454zM409.317 279.785h-41.040c5.084 4.658 12.224 11.401 12.224 16.408 0 73.067 0 146.135 0 219.2 2.916 0 5.833 0 8.749 0 1.223 0 2.442 0 3.661 0 5.009 0 11.755 7.138 16.408 12.222v-247.829h-0.002z" />
<glyph unicode="&#x49;" glyph-name="H2" data-tags="H" horiz-adv-x="480" d="M346.034 789.705h-52.953c4.571 5.72 12.884 16.408 13.077 16.408-32.112 0-64.224 0-96.336 0-6.464 0-15.827-11.895-19.849-15.912-0.089-0.092-0.246-0.265-0.441-0.496h-51.243v-512.863h48.845c-4.569-5.717-12.887-16.41-13.079-16.41 32.112 0 64.229 0 96.341 0 6.459 0 15.827 11.897 19.844 15.914 0.094 0.092 0.25 0.263 0.443 0.496h55.352v512.863zM141.234 279.787v506.973h45.897c-4.569-5.72-12.882-16.408-13.075-16.408 16.054 0 32.112 0 48.166 0 0-117.129 0-234.259 0-351.39 0-40.919 0-81.843 0-122.767-4.135 0-8.27 0-12.403 0-6.464 0-15.827-11.897-19.849-15.914-0.089-0.092-0.243-0.263-0.438-0.491l-48.298-0.002zM343.089 279.787h-50.010c4.571 5.72 12.88 16.408 13.077 16.408-16.058 0-32.117 0-48.17 0 0 117.129 0 234.256 0 351.388 0 40.924 0 81.846 0 122.77 4.14 0 8.275 0 12.407 0 6.459 0 15.827 11.895 19.844 15.912 0.094 0.092 0.246 0.265 0.443 0.496h52.409v-506.973z" />
<glyph unicode="&#x4a;" glyph-name="J" data-tags="J" horiz-adv-x="480" d="M428.672 296.195c-5.469 16.34-10.941 32.68-16.408 49.023v444.487h-148.767c-1.83 5.469-3.661 10.938-5.488 16.408-0.465 1.397-18.953-15.020-19.851-15.912-0.135-0.137-0.32-0.313-0.513-0.496h-169.656v-508.914c-0.169-0.176-0.344-0.359-0.499-0.513-1.392-1.394-15.659-19.847-15.912-19.847 112.558 0 225.119 0 337.673 0 1.223 0 2.442 0 3.661 0 6.464 0 15.832 11.895 19.849 15.914 2.601 2.601 17.472 15.179 15.912 19.849zM409.317 786.76v-432.74c-30.164 90.135-60.335 180.27-90.499 270.407-18.113 54.112-36.223 108.223-54.338 162.33h144.837zM70.931 786.76h163.53c-5.199-4.843-13.397-12.882-12.217-16.408 36.623-109.413 73.241-218.822 109.859-328.232 16.28-48.64 32.56-97.285 48.838-145.925-96.652 0-193.296 0-289.943 0-1.221 0-2.44 0-3.658 0-5.009 0-11.755-7.138-16.408-12.222v502.787zM228.85 822.367c4.655 3.73 9.007 7.856 13.224 12.068 4.017 4.017 15.912 13.39 15.912 19.849 0 16.056 0 32.112 0 48.168 0 1.093-7.285-4.371-6.628-3.846-4.653-3.73-9.007-7.856-13.224-12.068-4.017-4.017-15.912-13.39-15.912-19.849 0-16.056 0-32.112 0-48.168 0-1.093 7.285 4.373 6.628 3.846z" />
<glyph unicode="&#x4b;" glyph-name="K" data-tags="K" horiz-adv-x="480" d="M428.672 296.195c-5.469 4.082-10.941 8.171-16.408 12.256v481.255h-82.426c5.202 5.26 14.134 14.729 12.46 16.408-2.254 2.254-18.561-14.628-19.844-15.912-0.164-0.164-0.335-0.332-0.494-0.496h-234.622c0 5.469 0 10.938 0 16.408 0-0.253-18.452-14.52-19.849-15.912-4.017-4.019-15.912-13.39-15.912-19.849 0-84.591 0-169.182 0-253.773-0.224-0.573-0.253-0.995 0-1.185 0-32.143 0-64.287 0-96.433 0-52.84 0-105.685 0-158.528 0 0.255 18.455 14.52 19.849 15.914 0.152 0.152 0.337 0.328 0.511 0.494h299.008c7.324-5.469 14.642-10.938 21.966-16.408 5.139-3.841 37.251 34.646 35.761 35.761zM409.317 310.652c-89.783 67.068-179.574 134.132-269.364 201.203-16.791 12.54-33.574 25.080-50.362 37.617 76.013 76.015 152.030 152.035 228.052 228.048 2.912 2.914 5.828 5.828 8.74 8.742 0.089 0.092 0.272 0.267 0.503 0.496h82.433v-476.106h-0.002zM319.011 786.76c-77.219-77.222-154.448-154.448-231.672-231.67 0 30.833 0 61.662 0 92.495 0 46.396 0 92.784 0 139.177l231.672-0.002zM75.119 279.785c5.084 4.658 12.22 11.401 12.22 16.408 0 64.164 0 128.323 0 192.487 84.319-62.981 168.638-125.968 252.961-188.949 8.899-6.652 17.8-13.296 26.703-19.945h-291.884z" />
<glyph unicode="&#x4c;" glyph-name="L" data-tags="L" horiz-adv-x="480" d="M412.267 296.195v493.51h-324.928c0 5.469 0 10.938 0 16.408 0-0.253-18.452-14.52-19.849-15.912-4.017-4.017-15.912-13.39-15.912-19.849 0-117.132 0-234.259 0-351.39 0-51.27 0-102.54 0-153.81 0-1.739-0.983-4.718 1.081-4.718 6.572 0 13.144 0 19.719 0 30.669 0 61.341 0 92.013 0 76.176 0 152.348 0 228.52 0 6.464 0 15.832 11.895 19.849 15.914 1.392 1.394 15.659 19.844 15.912 19.844-5.469 0.002-10.941 0.002-16.405 0.002zM409.317 786.76v-490.563c-106.107 0-212.213 0-318.317 0-3.020 0-3.661-0.838-3.661 2.124 0 5.659 0 11.317 0 16.978 0 24.837 0 49.676 0 74.51 0 76.003 0 151.996 0 227.997 0 56.318 0 112.638 0 168.953h321.978z" />
<glyph unicode="&#x4d;" glyph-name="M" data-tags="M" horiz-adv-x="480" d="M412.267 789.705h-31.763c0 5.469 0 10.938 0 16.408 0-0.253-18.452-14.52-19.844-15.912-0.164-0.164-0.33-0.332-0.494-0.496h-208.244c-5.469 5.469-10.938 10.938-16.408 16.408-1.51 1.51-11.745-7.124-20.88-16.408h-46.646v-512.863h31.76c0-5.469 0-10.938 0-16.408 0 0.255 18.455 14.52 19.849 15.914 0.152 0.152 0.337 0.328 0.511 0.494h224.635c0-5.469 0-10.938 0-16.408 0 0.255 18.452 14.52 19.849 15.914 0.152 0.152 0.335 0.328 0.508 0.494h47.169v512.863h-0.002zM357.214 786.76c-33.726-33.726-67.451-67.451-101.177-101.177-33.726 33.726-67.451 67.451-101.177 101.177h202.354zM70.931 279.785v506.975h40.852c-6.625-7.018-12.039-13.84-12.039-16.408 0-117.129 0-234.259 0-351.39 0-46.391 0-92.782 0-139.175l-28.813-0.002zM123.285 279.785c5.084 4.658 12.224 11.401 12.224 16.408 0 117.132 0 234.259 0 351.39 0 29.001 0 58.004 0 87.004 28.909-28.911 57.823-57.823 86.737-86.737 2.254-2.252 18.561 14.628 19.847 15.914 34.219 34.217 68.434 68.434 102.648 102.651 0-115.822 0-231.641 0-347.458 0-46.391 0-92.782 0-139.175l-221.456 0.002zM409.317 279.785h-41.040c5.084 4.658 12.224 11.401 12.224 16.408 0 117.132 0 234.259 0 351.39 0 46.396 0 92.784 0 139.177h28.815v-506.975z" />
<glyph unicode="&#x4e;" glyph-name="N" data-tags="N" horiz-adv-x="480" d="M412.267 789.705h-31.763c0 5.469 0 10.938 0 16.408 0-0.253-18.452-14.52-19.844-15.912-0.152-0.152-0.34-0.33-0.513-0.496h-216.753c-2.627 5.469-5.255 10.938-7.882 16.408-0.855 1.787-18.951-15.020-19.849-15.912-0.152-0.152-0.335-0.33-0.508-0.496h-47.166v-512.863h31.76c0-5.469 0-10.938 0-16.408 0 0.255 18.455 14.52 19.849 15.914 0.152 0.152 0.337 0.328 0.511 0.494h216.75c2.63-5.469 5.26-10.938 7.882-16.408 0.855-1.785 18.951 15.018 19.844 15.914 0.152 0.152 0.34 0.328 0.513 0.494h47.164v512.863h0.005zM356.965 786.76c-5.089-4.658-12.224-11.398-12.224-16.408 0-117.129 0-234.259 0-351.39 0-16.109 0-32.223 0-48.332-37.018 77.048-74.035 154.096-111.056 231.145-29.629 61.662-59.253 123.323-88.88 184.988l212.16-0.002zM70.931 279.785v506.975h41.037c-5.086-4.658-12.222-11.398-12.222-16.408 0-117.129 0-234.259 0-351.39 0-46.391 0-92.782 0-139.175l-28.815-0.002zM123.285 279.785c5.084 4.658 12.224 11.401 12.224 16.408 0 117.132 0 234.259 0 351.39 0 16.111 0 32.223 0 48.334 37.018-77.048 74.035-154.096 111.056-231.145 29.624-61.662 59.253-123.323 88.875-184.988h-212.155zM409.317 279.785h-41.040c5.084 4.658 12.224 11.401 12.224 16.408 0 117.132 0 234.259 0 351.39 0 46.396 0 92.784 0 139.177h28.815v-506.975z" />
<glyph unicode="&#x4f;" glyph-name="O" data-tags="O" horiz-adv-x="480" d="M428.357 626.592c-0.005 2.555 1.161 7.678-0.795 9.64-5.103 5.11-10.197 10.218-15.302 15.326v138.146h-137.874c-5.467 5.469-10.922 10.938-16.379 16.408-0.108 0.104-0.263 0.152-0.453 0.159-0.992 0.137-2.962-1.081-5.31-2.928-4.111-3.104-9.766-8.282-15.081-13.641h-169.182v-169.676c-0.154-0.157-0.315-0.315-0.47-0.472-4.501-4.501-15.936-13.347-15.936-20.519 0-2.447 0-4.886 0-7.333 0-11.028 0-22.057 0-33.087 0-71.885 0-143.765 0-215.645 0-9.821 0-19.644 0-29.465 0-6.596 2.245-6.584 7.955-10.873 2.818-2.114 5.635-4.229 8.453-6.346v-19.447h25.923c3.193-2.399 6.392-4.795 9.585-7.194 5.289-3.966 9.46-9.214 16.138-9.214 65.281 0 130.565 0 195.844 0 9.224 0 18.447 0 27.671 0 7.663 0 15.827 8.581 22.756 16.408h46.359v47.113c7.418 7.018 16.415 14.182 16.408 24.651-0.070 64.349-0.147 128.696-0.217 193.048-0.026 28.317-0.065 56.628-0.094 84.94zM409.317 786.76v-132.249c-43.999 44.086-87.991 88.165-131.996 132.249h131.996zM376.569 296.195c-58.461 0-116.92 0-175.378 0-13.226 0-26.457 0-39.689 0-5.777 0-8.872-0.828-13.392 2.565-13.932 10.457-27.869 20.916-41.801 31.368-3.48 2.611-18.97 10.729-18.97 15.492 0 95.296 0 190.592 0 285.89 45.623 45.625 91.25 91.25 136.872 136.872 41.068-41.146 82.137-82.293 123.21-123.441 15.047-15.078 30.099-30.154 45.146-45.232 1.491-1.498 0.039-11.892 0.039-13.872 0.014-12.694 0.029-25.391 0.043-38.085 0.089-78.407 0.173-156.811 0.263-235.22-5.448-5.448-10.9-10.893-16.343-16.338zM70.931 786.76h163.368c-1.71-1.789-3.335-3.555-4.817-5.236-38.911-38.913-77.824-77.821-116.739-116.737-13.937-13.939-27.876-27.878-41.813-41.815v163.787zM70.931 279.785v14.296c6.351-4.766 12.696-9.53 19.052-14.296h-19.052zM368.504 279.785c1.876 2.136 3.646 4.121 5.245 5.722 11.858 11.856 23.717 23.714 35.573 35.573v-41.292l-40.818-0.002z" />
<glyph unicode="&#x50;" glyph-name="P" data-tags="P" horiz-adv-x="480" d="M428.672 550.963c0 19.004 0 38.003 0 57.006 0 6.77 0 13.535 0 20.307 0 1.149 0.785 6.387-0.089 7.261-4.773 4.776-9.554 9.554-14.327 14.329-0.662 0.662-1.332 1.327-1.989 1.989v137.85h-137.85c-5.467 5.469-10.936 10.938-16.408 16.408-2.254 2.254-18.563-14.628-19.851-15.912-0.161-0.164-0.33-0.332-0.494-0.496h-169.676v-169.676c-0.157-0.157-0.315-0.315-0.472-0.472-9.166-9.168-15.936-14.686-15.936-26.792 0-9.763 0-19.524 0-29.287 0-25.528 0-51.056 0-76.583-0.2-0.588-0.229-1.033 0-1.262 0-75.064 0-150.13 0-225.199 0 0.255 18.455 14.52 19.849 15.914 0.152 0.152 0.337 0.328 0.511 0.494h340.327v222.634c7.008 6.784 13.364 13.917 16.294 20.755 0.918 2.139 0.118 6.139 0.118 8.333-0.007 7.468-0.007 14.934-0.007 22.399zM409.317 786.76v-131.96c-22.835 22.84-45.683 45.683-68.518 68.523-21.147 21.145-42.297 42.294-63.439 63.437h131.957zM376.569 473.226c-56.284 0-112.563 0-168.847 0-23.705 0-47.412 0-71.112 0-1.768 0-2.379 1.276-3.656 2.553-5.236 5.233-10.471 10.469-15.704 15.704-9.973 9.973-19.941 19.941-29.911 29.913 0 36.707 0 73.409 0 110.119 45.62 45.625 91.247 91.25 136.868 136.872 41.148-41.148 82.301-82.296 123.449-123.444 15.076-15.078 30.152-30.154 45.23-45.232 0.785-0.783 0.024-6.158 0.024-7.194 0-7.468 0-14.931 0-22.397 0-19.001 0-38 0-57.004 0-7.849 0-15.697 0-23.543-5.445-5.455-10.893-10.902-16.34-16.347zM70.931 786.76h163.787c-40.657-40.657-81.313-81.316-121.97-121.972-13.939-13.939-27.878-27.878-41.815-41.815l-0.002 163.787zM409.317 279.785h-334.198c5.084 4.658 12.22 11.401 12.22 16.408 0 50.894 0 101.789 0 152.678 4.472-5.327 10.004-11.41 13.898-11.41 25.061 0 50.124 0 75.182 0 38.4 0 76.8 0 115.195 0 13.513 0 27.033 0 40.541 0 10.842 0 14.12-0.763 23.136 7.162 12.574 11.052 24.064 23.529 35.893 35.356 4.86 4.862 11.603 10.594 18.127 16.697v-216.89h0.005z" />
<glyph unicode="&#x51;" glyph-name="Q" data-tags="Q" horiz-adv-x="480" d="M428.357 626.592c-0.005 2.555 1.161 7.678-0.795 9.64-5.103 5.11-10.197 10.218-15.302 15.326v138.146h-137.874c-5.467 5.469-10.922 10.938-16.379 16.408-0.108 0.104-0.263 0.152-0.453 0.159-0.992 0.137-2.962-1.081-5.31-2.928-4.111-3.104-9.766-8.282-15.081-13.641h-169.182v-169.676c-0.154-0.157-0.315-0.315-0.47-0.472-4.501-4.501-15.936-13.347-15.936-20.519 0-2.447 0-4.886 0-7.333 0-11.028 0-22.057 0-33.087 0-71.885 0-143.765 0-215.645 0-9.821 0-19.644 0-29.465 0-6.596 2.245-6.584 7.955-10.873 2.818-2.114 5.635-4.229 8.453-6.346v-19.447h25.923c3.193-2.399 6.392-4.795 9.585-7.194 5.289-3.966 9.46-9.214 16.138-9.214 58.863 0 117.729 0 176.592 0 16.058-16.056 32.117-32.114 48.17-48.17 2.962-2.957 38.72 32.803 35.768 35.763-7.102 7.102-14.209 14.206-21.313 21.313 2.447 2.375 4.812 4.968 7.061 7.507h46.359v47.113c7.413 7.018 16.41 14.185 16.403 24.651-0.070 64.349-0.142 128.696-0.217 193.048-0.029 28.312-0.067 56.624-0.096 84.935zM409.317 786.76v-132.249c-43.999 44.086-87.991 88.165-131.996 132.249h131.996zM376.569 296.195c-14.864 0-29.723 0-44.587 0-16.054 16.056-32.112 32.114-48.17 48.17-2.96 2.957-38.716-32.803-35.763-35.765 4.14-4.137 8.275-8.272 12.407-12.405-19.758 0-39.515 0-59.27 0-13.229 0-26.46 0-39.686 0-5.78 0-8.875-0.828-13.395 2.565-13.934 10.457-27.866 20.916-41.803 31.368-3.478 2.611-18.965 10.729-18.965 15.492 0 95.296 0 190.592 0 285.89 45.62 45.623 91.247 91.247 136.868 136.87 41.068-41.146 82.137-82.293 123.215-123.441 15.047-15.078 30.094-30.154 45.141-45.232 1.496-1.498 0.039-11.892 0.043-13.872 0.014-12.694 0.029-25.391 0.043-38.085 0.084-78.407 0.173-156.811 0.258-235.22-5.44-5.445-10.893-10.89-16.335-16.335zM70.931 786.76h163.368c-1.71-1.789-3.335-3.555-4.817-5.236-38.911-38.913-77.824-77.821-116.739-116.737-13.937-13.939-27.876-27.878-41.813-41.815v163.787zM70.931 279.785v14.296c6.351-4.766 12.696-9.53 19.052-14.296h-19.052zM368.504 279.785c1.876 2.136 3.646 4.121 5.245 5.722 11.858 11.856 23.717 23.714 35.573 35.573v-41.292l-40.818-0.002z" />
<glyph unicode="&#x52;" glyph-name="R" data-tags="R" horiz-adv-x="480" d="M428.554 520.233c0.918 2.139 0.118 6.139 0.118 8.333 0 7.468 0 14.931 0 22.397 0 19.004 0 38.003 0 57.006 0 6.77 0 13.535 0 20.307 0 1.149 0.785 6.387-0.089 7.261-4.773 4.776-9.554 9.554-14.327 14.329-0.662 0.662-1.332 1.327-1.989 1.989v137.85h-137.85c-5.467 5.469-10.936 10.938-16.408 16.408-2.254 2.254-18.563-14.628-19.851-15.912-0.161-0.164-0.33-0.332-0.494-0.496h-169.676v-169.676c-0.157-0.157-0.315-0.315-0.472-0.472-9.166-9.168-15.936-14.686-15.936-26.792 0-9.763 0-19.524 0-29.287 0-25.528 0-51.056 0-76.583-0.2-0.588-0.229-1.033 0-1.262 0-75.064 0-150.13 0-225.199 0 0.255 18.455 14.52 19.849 15.914 0.152 0.152 0.337 0.328 0.511 0.494h304.564c5.469-5.469 10.936-10.938 16.408-16.408 2.96-2.957 38.72 32.803 35.763 35.763-5.467 5.469-10.936 10.938-16.408 16.408v186.873c7.003 6.784 13.361 13.915 16.287 20.755zM409.317 786.76v-131.96c-22.835 22.84-45.683 45.683-68.518 68.523-21.147 21.145-42.297 42.294-63.439 63.437h131.957zM376.569 473.226c-41.646 0-83.288 0-124.93 0-0.226 0.229-0.672 0.2-1.26 0-14.221 0-28.437 0-42.656 0-23.705 0-47.412 0-71.112 0-1.768 0-2.379 1.276-3.656 2.553-5.236 5.233-10.471 10.469-15.704 15.704-9.973 9.973-19.941 19.941-29.911 29.913 0 36.707 0 73.409 0 110.119 45.62 45.625 91.247 91.25 136.868 136.872 41.148-41.148 82.301-82.296 123.449-123.444 15.076-15.078 30.152-30.154 45.23-45.232 0.785-0.783 0.024-6.158 0.024-7.194 0-7.468 0-14.931 0-22.397 0-19.001 0-38 0-57.004 0-7.849 0-15.697 0-23.543-5.448-5.455-10.895-10.902-16.343-16.347zM70.931 786.76h163.787c-40.657-40.657-81.313-81.316-121.97-121.972-13.939-13.939-27.878-27.878-41.815-41.815l-0.002 163.787zM75.119 279.785c5.084 4.658 12.22 11.401 12.22 16.408 0 50.894 0 101.789 0 152.678 4.472-5.327 10.004-11.41 13.898-11.41 25.061 0 50.124 0 75.182 0 13.154 0 26.306 0 39.462 0 52.556-52.556 105.114-105.114 157.678-157.678l-298.439 0.002zM409.317 315.548c-40.635 40.637-81.275 81.277-121.915 121.915 1.406 0 2.813 0 4.214 0 13.513 0 27.033 0 40.546 0 10.837 0 14.115-0.763 23.132 7.162 12.574 11.052 24.064 23.529 35.893 35.356 4.86 4.862 11.603 10.594 18.127 16.697v-181.129h0.002z" />
<glyph unicode="&#x53;" glyph-name="S" data-tags="S" horiz-adv-x="480" d="M428.672 344.366c-5.469 4.665-10.941 9.33-16.408 13.995v256.258c9.224 9.139 17.925 19.317 16.408 20.834-5.469 5.469-10.941 10.938-16.408 16.408v137.845h-137.85c-5.467 5.469-10.936 10.938-16.408 16.408-2.254 2.254-18.563-14.628-19.851-15.912-0.161-0.164-0.33-0.332-0.494-0.496h-169.673v-169.666c-0.164-0.164-0.33-0.33-0.499-0.496-1.149-1.151-18.125-17.961-15.912-19.849 5.469-4.665 10.938-9.33 16.408-13.995v-256.261c-9.224-9.139-17.925-19.317-16.408-20.836 5.469-5.469 10.938-10.938 16.408-16.408v-15.353h15.182c4.588-5.354 12.819-16.408 18.072-16.408 25.058 0 50.121 0 75.182 0 38.4 0 76.803 0 115.198 0 13.513 0 27.028 0 40.541 0 10.842 0 14.115-0.763 23.132 7.16 3.429 3.015 6.787 6.115 10.117 9.253h46.853v47.178c0.159 0.161 0.33 0.335 0.494 0.499 1.151 1.142 18.127 17.954 15.916 19.842zM409.317 360.869c-84.764 72.292-169.536 144.584-254.308 216.876-21.848 18.633-43.696 37.268-65.544 55.899 44.914 44.912 89.831 89.829 134.746 134.741 56.233-56.231 112.467-112.46 168.698-168.691 1.279-1.276 8.665 4.665 16.408 12.058v-250.883zM409.317 786.76v-131.952c-43.985 43.987-87.967 87.967-131.957 131.952h131.957zM70.931 786.76h163.787c-54.596-54.593-109.192-109.187-163.787-163.778v163.778zM70.931 583.19c84.767-72.294 169.536-144.584 254.312-216.88 21.843-18.63 43.698-37.268 65.546-55.899-4.742-4.742-9.484-9.481-14.219-14.216-56.279 0-112.563 0-168.845 0-23.705 0-47.414 0-71.114 0-1.765 0-2.379 1.276-3.653 2.553-5.236 5.236-10.469 10.469-15.704 15.704-9.975 9.975-19.943 19.943-29.916 29.918-1.274 1.272-8.663-4.665-16.408-12.061v250.881zM70.931 289.25c3.155-3.155 6.31-6.31 9.467-9.465h-9.467v9.465zM409.317 279.785h-40.794c13.951 13.366 27.245 27.551 40.794 41.256v-41.256z" />
<glyph unicode="&#x54;" glyph-name="T" data-tags="T" horiz-adv-x="480" d="M428.672 806.113c-112.558 0-225.119 0-337.673 0-1.219 0-2.442 0-3.661 0-6.461 0-15.827-11.895-19.849-15.912-1.392-1.394-15.659-19.849-15.912-19.849 5.469 0 10.938 0 16.408 0v-493.51h154.239c0-5.469 0-10.938 0-16.408 0 0.255 18.452 14.52 19.847 15.914 0.152 0.152 0.34 0.328 0.513 0.494h169.68v508.914c0.164 0.173 0.344 0.359 0.494 0.511 1.394 1.394 15.661 19.847 15.914 19.847zM70.931 279.785v490.567c50.429 0 100.861 0 151.291 0 0-117.129 0-234.259 0-351.39 0-46.391 0-92.782 0-139.175l-151.291-0.002zM409.317 279.785h-163.551c5.079 4.658 12.22 11.401 12.22 16.408 0 117.132 0 234.259 0 351.39 0 40.924 0 81.846 0 122.77 43.754 0 87.507 0 131.266 0 1.223 0 2.442 0 3.661 0 5.009 0 11.755 7.138 16.408 12.222v-502.79h-0.002z" />
<glyph unicode="&#x55;" glyph-name="U" data-tags="U" horiz-adv-x="480" d="M408.828 790.199c-0.154-0.152-0.34-0.33-0.518-0.496h-320.971c0 5.469 0 10.938 0 16.408 0-0.253-18.452-14.52-19.849-15.912-4.017-4.019-15.912-13.39-15.912-19.849 0-119.586 0-239.174 0-358.764 0-26.997 0-53.994 0-80.993 0-6.418 0-12.836 0-19.257 0-5.332 5.537-8.275 9.164-11.895 2.413-2.416 4.831-4.833 7.249-7.249v-15.353h15.353c4.614-4.619 9.233-9.238 13.852-13.86 3.795-3.793 7.55-2.553 12.949-2.553 31.382 0 62.765 0 94.145 0 36.512 0 73.026 0 109.536 0 9.491 0 18.985 0 28.476 0 8.862 0 16.591 8.778 23.307 16.408h46.661v46.901c7.191 6.387 16.408 13.84 16.408 22.592 0 17.133 0 34.267 0 51.4 0 132.323 0 264.646 0 396.965 0 3.805 0 7.61 0 11.415-0.005-0.25-18.457-14.512-19.849-15.909zM405.136 786.76c-5.089-4.658-12.224-11.398-12.224-16.408 0-119.586 0-239.174 0-358.764 0-33.020 0-66.035 0-99.055-5.448-5.448-10.893-10.89-16.34-16.338-57.743 0-115.489 0-173.233 0-22.52 0-45.033 0-67.55 0-1.541 0-4.725 4.446-5.727 5.448-6.493 6.493-12.985 12.985-19.476 19.478-5.932 5.934-11.863 11.866-17.8 17.8-0.992 0.992-5.448 4.181-5.448 5.71 0 122.187 0 244.373 0 366.558 0 25.191 0 50.384 0 75.574l317.797-0.002zM70.931 279.785v9.465c3.155-3.155 6.31-6.31 9.462-9.465h-9.462zM409.317 279.785h-41.1c1.016 1.129 2.009 2.199 2.972 3.164 12.398 12.393 24.793 24.788 37.186 37.181 0.296 0.299 0.621 0.604 0.942 0.91v-41.256z" />
<glyph unicode="&#x56;" glyph-name="V" data-tags="V" horiz-adv-x="480" d="M408.828 790.199c-0.154-0.152-0.34-0.33-0.518-0.496h-320.971c0 5.469 0 10.938 0 16.408 0-0.253-18.452-14.52-19.849-15.912-4.017-4.019-15.912-13.39-15.912-19.849 0-112.038 0-224.076 0-336.117 0-7.309 10.637-13.775 15.43-18.565 0.328-0.328 0.653-0.653 0.98-0.98v-137.843h137.845c5.469-5.469 10.941-10.938 16.408-16.408 2.252-2.252 18.561 14.628 19.849 15.914 0.164 0.161 0.33 0.33 0.494 0.494h169.676v169.673c0.154 0.154 0.315 0.315 0.47 0.47 9.173 9.171 15.936 14.688 15.936 26.792 0 9.766 0 19.524 0 29.287 0 101.015 0 202.031 0 303.046 0.007-0.255-18.445-14.517-19.837-15.914zM405.136 786.76c-5.089-4.658-12.224-11.398-12.224-16.408 0-111.773 0-223.547 0-335.32-45.62-45.623-91.247-91.247-136.868-136.87-41.148 41.146-82.301 82.296-123.449 123.444-15.078 15.081-30.154 30.154-45.23 45.232-1.303 1.303-0.024 10.36-0.024 12.082 0 11.312 0 22.626 0 33.935 0 91.303 0 182.603 0 273.906l317.795-0.002zM70.931 279.785v131.957c18.327-18.327 36.659-36.656 54.988-54.986 25.658-25.655 51.318-51.313 76.971-76.971h-131.96zM409.317 279.785h-163.787c40.659 40.657 81.318 81.313 121.97 121.97 13.942 13.939 27.878 27.873 41.815 41.813v-163.783h0.002z" />
<glyph unicode="&#x57;" glyph-name="W" data-tags="W" horiz-adv-x="480" d="M412.267 789.705h-31.763c0 5.469 0 10.938 0 16.408 0-0.253-18.452-14.52-19.844-15.912-0.152-0.152-0.34-0.33-0.513-0.496h-224.638c0 5.469 0 10.938 0 16.408 0-0.253-18.452-14.52-19.849-15.912-0.152-0.152-0.335-0.33-0.508-0.496h-47.164v-512.863h31.76c0-5.469 0-10.938 0-16.408 0 0.255 18.455 14.52 19.849 15.914 0.161 0.161 0.33 0.33 0.494 0.494h208.24c5.469-5.469 10.941-10.938 16.41-16.408 1.51-1.51 11.745 7.124 20.885 16.408h46.636v512.863h0.005zM356.965 786.76c-5.089-4.658-12.224-11.398-12.224-16.408 0-117.129 0-234.259 0-351.39 0-29.001 0-58.004 0-87.004-28.909 28.911-57.823 57.825-86.737 86.737-2.254 2.254-18.563-14.626-19.851-15.912-34.214-34.217-68.429-68.434-102.648-102.648 0 115.817 0 231.636 0 347.453 0 46.396 0 92.784 0 139.177l221.461-0.005zM70.931 279.785v506.975h41.037c-5.086-4.658-12.222-11.398-12.222-16.408 0-117.129 0-234.259 0-351.39 0-46.391 0-92.782 0-139.175l-28.815-0.002zM123.032 279.785c33.728 33.726 67.449 67.454 101.174 101.179 33.726-33.726 67.456-67.454 101.182-101.179h-202.356zM409.317 279.785h-40.852c6.623 7.018 12.037 13.838 12.037 16.408 0 117.132 0 234.259 0 351.39 0 46.396 0 92.784 0 139.177h28.815v-506.975z" />
<glyph unicode="&#x58;" glyph-name="X" data-tags="X" horiz-adv-x="480" d="M428.672 292.559c-5.469 8.229-10.941 16.458-16.408 24.687v463.084c4.98 7.449 9.973 14.902 14.958 22.349 5.513 8.236-7.856-2.623-9.106-3.723-3.345-2.945-6.77-6.023-10.081-9.25h-309.792c-3.634 5.469-7.271 10.938-10.905 16.408-0.532 0.802-39.768-29.733-35.763-35.763 5.469-8.229 10.938-16.458 16.408-24.687v-459.448c-4.985-7.451-9.973-14.9-14.958-22.349-5.513-8.236 7.851 2.625 9.103 3.726 3.348 2.945 6.772 6.023 10.083 9.253h307.372c4.441-6.681 8.884-13.366 13.325-20.044 0.532-0.804 39.766 29.73 35.763 35.758zM409.317 321.677c-50.499 75.979-100.999 151.958-151.491 227.934 3.36 5.024 6.726 10.047 10.086 15.071 47.135 70.416 94.275 140.834 141.407 211.247v-454.253zM405.093 786.76c-3.964-4.077-7.668-8.388-10.734-12.973-47.756-71.345-95.517-142.691-143.274-214.039-1.016 1.529-2.033 3.059-3.049 4.588-49.278 74.141-98.557 148.28-147.833 222.422h304.889zM70.931 741.234c50.095-75.372 100.192-150.742 150.284-226.114-2.96-4.419-5.922-8.841-8.879-13.26-47.137-70.416-94.275-140.832-141.407-211.247v450.621zM75.158 279.785c3.964 4.080 7.668 8.39 10.736 12.976 47.354 70.741 94.708 141.484 142.060 212.225 1.421-2.136 2.842-4.27 4.265-6.411 48.472-72.928 96.943-145.855 145.415-218.79h-302.476z" />
<glyph unicode="&#x59;" glyph-name="Y" data-tags="Y" horiz-adv-x="480" d="M408.828 790.199c-0.154-0.152-0.34-0.33-0.518-0.496h-320.971c0 5.469 0 10.938 0 16.408 0-0.253-18.452-14.52-19.849-15.912-4.017-4.019-15.912-13.39-15.912-19.849 0-55.675 0-111.349 0-167.027 0-3.533 5.103-6.661 7.425-8.98 2.993-2.993 5.989-5.989 8.98-8.983v-304.585c-0.161-0.164-0.33-0.33-0.494-0.494-1.286-1.286-18.166-17.597-15.914-19.847s18.561 14.628 19.849 15.914c0.161 0.161 0.33 0.33 0.494 0.494h340.344v340.344c0.159 0.161 0.325 0.325 0.484 0.484 4.831 4.831 15.921 13.296 15.921 20.95 0 3.947 0 7.894 0 11.842 0 15.928 0 31.857 0 47.785 0 33.627 0 67.254 0 100.885 0 2.329 0 4.658 0 6.982 0.005-0.255-18.447-14.517-19.839-15.914zM405.136 786.76c-5.089-4.658-12.224-11.398-12.224-16.408 0-54.885 0-109.767 0-164.652-45.62-45.625-91.247-91.247-136.868-136.87-41.153 41.148-82.301 82.301-123.453 123.451-15.076 15.076-30.152 30.154-45.225 45.228-2.353 2.35-0.019 18.883-0.019 22.036 0 17.585 0 35.171 0 52.753 0 24.825 0 49.642 0 74.464l317.792-0.002zM70.931 582.415c5.224-5.224 10.447-10.447 15.671-15.671 27.014-27.011 54.023-54.023 81.029-81.032 17.549-17.549 35.098-35.096 52.643-52.643-21.094-21.097-42.188-42.191-63.278-63.28-28.687-28.69-57.377-57.375-86.065-86.065v298.69zM409.317 279.785h-334.453c52.973 52.97 105.943 105.943 158.913 158.913 5.455 4.845 11.779 11.172 16.629 16.624 24.28 24.283 48.565 48.568 72.851 72.851 28.687 28.687 57.375 57.375 86.058 86.062v-334.45z" />
<glyph unicode="&#x5a;" glyph-name="Z" data-tags="Z" horiz-adv-x="480" d="M425.544 806.113c-22.267 0-44.534 0-66.796 0-90.465 0-180.939 0-271.409 0-6.461 0-15.827-11.895-19.849-15.912-1.392-1.394-15.659-19.849-15.912-19.849 5.469 0 10.938 0 16.408 0v-369.159c-0.159-0.161-0.32-0.325-0.482-0.484-5.125-5.125-15.926-13.282-15.926-21.352 0-5.187 0-10.382 0-15.572 0-18.315 0-36.637 0-54.957 0-14.89 0-29.778 0-44.671 0-5.151 1.175-3.723 6.172-3.723 111.723 0 223.441 0 335.156 0 6.464 0 15.832 11.895 19.849 15.914 1.392 1.394 15.659 19.844 15.912 19.844-5.469 0-10.941 0-16.408 0v441.41c0.159 0.161 0.32 0.325 0.484 0.484 6.372 6.375 15.921 13.556 15.921 23.216 0 8.834 0 17.67 0 26.506 0.007 5.308 3.767 18.305-3.121 18.305zM70.931 770.352c106.109 0 212.216 0 318.32 0 6.119 0 3.661-3.771 3.661-9.823 0-11.471 0-22.941 0-34.412-58.321-58.321-116.643-116.643-174.959-174.962-13.958 0-27.919 0-41.878 0-6.464 0-15.83-11.895-19.849-15.912-1.394-1.394-15.659-19.849-15.912-19.849 13.956 0 27.917 0 41.878 0-8.398-8.398-16.798-16.795-25.193-25.191-28.687-28.687-57.375-57.375-86.062-86.062l-0.005 366.211zM409.317 296.195c-106.107 0-212.213 0-318.317 0-4.451 0-3.661-0.043-3.661 4.667 0 13.031 0 26.062 0 39.094 0 24.237 0 48.481 0 72.721 34.239 34.239 68.48 68.477 102.713 102.713 15.531 0 31.062 0 46.595 0 6.459 0 15.83 11.897 19.847 15.914 1.392 1.392 15.659 19.847 15.912 19.847-15.531 0-31.057 0-46.591 0 32.481 32.481 64.959 64.963 97.437 97.439 28.687 28.687 57.375 57.375 86.062 86.062v-438.457h0.002z" />
<glyph unicode="&#x61;" glyph-name="a" data-tags="a" horiz-adv-x="344" d="M277.191 551.704v69.046h-69.046c-5.561 5.558-11.119 11.119-16.677 16.677-2.252 2.252-18.561-14.628-19.847-15.914-0.253-0.253-0.511-0.508-0.763-0.763h-100.873v-100.873c-0.253-0.253-0.508-0.508-0.761-0.763-1.288-1.288-18.166-17.597-15.914-19.849 1.705-1.705 11.48 7.572 16.677 12.723v-120.59c-0.253-0.253-0.508-0.511-0.761-0.763-2.283-2.283-17.735-15.671-15.914-19.847 5.558-12.747 11.117-25.497 16.677-38.244v-55.535h24.22c1.512-3.468 3.025-6.938 4.537-10.404 2.637-6.045 1.823-6.274 8.212-6.274 50.384 0 100.77 0 151.154 0 6.461 0 15.83 11.897 19.847 15.914 4.017 4.019 15.914 13.39 15.914 19.847 0 59.468 0 118.94 0 178.408 0 14.642 0 29.285 0 43.925 0 2.389 1.76 14.837-0.039 16.636-5.551 5.551-11.097 11.095-16.644 16.644zM274.783 618.342v-64.229c-13.785 13.785-27.568 27.568-41.355 41.353-7.625 7.625-15.249 15.252-22.874 22.876h64.229zM117.794 431.338c46.774 0 93.543 0 140.314 0 0-42.865 0-85.73 0-128.593 0-2.218 0-4.434 0-6.654-38.465 0-76.925 0-115.393 0-5.922 0-5.358-0.267-7.757 5.236-5.383 12.34-10.765 24.68-16.148 37.023-9.513 21.819-19.028 43.638-28.545 65.457 9.176 9.178 18.351 18.356 27.529 27.532zM72.393 618.342h96.057c-32.018-32.018-64.039-64.039-96.057-96.057v96.057zM72.393 514.405c0.356 0.361 0.645 0.653 0.761 0.773 28.175 28.172 56.344 56.344 84.521 84.519 18.932-18.934 37.87-37.868 56.802-56.802 11.75-11.748 23.498-23.495 35.245-35.245 3.239-3.237 8.383-6.117 8.383-10.893 0-9.884 0-19.77 0-29.656-32.599 0-65.199 0-97.8 0-7.244 0-11.37 0.92-17.311-3.846-9.306-7.463-17.583-16.432-26.019-24.866-14.859-14.862-29.721-29.723-44.582-44.582v120.597zM72.393 279.419v47.605c3.242-7.434 6.481-14.866 9.725-22.301 3.677-8.436 7.357-16.87 11.035-25.304h-20.759z" />
<glyph unicode="&#x62;" glyph-name="b" data-tags="b" horiz-adv-x="344" d="M73.161 276.319c0.236 0.236 0.503 0.491 0.785 0.763h13.578c2.782-3.326 5.563-6.647 8.345-9.973 1.18-1.409 4.188-6.707 6.23-6.707 31.445 0 62.89 0 94.335 0 4.299 0 8.593 0 12.894 0 6.933 0 15.579 9.763 21.581 16.68h46.29v47.978c7.694 7.319 16.675 16.492 16.675 22.183 0 9.306 0 18.614 0 27.922 0 33.62 0 67.239 0 100.857 0 13.956 0 27.912 0 41.866 0 2.483 1.825 15.387-0.039 17.251-5.546 5.546-11.090 11.093-16.636 16.639v69.046h-69.046c-5.561 5.561-11.119 11.119-16.68 16.677-2.249 2.252-18.561-14.628-19.851-15.914-0.253-0.255-0.508-0.508-0.761-0.763h-81.785c0 8.913 0 17.824 0 26.737 0 52.843 0 105.685 0 158.53 0-0.255-18.452-14.52-19.849-15.914-4.017-4.017-15.912-13.388-15.912-19.849 0-89.836 0-179.672 0-269.509-0.258-0.679-0.287-1.192 0-1.479 0-26.802 0-53.601 0-80.403 0-33.037 0-66.076 0-99.113-0.303-0.833-0.328-1.474 0-1.866 0-19.182 0-38.366 0-57.548-0.002 0.253 18.45 14.517 19.847 15.912zM157.675 599.771c18.936-18.934 37.87-37.87 56.807-56.802 11.745-11.748 23.495-23.498 35.245-35.245 3.697-3.697 8.381-6.197 8.381-11.507 0-60.703 0-121.404 0-182.105-5.71-5.982-11.42-11.962-17.135-17.944-32.047 0-64.087 0-96.131 0-2.009 0-6.738-1.026-8.162 0.672-5.072 6.064-10.146 12.123-15.22 18.185-10.794 12.896-21.59 25.795-32.384 38.691 0 59.152 0 118.3 0 177.45 22.869 22.867 45.736 45.738 68.6 68.605zM76.557 279.491c1.546 1.411 3.287 3.020 4.988 4.732 1.322-1.575 2.642-3.157 3.964-4.732h-8.952zM274.788 279.491h-41.779c0.766 0.874 1.481 1.671 2.102 2.324 11.015 11.536 22.031 23.071 33.054 34.609 1.534 1.606 3.913 3.815 6.623 6.36v-43.294zM274.788 618.414v-64.229c-21.412 21.41-42.822 42.819-64.229 64.229h64.229zM168.45 618.414c-26.457-26.46-52.92-52.92-79.377-79.379 0 26.46 0 52.92 0 79.379h79.377z" />
<glyph unicode="&#x63;" glyph-name="c" data-tags="c" horiz-adv-x="344" d="M151.151 260.331c16.21 0 32.423 0 48.63 0 3.367 0 6.736 0 10.103 0 3.889 0 8.21 4.86 10.828 7.16 3.466 3.044 6.796 6.233 10.028 9.52h46.675v54.675c4.275 5.108 8.552 10.221 12.829 15.329 5.58 6.671 3.836 8.085-2.782 2.779-3.49-2.798-6.811-5.818-10.047-8.928v173.054c9.32 9.207 18.211 19.567 16.675 21.104-5.558 5.558-11.117 11.119-16.675 16.677v69.046h-69.046c-5.561 5.561-11.119 11.119-16.68 16.677-2.249 2.252-18.561-14.628-19.847-15.914-0.255-0.255-0.511-0.508-0.763-0.763h-100.871v-100.873c-0.063-0.063-0.128-0.125-0.188-0.188-4.446-4.446-16.49-13.725-16.49-20.783 0-59.923 0-119.848 0-179.769 0-5.977-0.759-7.569 3.27-11.789 4.467-4.679 8.94-9.361 13.407-14.040v-16.299h15.567c1.464-1.539 2.933-3.071 4.4-4.609 5.674-5.941 8.533-12.070 16.721-12.070 14.753 0.005 29.504 0.005 44.255 0.005zM275.009 279.419h-41.938c3.126 3.278 6.163 6.647 9.070 10.122 10.955 13.091 21.913 26.18 32.868 39.267v-49.389zM275.009 338.554c-4.499-4.487-8.778-9.2-12.831-14.045-7.928-9.469-15.856-18.941-23.787-28.415-27.382 0-54.767 0-82.149 0-7.952 0-16.41-2.478-22.045 3.425-12.037 12.6-24.071 25.203-36.105 37.808-6.018 6.298-8.795 7.403-8.795 15.57 0 13.226 0 26.457 0 39.689 0 37.362 0 74.724 0 112.086 0 8.807 0 17.614 0 26.421 22.869 22.869 45.738 45.738 68.605 68.605 33.478-33.478 66.955-66.955 100.43-100.433 1.293-1.291 8.834 4.797 16.68 12.314v-173.023zM275.009 618.342v-64.229c-21.412 21.41-42.819 42.819-64.229 64.229h64.229zM72.619 618.342h96.054c-18.532-18.534-37.066-37.066-55.598-55.598-11.75-11.748-23.495-23.498-35.245-35.245-1.736-1.736-3.475-3.475-5.212-5.212v96.054zM72.619 279.419v11.37c3.617-3.791 7.239-7.581 10.859-11.37h-10.859z" />
<glyph unicode="&#x64;" glyph-name="d" data-tags="d" horiz-adv-x="344" d="M70.216 293.254v-16.304h15.57c1.467-1.539 2.933-3.071 4.398-4.605 5.676-5.946 8.535-12.075 16.726-12.075 14.751 0 29.501 0 44.252 0 16.208 0 32.42 0 48.63 0 3.367 0 6.734 0 10.098 0 3.889 0 8.212 4.86 10.832 7.16 3.463 3.049 6.791 6.237 10.026 9.52h27.589c0-5.561 0-11.119 0-16.68 0 0.258 18.452 14.52 19.847 15.916 4.017 4.017 15.914 13.388 15.914 19.844 0 79.225 0 158.451 0 237.674 0.2 0.588 0.229 1.033 0 1.262 0 37.485 0 74.972 0 112.457 0 52.843 0 105.685 0 158.53 0-0.255-18.455-14.52-19.849-15.914-4.017-4.017-15.912-13.388-15.912-19.849 0-49.835 0-99.669 0-149.504h-49.96c-5.561 5.561-11.117 11.119-16.677 16.677-2.254 2.252-18.561-14.628-19.849-15.914-0.253-0.255-0.508-0.508-0.763-0.763h-100.873v-100.873c-0.060-0.063-0.123-0.125-0.185-0.188-4.446-4.446-16.49-13.725-16.49-20.783 0-59.925 0-119.846 0-179.771 0-5.977-0.759-7.569 3.27-11.789 4.47-4.672 8.937-9.351 13.407-14.028zM72.624 279.361v11.37c3.622-3.786 7.242-7.576 10.861-11.37h-10.861zM157.906 599.641c33.475-33.478 66.958-66.955 100.433-100.435 0-26.802 0-53.599 0-80.401 0-32.981 0-65.965 0-98.949-6.647-7.945-13.294-15.885-19.938-23.825-27.385 0-54.769 0-82.154 0-7.95 0-16.408-2.473-22.043 3.425-12.034 12.6-24.071 25.208-36.107 37.81-6.016 6.302-8.79 7.403-8.79 15.57 0 13.231 0 26.462 0 39.693 0 37.362 0 74.719 0 112.082 0 8.807 0 17.614 0 26.421 22.864 22.874 45.731 45.743 68.6 68.61zM233.081 279.361c3.124 3.282 6.158 6.652 9.070 10.127 5.395 6.445 10.792 12.894 16.191 19.341 0-9.826 0-19.647 0-29.468h-25.26zM258.339 618.286c0-15.851 0-31.7 0-47.552-15.851 15.851-31.703 31.703-47.552 47.552h47.552zM72.624 618.286h96.057c-18.532-18.534-37.063-37.066-55.598-55.598-11.748-11.748-23.498-23.498-35.245-35.245-1.739-1.736-3.473-3.475-5.214-5.212v96.054z" />
<glyph unicode="&#x65;" glyph-name="e" data-tags="e" horiz-adv-x="344" d="M277.502 385.644v128.643c0.253 0.253 0.511 0.508 0.763 0.763 1.286 1.288 18.163 17.597 15.914 19.849-5.561 5.558-11.119 11.119-16.68 16.677v69.046h-69.046c-5.558 5.558-11.117 11.119-16.675 16.677-2.254 2.252-18.561-14.628-19.849-15.914-0.253-0.253-0.508-0.508-0.761-0.763h-100.873v-100.873c-0.253-0.253-0.508-0.508-0.763-0.763-3.509-3.511-13.031-11.105-15.382-17.275-0.701-1.228-0.956-2.151-0.532-2.572 0-20.367 0-40.734 0-61.105 0-16.74 0-33.485 0-50.23 0-6.425 0-12.851 0-19.276 0-1.067-0.679-5.245 0.147-6.069 5.51-5.508 11.020-11.020 16.53-16.528v-69.046h69.043c5.561-5.561 11.119-11.119 16.68-16.68 2.249-2.249 18.561 14.628 19.847 15.916 0.253 0.253 0.511 0.508 0.763 0.761h100.871v100.871c0.253 0.253 0.511 0.508 0.763 0.761 1.286 1.288 18.163 17.602 15.914 19.849-1.703 1.71-11.478-7.567-16.675-12.721zM275.093 383.226c-0.356-0.361-0.643-0.653-0.761-0.771-28.17-28.17-56.344-56.344-84.519-84.516-21.441 21.439-42.887 42.884-64.33 64.328 49.868 49.873 99.741 99.741 149.61 149.615v-128.655zM157.986 599.569c32.823-32.823 65.645-65.645 98.465-98.468-44.967-44.967-89.935-89.933-134.905-134.905-10.611 10.616-21.224 21.227-31.84 31.845-2.868 2.863-0.325 19.553-0.325 23.396 0 16.788 0 33.569 0 50.352 0 19.726 0 39.45 0 59.174 22.869 22.867 45.736 45.738 68.605 68.605zM275.093 618.214v-64.229c-21.41 21.41-42.817 42.819-64.229 64.229h64.229zM72.706 618.214h96.057c-32.018-32.018-64.039-64.039-96.057-96.057v96.057zM72.706 279.291v64.229c5.016-5.014 10.033-10.033 15.049-15.047v-0.005c16.393-16.393 32.784-32.784 49.177-49.177h-64.227zM275.093 279.291h-96.054c32.018 32.018 64.036 64.036 96.054 96.054v-96.054z" />
<glyph unicode="&#x66;" glyph-name="f" data-tags="f" horiz-adv-x="344" d="M258.378 91.987c3.237-2.127 13.255 7.865 21.867 17.821 5.004 4.595 13.896 12.352 13.896 17.939 0 103.872 0 207.743 0 311.615 0 8.723 0 17.446 0 26.166 0.258 0.679 0.282 1.192 0 1.479 0 111.152 0 222.304 0 333.456 0 1.934 0 3.868 0 5.802 0-0.255-18.452-14.52-19.849-15.914-4.017-4.017-15.912-13.388-15.912-19.849 0-49.835 0-99.669 0-149.504h-188.123v-343.739h30.2c-10.319-10.322-20.641-20.644-30.961-30.963-0.987-0.987-17.983-18.491-15.914-19.849 68.263-44.818 136.53-89.639 204.796-134.459zM258.378 279.669h-147.645c49.216 49.216 98.431 98.429 147.645 147.645 0-49.216 0-98.431 0-147.645zM72.663 279.669v338.923h185.715c0-53.235 0-106.47 0-159.703 0-7.904 0-15.806 0-23.71-51.838-51.836-103.677-103.677-155.515-155.51h-30.2zM258.378 277.261c0-42.013 0-84.023 0-126.033-55.554 36.476-111.111 72.947-166.663 109.425 5.537 5.537 11.073 11.073 16.608 16.608h150.055z" />
<glyph unicode="&#x67;" glyph-name="g" data-tags="g" horiz-adv-x="344" d="M70.216 293.399v-16.294h15.565c1.467-1.539 2.936-3.075 4.402-4.614 5.676-5.941 8.533-12.070 16.723-12.070 14.751 0 29.501 0 44.252 0 16.21 0 32.423 0 48.633 0 3.367 0 6.731 0 10.098 0 3.889 0 8.212 4.86 10.832 7.16 3.466 3.049 6.796 6.237 10.033 9.525h27.582c0-42.013 0-84.023 0-126.035-56.344 36.994-112.693 73.99-169.037 110.983-6.119 4.017-36.488-35.281-35.763-35.763 68.268-44.821 136.535-89.639 204.8-134.459 4.629-3.039 35.763 29.581 35.763 35.763 0 120.029 0 240.063 0 360.096 0 15.387 0 30.775 0 46.164 0.202 0.588 0.226 1.033 0 1.262-5.561 5.558-11.119 11.119-16.68 16.677v69.050h-69.050c-5.556 5.558-11.114 11.114-16.67 16.673-2.254 2.252-18.561-14.628-19.849-15.914-0.25-0.253-0.506-0.506-0.759-0.759h-100.878v-100.881c-0.060-0.063-0.125-0.123-0.185-0.185-4.448-4.446-16.492-13.725-16.492-20.783 0-59.923 0-119.848 0-179.769 0-5.977-0.759-7.569 3.268-11.789 4.475-4.677 8.944-9.359 13.412-14.038zM72.624 279.513v11.365c3.62-3.786 7.237-7.576 10.857-11.365h-10.857zM157.906 599.786c33.482-33.475 66.958-66.953 100.435-100.433 0-59.783 0-119.566 0-179.352-6.647-7.94-13.294-15.88-19.938-23.82-27.385 0-54.769 0-82.154 0-7.95 0-16.408-2.478-22.043 3.425-12.037 12.6-24.071 25.203-36.107 37.808-6.016 6.298-8.793 7.403-8.793 15.57 0 13.226 0 26.457 0 39.689 0 37.362 0 74.722 0 112.086 0 8.807 0 17.614 0 26.424 22.864 22.869 45.731 45.738 68.6 68.605zM233.086 279.513c3.124 3.278 6.158 6.647 9.065 10.117 5.395 6.449 10.789 12.896 16.191 19.346 0-9.821 0-19.642 0-29.463h-25.256zM275.014 618.435v-64.234c-21.412 21.412-42.822 42.824-64.234 64.234h64.234zM72.624 618.435h96.062c-18.534-18.534-37.071-37.071-55.602-55.605-11.75-11.748-23.498-23.498-35.248-35.245-1.736-1.736-3.473-3.475-5.212-5.214v96.064z" />
<glyph unicode="&#x68;" glyph-name="h" data-tags="h" horiz-adv-x="344" d="M53.611 499.712c0-26.797 0-53.599 0-80.396 0-52.845 0-105.688 0-158.533 0 0.258 18.452 14.52 19.847 15.916 0.236 0.236 0.503 0.489 0.788 0.761h184.166c0-5.561 0-11.119 0-16.68 0 0.258 18.452 14.52 19.849 15.916 4.017 4.017 15.912 13.388 15.912 19.844 0 79.223 0 158.448 0 237.669 0.202 0.588 0.231 1.033 0 1.26-5.561 5.561-11.114 11.119-16.675 16.68v69.053h-69.050c-5.561 5.558-11.119 11.117-16.675 16.673-2.254 2.252-18.561-14.628-19.849-15.914-0.253-0.253-0.503-0.506-0.756-0.759h-81.795c0 8.913 0 17.824 0 26.737 0 52.843 0 105.685 0 158.53 0-0.255-18.452-14.52-19.847-15.914-4.019-4.017-15.914-13.388-15.914-19.849 0-89.839 0-179.675 0-269.513-0.26-0.682-0.284-1.195 0-1.481zM76.856 279.872c5.101 4.662 12.516 11.572 12.516 16.675 0 78.334 0 156.666 0 234.998 22.869 22.869 45.736 45.736 68.607 68.605 33.48-33.475 66.958-66.953 100.433-100.435 0-73.279 0-146.563 0-219.843h-181.556zM275.091 618.794v-64.231c-21.412 21.412-42.822 42.822-64.234 64.231h64.234zM168.761 618.794c-26.465-26.462-52.927-52.924-79.387-79.384 0 26.46 0 52.924 0 79.384h79.387z" />
<glyph unicode="&#x69;" glyph-name="i" data-tags="i" horiz-adv-x="344" d="M195.244 637.186c0 1.219 0 2.44 0 3.658 0 1.308-8.711-5.226-7.921-4.597-5.561-4.458-10.767-9.387-15.806-14.423-0.349-0.347-0.754-0.737-1.19-1.149h-100.059v-343.737h82.233c0-5.503 0-11.006 0-16.509 0-1.219 0-2.44 0-3.661 0-1.308 8.706 5.228 7.921 4.597 5.561 4.458 10.767 9.387 15.801 14.423 0.349 0.349 0.756 0.737 1.19 1.149h100.062v343.739h-82.231c0 5.503 0 11.006 0 16.509zM72.677 279.347v338.923h95.036c-6.095-5.573-15.211-13.982-15.211-20.167 0-106.253 0-212.505 0-318.756h-79.825zM275.065 618.269v-338.923h-95.038c6.095 5.57 15.216 13.982 15.216 20.165 0 106.251 0 212.505 0 318.758h79.823zM160.423 650.868c5.561 4.458 10.767 9.387 15.801 14.423 5.038 5.036 9.968 10.24 14.421 15.801 1.575 1.96 4.6 5.081 4.6 7.921 0 16.056 0 32.112 0 48.168 0 1.308-8.711-5.226-7.921-4.597-5.561-4.458-10.767-9.387-15.806-14.423-5.033-5.036-9.963-10.24-14.421-15.801-1.57-1.96-4.595-5.081-4.595-7.921 0-16.056 0-32.112 0-48.168 0-1.308 8.706 5.228 7.921 4.597z" />
<glyph unicode="&#x6a;" glyph-name="j" data-tags="j" horiz-adv-x="344" d="M70.356 512.307v-234.981h150.915c1.233-6.124 2.459-12.249 3.692-18.373 6.604-32.888 13.207-65.777 19.813-98.665-51.778 33.993-103.556 67.991-155.334 101.986-6.119 4.017-36.488-35.281-35.763-35.763 68.268-44.821 136.533-89.639 204.798-134.459 4.111-2.7 36.958 29.812 35.763 35.763-10.004 49.835-20.015 99.672-30.024 149.511h13.349v343.737h-82.378c-1.115 5.561-2.23 11.119-3.35 16.677-0.173 0.874-18.857-14.922-19.844-15.914-0.253-0.255-0.513-0.508-0.766-0.763h-100.871v-100.871c-0.253-0.253-0.508-0.508-0.761-0.761-1.286-1.288-18.166-17.597-15.914-19.849 1.703-1.705 11.48 7.572 16.675 12.725zM72.764 279.734v234.988c0.356 0.361 0.643 0.653 0.761 0.773 27.739 27.736 55.472 55.472 83.209 83.209 21.349-106.323 42.699-212.647 64.056-318.97h-148.025zM275.156 618.655v-338.92h-11.42c-12.795 63.702-25.588 127.403-38.378 191.107-9.896 49.271-19.789 98.542-29.685 147.813h79.483zM72.764 618.655h96.054c-32.018-32.018-64.036-64.036-96.054-96.054v96.054zM160.507 651.256c5.561 4.458 10.767 9.387 15.806 14.423 5.033 5.036 9.963 10.24 14.421 15.801 1.57 1.96 4.595 5.081 4.595 7.921 0 16.056 0 32.112 0 48.168 0 1.308-8.706-5.226-7.921-4.597-5.561-4.458-10.767-9.387-15.801-14.423-5.038-5.036-9.968-10.24-14.421-15.801-1.575-1.96-4.6-5.081-4.6-7.921 0-16.056 0-32.112 0-48.168 0-1.31 8.711 5.226 7.921 4.597z" />
<glyph unicode="&#x6b;" glyph-name="k" data-tags="k" horiz-adv-x="344" d="M57.664 261.54c5.561 4.46 10.765 9.387 15.801 14.421 0.347 0.349 0.756 0.739 1.192 1.149h163.361c6.671-5.561 13.344-11.114 20.015-16.675 4.304-3.588 37.856 34.017 35.763 35.763-5.561 4.634-11.119 9.262-16.68 13.896v310.758h-30.178c5.156 5.197 14.43 14.97 12.723 16.677-2.249 2.252-18.561-14.628-19.844-15.914-0.253-0.253-0.513-0.508-0.766-0.763h-146.563c0 5.503 0 11.006 0 16.509 0 1.219 0 2.44 0 3.658 0 1.308-8.708-5.226-7.921-4.597-5.561-4.458-10.765-9.387-15.801-14.423-4.802-4.802-19.021-16.003-19.021-23.722 0-112.561 0-225.112 0-337.67 0-1.223 0-2.442 0-3.661-0.002-1.308 8.706 5.226 7.918 4.595zM77.272 279.518c6.098 5.573 15.213 13.985 15.213 20.169 0 32.897 0 65.799 0 98.696 47.544-39.619 95.096-79.242 142.645-118.866h-157.858zM274.708 312.099c-60.739 50.617-121.483 101.232-182.223 151.845 0 0.824 0 1.647 0 2.468 50.42 50.422 100.844 100.844 151.262 151.264 0.123 0.12 0.409 0.405 0.771 0.763h30.188v-306.341zM236.64 618.443c-48.048-48.055-96.103-96.107-144.155-144.16 0 48.052 0 96.105 0 144.16h144.155z" />
<glyph unicode="&#x6c;" glyph-name="l" data-tags="l" horiz-adv-x="344" d="M277.475 385.966v234.986h-30.202c10.324 10.322 20.644 20.641 30.963 30.963 0.987 0.987 17.983 18.491 15.912 19.849-68.265 44.821-136.528 89.641-204.796 134.462-3.237 2.124-13.255-7.868-21.87-17.824-5.004-4.595-13.893-12.352-13.893-17.939 0-112.595 0-225.189 0-337.786-0.258-0.677-0.287-1.192 0-1.476 0-4.046 0-8.089 0-12.135 0-51.272 0-102.542 0-153.815 0-4.234-1.036-4.718 3.408-4.718 15.931 0 31.862 0 47.792 0s31.862 0 47.792 0c9.826 0 17.385 9.060 24.271 16.677h100.621v100.876c0.253 0.253 0.508 0.508 0.761 0.761 1.288 1.286 18.166 17.597 15.912 19.847-1.698 1.705-11.471-7.572-16.67-12.728zM275.067 618.544v-234.993c-0.356-0.361-0.645-0.653-0.761-0.773-28.83-28.827-57.657-57.654-86.486-86.484-28.637 0-57.271 0-85.908 0-3.073 0-12.554-2.305-12.554 1.787 0 5.448 0 10.89 0 16.338 0 49.536 0 99.074 0 148.61 51.838 51.836 103.677 103.677 155.51 155.515h30.2zM89.355 618.544h147.647c-49.216-49.216-98.429-98.434-147.647-147.647 0 8.475 0 16.95 0 25.427 0 40.741 0 81.479 0 122.22zM256.013 637.562c-5.532-5.537-11.068-11.073-16.605-16.608h-150.055c0 42.010 0 84.020 0 126.033 55.557-36.478 111.111-72.952 166.66-109.425zM275.067 279.616h-95.997c0.551 0.585 1.096 1.154 1.642 1.7 31.455 31.452 62.902 62.904 94.357 94.359v-96.059z" />
<glyph unicode="&#x6d;" glyph-name="m" data-tags="m" horiz-adv-x="480" d="M392.868 277.001c0-3.656 0-7.314 0-10.97 0-1.905 0-3.805 0-5.705 0 0.253 18.452 14.52 19.849 15.912 4.017 4.017 15.912 13.388 15.912 19.849 0 110.752 0 221.512 0 332.271 0 2.531 0 5.062 0 7.593 0.258 0.679 0.287 1.192 0 1.479-2.252 2.252-18.561-14.628-19.849-15.914-0.236-0.238-0.503-0.496-0.79-0.768h-150.024c0 2.536 0 5.072 0 7.61 0 2.531 0 5.062 0 7.593 0.258 0.679 0.287 1.192 0 1.479-2.252 2.252-18.561-14.628-19.849-15.914-0.236-0.238-0.503-0.496-0.79-0.768h-150.029c0 4.34 0 8.679 0 13.017 0 1.219 0 2.44 0 3.661 0-0.255-18.455-14.52-19.849-15.914-4.017-4.017-15.914-13.388-15.914-19.849 0-56.395 0-112.79 0-169.187-0.258-0.677-0.287-1.195 0-1.476 0-55.672 0-111.345 0-167.015 0-1.223 0-2.442 0-3.661 0 0.253 18.455 14.52 19.849 15.912 0.236 0.236 0.501 0.494 0.788 0.761h150.034c0-3.656 0-7.314 0-10.97 0-1.905 0-3.805 0-5.705 0 0.253 18.452 14.52 19.849 15.912 0.236 0.236 0.501 0.494 0.785 0.761h150.029zM245.45 279.409c5.098 4.662 12.516 11.577 12.516 16.68 0 55.578 0 111.157 0 166.74 44.967 44.967 89.935 89.935 134.902 134.905 0-106.107 0-212.213 0-318.325h-147.418zM405.379 618.342c-2.873-2.627-6.464-5.961-9.067-9.291-46.114-46.116-92.232-92.235-138.346-138.354 0 49.216 0 98.429 0 147.645h147.413zM234.716 618.342c-2.873-2.627-6.461-5.961-9.065-9.291-46.119-46.116-92.235-92.237-138.354-138.354 0 49.216 0 98.429 0 147.645h147.418zM74.782 279.409c5.098 4.662 12.516 11.577 12.516 16.68 0 55.578 0 111.157 0 166.738 44.967 44.97 89.937 89.937 134.907 134.907 0-55.087 0-110.172 0-165.259-0.258-0.677-0.287-1.195 0-1.476 0-50.531 0-101.059 0-151.589h-147.423z" />
<glyph unicode="&#x6e;" glyph-name="n" data-tags="n" horiz-adv-x="344" d="M53.592 396.861c0-44.291 0-88.579 0-132.875 0-1.219 0-2.437 0-3.661 0 0.258 18.455 14.52 19.849 15.916 0.236 0.236 0.501 0.489 0.788 0.761h184.166c0-3.875 0-7.752 0-11.627 0-1.050 0-2.093 0-3.143 0 0.226 13.951 11.035 18.505 14.77h0.578v0.479c0.356 0.301 0.645 0.547 0.766 0.667 4.017 4.017 15.912 13.388 15.912 19.844 0 112.098 0 224.194 0 336.29 0 0.554 0 1.108 0 1.662 0.258 0.679 0.287 1.192 0 1.479-2.254 2.252-18.561-14.628-19.849-15.914-0.236-0.236-0.503-0.494-0.785-0.763h-184.166c0 4.34 0 8.679 0 13.017 0 1.219 0 2.44 0 3.661 0-0.255-18.455-14.52-19.849-15.914-4.017-4.017-15.914-13.388-15.914-19.849 0-67.774 0-135.55 0-203.329-0.26-0.672-0.287-1.185 0-1.471zM76.836 279.414c5.098 4.662 12.516 11.572 12.516 16.675 0 44.202 0 88.401 0 132.603 56.344 56.347 112.693 112.696 169.037 169.042 0-106.107 0-212.213 0-318.317h-181.553zM270.908 618.344c-2.873-2.627-6.464-5.963-9.070-9.296-57.498-57.495-114.993-114.993-172.486-172.489 0 60.595 0 121.19 0 181.785h181.556z" />
<glyph unicode="&#x6f;" glyph-name="o" data-tags="o" horiz-adv-x="344" d="M220.695 267.488c3.463 3.044 6.791 6.235 10.028 9.518h46.67v54.678c3.039 3.632 6.081 7.263 9.12 10.893 5.522 6.599 7.56 10.363 7.56 18.724 0 57.488 0 114.974 0 172.464 0.202 0.588 0.226 1.033 0 1.262-5.561 5.558-11.119 11.119-16.68 16.677v69.046h-69.041c-5.561 5.561-11.119 11.119-16.68 16.68-2.254 2.252-18.561-14.628-19.851-15.914-0.253-0.255-0.508-0.511-0.761-0.766h-100.873v-100.876c-0.060-0.060-0.125-0.125-0.185-0.185-4.448-4.446-16.492-13.722-16.492-20.783 0-59.925 0-119.851 0-179.774 0-8.458 0.258-8.634 6.334-14.996 3.449-3.61 6.895-7.22 10.344-10.83v-16.302h15.567c3.569-3.738 7.138-7.473 10.705-11.208 1.226-1.281 3.882-5.469 5.838-5.469 4.858 0 9.715 0 14.573 0 18.52 0 37.032 0 55.552 0 12.48 0 24.962 0 37.442 0 3.889 0.002 8.212 4.86 10.832 7.162zM89.273 392.584c0 37.365 0 74.724 0 112.086 0 8.81 0 17.617 0 26.426 22.869 22.869 45.736 45.736 68.605 68.605 33.478-33.48 66.953-66.955 100.435-100.435 0-59.783 0-119.569 0-179.359-6.647-7.938-13.294-15.878-19.938-23.818-27.385 0-54.769 0-82.156 0-7.95 0-16.408-2.476-22.041 3.425-12.039 12.6-24.073 25.205-36.11 37.805-6.018 6.3-8.793 7.405-8.793 15.57-0.002 13.234-0.002 26.465-0.002 39.696zM274.985 279.414h-41.933c3.124 3.28 6.158 6.649 9.070 10.124 3.4 4.068 6.806 8.135 10.211 12.2 7.55 9.021 15.102 18.043 22.652 27.067v-49.391zM274.985 618.344v-64.229c-21.407 21.41-42.817 42.819-64.224 64.229h64.224zM72.595 618.344h96.057c-18.537-18.532-37.068-37.066-55.598-55.598-11.75-11.748-23.498-23.498-35.248-35.245-1.736-1.739-3.473-3.475-5.212-5.214v96.057zM72.595 279.414v11.372c3.62-3.791 7.239-7.579 10.859-11.372h-10.859z" />
<glyph unicode="&#x70;" glyph-name="p" data-tags="p" horiz-adv-x="344" d="M209.323 260.461c6.933 0 15.579 9.761 21.585 16.675h46.285v47.978c7.699 7.319 16.68 16.492 16.68 22.183 0 9.308 0 18.614 0 27.922 0 33.622 0 67.239 0 100.857 0 13.956 0 27.912 0 41.868 0 2.481 1.825 15.387-0.039 17.251-5.546 5.546-11.095 11.093-16.641 16.639v69.048h-69.046c-5.561 5.558-11.119 11.117-16.675 16.675-2.254 2.252-18.561-14.628-19.849-15.914-0.253-0.253-0.508-0.506-0.756-0.761h-81.793c0 5.558 0 11.119 0 16.677 0-0.255-18.452-14.52-19.847-15.914-4.019-4.017-15.914-13.388-15.914-19.849 0-33.641 0-67.283 0-100.924-0.258-0.677-0.284-1.192 0-1.476 0-59.839 0-119.677 0-179.518-0.303-0.833-0.328-1.471 0-1.862 0-22.539 0-45.076 0-67.61 0-52.845 0-105.688 0-158.533 0 0.258 18.452 14.52 19.847 15.916 4.019 4.017 15.914 13.388 15.914 19.844 0 49.221 0 98.439 0 147.654 2.264-2.705 4.53-5.409 6.794-8.114 1.18-1.411 4.188-6.707 6.23-6.707 31.445 0 62.89 0 94.337 0 4.292-0.005 8.59-0.005 12.887-0.005zM157.675 599.824c18.936-18.934 37.87-37.868 56.802-56.802 11.75-11.748 23.5-23.498 35.245-35.245 3.702-3.697 8.386-6.197 8.386-11.507 0-60.698 0-121.404 0-182.105-5.71-5.977-11.425-11.962-17.135-17.939-32.047 0-64.092 0-96.134 0-2.009 0-6.741-1.026-8.162 0.672-5.074 6.059-10.146 12.121-15.223 18.185-10.794 12.896-21.59 25.795-32.384 38.691 0 41.75 0 83.5 0 125.252 0 17.4 0 34.795 0 52.195 22.871 22.864 45.736 45.733 68.605 68.602zM274.783 279.544h-41.779c0.771 0.879 1.481 1.674 2.102 2.324 11.020 11.538 22.036 23.071 33.054 34.609 1.534 1.609 3.918 3.815 6.623 6.36v-43.294zM274.783 618.469v-64.231c-21.412 21.41-42.817 42.822-64.229 64.231h64.229zM168.457 618.469c-26.462-26.462-52.924-52.922-79.384-79.382 0 26.46 0 52.922 0 79.382h79.384z" />
<glyph unicode="&#x71;" glyph-name="q" data-tags="q" horiz-adv-x="344" d="M294.102 217.454c0 87.173 0 174.343 0 261.513 0 18.289 0 36.577 0 54.868 0.202 0.588 0.226 1.033 0 1.262 0 34.133 0 68.268 0 102.403 0-0.255-18.452-14.52-19.849-15.914-0.236-0.236-0.503-0.494-0.785-0.763h-65.089c-5.561 5.558-11.119 11.117-16.675 16.675-2.254 2.252-18.561-14.628-19.851-15.914-0.253-0.253-0.508-0.506-0.756-0.761h-100.878v-100.878c-0.060-0.060-0.125-0.125-0.185-0.185-4.448-4.446-16.492-13.722-16.492-20.783 0-59.921 0-119.846 0-179.771 0-5.977-0.759-7.569 3.268-11.789 4.47-4.679 8.94-9.361 13.407-14.035v-16.304h15.57c1.464-1.539 2.933-3.071 4.398-4.605 5.676-5.946 8.533-12.070 16.723-12.070 14.751 0 29.501 0 44.252 0 16.208 0 32.418 0 48.633 0 3.367 0 6.731 0 10.098 0 3.889 0 8.212 4.855 10.832 7.16 3.463 3.044 6.791 6.233 10.023 9.515h27.592c0-8.913 0-17.826 0-26.737 0-10.965 0-21.925 0-32.888-5.672 0-11.345 0-17.012 0-6.464 0-15.832-11.895-19.849-15.912-4.214-4.214-8.335-8.571-12.066-13.221 0.527 0.657-4.944-6.628-3.848-6.628 17.593 0 35.183 0 52.775 0 0-29.957 0-59.921 0-89.882 0 0.258 18.452 14.52 19.844 15.916 4.022 4.017 15.916 13.388 15.916 19.844 0 29.737 0 59.468 0 89.205 0.183 0.419 0.212 0.679 0.005 0.679zM238.401 296.164c-27.385 0-54.769 0-82.156 0-7.95 0-16.408-2.478-22.041 3.42-12.039 12.605-24.073 25.208-36.11 37.808-6.018 6.302-8.793 7.403-8.793 15.57 0 13.231 0 26.462 0 39.693 0 37.362 0 74.722 0 112.084 0 8.81 0 17.614 0 26.426 22.869 22.867 45.736 45.736 68.605 68.602 33.478-33.48 66.958-66.958 100.435-100.433 0-59.783 0-119.566 0-179.355-6.649-7.935-13.294-15.875-19.941-23.816zM270.855 618.411c-5.103-4.662-12.516-11.572-12.516-16.677 0-10.293 0-20.584 0-30.877-15.851 15.851-31.703 31.703-47.554 47.554h60.070zM72.624 618.411h96.062c-18.537-18.534-37.071-37.068-55.602-55.602-11.75-11.748-23.498-23.498-35.248-35.245-1.736-1.739-3.473-3.475-5.212-5.214v96.062zM72.624 279.484v11.37c3.62-3.786 7.242-7.576 10.861-11.37h-10.861zM233.081 279.484c3.124 3.282 6.158 6.652 9.070 10.127 5.395 6.449 10.789 12.894 16.191 19.341 0-9.821 0-19.647 0-29.468h-25.26z" />
<glyph unicode="&#x72;" glyph-name="r" data-tags="r" horiz-adv-x="344" d="M193.005 637.528c-8.162 0-15.748-9.828-21.92-16.677h-81.631c0 4.34 0 8.679 0 13.017 0 1.221 0 2.44 0 3.661 0-0.255-18.455-14.52-19.849-15.914-4.017-4.017-15.914-13.388-15.914-19.847 0-33.641 0-67.283 0-100.922-0.258-0.677-0.287-1.192 0-1.476 0-78.423 0-156.849 0-235.273 0-1.221 0-2.44 0-3.661 0 0.255 18.455 14.52 19.849 15.914 0.236 0.236 0.501 0.491 0.788 0.761h203.25v339.782c0.27 0.284 0.527 0.551 0.761 0.788 1.397 1.394 15.659 19.847 15.914 19.847-23.331 0-46.668 0-69.999 0-10.413 0-20.832 0-31.247 0zM168.828 618.445c-0.084-0.087-0.173-0.183-0.258-0.267-26.371-26.371-52.741-52.741-79.115-79.115 0 26.46 0 52.922 0 79.382h79.372zM275.168 279.52h-198.228c5.098 4.662 12.516 11.574 12.516 16.677 0 78.332 0 156.666 0 234.998 23.524 23.524 47.046 47.048 70.572 70.572 32.823 0 65.645 0 98.465 0 5.106 0 12.015 7.415 16.677 12.513v-334.761z" />
<glyph unicode="&#x73;" glyph-name="s" data-tags="s" horiz-adv-x="344" d="M277.473 350.629v159.997c9.322 9.207 18.216 19.572 16.685 21.109-5.566 5.561-11.124 11.121-16.685 16.682v72.55h-72.55c-5.561 5.561-11.119 11.117-16.68 16.677-2.249 2.252-18.561-14.628-19.849-15.914-0.253-0.253-0.508-0.508-0.761-0.761h-97.367v-97.367c-0.253-0.253-0.508-0.508-0.763-0.761-1.286-1.286-18.163-17.597-15.914-19.847 5.558-5.561 11.119-11.117 16.677-16.677v-180.578c-9.322-9.207-18.211-19.57-16.677-21.104 7.622-7.62 15.244-15.24 22.864-22.862 2.767-2.767 9.525-1.221 13.178-1.221 26.917 0 53.835 0 80.752 0 12.323 0 24.651 0 36.974 0 4.92 0 12.511-1.498 16.819 1.45 6.454 4.414 12.583 9.626 18.505 15.228h34.788v36.107c0.253 0.255 0.508 0.52 0.761 0.773 1.288 1.286 18.166 17.597 15.916 19.847-5.554 5.556-11.114 11.114-16.675 16.673zM275.065 353.038c-61.247 61.25-122.497 122.497-183.745 183.747 21.044 21.041 42.085 42.087 63.128 63.128 34.646-34.648 69.294-69.294 103.946-103.942 1.288-1.291 8.829 4.795 16.67 12.306v-155.24zM275.065 618.556v-67.733c-22.578 22.578-45.155 45.155-67.733 67.733h67.733zM72.677 618.556h92.55c-30.85-30.85-61.7-61.698-92.55-92.55v92.55zM72.677 483.904c61.252-61.25 122.497-122.497 183.742-183.747-1.279-1.281-2.562-2.565-3.848-3.848-31.101 0-62.206 0-93.307 0-14.669 0-29.338 0-44.004 0-3.848 0-6.502 4.679-9.062 7.237-5.616 5.616-11.232 11.23-16.846 16.846-1.291 1.291-8.834-4.797-16.677-12.314v175.826zM275.065 279.633h-29.868c10.372 10.091 20.131 21.241 29.868 31.257v-31.257z" />
<glyph unicode="&#x74;" glyph-name="t" data-tags="t" horiz-adv-x="344" d="M277.507 386.055v234.984h-85.725c0 8.913 0 17.824 0 26.739 0 10.534 0 21.065 0 31.599 4.135 0 8.27 0 12.403 0 6.464 0 15.832 11.895 19.849 15.914 1.397 1.394 15.659 19.847 15.912 19.847-16.054 0-32.107 0-48.166 0 0 30.39 0 60.78 0 91.17 0-0.255-18.452-14.52-19.844-15.914-4.017-4.017-15.916-13.388-15.916-19.847 0-18.469 0-36.941 0-55.41-4.137 0-8.272 0-12.405 0-6.461 0-15.83-11.895-19.849-15.914-1.394-1.394-15.659-19.847-15.914-19.847 16.056 0 32.112 0 48.168 0 0-19.444 0-38.891 0-58.338h-85.723v-343.739h85.723c0-5.561 0-11.119 0-16.68 0 0.255 18.457 14.52 19.849 15.914 0.255 0.253 0.511 0.511 0.766 0.763h100.871v100.873c0.253 0.253 0.508 0.508 0.761 0.761 1.288 1.286 18.166 17.597 15.912 19.847-1.698 1.71-11.473-7.567-16.67-12.723zM275.098 618.633v-234.991c-0.356-0.361-0.645-0.653-0.761-0.773-27.517-27.517-55.034-55.034-82.554-82.549 0 106.104 0 212.208 0 318.315h83.315zM72.709 279.708v338.925h83.315c0-66.493 0-132.985 0-199.478 0-46.482 0-92.965 0-139.444h-83.315zM275.098 279.708h-96.054c32.018 32.018 64.036 64.036 96.054 96.057v-96.057z" />
<glyph unicode="&#x75;" glyph-name="u" data-tags="u" horiz-adv-x="344" d="M294.049 344.368c0 96.5 0 193.002 0 289.502 0 1.221 0 2.44 0 3.661 0-0.255-18.452-14.52-19.849-15.914-0.236-0.236-0.503-0.491-0.785-0.761h-184.164c0 5.561 0 11.117 0 16.677 0-0.255-18.455-14.52-19.849-15.914-4.017-4.017-15.914-13.388-15.914-19.847 0-55.648 0-111.299 0-166.947 0-33.682 0-67.369 0-101.052 0-7.844 0-15.688 0-23.531 0-5.862 12.812-14.445 16.632-18.267 0.014-0.014 0.029-0.031 0.046-0.046v-14.813h14.813c3.742-3.745 7.485-7.485 11.23-11.23 4.46-4.46 4.65-5.448 10.645-5.448 24.81 0 49.623 0 74.43 0 9.055 0 18.11 0 27.158 0 8.552 0 16.191 9.787 22.436 16.677h27.409c0-4.34 0-8.679 0-13.017 0-1.221 0-2.44 0-3.661 0 0.255 18.452 14.52 19.849 15.914 4.017 4.017 15.912 13.388 15.912 19.847 0 15.565 0 31.129 0 46.694 0.263 0.674 0.289 1.19 0.002 1.474zM270.804 618.445c-5.098-4.662-12.516-11.574-12.516-16.677 0-96.408 0-192.817 0-289.23-5.448-5.448-10.893-10.893-16.34-16.34-28.584 0-57.168 0-85.752 0-8.051 0-16.372-2.406-22.19 3.413-12.304 12.304-24.605 24.61-36.909 36.912-5.053 5.053-7.844 6.076-7.844 12.73 0 9.794 0 19.589 0 29.383 0 35.435 0 70.871 0 106.306 0 44.503 0 89.001 0 133.503h181.551zM72.574 279.52v9.997c3.333-3.333 6.664-6.666 9.997-9.997h-9.997zM233.146 279.52c0.075 0.077 0.154 0.164 0.231 0.243 8.306 8.304 16.608 16.608 24.911 24.909 0-8.383 0-16.766 0-25.15h-25.142z" />
<glyph unicode="&#x76;" glyph-name="v" data-tags="v" horiz-adv-x="344" d="M293.854 594.769c0 14.279 0 28.555 0 42.834 0-0.255-18.452-14.52-19.844-15.914-0.236-0.236-0.503-0.491-0.79-0.761h-184.164c0 5.561 0 11.117 0 16.677 0-0.255-18.455-14.52-19.849-15.914-4.017-4.017-15.914-13.388-15.914-19.847 0-56.188 0-112.375 0-168.565 0-4.347 3.567-8.321 5.669-11.991 3.668-6.406 7.338-12.807 11.006-19.211v-124.891h71.56c3.186-5.561 6.372-11.119 9.556-16.68 0.809-1.411 10.729 7.714 19.717 16.68h106.376v162.037c1.144 1.825 2.29 3.656 3.439 5.484 3.923 6.254 7.846 12.513 11.769 18.768 3.523 5.621 1.467 15.849 1.467 22.142 0.002 36.384 0.002 72.769 0.002 109.153zM270.609 618.517c-5.098-4.662-12.516-11.574-12.516-16.677 0-56.513 0-113.026 0-169.538-25.983-41.444-51.966-82.888-77.949-124.328-27.368 47.766-54.738 95.527-82.108 143.293-2.018 3.526-8.98 11.625-8.98 15.849 0 8.98 0 17.959 0 26.939 0 36.943 0 73.884 0 110.824 0 4.547 0 9.091 0 13.638h181.553zM72.379 279.592v118.278c2.806-4.891 5.611-9.787 8.415-14.686 18.561-32.389 37.119-64.783 55.68-97.174 1.226-2.141 2.452-4.28 3.677-6.42h-67.772zM274.771 279.592h-101.572c6.091 6.172 11.292 11.791 12.2 13.241 29.79 47.515 59.579 95.033 89.369 142.544v-155.785z" />
<glyph unicode="&#x77;" glyph-name="w" data-tags="w" horiz-adv-x="480" d="M428.629 466.962c0 56.891 0 113.782 0 170.673 0-0.255-18.452-14.52-19.844-15.914-0.236-0.236-0.503-0.491-0.79-0.761h-150.034c0 3.658 0 7.314 0 10.972 0 1.903 0 3.803 0 5.705 0-0.255-18.452-14.52-19.847-15.914-0.236-0.236-0.503-0.491-0.788-0.761h-150.029c0 3.658 0 7.314 0 10.972 0 1.903 0 3.803 0 5.705 0-0.255-18.452-14.52-19.847-15.914-4.019-4.017-15.914-13.388-15.914-19.847 0-110.755 0-221.512 0-332.266 0-2.531 0-5.062 0-7.596-0.258-0.677-0.284-1.19 0-1.476 2.252-2.249 18.561 14.628 19.847 15.916 0.238 0.236 0.506 0.494 0.792 0.766h150.024c0-2.536 0-5.074 0-7.61 0-2.531 0-5.062 0-7.596-0.258-0.677-0.284-1.19 0-1.476 2.252-2.249 18.561 14.628 19.847 15.916 0.238 0.236 0.506 0.494 0.792 0.766h169.117v169.134c0.253 0.253 0.508 0.508 0.761 0.761 3.509 3.509 13.029 11.102 15.382 17.275 0.701 1.226 0.954 2.146 0.53 2.57zM405.384 618.551c-5.098-4.662-12.516-11.574-12.516-16.677 0-55.581 0-111.159 0-166.742-44.967-44.967-89.935-89.935-134.907-134.902 0 55.085 0 110.169 0 165.256 0.258 0.677 0.287 1.192 0 1.476 0 50.528 0 101.059 0 151.587h147.423zM234.716 618.551c-5.101-4.662-12.516-11.574-12.516-16.677 0-55.581 0-111.159 0-166.742-44.967-44.967-89.935-89.935-134.902-134.902 0 106.107 0 212.216 0 318.322h147.418zM74.787 279.626c2.878 2.63 6.469 5.965 9.074 9.298 46.114 46.114 92.228 92.225 138.339 138.339 0-49.216 0-98.429 0-147.64h-147.413zM409.548 279.626h-164.098c2.878 2.63 6.469 5.965 9.074 9.298 51.675 51.67 103.349 103.344 155.024 155.019v-164.317z" />
<glyph unicode="&#x78;" glyph-name="x" data-tags="x" horiz-adv-x="344" d="M277.475 323.994v284.724c5.074 8.46 10.151 16.916 15.225 25.378 5.038 8.393-7.658-2.452-9.106-3.726-3.381-2.972-7.023-6.156-10.541-9.518h-173.695c-3.335 5.561-6.671 11.119-10.004 16.677-1.197 1.996-18.9-14.965-19.847-15.914-1.874-1.874-18.002-16.372-15.914-19.847 5.561-9.265 11.117-18.529 16.677-27.794v-284.727c-5.074-8.458-10.153-16.913-15.228-25.376-5.036-8.395 7.658 2.452 9.106 3.726 3.381 2.972 7.023 6.153 10.543 9.515h173.693c3.335-5.561 6.671-11.119 10.004-16.675 1.199-1.999 18.9 14.963 19.849 15.912 1.871 1.876 18.002 16.374 15.912 19.849-5.558 9.262-11.114 18.527-16.675 27.794zM275.067 328.006c-27.671 46.114-55.34 92.235-83.011 138.349 26.867 44.777 53.736 89.554 80.598 134.332 0.804 1.339 1.609 2.678 2.413 4.017v-276.697zM270.58 618.445c-4.121-4.142-7.93-8.557-10.743-13.243-25.179-41.969-50.362-83.938-75.541-125.908-24.967 41.608-49.931 83.218-74.898 124.826-2.863 4.773-5.729 9.551-8.593 14.324h169.774zM72.677 569.959c27.669-46.114 55.34-92.232 83.009-138.346-26.864-44.78-53.734-89.559-80.598-134.332-0.804-1.341-1.606-2.68-2.411-4.017v276.695zM77.164 279.52c4.123 4.145 7.933 8.557 10.743 13.246 25.181 41.967 50.362 83.938 75.543 125.908 24.967-41.608 49.929-83.218 74.898-124.826 2.863-4.773 5.729-9.554 8.593-14.327h-169.777z" />
<glyph unicode="&#x79;" glyph-name="y" data-tags="y" horiz-adv-x="344" d="M273.947 620.957h-184.166c0 5.561 0 11.117 0 16.677 0-0.255-18.452-14.52-19.847-15.914-4.019-4.017-15.914-13.388-15.914-19.847 0-23.548 0-47.099 0-70.647 0-15.721 0-31.447 0-47.169 0-2.888-2.021-16.699 0.147-18.864 5.51-5.51 11.020-11.020 16.53-16.53v-167.513c-0.253-0.253-0.508-0.508-0.761-0.761-1.286-1.286-18.166-17.597-15.914-19.847s18.561 14.628 19.847 15.914c0.253 0.253 0.508 0.508 0.761 0.761h203.274v203.269c0.039 0.036 0.070 0.067 0.104 0.104 4.304 4.306 16.576 13.732 16.576 20.509 0 2.806 0 5.611 0 8.415 0 42.706 0 85.412 0 128.118 0-0.255-18.452-14.52-19.849-15.914-0.238-0.236-0.506-0.491-0.788-0.761zM271.337 618.549c-5.103-4.662-12.516-11.574-12.516-16.677 0-44.202 0-88.401 0-132.603-22.869-22.867-45.738-45.736-68.602-68.602-33.369 33.367-66.741 66.738-100.108 100.105-2.242 2.24-0.328 14.421-0.328 17.376 0 15.485 0 30.971 0 46.458 0 17.98 0 35.963 0 53.941h181.553zM73.103 446.253c27.117-27.117 54.235-54.232 81.349-81.347-27.117-27.117-54.235-54.232-81.349-81.347v162.694zM275.493 279.624h-198.457c30.197 30.195 60.393 60.39 90.588 90.585 5.65 4.985 12.297 11.632 17.282 17.282 2.473 2.473 4.954 4.951 7.427 7.425 23.457 23.457 46.911 46.913 70.368 70.372 4.265 4.265 8.528 8.528 12.795 12.793v-198.457z" />
</font>
</defs>
</svg>
