<?xml version="1.0" encoding="UTF-8" standalone="no"?>
<svg
   xmlns:dc="http://purl.org/dc/elements/1.1/"
   xmlns:cc="http://creativecommons.org/ns#"
   xmlns:rdf="http://www.w3.org/1999/02/22-rdf-syntax-ns#"
   xmlns:svg="http://www.w3.org/2000/svg"
   xmlns="http://www.w3.org/2000/svg"
   id="svg207"
   version="1.1">
  <metadata
     id="metadata2">
    Created with Inkscape (http://www.inkscape.org/)
    Author:Uronoru(Twitter:@3t3rna7681)
    Copyright (c) 2015 Uronoru
    <rdf:RDF>
  <cc:Work
     rdf:about="">
    <dc:format>image/svg+xml</dc:format>
    <dc:type
       rdf:resource="http://purl.org/dc/dcmitype/StillImage" />
  </cc:Work>
</rdf:RDF>
</metadata>
  <defs
     id="defs205">
    <font
       horiz-adv-x="800"
       id="3t3-5x3">
      <font-face
         id="font-face4"
         units-per-em="1024"
         font-stretch="normal"
         font-weight="400"
         font-family="3t3-5x3" />
      <missing-glyph
         id="missing-glyph6"
         d="M100 0h600v1000h-600zM500 200h-200v600h200v-600z" />
      <glyph
         id="glyph8"
         d="M100 0h600v1000h-600zM500 200h-200v600h200v-600z"
         unicode="0"
         glyph-name="0" />
      <glyph
         id="glyph10"
         d="M100 0h600v200h-600v-200zM300 400h200v600h-200v-600z"
         unicode="1"
         glyph-name="1" />
      <glyph
         id="glyph12"
         d="M100 0h600v200h-400v200h400v200h-600v-600zM100 800h600v200h-600v-200z"
         unicode="2"
         glyph-name="2" />
      <glyph
         id="glyph14"
         d="M100 0h600v1000h-600v-200h400v-600h-400v-200zM100 400h200v200h-200v-200z"
         unicode="3"
         glyph-name="3" />
      <glyph
         id="glyph16"
         d="M500 0h200v200h-200v-200zM100 400h600v600h-200v-400h-200v400h-200v-600z"
         unicode="4"
         glyph-name="4" />
      <glyph
         id="glyph18"
         d="M100 0h600v200h-600v-200zM100 400h600v200h-400v200h400v200h-600v-600z"
         unicode="5"
         glyph-name="5" />
      <glyph
         id="glyph20"
         d="M100 0h600v600h-600v-600zM500 200h-200v200h200v-200zM100 800h600v200h-600v-200z"
         unicode="6"
         glyph-name="6" />
      <glyph
         id="glyph22"
         d="M500 0h200v600h-200v-600zM100 800h600v200h-600v-200z"
         unicode="7"
         glyph-name="7" />
      <glyph
         id="glyph24"
         d="M100 0h600v1000h-600v-1000zM500 200h-200v200h200v-200zM500 600h-200v200h200v-200z"
         unicode="8"
         glyph-name="8" />
      <glyph
         id="glyph26"
         d="M100 400h600v600h-600v-600zM500 600h-200v200h200v-200zM100 0h600v200h-600v-200z"
         unicode="9"
         glyph-name="9" />
      <glyph
         id="glyph28"
         d="M100 0h200v400h200v-400h200v600h-600v-600zM100 800h600v200h-600v-200z"
         unicode="A"
         glyph-name="A" />
      <glyph
         id="glyph30"
         d="M100 0h200v400h200v-400h200v600h-600v-600zM100 800h600v200h-600v-200z"
         unicode="a"
         glyph-name="a" />
      <glyph
         id="glyph32"
         d="M100 0h200v1000h-200v-1000zM500 0h200v600h-200v-600z"
         unicode="B"
         glyph-name="B" />
      <glyph
         id="glyph34"
         d="M100 0h200v1000h-200v-1000zM500 0h200v600h-200v-600z"
         unicode="b"
         glyph-name="b" />
      <glyph
         id="glyph36"
         d="M100 0h600v200h-400v400h-200v-600zM100 800h600v200h-600v-200z"
         unicode="C"
         glyph-name="C" />
      <glyph
         id="glyph38"
         d="M100 0h600v200h-400v400h-200v-600zM100 800h600v200h-600v-200z"
         unicode="c"
         glyph-name="c" />
      <glyph
         id="glyph40"
         d="M100 0h200v600h-200v-600zM500 0h200v1000h-200v-1000z"
         unicode="D"
         glyph-name="D" />
      <glyph
         id="glyph42"
         d="M100 0h200v600h-200v-600zM500 0h200v1000h-200v-1000z"
         unicode="d"
         glyph-name="d" />
      <glyph
         id="glyph44"
         d="M100 0h600v200h-600v-200zM100 400h600v200h-600v-200zM100 800h600v200h-600v-200z"
         unicode="E"
         glyph-name="E" />
      <glyph
         id="glyph46"
         d="M100 0h600v200h-600v-200zM100 400h600v200h-600v-200zM100 800h600v200h-600v-200z"
         unicode="e"
         glyph-name="e" />
      <glyph
         id="glyph48"
         d="M100 0h200v400h400v200h-600v-600zM100 800h600v200h-600v-200z"
         unicode="F"
         glyph-name="F" />
      <glyph
         id="glyph50"
         d="M100 0h200v400h400v200h-600v-600zM100 800h600v200h-600v-200z"
         unicode="f"
         glyph-name="f" />
      <glyph
         id="glyph52"
         d="M100 0h200v800h400v200h-600v-1000zM500 0h200v600h-200v-600z"
         unicode="G"
         glyph-name="G" />
      <glyph
         id="glyph54"
         d="M100 0h200v800h400v200h-600v-1000zM500 0h200v600h-200v-600z"
         unicode="g"
         glyph-name="g" />
      <glyph
         id="glyph56"
         d="M100 0h200v400h200v-400h200v600h-600v-600zM100 800h200v200h-200v-200z"
         unicode="H"
         glyph-name="H" />
      <glyph
         id="glyph58"
         d="M100 0h200v400h200v-400h200v600h-600v-600zM100 800h200v200h-200v-200z"
         unicode="h"
         glyph-name="h" />
      <glyph
         id="glyph60"
         d="M100 0h600v200h-600v-200zM300 400h200v200h-200v-200zM100 800h600v200h-600v-200z"
         unicode="I"
         glyph-name="I" />
      <glyph
         id="glyph62"
         d="M100 0h600v200h-600v-200zM300 400h200v200h-200v-200zM100 800h600v200h-600v-200z"
         unicode="i"
         glyph-name="i" />
      <glyph
         id="glyph64"
         d="M100 0h600v1000h-200v-800h-400v-200zM100 400h200v200h-200v-200z"
         unicode="J"
         glyph-name="J" />
      <glyph
         id="glyph66"
         d="M100 0h600v1000h-200v-800h-400v-200zM100 400h200v200h-200v-200z"
         unicode="j"
         glyph-name="j" />
      <glyph
         id="glyph68"
         d="M100 0h200v1000h-200v-1000zM500 0h200v600h-200v-600zM500 800h200v200h-200v-200z"
         unicode="K"
         glyph-name="K" />
      <glyph
         id="glyph70"
         d="M100 0h200v1000h-200v-1000zM500 0h200v600h-200v-600zM500 800h200v200h-200v-200z"
         unicode="k"
         glyph-name="k" />
      <glyph
         id="glyph72"
         d="M100 0h600v200h-600v-200zM100 400h200v600h-200v-600z"
         unicode="L"
         glyph-name="L" />
      <glyph
         id="glyph74"
         d="M100 0h600v200h-600v-200zM100 400h200v600h-200v-600z"
         unicode="l"
         glyph-name="l" />
      <glyph
         id="glyph76"
         d="M100 0h200v400h200v-400h200v600h-600v-600zM100 800h200v200h-200v-200zM500 800h200v200h-200v-200z"
         unicode="M"
         glyph-name="M" />
      <glyph
         id="glyph78"
         d="M100 0h200v400h200v-400h200v600h-600v-600zM100 800h200v200h-200v-200zM500 800h200v200h-200v-200z"
         unicode="m"
         glyph-name="m" />
      <glyph
         id="glyph80"
         d="M100 0h200v600h-200v-600zM500 0h200v600h-200v-600zM100 800h600v200h-600v-200z"
         unicode="N"
         glyph-name="N" />
      <glyph
         id="glyph82"
         d="M100 0h200v600h-200v-600zM500 0h200v600h-200v-600zM100 800h600v200h-600v-200z"
         unicode="n"
         glyph-name="n" />
      <glyph
         id="glyph84"
         d="M100 0h600v600h-200v-400h-200v400h-200v-600zM100 800h600v200h-600v-200z"
         unicode="O"
         glyph-name="O" />
      <glyph
         id="glyph86"
         d="M100 0h600v600h-200v-400h-200v400h-200v-600zM100 800h600v200h-600v-200z"
         unicode="o"
         glyph-name="o" />
      <glyph
         id="glyph88"
         d="M100 0h200v1000h-200v-1000zM500 400h200v600h-200v-600z"
         unicode="P"
         glyph-name="P" />
      <glyph
         id="glyph90"
         d="M100 0h200v1000h-200v-1000zM500 400h200v600h-200v-600z"
         unicode="p"
         glyph-name="p" />
      <glyph
         id="glyph92"
         d="M100 400h200v600h-200v-600zM500 0h200v1000h-200v-1000z"
         unicode="Q"
         glyph-name="Q" />
      <glyph
         id="glyph94"
         d="M100 400h200v600h-200v-600z M500 0h200v1000h-200v-1000z"
         unicode="q"
         glyph-name="q" />
      <glyph
         id="glyph96"
         d="M100 0h200v600h-200v-600zM100 800h600v200h-600v-200z"
         unicode="R"
         glyph-name="R" />
      <glyph
         id="glyph98"
         d="M100 0h200v600h-200v-600zM100 800h600v200h-600v-200z"
         unicode="r"
         glyph-name="r" />
      <glyph
         id="glyph100"
         d="M100 0h600v600h-200v-400h-400v-400zM100 400h200v400h400v200h-600v-600z"
         unicode="S"
         glyph-name="S" />
      <glyph
         id="glyph102"
         d="M100 0h600v600h-200v-400h-400v-400zM100 400h200v400h400v200h-600v-600z"
         unicode="s"
         glyph-name="s" />
      <glyph
         id="glyph104"
         d="M300 0h200v600h-200v-600zM100 800h600v200h-600v-200z"
         unicode="T"
         glyph-name="T" />
      <glyph
         id="glyph106"
         d="M300 0h200v600h-200v-600zM100 800h600v200h-600v-200z"
         unicode="t"
         glyph-name="t" />
      <glyph
         id="glyph108"
         d="M100 0h600v200h-600v-200zM100 400h200v600h-200v-600zM500 400h200v600h-200v-600z"
         unicode="U"
         glyph-name="U" />
      <glyph
         id="glyph110"
         d="M100 0h600v200h-600v-200zM100 400h200v600h-200v-600zM500 400h200v600h-200v-600z"
         unicode="u"
         glyph-name="u" />
      <glyph
         id="glyph112"
         d="M300 0h200v200h-200v-200zM100 400h200v600h-200v-600zM500 400h200v600h-200v-600z"
         unicode="V"
         glyph-name="V" />
      <glyph
         id="glyph114"
         d="M300 0h200v200h-200v-200zM100 400h200v600h-200v-600zM500 400h200v600h-200v-600z"
         unicode="v"
         glyph-name="v" />
      <glyph
         id="glyph116"
         d="M100 0h200v200h-200v-200zM500 0h200v200h-200v-200zM100 400h600v600h-200v-400h-200v400h-200v-600z"
         unicode="W"
         glyph-name="W" />
      <glyph
         id="glyph118"
         d="M100 0h200v200h-200v-200zM500 0h200v200h-200v-200zM100 400h600v600h-200v-400h-200v400h-200v-600z"
         unicode="w"
         glyph-name="w" />
      <glyph
         id="glyph120"
         d="M100 0h200v200h-200v-200zM500 0h200v200h-200v-200zM100 400 h600 v200 h-600 v-200zM100 800h200v200h-200v-200zM500 800h200v200h-200v-200z"
         unicode="X"
         glyph-name="X" />
      <glyph
         id="glyph122"
         d="M100 0h200v200h-200v-200zM500 0h200v200h-200v-200zM100 400 h600 v200 h-600 v-200zM100 800h200v200h-200v-200zM500 800h200v200h-200v-200z"
         unicode="x"
         glyph-name="x" />
      <glyph
         id="glyph124"
         d="M300 0h200v200h-200v-200zM100 400 h600 v200 h-600 v-200zM100 800h200v200h-200v-200zM500 800h200v200h-200v-200z"
         unicode="Y"
         glyph-name="Y" />
      <glyph
         id="glyph126"
         d="M300 0h200v200h-200v-200zM100 400 h600 v200 h-600 v-200zM100 800h200v200h-200v-200zM500 800h200v200h-200v-200z"
         unicode="y"
         glyph-name="y" />
      <glyph
         id="glyph128"
         d="M100 0h600v200h-400v400h-200v-600zM100 800h400v-400h200v600h-600v-200z"
         unicode="Z"
         glyph-name="Z" />
      <glyph
         id="glyph130"
         d="M100 0h600v200h-400v400h-200v-600zM100 800h400v-400h200v600h-600v-200z"
         unicode="z"
         glyph-name="z" />
      <glyph
         id="glyph132"
         d="M100 0h600v400h-200v-200h-200v200h200v200h-200v200h200v-200h200v400h-600v-1000z"
         unicode="&amp;"
         glyph-name="ampersand" />
      <glyph
         id="glyph134"
         d="M100 400h600v200h-200v200h200v200h-600v-200h200v-200h-200v-200z"
         unicode="*"
         glyph-name="asterisk" />
      <glyph
         id="glyph136"
         d="M100 0h600v200h-400v600h200v-400h200v600h-600v-1000z"
         unicode="@"
         glyph-name="at-mark" />
      <glyph
         id="glyph138"
         d="M100 0h200v600h-200v-600zM500 400h200v600h-200v-600z"
         unicode="/"
         glyph-name="slash" />
      <glyph
         id="glyph140"
         d="M500 0h200v600h-200v-600zM100 400h200v600h-200v-600z"
         unicode="\"
         glyph-name="back-slash" />
      <glyph
         id="glyph142"
         d="M100 600h200v200h200v-200h200v400h-600v-400z"
         unicode="^"
         glyph-name="caret" />
      <glyph
         id="glyph144"
         d="M300 200h200v200h-200v-200zM300 600h200v200h-200v-200z"
         unicode=":"
         glyph-name="colon" />
      <glyph
         id="glyph146"
         d="M100 200h200v-200h200v600h200v200h-200v200h-200v-600h-200v-200z"
         unicode="$"
         glyph-name="doller-mark" />
      <glyph
         id="glyph148"
         d="M300 600h200v400h-200v-400zM300"
         unicode="'"
         glyph-name="single-quotation-mark" />
      <glyph
         id="glyph150"
         d="M100 600h200v400h-200v-400zM500 600h200v400h-200v-400z"
         unicode="&quot;"
         glyph-name="double-quotation-mark" />
      <glyph
         id="glyph152"
         d="M100 200h600v200h-600v-200zM100 600h600v200h-600v-200z"
         unicode="="
         glyph-name="equal-mark" />
      <glyph
         id="glyph154"
         d="M300 0h200v200h-200v-200zM300 400h200v600h-200v-600z"
         unicode="!"
         glyph-name="exclamation-mark" />
      <glyph
         id="glyph156"
         d="M100 400h600v200h-600v-200z"
         unicode="-"
         glyph-name="hyphen" />
      <glyph
         id="glyph158"
         d="M300 0h400v200h-200v600h200v200h-400v-1000z"
         unicode="("
         glyph-name="left-parenthesis" />
      <glyph
         id="glyph160"
         d="M100 0h400v1000h-400v-200h200v-600h-200v-200z"
         unicode=")"
         glyph-name="right-parenthesis" />
      <glyph
         id="glyph162"
         d="M300 0h400v200h-400v-200zM300 400h200v200h-200v-200zM300 800h400v200h-400v-200z"
         unicode="["
         glyph-name="left-square-bracket" />
      <glyph
         id="glyph164"
         d="M100 0h400v200h-400v-200zM300 400h200v200h-200v-200zM100 800h400v200h-400v-200z"
         unicode="]"
         glyph-name="right-square-bracket" />
      <glyph
         id="glyph166"
         d="M100 200h200v600h-200v-600zM500 0h200v400h-200v-400zM500 600h200v400h-200v-400z"
         unicode="&lt;"
         glyph-name="left-angle-parenthesis" />
      <glyph
         id="glyph168"
         d="M100 0h200v400h-200v-400zM100 600h200v400h-200v-400zM500 200h200v600h-200v-600z"
         unicode="&gt;"
         glyph-name="right-angle-parenthesis" />
      <glyph
         id="glyph170"
         d="M300 0h400v200h-400v-200zM100 400h400v200h-400v-200zM300 800h400v200h-400v-200z"
         unicode="{"
         glyph-name="left-curly-parenthesis" />
      <glyph
         id="glyph172"
         d="M100 0h400v200h-400v-200zM300 400h400v200h-400v-200zM100 800h400v200h-400v-200z"
         unicode="}"
         glyph-name="right-curly-parenthesis" />
      <glyph
         id="glyph174"
         d="M100 0h200v400h400v600h-200v-400h-400v-600zM500 0h200v200h-200v-200zM100 800h200v200h-200v-200z"
         unicode="%"
         glyph-name="persent-mark" />
      <glyph
         id="glyph176"
         d="M100 0h200v200h-200v-200z"
         unicode="."
         glyph-name="period" />
      <glyph
         id="glyph178"
         d="M100 400h200v-200h200v200h200v200h-200v200h-200v-200h-200v-200z"
         unicode="+"
         glyph-name="plus" />
      <glyph
         id="glyph180"
         d="M100 0h200v200h-200v-200zM100 400h600v600h-600v-200h400v-200h-400v-200z"
         unicode="?"
         glyph-name="question-mark" />
      <glyph
         id="glyph182"
         d="M300 0h200v400h-200v-400zM300 600h200v200h-200v-200z"
         unicode=";"
         glyph-name="semicolon" />
      <glyph
         id="glyph184"
         d="M100 0h600v200h-600v-200z"
         unicode="_"
         glyph-name="under-bar" />
      <glyph
         id="glyph186"
         d="M300 0h200v400h-200v-400zM300 600h200v400h-200v-400z"
         unicode="|"
         glyph-name="vertical-bar" />
      <glyph
         id="glyph188"
         d="M100 600h600v400h-200v-200h-200v200h-200v-400z"
         unicode="~"
         glyph-name="wave-dash" />
      <glyph
         id="glyph190"
         d="M100 0h200v200h200v-200h200v1000h-200v-200h-200v200h-200v-1000zM500 400h-200v200h200v-200z"
         unicode="#"
         glyph-name="number-sign" />
      <glyph
         id="glyph192"
         d="M300 0h200v400h-200v-400z"
         unicode=","
         glyph-name="comma" />
      <glyph
         id="glyph194"
         d="M300 600h200v400h-200v-400zM300"
         unicode="`"
         glyph-name="grave-accent" />
      <glyph
         id="glyph196"
         horiz-adv-x="800"
         unicode=" "
         glyph-name="space" />
      <glyph
         id="glyph198"
         horiz-adv-x="1000"
         d="M250 50h150v150h300v-150h150v450h-150v150h300v300h-300v-300h-300v300h-300v-300h300v-150h-150v-450z"
         unicode="icocreeper"
         glyph-name="Creeper" />
      <glyph
         id="glyph200"
         horiz-adv-x="1950"
         d="M170 70h210v350h-70v-280h-70v280h-70z                     M450 70h210v70h-210z                     M730 70h70v210h-70z                     M1010 70h210v70h-210z                     M1290 70h70v70h-70z                     M1570 70h210v350h-210z                     M1710 140h-70v210h70z                     M450 210h210v70h-210z                     M1080 210h70v210h-70z                     M450 350h210v70h-210z                     M730 350h210v70h-210z                     M100 490h1750v490h-1750z                     M240 560h-70v70h140v210h-140v70h210v-350z                     M590 560h-70v210h70z                     M800 560h-70v70h140v210h-140v70h210v-350z                     M1080 560h-70v70h210v-70z                     M1360 560h-70v70h70z                     M1500 560h-70v70h70z                     M1780 560h-70v70h70z                     M240 700h-70v70h70z                     M800 700h-70v70h70z                     M1080 700h-70v210h210v-70h-140v-70h140v-70z                     M1360 700h-70v70h210v-70z                     M1640 700h-70v210h70v-140h70v140h70v-210z                     M520 840h-70v70h210v-70z                     M1360 840h-70v70h70z                     M1500 840h-70v70h70v-70z"
         unicode="icover"
         glyph-name="Version" />
      <glyph
         id="glyph202"
         horiz-adv-x="1000"
         d="M100 100h800v800h-800v-800z                     M250 200v100h-50v100h50v50h50v-50h50v50h50v-50h100v50h50v-50h100v50h50v-50h50v50h50v-100h50v-100h-100v50h-50v-100h-50v50h-100v50h-50v-50h-50v-50h-50v100h-50v-50h-50v-50h-50z                     M250 550v150h50v100h100v-50h50v-200h-50v-50h-100v50h-50z                     M550 550v200h50v50h50v-50h50v-50h50v-100h50v-100h-200v50h-50z"
         unicode="icopumpkin"
         glyph-name="Kabocha" />
      <!--Template
                <glyph
                 glyph-name=""
                 unicode=""
                 d=""
                 horiz-adv-x="1000" />
            -->
    </font>
</defs>
</svg>
