<?xml version="1.0" standalone="no"?>
<!DOCTYPE svg PUBLIC "-//W3C//DTD SVG 1.1//EN" "http://www.w3.org/Graphics/SVG/1.1/DTD/svg11.dtd" >
<svg>
<metadata>
Created by FontForge 20090914 at Sat Aug  3 09:40:13 2019
 By www-data
Copyright (c) 2019 by Creative LAB. All rights reserved.
</metadata>
<defs>
<font id="CallisaScript" horiz-adv-x="442" >
  <font-face 
    font-family="Callisa Script"
    font-weight="400"
    font-stretch="normal"
    units-per-em="1000"
    panose-1="2 0 5 7 0 0 0 2 0 4"
    ascent="750"
    descent="-250"
    x-height="445.995"
    cap-height="918.999"
    bbox="-616.289 -609.534 1624.28 1195.13"
    underline-thickness="50"
    underline-position="-50"
    unicode-range="U+000D-U+007E"
  />
<missing-glyph horiz-adv-x="219" 
 />
    <glyph glyph-name="l_l" unicode="ll" horiz-adv-x="494" 
d="M447 884c-2 -27.333 -1 -48.3291 3 -62.9961s8.83301 -26 14.5 -34s11.167 -14.333 16.5 -19s8 -11 8 -19c-2.66699 -9.33301 -8.83398 -28.5 -18.501 -57.5l-34.5 -104.5l-44 -134.5l-47.5 -147.5l-44.5 -143.5c-14 -46.333 -25.667 -87.333 -35 -123
s-15.666 -64.334 -18.999 -86.001s-2.33301 -32.5 3 -32.5c12 0 25.333 7.16699 40 21.5s29.667 32.666 45 54.999s30.833 47.166 46.5 74.499s30.5 54.5 44.5 81.5l39 75.5l30 57c4.66699 5.33301 9.83398 7.16602 15.501 5.49902s7.16699 -7.16699 4.5 -16.5
c-8 -14.667 -18 -34.167 -30 -58.5l-40 -79c-14.667 -28.333 -30.334 -56.833 -47.001 -85.5s-33.5 -54.667 -50.5 -78s-34.167 -42.333 -51.5 -57s-34 -22 -50 -22c-11.333 0 -20.833 2.5 -28.5 7.5s-14 11.667 -19 20s-8.66699 17.833 -11 28.5s-3.5 22 -3.5 34
c0 12.667 2 30.667 6 54s9 49 15 77s12.833 57 20.5 87s15.167 57.667 22.5 83c8.66699 29.333 19.167 62.833 31.5 100.5l38.5 116.5l40.5 119.5l38.5 111l31.5 91.5c9 26.667 15.5 46.667 19.5 60zM184 831.004c-2 -27.333 -1 -48.3311 3 -62.998s8.83301 -26 14.5 -34
s11.167 -14.333 16.5 -19s8 -11 8 -19c-2.66699 -9.33301 -8.5 -27 -17.5 -53l-31.5 -92.5l-39.5 -117.5l-42 -128.5l-38.5 -124.5c-12 -40 -22 -75.333 -30 -106s-13.333 -55.334 -16 -74.001s-1.33398 -28 3.99902 -28c12 0 25 5.83301 39 17.5s28.167 26.834 42.5 45.501
s28.833 39.334 43.5 62.001s28.5 45.667 41.5 69l36.5 66l29 53c4.66699 5.33301 9.83398 7.16602 15.501 5.49902s7.16699 -7.16699 4.5 -16.5l-29 -54.5l-37.5 -68.5c-13.667 -24 -28.167 -48 -43.5 -72s-31.166 -45.5 -47.499 -64.5s-32.833 -34.5 -49.5 -46.5
s-33 -18 -49 -18c-11.333 0 -20.833 2.5 -28.5 7.5s-14 11.667 -19 20s-8.66699 17.833 -11 28.5s-3.5 22 -3.5 34c0 25.333 4.66699 59.666 14 102.999s21.666 90.666 36.999 141.999c8.66699 29.333 18.667 61.5 30 96.5l35.5 106.5l37 107l34.5 98.5l28.5 81.5
c8.33301 24 14.5 42.667 18.5 56z" />
    <glyph glyph-name="t_t" unicode="tt" horiz-adv-x="494" 
d="M-243 533c-6.66699 -4.66699 -12.6611 -5.16309 -17.9941 -1.49609s-5.33301 9.5 0 17.5c17.333 20.667 37.5 37.834 60.5 51.501s47.833 24.667 74.5 33s55.167 14.333 85.5 18s61.5 5.5 93.5 5.5c22.667 0 46 -1 70 -3l36.5 106.5l24.5 70.5
c-2 -27.333 -1 -48.333 3 -63s8.83301 -26 14.5 -34s11.167 -14.333 16.5 -19s8 -11 8 -19l-16 -49l70 -8c23.333 -2.66699 46.666 -5.66699 69.999 -9l10 -2l28.5 83l25 73.5l20 59l13.5 40.5c-2 -27.333 -1 -48.333 3 -63s8.83301 -26 14.5 -34s11.167 -14.333 16.5 -19
s8 -11 8 -19c-2.66699 -8.66699 -7.83398 -24.334 -15.501 -47.001l-27.5 -82c34.667 -2.66699 70.167 -4 106.5 -4s70.5 3.33301 102.5 10s60.167 17.167 84.5 31.5s41.5 34.5 51.5 60.5c0 4 1.33301 7 4 9s5.5 3 8.5 3s5.66699 -1.16699 8 -3.5s3.5 -5.83301 3.5 -10.5
c-7.33301 -39.333 -23.833 -68.833 -49.5 -88.5s-56.334 -33 -92.001 -40s-74.167 -9.16699 -115.5 -6.5s-81.333 6.66699 -120 12l-44.5 -134.5l-48 -148.5l-44.5 -145c-14 -46.667 -25.833 -88.167 -35.5 -124.5s-16.167 -65.5 -19.5 -87.5s-2.33301 -33 3 -33
c12 0 25.333 7.16699 40 21.5s29.667 32.666 45 54.999s30.833 47.166 46.5 74.499s30.5 54.5 44.5 81.5l39 75.5l30 57c4.66699 5.33301 9.83398 7.16602 15.501 5.49902s7.16699 -7.16699 4.5 -16.5c-8 -14.667 -18 -34.167 -30 -58.5l-40 -79
c-14.667 -28.333 -30.334 -56.833 -47.001 -85.5s-33.5 -54.667 -50.5 -78s-34.167 -42.333 -51.5 -57s-34 -22 -50 -22c-11.333 0 -20.833 2.5 -28.5 7.5s-14 11.667 -19 20s-8.66699 17.833 -11 28.5s-3.5 22 -3.5 34c0 8.66699 1 20.334 3 35.001s4.66699 31 8 49
s7.16602 37.167 11.499 57.5s9.16602 40.833 14.499 61.5c-14 -26 -29.333 -52.833 -46 -80.5s-34.167 -53.167 -52.5 -76.5s-36.833 -42.5 -55.5 -57.5s-37 -22.5 -55 -22.5c-11.333 0 -20.833 2.5 -28.5 7.5s-14 11.667 -19 20s-8.66699 17.833 -11 28.5s-3.5 22 -3.5 34
c0 25.333 4.66699 59.666 14 102.999s21.666 90.666 36.999 141.999l24.5 80l28.5 88l31 90l31 87c-10.667 0.666992 -21.167 1.16699 -31.5 1.5s-20.5 0.5 -30.5 0.5c-62 0 -118.667 -7 -170 -21s-93.333 -40 -126 -78zM352.006 605.004c-1.33301 0.666992 -3.33301 1 -6 1
c-24 3.33301 -48 6.33301 -72 9l-72 8l-38.5 -114l-46.5 -139l-46 -143.5c-14.667 -47.667 -27.167 -90.334 -37.5 -128.001s-17.5 -68.167 -21.5 -91.5s-3 -35 3 -35c12 0 25 5.83301 39 17.5s28.167 26.834 42.5 45.501s28.833 39.334 43.5 62.001s28.5 45.667 41.5 69
l36.5 66l29 53c6 21.333 13.167 44.666 21.5 69.999l26 79.5l28 85z" />
    <glyph glyph-name="s_s" unicode="ss" horiz-adv-x="506" 
d="M506 285c2 2.66699 4.48633 4.33203 7.48633 4.99902s5.83301 0.166992 8.5 -1.5s4.5 -4.16699 5.5 -7.5s0.166992 -7.33301 -2.5 -12c-21.333 -38.667 -46.5 -68.667 -75.5 -90s-59.167 -39.333 -90.5 -54c2.66699 -28 0.333984 -56 -6.99902 -84
s-23.666 -55 -48.999 -81c-20.667 -21.333 -41.167 -35.833 -61.5 -43.5s-38.666 -10 -54.999 -7s-29.833 10 -40.5 21s-16.5 24.5 -17.5 40.5s3.33301 33.167 13 51.5s26.834 36.166 51.501 53.499c13.333 9.33301 27 17.666 41 24.999s28.333 14 43 20
c-6 21.333 -13.5 42.833 -22.5 64.5s-17.167 43.834 -24.5 66.501c-9.33301 -16 -17.666 -29.5 -24.999 -40.5s-15 -20.667 -23 -29s-16.667 -15.5 -26 -21.5s-20.333 -12 -33 -18c2.66699 -25.333 0.666992 -50.166 -6 -74.499s-21 -48.166 -43 -71.499
c-18.667 -19.333 -37 -32.333 -55 -39s-34.167 -8.66699 -48.5 -6s-26.166 8.83398 -35.499 18.501s-14.666 21.5 -15.999 35.5s2.5 29.333 11.5 46s24.167 32.667 45.5 48c11.333 8 23.333 15.333 36 22s25.667 12.667 39 18c-7.33301 23.333 -15.833 47 -25.5 71
s-18.167 48.667 -25.5 74c-6 20.667 -9.83301 41.167 -11.5 61.5s0.833008 40.166 7.5 59.499c4 12 9.5 23.667 16.5 35s15.833 21.5 26.5 30.5s23 16 37 21s29.667 6.83301 47 5.5c22 -2 38.167 -10.167 48.5 -24.5s16 -31.166 17 -50.499s-2.16699 -39.333 -9.5 -60
s-17.666 -38 -30.999 -52c-12.667 -7.33301 -22.5 -8.33301 -29.5 -3s-12.833 12.333 -17.5 21c9.33301 4 17.833 13.167 25.5 27.5s13 29.5 16 45.5s3.16699 30.667 0.5 44s-9.66699 20.666 -21 21.999c-13.333 1.33301 -25.166 -4.16699 -35.499 -16.5
s-17.5 -28.166 -21.5 -47.499c-3.33301 -16 -3.16602 -33.333 0.500977 -52s8.66699 -37.834 15 -57.501s13.333 -40 21 -61s13.5 -42.167 17.5 -63.5c12.667 6 23.167 12 31.5 18s16 13.333 23 22s14 19 21 31l25.5 44c-7.33301 23.333 -11.833 46.333 -13.5 69
s1.16602 45 8.49902 67c4 13.333 10.167 26.5 18.5 39.5s18.5 24.5 30.5 34.5s26 17.667 42 23s33.667 7.33301 53 6c24.667 -2 42.834 -11 54.501 -27s18 -35 19 -57s-2.66699 -44.5 -11 -67.5s-19.833 -42.5 -34.5 -58.5c-14 -8.66699 -25 -9.83398 -33 -3.50098
s-14.667 14.166 -20 23.499c10.667 4 20.334 14.167 29.001 30.5s14.667 33.5 18 51.5s3.5 34.5 0.5 49.5s-10.833 23.5 -23.5 25.5c-15.333 1.33301 -28.666 -5 -39.999 -19s-19.666 -31.667 -24.999 -53c-6 -21.333 -7.16699 -43.166 -3.5 -65.499
s9.33398 -44.666 17.001 -66.999s16 -44.666 25 -66.999s16.5 -43.833 22.5 -64.5c28.667 13.333 56.167 29.666 82.5 48.999s49.5 46.333 69.5 81zM202.986 45.998c-23.333 -18 -36.834 -35.498 -40.501 -52.498s-1.16699 -30.333 7.5 -40s21.834 -13.834 39.501 -12.501
s36.167 12 55.5 32c15.333 15.333 24 33.166 26 53.499s0 42.166 -6 65.499c-15.333 -6.66699 -29.833 -13.667 -43.5 -21s-26.5 -15.666 -38.5 -24.999zM-15.0146 73c-20.667 -16 -32.5 -31.667 -35.5 -47s-0.666992 -27.166 7 -35.499s19.167 -11.833 34.5 -10.5
s31.666 10.666 48.999 27.999c13.333 14 21 30 23 48s0.333008 37.333 -5 58c-13.333 -6 -26.166 -12.333 -38.499 -19s-23.833 -14 -34.5 -22z" />
    <glyph glyph-name="t_h" unicode="th" horiz-adv-x="665" 
d="M-373 458c-2.66699 -8.66699 -7.50488 -12.333 -14.5049 -11s-9.5 7 -7.5 17c21.333 48.667 49.833 87.667 85.5 117s76.5 51.5 122.5 66.5s95.833 24.5 149.5 28.5s109.167 4.66699 166.5 2l43.5 125c13 36.667 22.167 63.667 27.5 81
c-2 -27.333 -1.16699 -48.333 2.5 -63s8.16699 -26 13.5 -34s10.333 -14.333 15 -19s7 -11 7 -19l-25 -77c24 -1.33301 48 -3.16602 72 -5.49902s48 -4.83301 72 -7.5l14.5 46.5l15.5 48.5c9.33301 29.333 17 55.166 23 77.499s11 39.5 15 51.5
c-2 -27.333 -0.833008 -48.333 3.5 -63s9.5 -26 15.5 -34s11.833 -14.167 17.5 -18.5s8.5 -10.5 8.5 -18.5l-15.5 -49.5l-15.5 -48.5c50 -4.66699 97.667 -8 143 -10s87 -1 125 3c34 4 65.833 9.83301 95.5 17.5s56.334 17.667 80.001 30s44 27.333 61 45
s29.5 38.834 37.5 63.501c1.33301 2.66699 3.5 4.66699 6.5 6s5.83301 1.83301 8.5 1.5s5 -1.66602 7 -3.99902s2.66699 -5.83301 2 -10.5c-9.33301 -27.333 -23.166 -50.833 -41.499 -70.5s-40.166 -36.334 -65.499 -50.001s-53.833 -24.667 -85.5 -33
s-65.5 -14.5 -101.5 -18.5c-40 -5.33301 -83.833 -7.16602 -131.5 -5.49902s-97.5 4.16699 -149.5 7.5l-59 -184.5l-59 -183.5l43 73c14 22.667 27.833 42.5 41.5 59.5s27.667 30.5 42 40.5s29.166 15 44.499 15c17.333 0 28.666 -8.33301 33.999 -25
s6.66602 -38 3.99902 -64s-8.16699 -55 -16.5 -87s-17.333 -63.333 -27 -94s-19.167 -58.834 -28.5 -84.501s-16 -45.5 -20 -59.5c-3.33301 -10.667 -5.16602 -21.834 -5.49902 -33.501s3.16699 -17.5 10.5 -17.5c12 0 25 5.66699 39 17s28.167 26 42.5 44
s28.666 38.333 42.999 61s28 45.334 41 68.001l36.5 65l29 52c4.66699 5.33301 9.83398 7.16602 15.501 5.49902s7.16699 -7.16699 4.5 -16.5l-29 -54.5l-37.5 -68.5c-13.667 -24 -28.167 -48 -43.5 -72s-31.166 -45.5 -47.499 -64.5s-32.833 -34.5 -49.5 -46.5
s-33 -18 -49 -18c-22 0 -37.667 6.5 -47 19.5s-14.5 30.167 -15.5 51.5s1.33301 45.5 7 72.5s12.834 54.5 21.501 82.5s17.834 55.333 27.501 82l24.5 70c3.33301 11.333 6.16602 21.833 8.49902 31.5s3.5 18.167 3.5 25.5c0 4 -0.5 6.5 -1.5 7.5s-2.16699 1.5 -3.5 1.5
c-7.33301 0 -16.166 -5.5 -26.499 -16.5s-21 -25.167 -32 -42.5s-22.167 -36.666 -33.5 -57.999l-32 -62.5c-10 -20.333 -18.833 -39.166 -26.5 -56.499l-17.5 -40c-19.333 -46.667 -35.666 -91.667 -48.999 -135l-80 -2l25 83l37 126l-43.5 -69.5
c-15.667 -24.333 -32.167 -46.833 -49.5 -67.5s-35 -37.834 -53 -51.501s-36 -20.5 -54 -20.5c-11.333 0 -20.833 2.5 -28.5 7.5s-14 11.667 -19 20s-8.66699 17.833 -11 28.5s-3.5 22 -3.5 34c0 12.667 0.833008 26.167 2.5 40.5s4.16699 30.166 7.5 47.499
s7.83301 36.333 13.5 57l19.5 69c4 14.667 8.83301 31 14.5 49l22 67.5l32.5 98.5l47 141c-52 0.666992 -102.667 -1.33301 -152 -6s-95.333 -13.667 -138 -27s-81 -32 -115 -56s-62 -55.333 -84 -94zM199.995 638.001l-83.002 -254.5
c-24.667 -77.667 -45.167 -144.667 -61.5 -201s-27.666 -100.333 -33.999 -132s-5.83301 -47.5 1.5 -47.5c12 0 24.833 5.16699 38.5 15.5s27.334 23.5 41.001 39.5s27.5 34.167 41.5 54.5s27.167 40.833 39.5 61.5l35 60l28.5 51l43 150.5l57 193.5z" />
    <glyph glyph-name=".notdef" horiz-adv-x="219" 
 />
    <glyph glyph-name="NULL" horiz-adv-x="0" 
 />
    <glyph glyph-name="NULL" horiz-adv-x="0" 
 />
    <glyph glyph-name="nonmarkingreturn" unicode="&#xd;" horiz-adv-x="219" 
 />
    <glyph glyph-name="space" unicode=" " horiz-adv-x="219" 
 />
    <glyph glyph-name="exclam" unicode="!" horiz-adv-x="291" 
d="M69 64c15.333 0 28 -5.5 38 -16.5s15 -23.167 15 -36.5c0 -14 -5.33301 -26.167 -16 -36.5s-23 -15.5 -37 -15.5c-13.333 0 -25.333 4.83301 -36 14.5s-16 22.5 -16 38.5c0 14 5 26.167 15 36.5s22.333 15.5 37 15.5zM58 90l45.998 164.499l41.5 154.5l42 152.5
c14.333 51 30.166 103.5 47.499 157.5c4 8 10.5 15.167 19.5 21.5s18.833 11.5 29.5 15.5s21.334 6.5 32.001 7.5s19.667 0.5 27 -1.5l-60.5 -187l-59 -175l-54 -153l-44.5 -120c-2.66699 -6.66699 -5.66699 -13.167 -9 -19.5s-7.66602 -11.666 -12.999 -15.999
s-11.666 -6.83301 -18.999 -7.5s-16 1.33301 -26 6z" />
    <glyph glyph-name="quotedbl" unicode="&#x22;" horiz-adv-x="457" 
d="M74 408c22.667 6 38.166 16.666 46.499 31.999s13 31.666 14 48.999s0.333008 33.833 -2 49.5s-2.5 27.167 -0.5 34.5c4 16 12.167 26.833 24.5 32.5s24.5 7 36.5 4s21.833 -10.167 29.5 -21.5s9.16699 -25.666 4.5 -42.999c-4 -15.333 -11.5 -32.166 -22.5 -50.499
s-23.667 -35 -38 -50s-29.666 -26.333 -45.999 -34s-31.833 -8.5 -46.5 -2.5zM208.999 407.999c22.667 6 38.166 16.666 46.499 31.999s13 31.666 14 48.999s0.333008 33.833 -2 49.5s-2.5 27.167 -0.5 34.5c4 16 12.167 26.833 24.5 32.5s24.5 7 36.5 4
s21.833 -10.167 29.5 -21.5s9.16699 -25.666 4.5 -42.999c-4 -15.333 -11.5 -32.166 -22.5 -50.499s-23.667 -35 -38 -50s-29.666 -26.333 -45.999 -34s-31.833 -8.5 -46.5 -2.5z" />
    <glyph glyph-name="numbersign" unicode="#" horiz-adv-x="526" 
d="M415 124c6.66699 -0.666992 11.665 -3.1582 14.998 -7.49121s5 -9.5 5 -15.5c0 -6.66699 -2.5 -12 -7.5 -16s-10.5 -6 -16.5 -6c-20.667 1.33301 -40.334 2.66602 -59.001 3.99902s-38.334 3 -59.001 5l-16 -44l-16 -44c-2 -3.33301 -5 -6.5 -9 -9.5
s-8.33301 -4.5 -13 -4.5c-7.33301 0 -12.833 2.16699 -16.5 6.5s-5.5 9.5 -5.5 15.5c0 3.33301 0.333008 6 1 8l-1 -1l29 77c-11.333 1.33301 -21.833 2.33301 -31.5 3s-20.167 1.66699 -31.5 3c-5.33301 -16 -11.166 -32.167 -17.499 -48.5s-12.166 -32.833 -17.499 -49.5
c-2 -3.33301 -5 -6.5 -9 -9.5s-8 -4.5 -12 -4.5c-7.33301 0 -13 2.16699 -17 6.5s-6 9.5 -6 15.5c0 3.33301 0.333008 5.66602 1 6.99902l32 87c-12 0.666992 -23.833 1.5 -35.5 2.5s-23.167 2.16699 -34.5 3.5c-13.333 1.33301 -20 9.33301 -20 24
c0.666992 7.33301 3.33398 12.666 8.00098 15.999s10.334 5 17.001 5l80 -8l18 50l5 11c-18.667 1.33301 -36.667 3.16602 -54 5.49902s-35.333 4.16602 -54 5.49902c-6.66699 0.666992 -11.667 3.16699 -15 7.5s-5 9.5 -5 15.5c1.33301 14.667 9.33301 22 24 22l119 -11
l6 17c2.66699 9.33301 5.83398 19.166 9.50098 29.499s7.33398 19.666 11.001 27.999s7.66699 15.333 12 21s9.16602 8.5 14.499 8.5c7.33301 0 12.833 -2.16699 16.5 -6.5s5.5 -9.5 5.5 -15.5c0 -3.33301 -0.333008 -6 -1 -8h1c-4.66699 -14 -9.16699 -26.833 -13.5 -38.5
l-14.5 -39.5l28 -3c6.66699 -0.666992 12.667 -1 18 -1s11 -0.333008 17 -1c4.66699 12 9 24 13 36l12 36l10 26c2 10 8.66699 15 20 15c7.33301 0 13 -2.16699 17 -6.5s6 -9.5 6 -15.5c0 -3.33301 -0.666992 -6 -2 -8h1l-30 -87h12c8.66699 0 17.5 -0.333008 26.5 -1
s17.167 -2 24.5 -4s13.333 -4.83301 18 -8.5s7 -8.83398 7 -15.501s-2.33301 -11.834 -7 -15.501s-10 -5.5 -16 -5.5c-14.667 1.33301 -28.334 2.33301 -41.001 3s-26 1.66699 -40 3l-12 -34v1c-2 -6 -3.83301 -10.833 -5.5 -14.5s-3.5 -8.5 -5.5 -14.5h2l52 -4l52 -4h1z
M222.998 207.009c-1.33301 -1.33301 -1.99805 -2.66699 -1.99805 -4c-0.666992 0 -1.33398 0.166992 -2.00098 0.5s-1.33398 0.5 -2.00098 0.5zM284 198.008l-31.5 1.99902c-10.333 0.666992 -20.833 1.66699 -31.5 3l-9.5 -31c-3 -9.33301 -6.83301 -19.666 -11.5 -30.999
l27 -2c6.66699 -0.666992 12.5 -1 17.5 -1s10.5 -0.333008 16.5 -1l12 31z" />
    <glyph glyph-name="dollar" unicode="$" horiz-adv-x="610" 
d="M418 476c15.333 20.667 29.3379 43.5088 42.0049 68.5088s21.5 49 26.5 72s5 43.333 0 61s-17.167 29.167 -36.5 34.5l-55.5 -181.5l-58.5 -197.5l26 -68c8.66699 -22.667 16.667 -45.334 24 -68.001l6 -21c9.33301 -33.333 14.666 -66.333 15.999 -99
s-4.66699 -65 -18 -97c-10.667 -26.667 -23.5 -48.834 -38.5 -66.501s-31 -31.334 -48 -41.001s-34.833 -15.667 -53.5 -18s-37 -1.5 -55 2.5l-3 -9c-2 -6.66699 -4.66699 -13.334 -8 -20.001s-7.83301 -12 -13.5 -16s-12.167 -6.33301 -19.5 -7s-16 1.33301 -26 6l19 66
c-20.667 12 -39.167 28.167 -55.5 48.5s-28.5 43.666 -36.5 69.999s-11 55.166 -9 86.499s11 64.333 27 99c6 5.33301 12 8.83301 18 10.5s11.5 2.33398 16.5 2.00098s9.33301 -1.5 13 -3.5s6.16699 -4.33301 7.5 -7c-12.667 -28.667 -20.5 -56 -23.5 -82
s-2.5 -50.167 1.5 -72.5s10.833 -42.333 20.5 -60s21.167 -32.5 34.5 -44.5l105 356l-31 82.5c-10 27.667 -17.833 55.167 -23.5 82.5s-8.33398 54.166 -8.00098 80.499s5.16602 52.166 14.499 77.499c10 25.333 22 47.166 36 65.499s29.333 33.5 46 45.5s34.167 21 52.5 27
s36.5 9.33301 54.5 10l16 49c7.33301 16 16.833 26.5 28.5 31.5s24.5 5.16699 38.5 0.5l-13 -42l-14 -45c28 -8 48.5 -22.333 61.5 -43s20.5 -44.334 22.5 -71.001s-0.833008 -54.667 -8.5 -84s-17.834 -56.333 -30.501 -81c-22 -8 -39.833 -10.667 -53.5 -8
s-24.834 8.66699 -33.501 18zM207.005 -101.991c18.667 -4.66699 36.999 -2.16797 54.999 7.49902s33 27.834 45 54.501c13.333 30 19.333 60.833 18 92.5s-6.66602 64.5 -15.999 98.5l-6 19l-8 25zM392.004 710.008c-21.333 -7.33301 -41.332 -21.167 -59.999 -41.5
s-32.334 -47.833 -41.001 -82.5c-6 -27.333 -7.33301 -54.5 -4 -81.5s9 -54.5 17 -82.5z" />
    <glyph glyph-name="percent" unicode="%" horiz-adv-x="530" 
d="M107 -99l47.501 165.502l51.5 182.5l52.5 185l51.5 173c-6 -1.33301 -11.5 -1.5 -16.5 -0.5s-9.83301 0.5 -14.5 -1.5s-9.83398 -6.33301 -15.501 -13s-11.834 -18 -18.501 -34c0.666992 -20 -2.16602 -42.167 -8.49902 -66.5s-15.166 -47.166 -26.499 -68.499
s-24.5 -39.5 -39.5 -54.5s-30.5 -23.167 -46.5 -24.5c-20 -2 -35.333 3.5 -46 16.5s-17.5 29.5 -20.5 49.5s-2.33301 42.167 2 66.5s12 47.166 23 68.499s25 39.5 42 54.5s36.833 23.167 59.5 24.5c26.667 2 44.667 -8.33301 54 -31c9.33301 14.667 18 24 26 28
s15.333 6.33301 22 7s13 1.66699 19 3s11.667 7 17 17l13 39c5.33301 12.667 12.333 21.834 21 27.501s18 8.16699 28 7.5c5.33301 0 11.666 -1 18.999 -3l-3 -5c-15.333 -47.333 -30.5 -96.666 -45.5 -147.999l-45 -155.5l-44.5 -156l-42 -147.5c6 1.33301 11.833 2 17.5 2
s11.167 1.33301 16.5 4s10.333 8 15 16s9 21 13 39c0 0.666992 0.166992 1.16699 0.5 1.5s0.5 0.833008 0.5 1.5c7.33301 26 19.5 49.5 36.5 70.5s38.833 33.833 65.5 38.5c20 3.33301 35.167 -0.166992 45.5 -10.5s16.666 -24.5 18.999 -42.5s1.33301 -38 -3 -60
s-11.166 -42.833 -20.499 -62.5s-20.666 -36.834 -33.999 -51.501s-27.333 -23.334 -42 -26.001c-23.333 -3.33301 -41 2.5 -53 17.5s-19 34.167 -21 57.5c-8 -8 -15 -12.833 -21 -14.5s-11.333 -2.33398 -16 -2.00098s-9.16699 0.5 -13.5 0.5s-8.83301 -2.33301 -13.5 -7
l-21 -73.5c-6.66699 -23.667 -13.334 -46.167 -20.001 -67.5c-2 -6.66699 -4.66699 -13.334 -8 -20.001s-7.83301 -12 -13.5 -16s-12.167 -6.33301 -19.5 -7s-16 1.33301 -26 6zM177.001 437.002c4 7.33301 9.16699 20.4971 15.5 39.4971s11 38.167 14 57.5
s3.16699 35.833 0.5 49.5s-11 18.834 -25 15.501c-10 -2.66699 -19.667 -10 -29 -22s-17.833 -26.5 -25.5 -43.5s-14.167 -35 -19.5 -54s-8.33301 -36.167 -9 -51.5s1 -27.833 5 -37.5s11.667 -13.5 23 -11.5c6 0.666992 13.167 5.33398 21.5 14.001
s17.833 23.334 28.5 44.001zM396.001 113.999c2 4.66699 4.49512 11.834 7.49512 21.501s5.66699 20.334 8 32.001s4 23.5 5 35.5s0.833008 22.5 -0.5 31.5s-4.16602 15.833 -8.49902 20.5s-10.833 5.66699 -19.5 3c-9.33301 -2.66699 -18 -9.83398 -26 -21.501
s-15.167 -25.334 -21.5 -41.001s-11.166 -32.167 -14.499 -49.5s-4.66602 -32.833 -3.99902 -46.5s3.33398 -24.5 8.00098 -32.5s12.334 -10.667 23.001 -8c6 1.33301 12.5 6 19.5 14s14.833 21.667 23.5 41z" />
    <glyph glyph-name="ampersand" unicode="&#x26;" horiz-adv-x="826" 
d="M415 -184c-4.66699 -4.66699 -9.00488 -5.99902 -13.0049 -3.99902s-4.66699 6.33301 -2 13c16.667 17.333 31 34.166 43 50.499s22.333 32.166 31 47.499l-7 -3c-38 -16 -76.5 -25.667 -115.5 -29s-74.167 1.33398 -105.5 14.001s-56.333 34.334 -75 65.001
s-26.667 72 -24 124c2 34 10 66 24 96s31.833 58.833 53.5 86.5s45.834 54 72.501 79l81 73.5c-9.33301 26.667 -16.666 54.167 -21.999 82.5s-8 58.166 -8 89.499c0 20.667 3.16699 42.334 9.5 65.001s16 43.167 29 61.5s29.5 33.166 49.5 44.499s43.667 16.666 71 15.999
c22.667 -1.33301 43 -9.5 61 -24.5s29.667 -39.167 35 -72.5c4 -26.667 2.16699 -52.667 -5.5 -78s-19.334 -50.333 -35.001 -75s-34 -49 -55 -73s-43.167 -48 -66.5 -72l52.5 -96c18.333 -32 33.333 -64.667 45 -98s18.334 -67.666 20.001 -102.999
s-5.16602 -72.333 -20.499 -111c31.333 23.333 58.333 51.833 81 85.5s37.334 72.5 44.001 116.5c2.66699 18.667 3 39 1 61s-7.16699 43.833 -15.5 65.5s-20.166 42.667 -35.499 63s-35.333 38.166 -60 53.499c-5.33301 4.66699 -6.5 9 -3.5 13s7.16699 5.33301 12.5 4
c26.667 -17.333 48.5 -36.833 65.5 -58.5s30 -44 39 -67s15 -45.5 18 -67.5s3.83301 -42 2.5 -60c-2 -28 -7.66699 -54.167 -17 -78.5s-21.5 -46.833 -36.5 -67.5s-32.333 -39.667 -52 -57s-40.5 -32.333 -62.5 -45c-11.333 -20.667 -25.5 -41.667 -42.5 -63
s-37.5 -43.666 -61.5 -66.999zM404.995 356.001l-57 -61.002c-18.667 -20.667 -35.5 -41.5 -50.5 -62.5s-27.833 -42.333 -38.5 -64s-18 -43.834 -22 -66.501c-6.66699 -37.333 -4.83398 -69.166 5.49902 -95.499s26.333 -46.5 48 -60.5s48 -21.333 79 -22
s63.5 6.33301 97.5 21c3.33301 1.33301 6.83301 2.83301 10.5 4.5s7.16699 3.5 10.5 5.5c12.667 34 18.334 67.333 17.001 100s-7 65.334 -17 98.001s-22.667 65.834 -38 99.501zM573.995 677.999c0 27.333 -6.66699 47.998 -20 61.998s-28.333 21.333 -45 22
c-21.333 0.666992 -40 -3.83301 -56 -13.5s-29.5 -22.334 -40.5 -38.001s-19.167 -33 -24.5 -52s-8.33301 -37.5 -9 -55.5c-1.33301 -25.333 1.16699 -50.166 7.5 -74.499s14.5 -48.166 24.5 -71.499c22 18.667 42.833 37.334 62.5 56.001s37 37 52 55
s26.833 36.167 35.5 54.5s13 36.833 13 55.5z" />
    <glyph glyph-name="quotesingle" unicode="'" horiz-adv-x="370" 
d="M74 408c22.667 6 38.166 16.666 46.499 31.999s13 31.666 14 48.999s0.333008 33.833 -2 49.5s-2.5 27.167 -0.5 34.5c4 16 12.167 26.833 24.5 32.5s24.5 7 36.5 4s21.833 -10.167 29.5 -21.5s9.16699 -25.666 4.5 -42.999c-4 -15.333 -11.5 -32.166 -22.5 -50.499
s-23.667 -35 -38 -50s-29.666 -26.333 -45.999 -34s-31.833 -8.5 -46.5 -2.5z" />
    <glyph glyph-name="parenleft" unicode="(" horiz-adv-x="385" 
d="M490 651c-13.333 2.66699 -29.6641 -3.16992 -48.9971 -17.5029s-39.833 -34.666 -61.5 -60.999s-43.667 -57.333 -66 -93s-43 -74 -62 -115s-35.167 -83.167 -48.5 -126.5s-22 -85.5 -26 -126.5s-2.5 -79.667 4.5 -116s21.833 -68.166 44.5 -95.499
c-30 8.66699 -53.333 24.167 -70 46.5s-27.834 49 -33.501 80s-6.33398 65.5 -2.00098 103.5s12.166 76.833 23.499 116.5s25.5 79.334 42.5 119.001s35.833 77.167 56.5 112.5s42.167 67 64.5 95s44.5 50.333 66.5 67s43 26.5 63 29.5s37.667 -3.16699 53 -18.5z" />
    <glyph glyph-name="parenright" unicode=")" horiz-adv-x="434" 
d="M-113 -74c13.333 -2.66699 29.666 3.16602 48.999 17.499s39.833 34.666 61.5 60.999s43.667 57.333 66 93s43 74 62 115s35.167 83.167 48.5 126.5s22 85.5 26 126.5s2.5 79.667 -4.5 116s-21.833 68.166 -44.5 95.499c38 -11.333 65.333 -32.666 82 -63.999
s25.334 -68.666 26.001 -111.999s-5.33301 -90.166 -18 -140.499s-29.5 -100 -50.5 -149s-45 -95 -72 -138s-54.5 -78.667 -82.5 -107s-55 -47 -81 -56s-48.667 -3.83301 -68 15.5z" />
    <glyph glyph-name="asterisk" unicode="*" horiz-adv-x="369" 
d="M268 51c-7.33301 12 -17.3359 24.666 -30.0029 37.999s-26.667 26.666 -42 39.999c-1.33301 -18.667 -2.16602 -36.167 -2.49902 -52.5s0.5 -30.833 2.5 -43.5c-21.333 8.66699 -33.833 18.834 -37.5 30.501s-4.5 27.167 -2.5 46.5l-30 -30.5
c-9.33301 -9.66699 -17 -19.167 -23 -28.5c-6 11.333 -9.33301 21.333 -10 30s0.5 16.5 3.5 23.5s8 13.833 15 20.5s15.167 14 24.5 22c-16.667 0.666992 -32.667 1.16699 -48 1.5s-29.333 -0.166992 -42 -1.5c4.66699 12 9.83398 21 15.501 27s12.167 10 19.5 12
s16 2.5 26 1.5l34 -3.5c-15.333 16 -25.166 31.333 -29.499 46s1.16699 27.667 16.5 39c6 -10.667 12 -20.167 18 -28.5s12.333 -16.5 19 -24.5l-4 34.5c-1.33301 11.667 -3.66602 24.167 -6.99902 37.5c20 2 33 -4.83301 39 -20.5s9 -35.5 9 -59.5
c7.33301 8.66699 14.333 18 21 28l22 33c14 -12 18.333 -25.667 13 -41s-16 -31.666 -32 -48.999c22.667 0 47.667 3.33301 75 10c1.33301 -17.333 -3.83398 -29.333 -15.501 -36s-27.167 -10.334 -46.5 -11.001c8.66699 -7.33301 16 -14.166 22 -20.499
s10.5 -12.833 13.5 -19.5s4 -14 3 -22s-4.16699 -17.667 -9.5 -29z" />
    <glyph glyph-name="plus" unicode="+" horiz-adv-x="546" 
d="M27 169c8.66699 12 19.333 21.3359 32 28.0029s27.167 11.5 43.5 14.5s34.833 4.5 55.5 4.5s43.334 -0.333008 68.001 -1c2.66699 17.333 4.33398 36.166 5.00098 56.499s0 42.5 -2 66.5c14 -1.33301 24.833 -5.33301 32.5 -12s13 -15.667 16 -27s4.33301 -24.333 4 -39
s-1.83301 -30.334 -4.5 -47.001c26.667 -0.666992 54.667 -1 84 -1s61 1.66699 95 5c-2 -12 -8.33301 -21.667 -19 -29s-24.667 -13 -42 -17s-37.166 -6.66699 -59.499 -8s-45.5 -2 -69.5 -2l-19.5 -90c-6.33301 -30 -8.83301 -56 -7.5 -78
c-18.667 9.33301 -31.334 19.333 -38.001 30s-9.83398 22.5 -9.50098 35.5s3 28 8 45s10.167 36.5 15.5 58.5c-36.667 1.33301 -71.834 3.16602 -105.501 5.49902s-61.167 2.83301 -82.5 1.5z" />
    <glyph glyph-name="comma" unicode="," horiz-adv-x="334" 
d="M57 -4c22.667 6 38.166 16.666 46.499 31.999s13 31.666 14 48.999s0.333008 33.833 -2 49.5s-2.5 27.167 -0.5 34.5c4 16 12.167 26.833 24.5 32.5s24.5 7 36.5 4s21.833 -10.167 29.5 -21.5s9.16699 -25.666 4.5 -42.999c-4 -15.333 -11.5 -32.166 -22.5 -50.499
s-23.667 -35 -38 -50s-29.666 -26.333 -45.999 -34s-31.833 -8.5 -46.5 -2.5z" />
    <glyph glyph-name="hyphen" unicode="-" horiz-adv-x="558" 
d="M102 165h34.002c8.66699 0 17.167 0.166992 25.5 0.5s17.166 0.5 26.499 0.5h35.5c14.333 0 32.5 -0.166992 54.5 -0.5s49.667 -0.5 83 -0.5c17.333 -2.66699 30.166 -8.83398 38.499 -18.501s12.166 -21.834 11.499 -36.501
c-40.667 0.666992 -71.5 1.33398 -92.5 2.00098s-36.667 1 -47 1h-21c-3.66699 0 -8.16699 -0.166992 -13.5 -0.5s-13.666 -0.666016 -24.999 -0.999023s-30 -0.5 -56 -0.5c-7.33301 0 -14.5 0.666992 -21.5 2s-13.167 4 -18.5 8s-9.5 9.5 -12.5 16.5s-3.5 16.167 -1.5 27.5
z" />
    <glyph glyph-name="period" unicode="." horiz-adv-x="309" 
d="M144 100c15.333 0 28 -5.33301 38 -16s15 -23 15 -37c0 -13.333 -5.33301 -25.333 -16 -36s-23 -16 -37 -16c-13.333 0 -25.333 5 -36 15s-16 22.667 -16 38c0 14.667 5 27 15 37s22.333 15 37 15z" />
    <glyph glyph-name="slash" unicode="/" horiz-adv-x="362" 
d="M41 -99l54 189.001l59 208.5l59.5 206.5l55.5 182c7.33301 16 16.833 26.5 28.5 31.5s24.5 5.16699 38.5 0.5l-60.5 -200l-60 -208.5l-57 -199.5l-50.5 -173c-2 -6.66699 -4.66699 -13.334 -8 -20.001s-7.83301 -12 -13.5 -16s-12.167 -6.33301 -19.5 -7
s-16 1.33301 -26 6z" />
    <glyph glyph-name="zero" unicode="0" horiz-adv-x="496" 
d="M170 -50c-22 0 -40.3301 6.83105 -54.9971 20.498s-26.334 31.334 -35.001 53.001s-14.334 46 -17.001 73s-3.33398 53.833 -2.00098 80.5c2.66699 48 12.167 98 28.5 150s37.5 100.667 63.5 146c24.667 42 51.667 76.833 81 104.5s57.666 47.167 84.999 58.5
s52.5 14.333 75.5 9s40.833 -20.333 53.5 -45c8.66699 -18 14 -39.5 16 -64.5s1.33301 -52 -2 -81s-8.66602 -59.167 -15.999 -90.5s-16 -61.5 -26 -90.5s-20.5 -56.5 -31.5 -82.5s-21.833 -48 -32.5 -66c-12.667 -21.333 -26 -42.5 -40 -63.5s-28.833 -39.667 -44.5 -56
s-32 -29.666 -49 -39.999s-34.5 -15.5 -52.5 -15.5zM175.003 -22.002c16.667 0 32.832 6.33105 48.499 18.998s30.334 27.834 44.001 45.501s26 35.834 37 54.501l26.5 45c10 16.667 20.167 37.167 30.5 61.5s20 50.333 29 78s17 56.167 24 85.5s12.333 57.5 16 84.5
s5 52.167 4 75.5s-5.16699 43 -12.5 59c-7.33301 16.667 -18 24.667 -32 24s-29.833 -8.16699 -47.5 -22.5s-36.334 -35 -56.001 -62s-38.834 -58.5 -57.501 -94.5c-21.333 -40 -40.166 -82 -56.499 -126s-28.166 -86.333 -35.499 -127c-4 -23.333 -7 -46.833 -9 -70.5
s-2 -45 0 -64s6.66699 -34.667 14 -47s18.333 -18.5 33 -18.5z" />
    <glyph glyph-name="one" unicode="1" horiz-adv-x="435" 
d="M177 -16l55.002 0.00390625c5.33301 0 9.33301 -1.83301 12 -5.5s4 -7.5 4 -11.5c0 -5.33301 -1.33301 -9.66602 -4 -12.999s-6.66699 -5 -12 -5h-191c-5.33301 0 -9.5 1.66699 -12.5 5s-4.5 7.66602 -4.5 12.999c0 4 1.5 7.66699 4.5 11s7.16699 5 12.5 5l56 1
l54.5 172.5l51.5 158l48 138.5c15.333 42.667 29.666 80.667 42.999 114c-18.667 -10 -37.5 -20.667 -56.5 -32s-36.333 -23.333 -52 -36s-29 -25.834 -40 -39.501s-17.5 -27.5 -19.5 -41.5c1.33301 21.333 7.16602 41.166 17.499 59.499s23.333 35.166 39 50.499
s33.5 29.166 53.5 41.499s40.167 23.5 60.5 33.5s40 18.833 59 26.5s35.833 14.167 50.5 19.5z" />
    <glyph glyph-name="two" unicode="2" horiz-adv-x="586" 
d="M11 -70c4 28.667 15.668 49.6621 35.001 62.9951s43 22.333 71 27c26.667 12.667 54 30.334 82 53.001s55 48.334 81 77.001s50.333 59.5 73 92.5s42.5 66.833 59.5 101.5s30.5 69 40.5 103s15 66 15 96c0 17.333 -3.33301 32.5 -10 45.5s-19.334 19.5 -38.001 19.5
c-20 0 -37.667 -10.333 -53 -31s-28.666 -44.834 -39.999 -72.501s-20.333 -55.5 -27 -83.5s-11 -49.333 -13 -64c-10.667 -3.33301 -19.167 -3.66602 -25.5 -0.999023s-11.166 6.83398 -14.499 12.501s-5.5 12.167 -6.5 19.5s-1.5 14 -1.5 20c2 24 7.5 50 16.5 78
s21.667 54 38 78s36.833 44 61.5 60s53.667 24 87 24c14 0 27.833 -2.66699 41.5 -8s25.667 -13 36 -23s18.666 -22.667 24.999 -38s9.5 -33 9.5 -53c0 -44 -10.667 -89.667 -32 -137s-48.666 -93.333 -81.999 -138s-70 -86.667 -110 -126s-79 -73 -117 -101
c34 -1.33301 68.167 -3.66602 102.5 -6.99902s65.666 -5 93.999 -5s51.666 3.5 69.999 10.5s28.166 20.5 29.499 40.5c0.666992 -29.333 -4.5 -51.833 -15.5 -67.5s-26 -27 -45 -34s-41.167 -10.333 -66.5 -10s-52 1.83301 -80 4.5s-56.5 5.83398 -85.5 9.50098
s-56.5 5.5 -82.5 5.5s-49.667 -3 -71 -9s-38.666 -16.667 -51.999 -32z" />
    <glyph glyph-name="three" unicode="3" horiz-adv-x="459" 
d="M50 171c2 5.33301 4.83691 8.99609 8.50391 10.9961s7 2.83301 10 2.5s5.5 -1.66602 7.5 -3.99902s2.66699 -5.16602 2 -8.49902c-5.33301 -17.333 -8.16602 -35 -8.49902 -53s1.5 -35 5.5 -51s9.83301 -29.833 17.5 -41.5s17.5 -19.5 29.5 -23.5
c22 -8 43.5 -5.66699 64.5 7s39.5 30.834 55.5 54.501s28.833 50.334 38.5 80.001s14.167 58 13.5 85s-7.33398 49.833 -20.001 68.5s-33.334 29 -62.001 31c1.33301 5.33301 3.66602 9.66602 6.99902 12.999s10.666 5 21.999 5c13.333 0 26.166 6.83301 38.499 20.5
s23.333 30.5 33 50.5s17.334 41.667 23.001 65s8.66699 44.833 9 64.5s-2.66699 35.667 -9 48s-16.833 17.5 -31.5 15.5c-16 -2 -30.5 -8.5 -43.5 -19.5s-23.833 -24.167 -32.5 -39.5s-14.667 -31.333 -18 -48s-3 -31.334 1 -44.001c-13.333 -10.667 -23 -14.667 -29 -12
s-13.667 9.66699 -23 21c-1.33301 29.333 2.5 55.5 11.5 78.5s21.333 42 37 57s33.667 25.833 54 32.5s41.166 8.66699 62.499 6c21.333 -2 39.166 -9.16699 53.499 -21.5s25.333 -27.666 33 -45.999s11.667 -39 12 -62s-3.33398 -46.167 -11.001 -69.5
s-19.167 -45.833 -34.5 -67.5s-35 -40.167 -59 -55.5c15.333 -4 27 -15.833 35 -35.5s11.833 -43.167 11.5 -70.5s-4.33301 -56.333 -12 -87s-19.667 -59 -36 -85s-36.5 -47.833 -60.5 -65.5s-52.333 -27.167 -85 -28.5c-30.667 -1.33301 -55.667 4.33398 -75 17.001
s-33.666 29.667 -42.999 51s-14.166 45.5 -14.499 72.5s3.5 54.167 11.5 81.5z" />
    <glyph glyph-name="four" unicode="4" horiz-adv-x="523" 
d="M42 255c0.666992 25.333 8.32617 47.498 22.9932 66.498s32.334 36.833 53.001 53.5s43 33.167 67 49.5s45.833 34.166 65.5 53.499s35.334 41.333 47.001 66s16.167 54 13.5 88c14.667 -16 19.834 -37.333 15.501 -64s-15.666 -54.667 -33.999 -84
s-42.166 -58.166 -71.499 -86.499s-62 -52.166 -98 -71.499c25.333 7.33301 53.5 10.833 84.5 10.5s64.5 -1.83301 100.5 -4.5l48 131l45 115l67 45c15.333 10.667 28.666 19.334 39.999 26.001l-61.5 -160l-59.5 -162c16.667 0 30.334 0.666992 41.001 2s19.167 4 25.5 8
s11 9.66699 14 17s5.16699 17 6.5 29c0 -22 -1.83301 -40 -5.5 -54s-9.66699 -25 -18 -33s-19.166 -13.333 -32.499 -16s-30 -4 -50 -4l-53 -150l-50 -142h55c5.33301 0 9.33301 -1.83301 12 -5.5s4 -7.5 4 -11.5c0 -5.33301 -1.33301 -9.66602 -4 -12.999
s-6.66699 -5 -12 -5h-191c-5.33301 0 -9.5 1.66699 -12.5 5s-4.5 7.66602 -4.5 12.999c0 4 1.5 7.66699 4.5 11s7.16699 5 12.5 5l56 1l40 113l65 185c-27.333 2.66699 -53.166 5.66699 -77.499 9s-47 4.83301 -68 4.5s-40.167 -3.5 -57.5 -9.5s-32.333 -16.333 -45 -31z
" />
    <glyph glyph-name="five" unicode="5" horiz-adv-x="474" 
d="M155 641c24.667 -2 51.001 -2.00195 79.001 -0.00195312s55.333 3.5 82 4.5s52 0.5 76 -1.5s45 -7.5 63 -16.5s31.833 -22.833 41.5 -41.5s13.834 -44 12.501 -76c1.33301 21.333 -5.83398 36.166 -21.501 44.499s-36.667 13.333 -63 15s-56 1 -89 -2
s-66.167 -4.83301 -99.5 -5.5l-53 -179c43.333 7.33301 79.666 6.66602 108.999 -2.00098s52.333 -22.5 69 -41.5s27.667 -41.667 33 -68s5.83301 -54 1.5 -83s-13 -57.667 -26 -86s-29.333 -53.833 -49 -76.5s-42.334 -41 -68.001 -55s-53.167 -21 -82.5 -21
c-30 0 -54.167 4.66699 -72.5 14s-32.333 21.833 -42 37.5s-15.5 33.834 -17.5 54.501s-0.833008 42 3.5 64s11 44.167 20 66.5s19.167 43.166 30.5 62.499c30.667 17.333 50 14.333 58 -9c-7.33301 -12 -14.833 -26.833 -22.5 -44.5s-14.167 -36.167 -19.5 -55.5
s-9 -38.666 -11 -57.999s-1.33301 -36.666 2 -51.999s10 -27.833 20 -37.5s24.333 -14.5 43 -14.5c16 0 33.667 9.33301 53 28s37.333 41.834 54 69.501s30 57.5 40 89.5s13.833 61.5 11.5 88.5s-12.666 49.333 -30.999 67s-47.833 25.834 -88.5 24.501
c-6 0 -12.5 -0.166992 -19.5 -0.5s-15.167 -0.833008 -24.5 -1.5h-46c-13.333 0 -20 6.66699 -20 20v1c0 0.666992 0.333008 1.66699 1 3l43 139l18 61c-8.66699 1.33301 -14.5 5.33301 -17.5 12s-4 14 -3 22s3.5 15.833 7.5 23.5s9 13.167 15 16.5z" />
    <glyph glyph-name="six" unicode="6" horiz-adv-x="491" 
d="M425 408c-8 -1.33301 -13.6689 1.16895 -17.002 7.50195s-5 13.166 -5 20.499c26 33.333 40.167 64.333 42.5 93s-3 50.5 -16 65.5s-31.5 21.167 -55.5 18.5s-49 -18.334 -75 -47.001c-20 -21.333 -40.167 -46.666 -60.5 -75.999s-38.166 -59.333 -53.499 -90
c40.667 3.33301 73.834 -0.5 99.501 -11.5s45.167 -26.667 58.5 -47s21 -44.166 23 -71.499s-0.333008 -55.5 -7 -84.5s-17.5 -57.5 -32.5 -85.5s-32.5 -53 -52.5 -75s-42.333 -39.833 -67 -53.5s-50.334 -20.5 -77.001 -20.5c-29.333 0 -53.833 9.33301 -73.5 28
s-30.167 49.667 -31.5 93c-1.33301 48 3 97.833 13 149.5s25 101.5 45 149.5s44.833 92.5 74.5 133.5s63.167 74.833 100.5 101.5c39.333 28 76 41.667 110 41s60.5 -11.334 79.5 -32.001s27.833 -49.334 26.5 -86.001s-17.666 -77 -48.999 -121zM216.998 29.002
c12.667 15.333 24.834 35.332 36.501 59.999s21.167 50.5 28.5 77.5s11.666 53.833 12.999 80.5s-1.83398 49.667 -9.50098 69s-21 33.666 -40 42.999s-44.833 10.333 -77.5 3c-8 -18 -17 -40 -27 -66s-19.333 -53.167 -28 -81.5s-15.667 -56.666 -21 -84.999
s-7.66602 -53.833 -6.99902 -76.5c0.666992 -23.333 5.16699 -41.166 13.5 -53.499s18.833 -19.333 31.5 -21s26.667 1.83301 42 10.5s30.333 22 45 40z" />
    <glyph glyph-name="seven" unicode="7" horiz-adv-x="399" 
d="M88 322l56.999 -1.00391c12 30 25 59 39 87s27.5 53.667 40.5 77s25.5 44.166 37.5 62.499s22 32.833 30 43.5c-32 0.666992 -62.667 -0.666016 -92 -3.99902s-55 -9.16602 -77 -17.499s-39.333 -19.833 -52 -34.5s-18.334 -33 -17.001 -55
c-2 30 1.83301 54.833 11.5 74.5s23.167 35.334 40.5 47.001s37.833 20.334 61.5 26.001s48.834 9.33398 75.501 11.001s54 2.16699 82 1.5l81 -2l-55 -91.5l-47 -81l-41 -74.5l-36 -71h44l-19 -35h-42l-39.5 -89c-12.333 -28.667 -22.833 -56.667 -31.5 -84
s-15 -54.5 -19 -81.5s-4.66699 -53.833 -2 -80.5c-3.33301 -2 -7.66602 -2.16699 -12.999 -0.5s-10.333 5.16699 -15 10.5c-15.333 45.333 -18 96 -8 152s26.333 114 49 174l-65 1z" />
    <glyph glyph-name="eight" unicode="8" horiz-adv-x="418" 
d="M272 323c14.667 -22.667 25.166 -47.502 31.499 -74.502s9 -54.333 8 -82s-5.5 -54.5 -13.5 -80.5s-19.333 -49.167 -34 -69.5s-32.334 -36.666 -53.001 -48.999s-44 -18.5 -70 -18.5c-34.667 0 -61.5 7 -80.5 21s-31.333 32.333 -37 55s-5.66699 48 0 76
s16 55.833 31 83.5s33.833 53.834 56.5 78.501s48 45 76 61c-24 30 -38.833 63.333 -44.5 100s-4 71.167 5 103.5s24.5 59.833 46.5 82.5s48.667 35.334 80 38.001c27.333 2 49.5 -2.16699 66.5 -12.5s29.333 -24.666 37 -42.999s10.834 -39.333 9.50098 -63
s-6.66602 -47.834 -15.999 -72.501s-22.333 -48.834 -39 -72.501s-36.667 -44.167 -60 -61.5zM141.999 -22.002c18.667 3.33301 35.167 15.5029 49.5 36.5029s25 46.5 32 76.5s9.66699 61.833 8 95.5s-9.16699 65.167 -22.5 94.5c-18.667 -12.667 -36 -29.334 -52 -50.001
s-29.833 -42.834 -41.5 -66.501s-20.5 -47.334 -26.5 -71.001s-8.5 -44.667 -7.5 -63s6.33301 -32.5 16 -42.5s24.5 -13.333 44.5 -10zM238.999 363.001c16.667 16.667 31.333 35.1689 44 55.502s23 40.833 31 61.5s13.5 40.5 16.5 59.5s3.16699 35.667 0.5 50
s-8.5 25.166 -17.5 32.499s-21.167 9.66602 -36.5 6.99902c-21.333 -3.33301 -37.833 -15.333 -49.5 -36s-19 -44.667 -22 -72s-1.66699 -55.5 4 -84.5s15.5 -53.5 29.5 -73.5z" />
    <glyph glyph-name="nine" unicode="9" horiz-adv-x="470" 
d="M80 95c-4 -25.333 -2.33008 -47.1631 5.00293 -65.4961s18.166 -31 32.499 -38s30.5 -7.16699 48.5 -0.5s35.333 22.667 52 48c16 22.667 29.833 48.667 41.5 78s22.167 59.333 31.5 90c-37.333 -8 -68.5 -7.33301 -93.5 2s-44.5 24 -58.5 44s-23 44 -27 72
s-3.66699 57.167 1 87.5s13.667 60.166 27 89.499s30.333 55.333 51 78s44.5 40.334 71.5 53.001s56.833 17.667 89.5 15c24 -2 42.5 -11.333 55.5 -28s21.333 -38.334 25 -65.001s3.66699 -57.167 0 -91.5s-9.83398 -69.833 -18.501 -106.5s-19.167 -73.167 -31.5 -109.5
s-25.5 -70.5 -39.5 -102.5s-28 -60.167 -42 -84.5s-26.667 -42.5 -38 -54.5c-26.667 -28.667 -54 -45.834 -82 -51.501s-52.833 -2.83398 -74.5 8.49902s-37.834 30.166 -48.501 56.499s-12 57.5 -4 93.5c4.66699 1.33301 9.16699 1 13.5 -1s8.5 -7.66699 12.5 -17z
M325.003 624.003c-21.333 0 -42 -11.167 -62 -33.5s-37.167 -49.833 -51.5 -82.5s-24.833 -67.167 -31.5 -103.5s-7.16699 -68.666 -1.5 -96.999s18.334 -49.333 38.001 -63s48.5 -13.834 86.5 -0.500977c6 18 12.667 39.833 20 65.5s14.166 52.5 20.499 80.5
s11.666 56 15.999 84s6.33301 53.167 6 75.5s-3.66602 40.333 -9.99902 54s-16.5 20.5 -30.5 20.5z" />
    <glyph glyph-name="colon" unicode=":" horiz-adv-x="341" 
d="M202 306c16 0 28.833 -5.5 38.5 -16.5s14.5 -23.167 14.5 -36.5c0 -14 -5.16699 -26.167 -15.5 -36.5s-22.833 -15.5 -37.5 -15.5c-13.333 0 -25.333 4.83301 -36 14.5s-16 22.5 -16 38.5c0 14 5 26.167 15 36.5s22.333 15.5 37 15.5zM165 135
c16 0 28.833 -5.5 38.5 -16.5s14.5 -23.167 14.5 -36.5c0 -14 -5.16699 -26.167 -15.5 -36.5s-22.833 -15.5 -37.5 -15.5c-13.333 0 -25.333 4.83301 -36 14.5s-16 22.5 -16 38.5c0 14 5 26.167 15 36.5s22.333 15.5 37 15.5z" />
    <glyph glyph-name="semicolon" unicode=";" horiz-adv-x="351" 
d="M188 342c16 0 28.833 -5.5 38.5 -16.5s14.5 -23.167 14.5 -36.5c0 -14 -5.16699 -26.167 -15.5 -36.5s-22.833 -15.5 -37.5 -15.5c-13.333 0 -25.333 4.83301 -36 14.5s-16 22.5 -16 38.5c0 14 5 26.167 15 36.5s22.333 15.5 37 15.5zM57 -4
c22.667 6 38.166 16.666 46.499 31.999s13 31.666 14 48.999s0.333008 33.833 -2 49.5s-2.5 27.167 -0.5 34.5c4 16 12.167 26.833 24.5 32.5s24.5 7 36.5 4s21.833 -10.167 29.5 -21.5s9.16699 -25.666 4.5 -42.999c-4 -15.333 -11.5 -32.166 -22.5 -50.499
s-23.667 -35 -38 -50s-29.666 -26.333 -45.999 -34s-31.833 -8.5 -46.5 -2.5z" />
    <glyph glyph-name="less" unicode="&#x3c;" horiz-adv-x="439" 
d="M364 131c8 -3.33301 13.5 -7.49805 16.5 -12.498s4.5 -10.333 4.5 -16s-1 -11.334 -3 -17.001s-4.33301 -10.5 -7 -14.5l-282 121l-40 18c-3.33301 1.33301 -4.83301 3.33301 -4.5 6s1.83301 4.66699 4.5 6l274 150c10.667 -6 15.5 -15.333 14.5 -28
s-5.83301 -22.334 -14.5 -29.001l-159 -94z" />
    <glyph glyph-name="equal" unicode="=" horiz-adv-x="524" 
d="M102 200h34.002c8.66699 0 17.167 0.166992 25.5 0.5s17.166 0.5 26.499 0.5h35.5c14.333 0 32.5 -0.166992 54.5 -0.5s49.667 -0.5 83 -0.5c17.333 -2.66699 30.166 -8.83398 38.499 -18.501s12.166 -21.834 11.499 -36.501
c-40.667 0.666992 -71.5 1.33398 -92.5 2.00098s-36.667 1 -47 1h-21c-3.66699 0 -8.16699 -0.166992 -13.5 -0.5s-13.666 -0.666016 -24.999 -0.999023s-30 -0.5 -56 -0.5c-7.33301 0 -14.5 0.666992 -21.5 2s-13.167 4 -18.5 8s-9.5 9.5 -12.5 16.5s-3.5 16.167 -1.5 27.5
zM102.002 80h34.002c8.66699 0 17.167 0.166992 25.5 0.5s17.166 0.5 26.499 0.5h35.5c14.333 0 32.5 -0.166992 54.5 -0.5s49.667 -0.5 83 -0.5c17.333 -2.66699 30.166 -8.83398 38.499 -18.501s12.166 -21.834 11.499 -36.501
c-40.667 0.666992 -71.5 1.33398 -92.5 2.00098s-36.667 1 -47 1h-21c-3.66699 0 -8.16699 -0.166992 -13.5 -0.5s-13.666 -0.666016 -24.999 -0.999023s-30 -0.5 -56 -0.5c-7.33301 0 -14.5 0.666992 -21.5 2s-13.167 4 -18.5 8s-9.5 9.5 -12.5 16.5s-3.5 16.167 -1.5 27.5
z" />
    <glyph glyph-name="greater" unicode="&#x3e;" horiz-adv-x="448" 
d="M275 221l-158.998 94.001c-4.66699 3.33301 -8.33398 7.66602 -11.001 12.999s-4 10.666 -4 15.999s1.16699 10.5 3.5 15.5s6.16602 9.16699 11.499 12.5l274 -150c2.66699 -1.33301 4.16699 -3.33301 4.5 -6s-1.16699 -4.66699 -4.5 -6l-40 -18l-282 -121
c-2.66699 4 -5 8.83301 -7 14.5s-3 11.334 -3 17.001s1.5 11 4.5 16s8.5 9.16699 16.5 12.5z" />
    <glyph glyph-name="question" unicode="?" horiz-adv-x="405" 
d="M46 530c1.33301 32.667 5.5 62.499 12.5 89.499s16.833 50.667 29.5 71s28.167 36.666 46.5 48.999s39.833 19.833 64.5 22.5c33.333 3.33301 60.666 -0.166992 81.999 -10.5s37.5 -25.166 48.5 -44.499s17.5 -42.333 19.5 -69s0.666992 -54.667 -4 -84
c-6.66699 -35.333 -17.167 -67.5 -31.5 -96.5s-30.5 -56.667 -48.5 -83s-37 -52.333 -57 -78s-38.5 -52.834 -55.5 -81.501s-31.833 -59.667 -44.5 -93s-20.667 -71 -24 -113c-6 -7.33301 -13 -9 -21 -5s-12.333 11.333 -13 22c1.33301 38.667 7 74.167 17 106.5
s22 63 36 92s29.167 56.667 45.5 83s32 52.833 47 79.5s28.333 54 40 82s19.834 58.333 24.501 91c4 24 5.66699 46.833 5 68.5s-4 40.334 -10 56.001s-14.833 27.167 -26.5 34.5s-26.834 9 -45.501 5c-12 -2.66699 -23.333 -10.5 -34 -23.5s-19.5 -28.5 -26.5 -46.5
s-12.167 -37.167 -15.5 -57.5s-3.66602 -39.166 -0.999023 -56.499c-11.333 -16 -22.833 -24.833 -34.5 -26.5s-20.167 3.83301 -25.5 16.5zM66 -5.00098c12 0 21.833 -4.16699 29.5 -12.5s11.5 -17.833 11.5 -28.5s-4 -20 -12 -28s-17.667 -12 -29 -12
c-10.667 0 -20 3.83301 -28 11.5s-12 17.5 -12 29.5c0 11.333 3.83301 20.833 11.5 28.5s17.167 11.5 28.5 11.5z" />
    <glyph glyph-name="at" unicode="@" horiz-adv-x="881" 
d="M780 109c-22 -34 -48.5049 -64.3301 -79.5049 -90.9971s-63.667 -49 -98 -67s-69.166 -31.833 -104.499 -41.5s-68 -14.5 -98 -14.5c-47.333 0 -89.166 9.83301 -125.499 29.5s-66.666 46.334 -90.999 80.001s-42.666 72.5 -54.999 116.5s-18.5 90.333 -18.5 139
c0 39.333 4.83301 79.166 14.5 119.499s23.334 79.166 41.001 116.499s39.167 72.333 64.5 105s53.5 61 84.5 85s64.833 43 101.5 57s75.334 21 116.001 21c26.667 0 54 -5.16699 82 -15.5s53.333 -26.5 76 -48.5s41.5 -50.167 56.5 -84.5s23.167 -75.5 24.5 -123.5
c0.666992 -24 -1.16602 -50.667 -5.49902 -80s-10.833 -58.833 -19.5 -88.5s-19.667 -58.5 -33 -86.5s-28.833 -52.833 -46.5 -74.5s-37.5 -39 -59.5 -52s-46 -19.5 -72 -19.5c-11.333 0 -20.833 2.5 -28.5 7.5s-14 11.667 -19 20s-8.66699 17.833 -11 28.5s-3.5 22 -3.5 34
c0 13.333 0.666992 25.833 2 37.5l4 33.5c-17.333 -18.667 -35.333 -33 -54 -43s-38.334 -15 -59.001 -15c-27.333 0 -47.333 9.16699 -60 27.5s-19 40.166 -19 65.499c0 24 4.16699 47.833 12.5 71.5s19.833 46.167 34.5 67.5c21.333 30.667 47.5 56 78.5 76
s63.833 30 98.5 30c7.33301 0 15 -0.5 23 -1.5s15.667 -2.5 23 -4.5l23 76c7.33301 -9.33301 15.666 -13.833 24.999 -13.5s18 1.66602 26 3.99902s14.833 4 20.5 5s8.5 -2.5 8.5 -10.5l-20.5 -62l-32 -95.5l-35 -108.5c-11.667 -37.333 -21.5 -71.333 -29.5 -102
s-13.167 -55.834 -15.5 -75.501s0.166992 -29.167 7.5 -28.5c24 1.33301 45.333 8.83301 64 22.5s35.167 31.167 49.5 52.5s26.333 45.333 36 72s17.667 53.834 24 81.501s10.833 54.334 13.5 80.001s4 48.5 4 68.5c0 37.333 -5.66699 70 -17 98s-25.666 51.333 -42.999 70
s-36.166 32.5 -56.499 41.5s-39.5 13.5 -57.5 13.5c-50 -0.666992 -95.167 -12.167 -135.5 -34.5s-75.5 -51.666 -105.5 -87.999s-54.5 -77.333 -73.5 -123s-32.167 -92.334 -39.5 -140.001s-8.33301 -94.334 -3 -140.001s17.5 -86.5 36.5 -122.5s44.833 -65 77.5 -87
s73 -33.333 121 -34c24 0 50 4.5 78 13.5s55.667 21.333 83 37s53.5 34.5 78.5 56.5s46.833 46 65.5 72c3.33301 4 7.66602 6.83301 12.999 8.5s10.5 1.66699 15.5 0s9.16699 -4.5 12.5 -8.5s4.66602 -9.33301 3.99902 -16zM497.995 330.003
c7.33301 28 15.001 55.334 23.001 82.001s16.333 53 25 79c-6.66699 1.33301 -11.667 2 -15 2c-24.667 0 -47.334 -8.16699 -68.001 -24.5s-38.5 -35.833 -53.5 -58.5s-26.667 -45.834 -35 -69.501s-12.5 -42.5 -12.5 -56.5c0 -12 2 -23 6 -33s10.667 -15 20 -15
c14.667 0 32 8.83301 52 26.5s39.333 40.167 58 67.5z" />
    <glyph glyph-name="A" unicode="A" horiz-adv-x="699" 
d="M-331 -383c50.667 -2 96.668 5.83105 138.001 23.498s79.166 42.334 113.499 74.001s65.666 69.167 93.999 112.5s54.833 89.833 79.5 139.5s48.167 101.334 70.5 155.001l66.5 157.5c-22 -2.66699 -42 -7.83398 -60 -15.501s-32.667 -19.834 -44 -36.501
c4.66699 28 17.667 48 39 60s47.333 19.667 78 23c22.667 52.667 46.167 102.5 70.5 149.5s50.5 88.333 78.5 124s58.5 64.334 91.5 86.001s69.833 33.5 110.5 35.5l19 58c7.33301 -10 15.333 -15.667 24 -17s16.834 -1.33301 24.501 0s14.167 2.16602 19.5 2.49902
s8 -3.5 8 -11.5l-19.5 -58.5l-34.5 -104l-44 -132l-46 -142.5c21.333 2 39.166 6.83301 53.499 14.5s22.5 20.167 24.5 37.5c-1.33301 -27.333 -10.166 -47.333 -26.499 -60s-36.833 -20.667 -61.5 -24l-34.5 -113.5c-10.333 -35.667 -18.833 -67 -25.5 -94
s-11 -48.5 -13 -64.5s-0.666992 -24 4 -24c12 0 25 5.83301 39 17.5s28.167 26.834 42.5 45.501s28.833 39.334 43.5 62.001s28.5 45.667 41.5 69l36.5 66l29 53c4.66699 5.33301 9.83398 7.16602 15.501 5.49902s7.16699 -7.16699 4.5 -16.5l-29 -54.5l-37.5 -68.5
c-13.667 -24 -28.167 -48 -43.5 -72s-31.166 -45.5 -47.499 -64.5s-32.833 -34.5 -49.5 -46.5s-33 -18 -49 -18c-11.333 0 -20.833 2.5 -28.5 7.5s-14 11.667 -19 20s-8.66699 17.833 -11 28.5s-3.5 22 -3.5 34c0 24 4.16699 56 12.5 96s19.5 84 33.5 132
c-20.667 1.33301 -41.5 3.33301 -62.5 6s-42.167 4.66699 -63.5 6l-71.5 -164c-24.333 -55.333 -50.833 -108.666 -79.5 -159.999s-59.834 -99.5 -93.501 -144.5s-70.834 -84 -111.501 -117s-85.667 -58.5 -135 -76.5s-104 -25.667 -164 -23
c-5.33301 3.33301 -7.5 7.5 -6.5 12.5s4.16699 8.16699 9.5 9.5zM590.001 692.998c-28 -11.333 -53.333 -29 -76 -53s-44 -52.833 -64 -86.5s-39.333 -71.167 -58 -112.5l-57 -130l122 -10l34 106l35.5 105l34 97.5z" />
    <glyph glyph-name="B" unicode="B" horiz-adv-x="1050" 
d="M682 374c-26.667 -4 -51.9961 -3.33594 -75.9961 1.99707c-15.333 -62.667 -31.833 -125.667 -49.5 -189s-37.834 -124.5 -60.501 -183.5s-48.5 -113.833 -77.5 -164.5s-62.167 -94.5 -99.5 -131.5s-79.333 -65.667 -126 -86s-99.334 -29.166 -158.001 -26.499
c-5.33301 3.33301 -7.5 7.5 -6.5 12.5s4.16699 8.16699 9.5 9.5c49.333 -2 93.333 6.33301 132 25s73.167 45 103.5 79s57 74.333 80 121s43.667 97 62 151s35 110.667 50 170l43 177l41 172c13.667 56 28.334 108 44.001 156s33.334 90.5 53.001 127.5
s42.167 66.167 67.5 87.5c-18.667 -9.33301 -37.667 -19.666 -57 -30.999s-37.5 -23.5 -54.5 -36.5s-31.833 -26.833 -44.5 -41.5s-21.334 -30 -26.001 -46h-81c10.667 24 30 47.333 58 70s59 42.834 93 60.501s68.167 31.834 102.5 42.501s63.166 16 86.499 16
c-24 -21.333 -45 -54.666 -63 -99.999s-35.333 -98.333 -52 -159c22 29.333 45.5 52 70.5 68s48.833 25.5 71.5 28.5s42.834 0 60.501 -9s30.334 -24 38.001 -45s9.16699 -47.5 4.5 -79.5s-18.334 -69 -41.001 -111c-16.667 -31.333 -37 -56.666 -61 -75.999
s-49.333 -34.333 -76 -45c21.333 -4 41.666 -10.333 60.999 -19s36.166 -19.834 50.499 -33.501s25.333 -30.5 33 -50.5s10.5 -43.333 8.5 -70c-0.666992 -5.33301 -1.16699 -10.333 -1.5 -15s-1.16602 -9.66699 -2.49902 -15c23.333 9.33301 47.833 21.833 73.5 37.5
s53.834 36.167 84.501 61.5c6.66699 3.33301 11.667 3.16602 15 -0.500977s2.66602 -8.5 -2.00098 -14.5c-35.333 -30 -67.333 -53.667 -96 -71s-56 -31 -82 -41c-10.667 -39.333 -28.834 -78.166 -54.501 -116.499s-59.5 -72.833 -101.5 -103.5
c-40.667 -26.667 -75.667 -41.167 -105 -43.5s-52.5 2.5 -69.5 14.5s-27.5 29.333 -31.5 52s-0.666992 45.667 10 69s28.667 45.333 54 66s59 35 101 43l102 18c2.66699 11.333 4.5 22.333 5.5 33s2.16699 21 3.5 31c2 24 0.166992 44.667 -5.5 62
s-13.834 32.166 -24.501 44.499s-23.5 22.166 -38.5 29.499s-31.167 13 -48.5 17zM656.004 581.997l-22.001 -89.998l-22 -94c51.333 7.33301 92.833 22.666 124.5 45.999s56.834 53.666 75.501 90.999c16 32.667 26 61.667 30 87s3.33301 45.666 -2 60.999
s-14.5 25.333 -27.5 30s-28 3.33398 -45 -3.99902s-35.167 -21.5 -54.5 -42.5s-38.333 -49.167 -57 -84.5v0zM692.003 114.999c-30 -6 -55.1719 -16.833 -75.5049 -32.5s-36.166 -32.834 -47.499 -51.501s-17.666 -36.834 -18.999 -54.501s2.33398 -31.167 11.001 -40.5
s22.334 -12.666 41.001 -9.99902s42.667 15.334 72 38.001c31.333 23.333 55.333 49.5 72 78.5s29.334 58.5 38.001 88.5c-14.667 -3.33301 -29.5 -6 -44.5 -8s-30.833 -4.66699 -47.5 -8z" />
    <glyph glyph-name="C" unicode="C" horiz-adv-x="805" 
d="M475 444c48 15.333 87.1709 31.165 117.504 47.498s57.166 32.5 80.499 48.5c18.667 13.333 34.334 26.333 47.001 39s22.667 24.834 30 36.501s12.666 22.5 15.999 32.5s5.33301 19 6 27c1.33301 10 -0.5 18.333 -5.5 25s-12.5 10.334 -22.5 11.001
c-18.667 1.33301 -37.834 -3.5 -57.501 -14.5s-38.834 -25.167 -57.501 -42.5s-36.5 -36.833 -53.5 -58.5s-32.333 -42.5 -46 -62.5s-25.334 -38.167 -35.001 -54.5s-16.167 -27.833 -19.5 -34.5zM826.004 269.999c-46 -68 -89.665 -126.167 -130.998 -174.5
s-80.333 -87.833 -117 -118.5s-70.5 -53 -101.5 -67s-59.5 -20 -85.5 -18c-33.333 2 -58.833 13.5 -76.5 34.5s-29.667 47 -36 78s-8 65.333 -5 103s8.33301 74.5 16 110.5s16.667 69.167 27 99.5s20.166 53.833 29.499 70.5c-38 -8 -80.833 -16.167 -128.5 -24.5
s-98.5 -15.833 -152.5 -22.5c-5.33301 0 -9.16602 1.16699 -11.499 3.5s-3.5 5 -3.5 8s1.16699 5.83301 3.5 8.5s5.5 4.33398 9.5 5.00098c60 7.33301 113.167 15.166 159.5 23.499s90.833 17.5 133.5 27.5c22.667 44.667 48.167 87.667 76.5 129s58.333 77.666 90 108.999
s64 55.833 97 73.5s65.5 25.5 97.5 23.5c26 -1.33301 47 -8.66602 63 -21.999s23.333 -33.333 22 -60c-2 -28 -13.167 -54.833 -33.5 -80.5s-46.333 -49.5 -78 -71.5s-67.334 -41.667 -107.001 -59s-79.834 -31.666 -120.501 -42.999c-6 -8.66699 -14.5 -26.667 -25.5 -54
s-22.167 -59 -33.5 -95s-21.5 -73.833 -30.5 -113.5s-14.5 -76.334 -16.5 -110.001s1 -61.834 9 -84.501s23.667 -35 47 -37c20 -1.33301 44.5 6.16699 73.5 22.5s60.667 40.333 95 72s70.5 70 108.5 115s76.333 95.5 115 151.5c7.33301 5.33301 13.333 6.33301 18 3
s5.66699 -8.66602 3 -15.999z" />
    <glyph glyph-name="D" unicode="D" horiz-adv-x="833" 
d="M-265 -383c49.333 -2 93.3291 6.33301 131.996 25s73.167 45 103.5 79s57 74.333 80 121s43.667 97 62 151s35 110.667 50 170l43 177l41 172c13.667 56 28.334 108 44.001 156s33.334 90.5 53.001 127.5s42.167 66.167 67.5 87.5
c-18 -9.33301 -36.5 -19.666 -55.5 -30.999s-36.5 -23.5 -52.5 -36.5s-30.167 -26.833 -42.5 -41.5s-20.833 -30 -25.5 -46h-81c7.33301 18 18.833 35 34.5 51s33.667 30.833 54 44.5s42.166 26 65.499 37s46.333 20.667 69 29s43.834 15 63.501 20s36.167 8.16699 49.5 9.5
c-19.333 -16.667 -36.666 -40.834 -51.999 -72.501s-29.666 -69.167 -42.999 -112.5c16 5.33301 31.333 9.16602 46 11.499s28 3.5 40 3.5c38 0 69.667 -8.66699 95 -26s45 -41 59 -71s23 -65 27 -105s3.66699 -82.5 -1 -127.5s-12.834 -91.333 -24.501 -139
s-26.5 -93.834 -44.5 -138.501c46 21.333 90 43.666 132 66.999s78.333 49 109 77c6 4.66699 11.667 5 17 1s5 -10 -1 -18c-34 -30.667 -74.667 -59 -122 -85s-96.666 -50.667 -147.999 -74c-17.333 -41.333 -36.666 -80 -57.999 -116s-43.833 -67.5 -67.5 -94.5
s-48.167 -48.167 -73.5 -63.5s-50.666 -23 -75.999 -23c-30 0 -54.5 7.33301 -73.5 22s-29.833 32.5 -32.5 53.5s4.16602 43.333 20.499 67s45.166 44.167 86.499 61.5l64 28.5l71 30.5c7.33301 3.33301 14.833 6.5 22.5 9.5s15.167 6.16699 22.5 9.5
c17.333 41.333 33 85.333 47 132s25.167 92.834 33.5 138.501s13.5 89.334 15.5 131.001s-0.333008 78.334 -7 110.001s-17.667 57 -33 76s-36.333 28.5 -63 28.5c-13.333 0 -28.166 -1.5 -44.499 -4.5s-33.5 -8.16699 -51.5 -15.5c-14 -49.333 -27.833 -103 -41.5 -161
l-43 -179c-15 -61.333 -31.5 -123 -49.5 -185s-38.333 -121.333 -61 -178s-48.334 -109.5 -77.001 -158.5s-61.5 -91.167 -98.5 -126.5s-78.5 -62.833 -124.5 -82.5s-97.667 -28.167 -155 -25.5c-5.33301 3.33301 -7.5 7.5 -6.5 12.5s4.16699 8.16699 9.5 9.5zM314.996 -5
c-28 -14 -48.6689 -28.332 -62.002 -42.999s-21.166 -28.334 -23.499 -41.001s0 -23.667 7 -33s17 -15 30 -17s28.167 0 45.5 6s35.333 17.667 54 35s37 40 55 68s34.667 59 50 93l-21 -9c-24 -10.667 -47.667 -20.667 -71 -30s-44.666 -19 -63.999 -29z" />
    <glyph glyph-name="E" unicode="E" horiz-adv-x="596" 
d="M442 542c17.333 15.333 34.002 31.499 50.002 48.499s30 33.5 42 49.5c18 23.333 28.333 41.5 31 54.5s0 21.5 -8 25.5s-20 3.83301 -36 -0.5s-34 -12.166 -54 -23.499c-25.333 -14.667 -49 -31.834 -71 -51.501s-40.833 -39.834 -56.5 -60.501
s-27.5 -40.834 -35.5 -60.501s-11.333 -36.667 -10 -51s8.16602 -24.833 20.499 -31.5s31.5 -7.66699 57.5 -3l29.5 9.5c9.66699 3 19.834 5.83301 30.501 8.5c10 2 16.333 0 19 -6s1 -12.667 -5 -20l-19 -7c-36 -14.667 -70.333 -36.5 -103 -65.5
s-62.334 -61.333 -89.001 -97s-49.5 -72.334 -68.5 -110.001s-32.667 -72.167 -41 -103.5s-10.5 -57.666 -6.5 -78.999s16 -33 36 -35c19.333 -2 46.666 4.83301 81.999 20.5s73.666 38.834 114.999 69.501s83.5 68.167 126.5 112.5s82.167 94.166 117.5 149.499
c5.33301 6 10.833 7.83301 16.5 5.5s6.83398 -7.83301 3.50098 -16.5c-34 -56 -73.333 -108.333 -118 -157s-90 -90.5 -136 -125.5s-90 -61.5 -132 -79.5s-77.333 -24 -106 -18c-32 6.66699 -55.167 20.834 -69.5 42.501s-21.333 47.834 -21 78.501
s7.16602 64.167 20.499 100.5s32.333 72.666 57 108.999s54.334 70.666 89.001 102.999s72.667 59.833 114 82.5c-25.333 4.66699 -44.5 14.834 -57.5 30.501s-20.167 34.334 -21.5 56.001s2.66699 45.167 12 70.5s23.333 50 42 74s41.667 45.833 69 65.5
s58.333 34.834 93 45.501c50 16 88.333 19.333 115 10s43 -26 49 -50s2.16699 -52.667 -11.5 -86s-35.834 -66.333 -66.501 -99c-17.333 -10 -32.166 -16 -44.499 -18s-22.5 -1.66699 -30.5 1s-13.667 7 -17 13s-4.33301 12.333 -3 19z" />
    <glyph glyph-name="F" unicode="F" horiz-adv-x="649" 
d="M367 491c21.333 0.666992 43.332 1.66699 65.999 3s45.334 3 68.001 5c10 30 20.667 58.5 32 85.5s24.333 50.833 39 71.5c22 32 44.833 55 68.5 69s45.834 21 66.501 21s39.167 -5.33301 55.5 -16s28.666 -24.5 36.999 -41.5s11.5 -36 9.5 -57s-10.667 -41.5 -26 -61.5
s-38.666 -38.167 -69.999 -54.5s-72.333 -28.833 -123 -37.5c-10.667 -40.667 -21.167 -83.834 -31.5 -129.501s-21.833 -92.5 -34.5 -140.5c20 -1.33301 38.667 -1.66602 56 -0.999023s32.666 2.83398 45.999 6.50098s24.166 9.16699 32.499 16.5s13.5 17.333 15.5 30
c-1.33301 -20 -6.33301 -35.833 -15 -47.5s-20 -20.5 -34 -26.5s-30.333 -9.66699 -49 -11s-38.667 -1.33301 -60 0c-13.333 -49.333 -28 -98 -44 -146s-34.5 -93.833 -55.5 -137.5s-44.833 -84.167 -71.5 -121.5s-57 -69.333 -91 -96s-72.167 -47 -114.5 -61
s-89.833 -20 -142.5 -18c-5.33301 3.33301 -7.5 7.5 -6.5 12.5s4.16699 8.16699 9.5 9.5c42 -2.66699 79.667 2.83301 113 16.5s63.333 33.667 90 60s50.5 57.666 71.5 93.999s39.833 75.833 56.5 118.5s31.834 87.667 45.501 135s26.5 95 38.5 143c-24 2 -48 3.66699 -72 5
s-46.5 0.5 -67.5 -2.5s-40 -8.33301 -57 -16s-30.833 -19.5 -41.5 -35.5c4 22.667 13.667 40.167 29 52.5s34.333 21 57 26s47.834 7.16699 75.501 6.5s56.167 -2 85.5 -4l33 132.5c10.667 43 22 83.5 34 121.5c-45.333 -2 -89 -3 -131 -3
c-6.66699 2 -9.33398 6.5 -8.00098 13.5s6.33301 10.5 15 10.5zM706.999 549c26.667 17.333 44.833 35.3369 54.5 54.0039s13.5 35.667 11.5 51s-8.33301 27.666 -19 36.999s-23.334 13.666 -38.001 12.999s-29.667 -7.83398 -45 -21.501s-28.666 -35.834 -39.999 -66.501
c-5.33301 -15.333 -10.833 -32.333 -16.5 -51l-16.5 -56c20 4 39.5 9.33301 58.5 16s35.833 14.667 50.5 24z" />
    <glyph glyph-name="G" unicode="G" horiz-adv-x="857" 
d="M593 27c24 10.667 47.5068 22.998 70.5068 36.998s45.5 31 67.5 51s43.5 43.833 64.5 71.5s41.5 60.5 61.5 98.5c2 3.33301 4.5 5.33301 7.5 6s5.83301 0.5 8.5 -0.5s4.83398 -2.66699 6.50098 -5s1.5 -5.5 -0.5 -9.5c-22.667 -42 -46 -78 -70 -108
s-48.5 -55.833 -73.5 -77.5s-50.333 -39.667 -76 -54s-51.834 -26.833 -78.501 -37.5c-14.667 -33.333 -29.834 -66 -45.501 -98s-32.5 -62.5 -50.5 -91.5s-36.833 -56.167 -56.5 -81.5s-40.834 -48 -63.501 -68c-44.667 -39.333 -86 -64.166 -124 -74.499
s-70.5 -10.833 -97.5 -1.5s-47.333 26.5 -61 51.5s-18.167 53.167 -13.5 84.5s19.667 63.666 45 96.999s63 63.333 113 90c40.667 22 82.5 38.167 125.5 48.5s86.5 21.5 130.5 33.5c11.333 29.333 22.333 59.333 33 90s20.667 62 30 94c-56 -66 -106.5 -113.333 -151.5 -142
s-84.5 -42 -118.5 -40c-29.333 2 -51.833 12.333 -67.5 31s-26.334 41.834 -32.001 69.501s-7.33398 58 -5.00098 91s7 65.5 14 97.5s15.167 61.5 24.5 88.5s18 47.833 26 62.5c-34 -7.33301 -72 -14.666 -114 -21.999s-87 -14 -135 -20
c-9.33301 0.666992 -13.833 4.16699 -13.5 10.5s4.16602 10.166 11.499 11.499c53.333 6.66699 100.5 13.667 141.5 21s80.5 15.333 118.5 24c20 39.333 42.5 77.333 67.5 114s51.5 68.834 79.5 96.501s56.667 49.5 86 65.5s58 23 86 21
c23.333 -1.33301 42.166 -8 56.499 -20s20.833 -29.667 19.5 -53c-2 -24.667 -12 -48.334 -30 -71.001s-41 -43.834 -69 -63.501s-59.667 -37.167 -95 -52.5s-71 -28 -107 -38c-5.33301 -8 -12.833 -24 -22.5 -48s-19.5 -52 -29.5 -84s-19 -65.5 -27 -100.5
s-12.833 -67.333 -14.5 -97s1.16602 -54.667 8.49902 -75s21 -31.166 41 -32.499c14.667 -1.33301 31.667 2.66699 51 12s40.5 23.333 63.5 42s47.5 41.334 73.5 68.001s52.667 57 80 91l64 247c8.66699 -9.33301 17.667 -14.166 27 -14.499s18 0.5 26 2.5
s14.833 3.33301 20.5 4s9.16699 -3 10.5 -11l-30.5 -122c-7.66699 -32 -14.334 -58.833 -20.001 -80.5l-14.5 -55l-12.5 -46c-4.33301 -15.667 -9.66602 -33.334 -15.999 -53.001zM473.007 -37.002c-39.333 -11.333 -78.668 -21.8301 -118.001 -31.4971
s-77.333 -24.834 -114 -45.501c-36.667 -18 -66 -39.833 -88 -65.5s-37.167 -51.167 -45.5 -76.5s-10.166 -48.333 -5.49902 -69s15.167 -35.334 31.5 -44.001s38.166 -9.16699 65.499 -1.5s59.666 27.5 96.999 59.5c16.667 14 33.334 31.333 50.001 52
s32.5 43.167 47.5 67.5s29.333 49.666 43 75.999s25.834 52.5 36.501 78.5zM350.005 480.001c42.667 14 77.4971 28.165 104.497 42.498s50.5 28.5 70.5 42.5c33.333 23.333 56 45.5 68 66.5s18.667 38.833 20 53.5c1.33301 9.33301 -0.166992 16.833 -4.5 22.5
s-11.166 8.83398 -20.499 9.50098c-16.667 0.666992 -33.667 -3.66602 -51 -12.999s-34.166 -21.833 -50.499 -37.5s-32.166 -33 -47.499 -52s-29 -37.5 -41 -55.5s-22.167 -34.167 -30.5 -48.5z" />
    <glyph glyph-name="H" unicode="H" horiz-adv-x="739" 
d="M167 227c4.66699 26.667 16.8262 46.167 36.4932 58.5s43.834 20.166 72.501 23.499l60.5 222c19 72 38.833 138.333 59.5 199c-19.333 -8.66699 -40 -18.667 -62 -30s-42.833 -23.833 -62.5 -37.5s-37 -28.667 -52 -45s-25.5 -33.5 -31.5 -51.5h-81
c9.33301 24 25.5 46.333 48.5 67s49 38.834 78 54.501s59 28.667 90 39s59.5 17.166 85.5 20.499c9.33301 2 22.5 2.83301 39.5 2.5s30.167 -0.5 39.5 -0.5c-19.333 -62.667 -38.833 -131.5 -58.5 -206.5s-41.5 -152.167 -65.5 -231.5c22 -1.33301 44.333 -3 67 -5
s44.667 -3.66699 66 -5l40.5 135l40.5 132l35 114.5l25 80.5c7.33301 -10 15.333 -15.667 24 -17s16.834 -1.33301 24.501 0s14.167 2.16602 19.5 2.49902s8 -3.5 8 -11.5c-3.33301 -10 -9.5 -29.667 -18.5 -59l-33 -104l-41.5 -131.5l-43 -142.5
c24 1.33301 43.667 5.83301 59 13.5s24.333 20.5 27 38.5c-2 -29.333 -11.5 -50 -28.5 -62s-39.167 -19.333 -66.5 -22c-12 -40 -22.833 -77.833 -32.5 -113.5s-17.5 -67 -23.5 -94s-9.66699 -48.5 -11 -64.5s0.333984 -24 5.00098 -24c12 0 25 5.83301 39 17.5
s28.167 26.834 42.5 45.501s28.833 39.334 43.5 62.001s28.5 45.667 41.5 69l36.5 66l29 53c4.66699 5.33301 9.83398 7.16602 15.501 5.49902s7.16699 -7.16699 4.5 -16.5l-29 -54.5l-37.5 -68.5c-13.667 -24 -28.167 -48 -43.5 -72s-31.166 -45.5 -47.499 -64.5
s-32.833 -34.5 -49.5 -46.5s-33 -18 -49 -18c-11.333 0 -20.833 2.5 -28.5 7.5s-14 11.667 -19 20s-8.66699 17.833 -11 28.5s-3.5 22 -3.5 34c0 24 4.16699 56 12.5 96s19.5 84 33.5 132c-21.333 1.33301 -43.166 3.33301 -65.499 6s-44.5 4.66699 -66.5 6
c-18.667 -58.667 -38.667 -116.5 -60 -173.5s-44.833 -111.333 -70.5 -163s-53.667 -99.167 -84 -142.5s-63.833 -80.666 -100.5 -111.999s-76.667 -55.333 -120 -72s-90.333 -24 -141 -22c-5.33301 3.33301 -7.5 7.5 -6.5 12.5s4.16699 8.16699 9.5 9.5
c44 -2 84.333 5.33301 121 22s70.334 40 101.001 70s58.5 66 83.5 108s48.167 87.833 69.5 137.5s41 102 59 157s35 110.833 51 167.5c-21.333 -3.33301 -40.5 -8.83301 -57.5 -16.5s-31.167 -19.5 -42.5 -35.5z" />
    <glyph glyph-name="I" unicode="I" horiz-adv-x="289" 
d="M-391 -383c61.333 -2.66699 114.335 10.332 159.002 38.999s83.667 67.834 117 117.501s61.833 107.5 85.5 173.5s45 135.167 64 207.5s36.5 145.333 52.5 219s33 143 51 208s38.167 123.333 60.5 175s48.833 91.834 79.5 120.501
c-17.333 -9.33301 -34.833 -19.5 -52.5 -30.5s-34 -22.833 -49 -35.5s-28 -26 -39 -40s-18.833 -28.333 -23.5 -43h-81c10 25.333 28.167 48.666 54.5 69.999s55.666 40.166 87.999 56.499s65.5 30 99.5 41s63.667 18.833 89 23.5c-26 -22.667 -48.833 -59.167 -68.5 -109.5
s-38.167 -109.166 -55.5 -176.499s-35 -140.166 -53 -218.499s-38.333 -156.5 -61 -234.5s-48.834 -152.833 -78.501 -224.5s-65 -134.834 -106 -189.501s-89 -97.667 -144 -129s-118.833 -45.333 -191.5 -42c-5.33301 3.33301 -7.5 7.5 -6.5 12.5s4.16699 8.16699 9.5 9.5z
" />
    <glyph glyph-name="J" unicode="J" horiz-adv-x="946" 
d="M535 558c7.33301 18 18.835 35.001 34.502 51.001s33.667 30.833 54 44.5s42.166 26 65.499 37s46.333 20.667 69 29s43.834 15 63.501 20s36.167 8.16699 49.5 9.5c-11.333 -38.667 -23 -80.667 -35 -126l-37.5 -141.5l-42 -151
c-15 -51.667 -31.167 -102.834 -48.5 -153.501c24 6 47.5 12.333 70.5 19s44.833 14.167 65.5 22.5s39.667 17.833 57 28.5s32.333 23.334 45 38.001c2 2 5 3.33301 9 4s7.5 0.166992 10.5 -1.5s5 -4.33398 6 -8.00098s-0.166992 -8.5 -3.5 -14.5
c-14.667 -17.333 -32 -32 -52 -44s-41.667 -22.5 -65 -31.5s-48.166 -17.167 -74.499 -24.5l-79.5 -22c-17.333 -48 -36 -95.5 -56 -142.5s-41.833 -91.5 -65.5 -133.5s-49.334 -80.667 -77.001 -116s-57.5 -65.333 -89.5 -90c-38 -30 -76 -49.667 -114 -59
s-72.667 -10.666 -104 -3.99902s-58 20 -80 40s-36 44.333 -42 73s-2.5 60.834 10.5 96.501s38.833 72.5 77.5 110.5c23.333 23.333 49.5 44.666 78.5 63.999s58.667 37 89 53s60.333 30.5 90 43.5s57.167 24.5 82.5 34.5c16 6.66699 33.667 13 53 19l59 18
c18 52.667 34.5 104.5 49.5 155.5l42.5 147.5l38.5 134.5c12.333 42.333 24.5 81.5 36.5 117.5c-17.333 -9.33301 -34.5 -19.5 -51.5 -30.5s-32.833 -22.667 -47.5 -35s-27.334 -25.333 -38.001 -39s-18.334 -27.834 -23.001 -42.501h-81zM371.002 -291.999
c48 46 90.333 104.335 127 175.002s70 148.334 100 233.001c-15.333 -4.66699 -30.333 -9.66699 -45 -15l-44 -16l-81 -33.5c-29.333 -12.333 -58.666 -26 -87.999 -41s-58 -31.667 -86 -50s-53.333 -38.5 -76 -60.5c-32.667 -31.333 -55 -62.166 -67 -92.499
s-16.5 -57.833 -13.5 -82.5s12.833 -45.334 29.5 -62.001s37.5 -26.834 62.5 -30.501s53.167 0.166016 84.5 11.499s63.666 32.666 96.999 63.999z" />
    <glyph glyph-name="K" unicode="K" horiz-adv-x="955" 
d="M70 -383c63.333 -2.66699 118.157 11.5 164.49 42.5s86.333 73.167 120 126.5s62.334 115.166 86.001 185.499s45 143.5 64 219.5s37 151.833 54 227.5s35.333 146 55 211s42 121.5 67 169.5s55.167 82 90.5 102c-19.333 -9.33301 -40.166 -20 -62.499 -32
s-43.666 -25.333 -63.999 -40s-38.166 -30.5 -53.499 -47.5s-26 -34.833 -32 -53.5h-81c14.667 28.667 35.834 54.167 63.501 76.5s57.834 41.5 90.501 57.5s66 28.833 100 38.5s65 15.834 93 18.501c-22 -18.667 -41.5 -47.334 -58.5 -86.001s-33 -84 -48 -136
s-29.667 -109 -44 -171s-29.833 -125.667 -46.5 -191l87 71c30 25.333 56.833 50.333 80.5 75s41.334 48.167 53.001 70.5s12.834 41.833 3.50098 58.5c18 -21.333 27 -42 27 -62s-6.66699 -40.833 -20 -62.5s-32.166 -44.167 -56.499 -67.5
s-52.166 -48.666 -83.499 -75.999c19.333 0.666992 35.5 -3.66602 48.5 -12.999s18.833 -24.666 17.5 -45.999c-0.666992 -20.667 -3.83398 -43 -9.50098 -67s-12 -47.667 -19 -71s-14 -45.333 -21 -66l-16.5 -50c-3.33301 -10.667 -5.16602 -21.834 -5.49902 -33.501
s3.16699 -17.5 10.5 -17.5c12 0 25 5.66699 39 17s28.167 26 42.5 44s28.666 38.333 42.999 61s28 45.334 41 68.001l36.5 65l29 52c4.66699 5.33301 9.83398 7.16602 15.501 5.49902s7.16699 -7.16699 4.5 -16.5l-29 -54.5l-37.5 -68.5c-13.667 -24 -28.167 -48 -43.5 -72
s-31.166 -45.5 -47.499 -64.5s-32.833 -34.5 -49.5 -46.5s-33 -18 -49 -18c-21.333 0 -37.666 4.33301 -48.999 13s-19.166 20.167 -23.499 34.5s-5.83301 31.166 -4.5 50.499s4.5 39.666 9.5 60.999s11 43 18 65l20.5 63c10 26 12.667 44 8 54s-13 13.667 -25 11
l-34.5 -30.5l-35.5 -32.5c-15.333 -55.333 -31.833 -110 -49.5 -164s-37.834 -105.167 -60.501 -153.5s-47.834 -93 -75.501 -134s-58.834 -76.167 -93.501 -105.5s-73.167 -51.666 -115.5 -66.999s-89.5 -22 -141.5 -20c-5.33301 3.33301 -7.5 7.5 -6.5 12.5
s4.16699 8.16699 9.5 9.5z" />
    <glyph glyph-name="L" unicode="L" horiz-adv-x="726" 
d="M861 -15c-0.666992 -40 -9.50293 -70.4961 -26.5029 -91.4961s-38.833 -35.5 -65.5 -43.5s-57 -10.833 -91 -8.5s-68.5 6.83301 -103.5 13.5s-69.167 14.334 -102.5 23.001s-63 15.334 -89 20.001c-21.333 -30 -44.833 -57.167 -70.5 -81.5s-54.167 -44.5 -85.5 -60.5
c-45.333 -23.333 -84 -35.833 -116 -37.5s-57.667 3.16602 -77 14.499s-32 27.333 -38 48s-5.5 41.667 1.5 63s20.333 41.166 40 59.499s45.834 31.166 78.501 38.499c36 8 71.833 10.833 107.5 8.5s70.167 -6.16602 103.5 -11.499c24.667 46.667 46.667 99.667 66 159
s37.333 120.666 54 183.999l49 189.5c16 63 33 122 51 177s37.833 103.5 59.5 145.5s46.834 73.667 75.501 95c-18.667 -9.33301 -38 -19.833 -58 -31.5s-38.667 -24.334 -56 -38.001s-32.5 -28.167 -45.5 -43.5s-22.167 -31.333 -27.5 -48h-81
c10.667 26.667 30.5 51.334 59.5 74.001s60.833 42.167 95.5 58.5s69 29.666 103 39.999s61.667 16.5 83 18.5c-24.667 -20.667 -46 -52.667 -64 -96s-34.833 -93.5 -50.5 -150.5s-31 -118.5 -46 -184.5s-31.5 -132.333 -49.5 -199s-38.5 -131.334 -61.5 -194.001
s-50.167 -119 -81.5 -169c22 -3.33301 47.667 -8.83301 77 -16.5s60 -14.834 92 -21.501s63.833 -11.5 95.5 -14.5s60.834 -1.83301 87.501 3.5s49.5 16.5 68.5 33.5s31.833 41.833 38.5 74.5zM310.997 -89.9961c-32.667 5.33301 -65.334 8.33301 -98.001 9
s-64 -3.33301 -94 -12c-24.667 -6.66699 -44.167 -17.334 -58.5 -32.001s-24 -30.167 -29 -46.5s-5.33301 -31.666 -1 -45.999s13.5 -25 27.5 -32s32.667 -8.33301 56 -4s51.333 17.5 84 39.5c22.667 14.667 43.334 32.5 62.001 53.5s35.667 44.5 51 70.5z" />
    <glyph glyph-name="M" unicode="M" horiz-adv-x="988" 
d="M-306 -383c49.333 -2 93.3252 6.32715 131.992 24.9941s73.167 45 103.5 79s57 74.333 80 121s43.667 97 62 151s35 110.667 50 170l43 177l41 172c13.667 56 28.334 108 44.001 156s33.334 90.5 53.001 127.5s42.167 66.167 67.5 87.5
c-18 -9.33301 -36.5 -19.666 -55.5 -30.999s-36.5 -23.5 -52.5 -36.5s-30.167 -26.833 -42.5 -41.5s-20.833 -30 -25.5 -46h-81c7.33301 18 18.833 35 34.5 51s33.667 30.833 54 44.5s42.166 26 65.499 37s46.333 20.667 69 29s43.834 15 63.501 20s36.167 8.16699 49.5 9.5
c-14 -12 -26.833 -28 -38.5 -48s-22.834 -43.5 -33.501 -70.5s-20.834 -56.833 -30.501 -89.5s-19.167 -67.334 -28.5 -104.001c30 42 61.167 76 93.5 102s66.5 39.667 102.5 41c19.333 0.666992 35.166 -2.83301 47.499 -10.5s21.833 -18.667 28.5 -33
s10.667 -31.5 12 -51.5s0.666016 -42.333 -2.00098 -67c32 47.333 65 85.833 99 115.5s70.667 45.167 110 46.5c29.333 0.666992 51 -7.5 65 -24.5s22.167 -40.333 24.5 -70s0 -64.167 -7 -103.5s-16.5 -80.666 -28.5 -123.999s-25.667 -87.166 -41 -131.499l-44 -126.5
l-37.5 -108.5c-11 -32.333 -18.5 -58.166 -22.5 -77.499c-1.33301 -5.33301 -2 -11.5 -2 -18.5s0.833008 -13.833 2.5 -20.5s4.33398 -12.167 8.00098 -16.5s8.5 -5.83301 14.5 -4.5c16.667 2.66699 32.834 10.5 48.501 23.5s30.834 29.333 45.501 49
s28.834 41.834 42.501 66.501s26.834 49.834 39.501 75.501l36.5 76.5c11.667 25.333 23.167 48.666 34.5 69.999c2 2.66699 4.33301 4.33398 7 5.00098s5.33398 0.5 8.00098 -0.5s4.66699 -2.66699 6 -5s1 -5.5 -1 -9.5c-8.66699 -17.333 -18.5 -38.166 -29.5 -62.499
l-36.5 -77.5c-13.333 -27.333 -27.5 -54.666 -42.5 -81.999s-31.167 -52.333 -48.5 -75s-35.666 -41.667 -54.999 -57s-39.666 -24.333 -60.999 -27c-25.333 -3.33301 -43.833 1.83398 -55.5 15.501s-18.5 33.167 -20.5 58.5s0 55.666 6 90.999s14.333 73 25 113
s22.667 81.5 36 124.5l39.5 125c13 40.333 24.667 78.5 35 114.5s17.666 67.167 21.999 93.5s5 47 2 62s-11.5 21.5 -25.5 19.5c-16 -2 -32.833 -9.16699 -50.5 -21.5s-35.667 -28.666 -54 -48.999s-37.166 -44.333 -56.499 -72s-38.666 -57.5 -57.999 -89.5
c-8.66699 -36.667 -19.167 -74.5 -31.5 -113.5l-37.5 -116.5l-38 -112.5c-12.667 -36.333 -23.667 -70 -33 -101s-16.833 -58.667 -22.5 -83s-7.83398 -43.5 -6.50098 -57.5c-22.667 4.66699 -37 20.334 -43 47.001s-6.33301 59.834 -1 99.501s14.833 84.167 28.5 133.5
s28.334 99 44.001 149l46 146c15 47.333 26.667 89.166 35 125.499s11.833 65.166 10.5 86.499s-10.333 31 -27 29c-16 -2 -32.667 -9 -50 -21s-35.166 -28 -53.499 -48s-37 -43.333 -56 -70s-37.833 -55.667 -56.5 -87l-50 -205
c-17.333 -70.667 -37.5 -139.334 -60.5 -206.001s-49.167 -129.667 -78.5 -189s-63.5 -110.833 -102.5 -154.5s-83.5 -77.834 -133.5 -102.501s-107.333 -35.667 -172 -33c-5.33301 3.33301 -7.5 7.5 -6.5 12.5s4.16699 8.16699 9.5 9.5z" />
    <glyph glyph-name="N" unicode="N" horiz-adv-x="705" 
d="M113 728c7.33301 18 18.8252 34.9912 34.4922 50.9912s33.667 30.833 54 44.5s42.166 26 65.499 37s46.333 20.667 69 29s43.834 15 63.501 20s36.167 8.16699 49.5 9.5c-14.667 -12.667 -28.334 -29.834 -41.001 -51.501s-24.5 -47.167 -35.5 -76.5
s-21.333 -61.833 -31 -97.5l-29.5 -113.5c16 24.667 32.5 47.167 49.5 67.5s34.333 38 52 53s35.834 26.833 54.501 35.5s38 13.334 58 14.001c29.333 0.666992 51 -7.5 65 -24.5s22.167 -40.333 24.5 -70s0 -64.167 -7 -103.5s-16.5 -80.666 -28.5 -123.999
s-25.667 -87.166 -41 -131.499l-44 -126.5l-37.5 -108.5c-11 -32.333 -18.5 -58.166 -22.5 -77.499c-1.33301 -5.33301 -2 -11.5 -2 -18.5s0.833008 -13.833 2.5 -20.5s4.33398 -12.167 8.00098 -16.5s8.5 -5.83301 14.5 -4.5c16.667 2.66699 32.834 10.5 48.501 23.5
s30.834 29.333 45.501 49s28.834 41.834 42.501 66.501s26.834 49.834 39.501 75.501l36.5 76.5c11.667 25.333 23.167 48.666 34.5 69.999c2 2.66699 4.33301 4.33398 7 5.00098s5.33398 0.5 8.00098 -0.5s4.66699 -2.66699 6 -5s1 -5.5 -1 -9.5
c-8.66699 -17.333 -18.5 -38.166 -29.5 -62.499l-36.5 -77.5c-13.333 -27.333 -27.5 -54.833 -42.5 -82.5s-31.167 -52.667 -48.5 -75s-35.666 -41.166 -54.999 -56.499s-39.666 -24.333 -60.999 -27c-25.333 -3.33301 -43.833 1.83398 -55.5 15.501
s-18.5 33.167 -20.5 58.5s0 55.666 6 90.999s14.333 73 25 113s22.667 81.5 36 124.5l39.5 125c13 40.333 24.667 78.5 35 114.5s17.666 67.167 21.999 93.5s5 47 2 62s-11.5 21.5 -25.5 19.5c-17.333 -2 -35.5 -10 -54.5 -24s-38.5 -32.5 -58.5 -55.5
s-40.333 -49.833 -61 -80.5s-41.334 -64 -62.001 -100c-15.333 -65.333 -31.833 -132.166 -49.5 -200.499s-38 -134.666 -61 -198.999s-49 -124.833 -78 -181.5s-62.833 -105.834 -101.5 -147.501s-82.5 -74 -131.5 -97s-104.833 -33.167 -167.5 -30.5
c-5.33301 3.33301 -7.5 7.5 -6.5 12.5s4.16699 8.16699 9.5 9.5c49.333 -2 93.333 6.33301 132 25s73.167 45 103.5 79s57 74.333 80 121s43.667 97 62 151s35 110.667 50 170l43 177l41 172c13.667 56 28.334 108 44.001 156s33.334 90.5 53.001 127.5
s42.167 66.167 67.5 87.5c-18 -9.33301 -36.5 -19.666 -55.5 -30.999s-36.5 -23.5 -52.5 -36.5s-30.167 -26.833 -42.5 -41.5s-20.833 -30 -25.5 -46h-81z" />
    <glyph glyph-name="O" unicode="O" horiz-adv-x="682" 
d="M702 274c-27.333 -44 -59.3271 -74.001 -95.9941 -90.001s-75.334 -22.333 -116.001 -19c-13.333 -33.333 -28.833 -65.333 -46.5 -96s-36.834 -58.167 -57.501 -82.5s-42.667 -44.833 -66 -61.5s-47.333 -27.334 -72 -32.001c-44.667 -8.66699 -80.667 -2.5 -108 18.5
s-47.333 51.333 -60 91s-18.334 86.334 -17.001 140.001s8.33301 108.834 21 165.501s30.334 112.334 53.001 167.001s49.167 103 79.5 145s64 75.167 101 99.5s75.833 34.5 116.5 30.5c14 -2 19.333 -8.33301 16 -19c-24.667 0.666992 -50 -11.333 -76 -36
s-51.167 -56.834 -75.5 -96.501s-47 -85 -68 -136s-39 -102.667 -54 -155s-26 -103.166 -33 -152.499s-8.5 -92.666 -4.5 -129.999s14.333 -66.166 31 -86.499s41 -27.5 73 -21.5c28.667 5.33301 55 19 79 41s45.167 46.667 63.5 74s33.666 54.166 45.999 80.499
s21.5 46.833 27.5 61.5c-36 12 -65.833 34.167 -89.5 66.5s-39.834 71.166 -48.501 116.499c-6.66699 35.333 -8.16699 72 -4.5 110s11.667 73.333 24 106s28.666 60.5 48.999 83.5s44.166 37.167 71.499 42.5c23.333 5.33301 44.333 0.333008 63 -15s31.667 -41.333 39 -78
c4.66699 -23.333 6.5 -51.333 5.5 -84s-4.5 -67.667 -10.5 -105s-14 -75.5 -24 -114.5s-22 -76.833 -36 -113.5c36.667 -1.33301 71 5.5 103 20.5s59 40.167 81 75.5c4 5.33301 9 7.16602 15 5.49902s7.66699 -7.16699 5 -16.5zM350.006 362.999
c8 -39.333 21.666 -74.832 40.999 -106.499s44.666 -52.834 75.999 -63.501c13.333 36 25.166 73.167 35.499 111.5s18.5 75.666 24.5 111.999s9.66699 70.333 11 102s0 58.834 -4 81.501c-5.33301 26.667 -14.166 44.667 -26.499 54s-25.5 12.333 -39.5 9
c-23.333 -4.66699 -43.666 -17.167 -60.999 -37.5s-31.166 -45 -41.499 -74s-17 -60.167 -20 -93.5s-1.5 -65 4.5 -95z" />
    <glyph glyph-name="P" unicode="P" horiz-adv-x="1021" 
d="M48 -456c-5.33301 3.33301 -7.49414 7.49316 -6.49414 12.4932s4.16699 8.16699 9.5 9.5c61.333 -2.66699 114.166 9.83301 158.499 37.5s82.833 65.5 115.5 113.5s60.334 103.833 83.001 167.5s43 130.334 61 200.001s34.5 140.167 49.5 211.5s31.167 138.5 48.5 201.5
s36.666 119.333 57.999 169s47.333 88.167 78 115.5c-18 -9.33301 -36.167 -19.666 -54.5 -30.999s-35.333 -23.5 -51 -36.5s-29.334 -26.667 -41.001 -41s-19.834 -29.166 -24.501 -44.499h-81c10 24 27.333 46.333 52 67s52.167 39 82.5 55s61.166 29.5 92.499 40.5
s58.666 18.833 81.999 23.5l13.5 4c4.33301 1.33301 9.16602 2.33301 14.499 3l-2 -2h1c-0.666992 0 -1 -0.166992 -1 -0.5s-0.333008 -0.5 -1 -0.5c-13.333 -12.667 -26 -29.167 -38 -49.5s-23 -44.166 -33 -71.499c45.333 4 83.833 0.5 115.5 -10.5
s57.334 -27.5 77.001 -49.5s34 -48.167 43 -78.5s13.167 -62.666 12.5 -96.999s-5.5 -69.666 -14.5 -105.999s-21.5 -71.166 -37.5 -104.499s-35 -64 -57 -92s-46.333 -51.333 -73 -70c-25.333 -18 -50 -31.667 -74 -41s-46.333 -15.333 -67 -18s-39.334 -2.66699 -56.001 0
s-31 7.66699 -43 15c-21.333 -68.667 -46.333 -134 -75 -196s-62.5 -116.167 -101.5 -162.5s-84.333 -82.5 -136 -108.5s-111.5 -37.667 -179.5 -35zM725.006 115.993c27.333 22 52.0029 50.833 74.0029 86.5s39.833 73.667 53.5 114s22.167 81.333 25.5 123
s-0.333984 79.667 -11.001 114s-28.834 63 -54.501 86s-60.834 36.5 -105.501 40.5c-14 -38.667 -27 -82 -39 -130l-36.5 -151.5l-39 -164c-13.667 -56.333 -28.834 -111.833 -45.501 -166.5c7.33301 -4.66699 17.333 -7.66699 30 -9s26.834 -0.333008 42.501 3
s32.5 9.33301 50.5 18s36.333 20.667 55 36z" />
    <glyph glyph-name="Q" unicode="Q" horiz-adv-x="669" 
d="M588 34c-5.33301 -37.333 -14.6699 -63.498 -28.0029 -78.498s-29 -22.667 -47 -23s-38 4 -60 13s-44 18.833 -66 29.5c-19.333 -20.667 -39.666 -38 -60.999 -52s-43.666 -23.333 -66.999 -28c-34 -6.66699 -62.833 -4.66699 -86.5 6s-42.667 27.667 -57 51
s-24.333 52 -30 86s-7.5 71 -5.5 111s7.33301 82 16 126s20.334 87.667 35.001 131c-23.333 -23.333 -46.166 -43.333 -68.499 -60s-44.666 -27.167 -66.999 -31.5s-45.166 -1 -68.499 10s-47 32.5 -71 64.5c33.333 -17.333 64 -26.333 92 -27s54.167 4.16602 78.5 14.499
s47.5 25.333 69.5 45s43.667 41.5 65 65.5c18.667 44 40 85 64 123s49.667 71 77 99s56.5 49.333 87.5 64s62.833 20.334 95.5 17.001c14 -2 19.333 -8.33301 16 -19c-21.333 -2 -42.5 -10.333 -63.5 -25s-42.167 -34.334 -63.5 -59.001l11 6
c21.333 10.667 42.833 18.667 64.5 24s41.5 6 59.5 2s33.667 -13.333 47 -28s22.666 -37 27.999 -67c4.66699 -24.667 6.66699 -53.334 6 -86.001s-4.33398 -68.167 -11.001 -106.5s-16 -78.833 -28 -121.5s-26.333 -86 -43 -130c-12 -32 -26 -63 -42 -93
s-33.667 -57 -53 -81c16.667 -8 33 -14.833 49 -20.5s31.5 -8.16699 46.5 -7.5s29.167 5.16699 42.5 13.5s25.666 22.5 36.999 42.5zM253.996 -79.998c20 4.66699 38.8311 13.1631 56.498 25.4961s34.167 26.5 49.5 42.5c-16.667 8 -32.667 14.5 -48 19.5
s-29.666 6.83301 -42.999 5.5c-11.333 -0.666992 -20.666 -2.66699 -27.999 -6s-13.833 -7 -19.5 -11s-10.334 -8.16699 -14.001 -12.5s-7.5 -8.16602 -11.5 -11.499c10 26.667 22 45.834 36 57.501s29.333 18 46 19s34 -1.83301 52 -8.5s36.333 -14.334 55 -23.001
c12.667 16.667 24.334 34.167 35.001 52.5s20.167 36.166 28.5 53.499l22.5 48.5c6.66699 15 12 27.5 16 37.5c14.667 37.333 27.167 75.166 37.5 113.499s18.5 75.5 24.5 111.5s9.5 69.667 10.5 101s-0.5 59 -4.5 83c-5.33301 25.333 -14 43.5 -26 54.5s-26 17 -42 18
s-33.333 -2.33301 -52 -10s-37.667 -17.5 -57 -29.5c-11.333 -7.33301 -22.5 -15.166 -33.5 -23.499s-21.5 -17.166 -31.5 -26.499c-26 -43.333 -50 -91 -72 -143s-40.5 -104.167 -55.5 -156.5s-26 -102.666 -33 -150.999s-8.33301 -90.666 -4 -126.999
s15 -64.166 32 -83.499s41.5 -26 73.5 -20z" />
    <glyph glyph-name="R" unicode="R" horiz-adv-x="1010" 
d="M48 -456c-5.33301 3.33301 -7.49316 7.49805 -6.49316 12.498s4.16699 8.16699 9.5 9.5c61.333 -2.66699 114.166 9.83301 158.499 37.5s82.833 65.5 115.5 113.5s60.334 103.833 83.001 167.5s43 130.334 61 200.001s34.5 140.167 49.5 211.5s31.167 138.5 48.5 201.5
s36.666 119.333 57.999 169s47.333 88.167 78 115.5c-18 -9.33301 -36.167 -19.666 -54.5 -30.999s-35.333 -23.5 -51 -36.5s-29.334 -26.667 -41.001 -41s-19.834 -29.166 -24.501 -44.499h-81c10 24 27.333 46.333 52 67s52.167 39 82.5 55s61.166 29.5 92.499 40.5
s58.666 18.833 81.999 23.5l13.5 4c4.33301 1.33301 9.16602 2.33301 14.499 3l-2 -2h1c-0.666992 0 -1 -0.166992 -1 -0.5s-0.333008 -0.5 -1 -0.5c-13.333 -12.667 -26 -29.167 -38 -49.5s-23 -44.166 -33 -71.499c60 5.33301 108.5 -1.33398 145.5 -20.001
s64.167 -44.834 81.5 -78.501s25.666 -72.334 24.999 -116.001s-8.33398 -87.5 -23.001 -131.5s-35.334 -85.5 -62.001 -124.5s-57.667 -70.833 -93 -95.5c-30.667 -21.333 -59.667 -36.666 -87 -45.999s-52.666 -14.333 -75.999 -15c24 -24 44 -52.833 60 -86.5
s30.167 -69.5 42.5 -107.5s23.5 -77 33.5 -117s21.333 -78.5 34 -115.5s27.5 -71.333 44.5 -103s38.167 -58 63.5 -79s55.833 -35.5 91.5 -43.5s78.834 -7.33301 129.501 2c6 0 9.83301 -2.5 11.5 -7.5s-0.166016 -9.83301 -5.49902 -14.5
c-56 -10.667 -105.333 -11.334 -148 -2.00098s-80.167 25.833 -112.5 49.5s-60.333 53.167 -84 88.5s-44.5 73 -62.5 113s-34 81.167 -48 123.5l-40 121.5c-12.667 38.667 -25.834 73.667 -39.501 105s-29.167 56.333 -46.5 75c-22 -71.333 -47.167 -139.666 -75.5 -204.999
s-62.333 -122.5 -102 -171.5s-86 -87.5 -139 -115.5s-114.5 -40.333 -184.5 -37zM733.007 157.998c27.333 22 51.834 49.834 73.501 83.501s39 69.167 52 106.5s20.833 74.833 23.5 112.5s-1.5 72.167 -12.5 103.5s-29.667 57.5 -56 78.5s-61.833 33.5 -106.5 37.5
c-12.667 -36 -24.667 -76 -36 -120l-34.5 -139l-35.5 -150.5c-12 -51.667 -25.333 -103.167 -40 -154.5c5.33301 -2 10 -4.33301 14 -7s8.33301 -5.33398 13 -8.00098c18.667 -1.33301 40.667 2.16699 66 10.5s51.666 23.833 78.999 46.5z" />
    <glyph glyph-name="S" unicode="S" horiz-adv-x="527" 
d="M527 285c5.33301 3.33301 9.33398 3.66699 12.001 1s2.66699 -7 0 -13c-20.667 -25.333 -46.167 -45 -76.5 -59s-62.5 -26.667 -96.5 -38c9.33301 -33.333 14.666 -66.333 15.999 -99s-4.66699 -65 -18 -97c-16.667 -40.667 -38.167 -71.334 -64.5 -92.001
s-53.666 -33.5 -81.999 -38.5s-55.166 -3 -80.499 6s-45.166 23.333 -59.499 43s-21 43.667 -20 72s13.833 59.166 38.5 92.499c20 27.333 46 49 78 65s66.333 30 103 42c-11.333 36 -24.666 72.5 -39.999 109.5s-28.666 73.833 -39.999 110.5
s-18.666 72.834 -21.999 108.501s1.33398 70.5 14.001 104.5c10 26 22.5 48.333 37.5 67s31.333 34 49 46s36 20.833 55 26.5s37.833 8.5 56.5 8.5c34.667 0 62 -7.16699 82 -21.5s33.833 -33 41.5 -56s10.167 -48.333 7.5 -76s-8.66699 -55 -18 -82
s-21.333 -51.833 -36 -74.5s-30.334 -40 -47.001 -52c-8.66699 -4.66699 -18.334 -7.33398 -29.001 -8.00098s-20.834 0 -30.501 2s-18.5 5.33301 -26.5 10s-13.333 10 -16 16c13.333 4 28.333 14.333 45 31s32.5 36.334 47.5 59.001s27.833 46.834 38.5 72.501
s16.667 49.167 18 70.5s-2.83398 39 -12.501 53s-27.5 21 -53.5 21c-12.667 0 -25.667 -2.66699 -39 -8s-26 -13.5 -38 -24.5s-23 -24.5 -33 -40.5s-17.667 -35 -23 -57c-6.66699 -31.333 -7.33398 -63 -2.00098 -95s13.5 -64.167 24.5 -96.5s23.333 -65.166 37 -98.499
s25.5 -66.333 35.5 -99c33.333 10.667 64.666 22.667 93.999 36s53.666 30.666 72.999 51.999zM113.001 50.001c-20.667 -27.333 -32.333 -51.666 -35 -72.999s0.5 -39.333 9.5 -54s22 -25.5 39 -32.5s35.167 -9.33301 54.5 -7s38.166 9.66602 56.499 21.999
s32.833 30.5 43.5 54.5c13.333 30 19.333 60.833 18 92.5s-6.66602 64.5 -15.999 98.5c-34 -11.333 -65.833 -24.5 -95.5 -39.5s-54.5 -35.5 -74.5 -61.5z" />
    <glyph glyph-name="T" unicode="T" horiz-adv-x="433" 
d="M-147 817c9.33301 -35.333 29.9951 -61.835 61.9951 -79.502s71.167 -29.667 117.5 -36s97.833 -8.16602 154.5 -5.49902s114.334 6.83398 173.001 12.501l173 17c56.667 5.66699 108.5 8.5 155.5 8.5s86.833 -4.5 119.5 -13.5s54.334 -25.167 65.001 -48.5
c-14.667 9.33301 -38.5 14.166 -71.5 14.499s-71.833 -1.5 -116.5 -5.5s-93.667 -9.16699 -147 -15.5s-107.666 -11.5 -162.999 -15.5c-13.333 -50 -26.666 -103.667 -39.999 -161l-42.5 -175.5c-15 -59.667 -31.5 -119.167 -49.5 -178.5s-38.333 -116 -61 -170
s-48.167 -104 -76.5 -150s-60.5 -85.667 -96.5 -119s-76.5 -59 -121.5 -77s-95.167 -26 -150.5 -24c-5.33301 3.33301 -7.5 7.5 -6.5 12.5s4.16699 8.16699 9.5 9.5c48.667 -2 92 6 130 24s72 43.333 102 76s56.5 71.5 79.5 116.5s43.667 93.833 62 146.5
s34.833 107.667 49.5 165s28.667 115 42 173l39.5 170c13 55.333 27.167 107.333 42.5 156c-52 -2 -102.5 -1.33301 -151.5 2s-93.333 11 -133 23s-73.667 29.667 -102 53s-47.833 54 -58.5 92c0.666992 4 2.33398 6.33301 5.00098 7s4.66699 -0.666016 6 -3.99902z" />
    <glyph glyph-name="U" unicode="U" horiz-adv-x="768" 
d="M39 363c8.66699 16.667 18.5049 37.3389 29.5049 62.0059l36.5 78c13.333 27.333 27.5 54.666 42.5 81.999s31.167 52.333 48.5 75s35.666 41.667 54.999 57s39.666 24.333 60.999 27c24.667 3.33301 43 -1.83398 55 -15.501s19 -33.167 21 -58.5s0 -55.666 -6 -90.999
s-14.333 -73 -25 -113s-22.667 -81.5 -36 -124.5l-39.5 -125c-13 -40.333 -24.667 -78.5 -35 -114.5s-17.666 -67.167 -21.999 -93.5s-5 -47 -2 -62s11.5 -21.5 25.5 -19.5c22 2.66699 45.167 14.667 69.5 36s49.5 49.333 75.5 84s52.333 74.667 79 120
s52.667 93.333 78 144l-46 -168c-20 -35.333 -40.333 -68.333 -61 -99s-42 -57.5 -64 -80.5s-44.667 -41.167 -68 -54.5s-47.666 -20.333 -72.999 -21c-29.333 -1.33301 -51 6.66699 -65 24s-22.167 40.833 -24.5 70.5s0 64.167 7 103.5s16.5 80.666 28.5 123.999
s25.667 87.166 41 131.499l44 126.5l37.5 108.5c11 32.333 18.5 58.166 22.5 77.499c0.666992 4.66699 1.16699 10.667 1.5 18s-0.333984 14.333 -2.00098 21s-4.33398 12 -8.00098 16s-8.5 5.66699 -14.5 5c-16.667 -2.66699 -32.834 -10.5 -48.501 -23.5
s-30.834 -29.333 -45.501 -49s-28.834 -41.834 -42.501 -66.501s-26.834 -49.834 -39.501 -75.501l-36.5 -76.5c-11.667 -25.333 -23.167 -48.666 -34.5 -69.999c-2 -2.66699 -4.5 -4.33398 -7.5 -5.00098s-5.66699 -0.5 -8 0.5s-4.16602 2.66699 -5.49902 5s-1 5.5 1 9.5z
M649.005 772.005c7.33301 -10 15.332 -15.6641 23.999 -16.9971s16.834 -1.33301 24.501 0s14.167 2.16602 19.5 2.49902s8 -3.5 8 -11.5c-2.66699 -9.33301 -8.66699 -28.5 -18 -57.5l-32.5 -104.5l-41 -134.5l-44.5 -147.5l-41 -143.5
c-12.667 -46.333 -23.167 -87.333 -31.5 -123s-14 -64.334 -17 -86.001s-1.83301 -32.5 3.5 -32.5c12 0 25.833 7.16699 41.5 21.5s32 32.833 49 55.5s34 47.834 51 75.501l49 82.5l43 76l31.5 57c4.66699 5.33301 9.83398 7.16602 15.501 5.49902
s7.16699 -7.16699 4.5 -16.5l-31.5 -59c-13 -24.667 -27.667 -51.167 -44 -79.5l-52 -86.5c-18.333 -29.333 -36.833 -55.666 -55.5 -78.999s-37.167 -42.5 -55.5 -57.5s-35.5 -22.5 -51.5 -22.5c-11.333 0 -20.833 2.5 -28.5 7.5s-14 11.667 -19 20
s-8.66699 17.833 -11 28.5s-3.5 22 -3.5 34c0 25.333 4.66699 59.666 14 102.999s21.666 90.666 36.999 141.999l28.5 96.5l31.5 106.5l31.5 107l29 99l24.5 82z" />
    <glyph glyph-name="V" unicode="V" horiz-adv-x="678" 
d="M1153 896c-58.667 11.333 -111.166 12.0068 -157.499 2.00684s-88 -28 -125 -54s-70.167 -58.667 -99.5 -98s-56.166 -82.5 -80.499 -129.5s-47.166 -96.667 -68.499 -149l-63.5 -156c-21 -51.667 -43 -101.834 -66 -150.501s-48.167 -93.334 -75.5 -134.001
c-18 -26.667 -36.333 -51.334 -55 -74.001s-37.5 -42.5 -56.5 -59.5s-38.5 -30.333 -58.5 -40s-41 -14.834 -63 -15.501c-31.333 -1.33301 -54.333 7.16699 -69 25.5s-23.334 43.166 -26.001 74.499s-0.333984 68 6.99902 110s17.5 85.833 30.5 131.5
s27.5 92.167 43.5 139.5l46.5 134l40 114.5c11.667 34.333 19.5 61.833 23.5 82.5c1.33301 5.33301 2 11.833 2 19.5s-0.833008 15 -2.5 22s-4.33398 12.667 -8.00098 17s-8.83398 6.16602 -15.501 5.49902c-26.667 -4.66699 -52 -20.834 -76 -48.501
s-46.833 -60.667 -68.5 -99s-42.334 -78.666 -62.001 -120.999l-55.5 -114.5c-4 -5.33301 -9.5 -7 -16.5 -5s-8.5 7.33301 -4.5 16c9.33301 18 19.833 40 31.5 66l38 82.5c13.667 29 28.667 58 45 87s33.666 55.5 51.999 79.5s37.666 44 57.999 60s41.833 25.667 64.5 29
c26.667 3.33301 46.334 -2.16699 59.001 -16.5s20 -35 22 -62s-0.166992 -59.167 -6.5 -96.5s-15.166 -77.333 -26.499 -120s-24 -86.667 -38 -132l-41.5 -132.5c-13.667 -43 -26 -83.5 -37 -121.5s-19 -71.167 -24 -99.5s-5.83301 -50.333 -2.5 -66s12.333 -22.5 27 -20.5
c23.333 3.33301 49 16.5 77 39.5s55.333 54.5 82 94.5s51.334 85 74.001 135s44.834 102 66.501 156l66.5 163.5c22.667 55 47.334 107.5 74.001 157.5s56.5 95.833 89.5 137.5s70.5 76.167 112.5 103.5s89.5 46.166 142.5 56.499s113.167 8.83301 180.5 -4.5
c5.33301 -4.66699 7.16602 -9.5 5.49902 -14.5s-5.5 -7.5 -11.5 -7.5z" />
    <glyph glyph-name="W" unicode="W" horiz-adv-x="952" 
d="M597 744c23.333 -6.66699 37.6729 -24.3301 43.0059 -52.9971s5 -64.334 -1 -107.001s-16.167 -89.834 -30.5 -141.501s-29.833 -104 -46.5 -157l-48.5 -154c-15.667 -49.667 -27.834 -93.667 -36.501 -132s-12.334 -68.5 -11.001 -90.5s11 -32 29 -30
c20 4 39.333 12.5 58 25.5s36.167 28.167 52.5 45.5s31.333 35.5 45 54.5s25.167 36.167 34.5 51.5c26.667 42.667 50.834 89.334 72.501 140.001l63.5 155l62.5 157c21 52 44 101.333 69 148s53 89.167 84 127.5s66.5 69.833 106.5 94.5s85.333 41.334 136 50.001
s108.667 6.66699 174 -6c5.33301 -4.66699 7.16602 -9.5 5.49902 -14.5s-5.5 -7.5 -11.5 -7.5c-73.333 14 -136.333 12.667 -189 -4s-98.5 -44.334 -137.5 -83.001s-72.833 -85.667 -101.5 -141s-56 -114.666 -82 -177.999l-79 -195
c-26.667 -66.667 -57 -130.334 -91 -191.001l-24 -41.5c-8 -13.667 -16.333 -27.167 -25 -40.5c-18 -27.333 -36.167 -52.5 -54.5 -75.5s-37 -42.833 -56 -59.5s-38.667 -29.667 -59 -39s-41.5 -14 -63.5 -14c-19.333 0 -35.5 3.66699 -48.5 11s-23.167 17.5 -30.5 30.5
s-12.166 28.667 -14.499 47s-2.83301 38.5 -1.5 60.5c-32 -44 -64.833 -79.5 -98.5 -106.5s-69.5 -41.167 -107.5 -42.5c-31.333 -1.33301 -54.333 7.16699 -69 25.5s-23.334 43.166 -26.001 74.499s-0.333984 68 6.99902 110s17.5 85.833 30.5 131.5
s27.5 92.167 43.5 139.5l46.5 134l40 114.5c11.667 34.333 19.5 61.833 23.5 82.5c1.33301 5.33301 2 11.833 2 19.5s-0.833008 15 -2.5 22s-4.33398 12.667 -8.00098 17s-8.83398 6.16602 -15.501 5.49902c-26.667 -4.66699 -52 -20.834 -76 -48.501
s-46.833 -60.667 -68.5 -99s-42.334 -78.666 -62.001 -120.999l-55.5 -114.5c-4 -5.33301 -9.5 -7 -16.5 -5s-8.5 7.33301 -4.5 16c9.33301 18 19.833 40 31.5 66l38 82.5c13.667 29 28.667 58 45 87s33.666 55.5 51.999 79.5s37.666 44 57.999 60s41.833 25.667 64.5 29
c26.667 3.33301 46.334 -2.16699 59.001 -16.5s20 -35 22 -62s-0.166992 -59.167 -6.5 -96.5s-15.166 -77.333 -26.499 -120s-24 -86.667 -38 -132l-41.5 -132.5c-13.667 -43 -26 -83.5 -37 -121.5s-19 -71.167 -24 -99.5s-5.83301 -50.333 -2.5 -66s12.333 -22.5 27 -20.5
c15.333 2 31.5 8.5 48.5 19.5s34.5 25.833 52.5 44.5s36.333 40.5 55 65.5s37.334 52.167 56.001 81.5c8 36.667 18.5 75.5 31.5 116.5l40.5 123.5l42.5 123c14.333 40.667 27.166 79 38.499 115s20.5 69 27.5 99s10.5 55.667 10.5 77z" />
    <glyph glyph-name="X" unicode="X" horiz-adv-x="952" 
d="M282 1084c-4.66699 2 -6.99805 5.50293 -6.99805 10.5029s3 8.83301 9 11.5c47.333 -6.66699 89.333 -21 126 -43s69.167 -50.167 97.5 -84.5s52.833 -73.5 73.5 -117.5s39 -91.5 55 -142.5s30.167 -104.333 42.5 -160s23.833 -111.834 34.5 -168.501l80.5 141.5
c26.333 46.333 52.5 90.166 78.5 131.499s51.833 79.333 77.5 114s51.5 64.334 77.5 89.001s52 43.167 78 55.5s52.667 17.166 80 14.499c-40 -12 -79 -37.5 -117 -76.5s-75.833 -86.667 -113.5 -143s-75.334 -118.833 -113.001 -187.5l-115.5 -208l31 -162
c10.667 -53.333 22.334 -104.166 35.001 -152.499s27.167 -93.5 43.5 -135.5s35.5 -79 57.5 -111s47.167 -58.333 75.5 -79s61.166 -34 98.499 -40c-44.667 -0.666992 -84.167 6 -118.5 20s-64.666 34 -90.999 60s-49.166 57.167 -68.499 93.5s-36.333 76.166 -51 119.499
s-27.5 89.666 -38.5 138.999s-20.833 100 -29.5 152c-28.667 -48.667 -58.167 -95.667 -88.5 -141s-61.833 -87.5 -94.5 -126.5s-66.667 -73.833 -102 -104.5s-72 -55.334 -110 -74.001s-78 -30.334 -120 -35.001s-85.667 -1 -131 11c-4 4.66699 -5 9.33398 -3 14.001
s5.66699 7 11 7c42 -11.333 82.667 -13.5 122 -6.5s77.333 21.333 114 43s72.167 49.5 106.5 83.5s67.666 72 99.999 114s63.833 87.167 94.5 135.5l90 148.5l-29.5 182c-9.66699 60.667 -20.834 119.167 -33.501 175.5s-27.5 109.333 -44.5 159s-37.833 93.667 -62.5 132
s-53.834 69.833 -87.501 94.5s-73.5 40.334 -119.5 47.001z" />
    <glyph glyph-name="Y" unicode="Y" horiz-adv-x="867" 
d="M105 363c8.66699 16.667 18.5078 37.3418 29.5078 62.0088l36.5 78c13.333 27.333 27.5 54.666 42.5 81.999s31.167 52.333 48.5 75s35.666 41.667 54.999 57s39.666 24.333 60.999 27c24.667 3.33301 43 -1.83398 55 -15.501s19 -33.167 21 -58.5s0 -55.666 -6 -90.999
s-14.333 -73 -25 -113s-22.667 -81.5 -36 -124.5l-39.5 -125c-13 -40.333 -24.667 -78.5 -35 -114.5s-17.666 -67.167 -21.999 -93.5s-5 -47 -2 -62s11.5 -21.5 25.5 -19.5c19.333 2.66699 40 12.667 62 30s44.5 40.5 67.5 69.5s46.333 62.5 70 100.5
s47.167 78.667 70.5 122l24 97l25 103l27.5 116l32.5 138c8.66699 -9.33301 17.667 -14.166 27 -14.499s18 0.5 26 2.5s14.833 3.33301 20.5 4s9.16699 -3 10.5 -11l-47.5 -207.5l-42 -179c-13.667 -55.667 -27.667 -108.334 -42 -158.001s-29.833 -98.167 -46.5 -145.5
c24 14.667 47.833 31 71.5 49s46.834 38.833 69.501 62.5s44.667 50.167 66 79.5s41.666 62.666 60.999 99.999c0.666992 2 2.33398 3.5 5.00098 4.5s5.33398 1.33301 8.00098 1s4.66699 -1.83301 6 -4.5s1 -6.33398 -1 -11.001c-22 -40.667 -44.833 -76.834 -68.5 -108.501
s-48 -60 -73 -85s-50.333 -47 -76 -66s-51.834 -36.167 -78.501 -51.5c-17.333 -46 -36.333 -90.5 -57 -133.5s-43.334 -83.167 -68.001 -120.5s-51.667 -70.833 -81 -100.5s-61 -53.834 -95 -72.501c-31.333 -17.333 -61.333 -28.333 -90 -33s-54.167 -4.66699 -76.5 0
s-40.5 13.834 -54.5 27.501s-22.167 30.5 -24.5 50.5s2.5 43 14.5 69s32.667 53.333 62 82c26.667 26.667 54.834 49.5 84.501 68.5s60.167 36 91.5 51s63.333 29 96 42s65.334 26.833 98.001 41.5c12.667 34 24.5 68.167 35.5 102.5s21.5 69.5 31.5 105.5
c-18.667 -31.333 -37.834 -61.333 -57.501 -90s-39.834 -54 -60.501 -76s-41.834 -39.667 -63.501 -53s-43.834 -20.333 -66.501 -21c-29.333 -1.33301 -51 6.5 -65 23.5s-22.333 40 -25 69s-0.666992 62.667 6 101s16 78.666 28 120.999s25.5 85.166 40.5 128.499
l43.5 123.5l37 106.5c10.667 32 18 57.667 22 77c0.666992 4.66699 1.16699 10.667 1.5 18s-0.333984 14.333 -2.00098 21s-4.33398 12 -8.00098 16s-8.5 5.66699 -14.5 5c-16.667 -2.66699 -32.834 -10.5 -48.501 -23.5s-30.834 -29.333 -45.501 -49
s-28.834 -41.834 -42.501 -66.501s-26.834 -49.834 -39.501 -75.501l-37 -76.5l-34 -70c-2 -2.66699 -4.5 -4.33398 -7.5 -5.00098s-5.66699 -0.5 -8 0.5s-4.16602 2.66699 -5.49902 5s-1 5.5 1 9.5zM478.008 -92.9922l-89.4971 -39.998
c-29.667 -12.667 -58.834 -26.5 -87.501 -41.5s-56.834 -31.667 -84.501 -50s-54.167 -39.833 -79.5 -64.5c-26 -24.667 -44.333 -47.834 -55 -69.501s-15.334 -40.667 -14.001 -57s7.83301 -29.666 19.5 -39.999s26.5 -16.333 44.5 -18s38.667 1.16602 62 8.49902
s47.333 20.333 72 39c44 34 83.333 80.167 118 138.5s66 123.166 94 194.499z" />
    <glyph glyph-name="Z" unicode="Z" horiz-adv-x="833" 
d="M311 -90c-32.667 5.33301 -65.334 8.33301 -98.001 9s-64 -3.33301 -94 -12c-24.667 -6.66699 -44.167 -17.334 -58.5 -32.001s-24 -30.167 -29 -46.5s-5.33301 -31.666 -1 -45.999s13.5 -25 27.5 -32s32.667 -8.33301 56 -4s51.333 17.5 84 39.5
c22.667 14.667 43.334 32.5 62.001 53.5s35.667 44.5 51 70.5zM660 709c-21.333 -55.333 -39.666 -116.006 -54.999 -182.006l-49.5 -203c-17.667 -69.333 -38.334 -138.166 -62.001 -206.499s-54.167 -132.166 -91.5 -191.499c22 -3.33301 47.667 -8.83301 77 -16.5
s60 -14.834 92 -21.501s63.833 -11.5 95.5 -14.5s60.834 -1.83301 87.501 3.5s49.5 16.5 68.5 33.5s31.833 41.833 38.5 74.5c-0.666992 -40 -9.5 -70.5 -26.5 -91.5s-38.833 -35.5 -65.5 -43.5s-57 -10.833 -91 -8.5s-68.5 6.83301 -103.5 13.5
s-69.167 14.334 -102.5 23.001s-63 15.334 -89 20.001c-21.333 -30 -44.833 -57.167 -70.5 -81.5s-54.167 -44.5 -85.5 -60.5c-45.333 -23.333 -84 -35.833 -116 -37.5s-57.667 3.16602 -77 14.499s-32 27.333 -38 48s-5.5 41.667 1.5 63s20.333 41.166 40 59.499
s45.834 31.166 78.501 38.499c36 8 71.833 10.833 107.5 8.5s70.167 -6.16602 103.5 -11.499c30 56.667 56.5 118.834 79.5 186.501s45.167 136.167 66.5 205.5l65 203.5c22 66.333 47.333 126.833 76 181.5c-19.333 2.66699 -43.833 7.66699 -73.5 15
s-61.667 14.333 -96 21s-69.333 11.834 -105 15.501s-69 3.66699 -100 0s-58 -12.5 -81 -26.5s-38.833 -35.333 -47.5 -64c0 36.667 9.83301 64.5 29.5 83.5s45 31.5 76 37.5s66 7.16699 105 3.5s77.667 -9.16699 116 -16.5s74.5 -15.166 108.5 -23.499
s61.667 -14.166 83 -17.499l20 33c6.66699 10.667 13.667 19.667 21 27c18.667 18 35.667 29.667 51 35s28.666 6 39.999 2s20.333 -11 27 -21s10.167 -21.333 10.5 -34s-2.83398 -25.167 -9.50098 -37.5s-17 -22.166 -31 -29.499c-16 -8.66699 -32.5 -13 -49.5 -13
s-33.167 1 -48.5 3zM671 737.994c13.333 -1.33301 26.3311 -2.00195 38.998 -2.00195s24.667 3.33301 36 10c12 7.33301 19.333 16.833 22 28.5s1.83398 21.5 -2.49902 29.5s-11.666 12.167 -21.999 12.5s-22.833 -7.16699 -37.5 -22.5l-9.5 -12
c-3.66699 -4.66699 -7.16699 -9.66699 -10.5 -15s-6.33301 -10.666 -9 -15.999s-4.66699 -9.66602 -6 -12.999z" />
    <glyph glyph-name="bracketleft" unicode="[" horiz-adv-x="235" 
d="M442 595c-10 7.33301 -19.998 12.6709 -29.998 16.0039s-20.167 3.66602 -30.5 0.999023s-20.666 -8.33398 -30.999 -17.001s-20.833 -21.334 -31.5 -38.001c-9.33301 -14 -21.333 -35.167 -36 -63.5s-30.334 -60.333 -47.001 -96l-50 -112.5
c-16.667 -39.333 -31.5 -77.166 -44.5 -113.499s-23.167 -69.333 -30.5 -99s-10 -52.5 -8 -68.5c4 -26.667 11.333 -47.167 22 -61.5s28.667 -24.5 54 -30.5c3.33301 -3.33301 4.66602 -7.16602 3.99902 -11.499s-3.66699 -6.5 -9 -6.5
c-20.667 4.66699 -37.334 9.83398 -50.001 15.501s-23 12.5 -31 20.5s-14.333 17.167 -19 27.5s-9 22.166 -13 35.499c-6 18 -6.66699 42.167 -2 72.5s12.667 63.666 24 99.999s24.833 74 40.5 113s31.667 76.5 48 112.5s32 68.667 47 98s27.5 52.666 37.5 69.999
c13.333 22.667 29 40.834 47 54.501s36.333 22.667 55 27s36.5 4.16602 53.5 -0.500977s31.5 -14 43.5 -28c4.66699 -5.33301 5 -10.333 1 -15s-8.66699 -5.33398 -14 -2.00098z" />
    <glyph glyph-name="backslash" unicode="\" horiz-adv-x="381" 
d="M336 -99c-10 -4.66699 -18.667 -6.66797 -26 -6.00098s-13.833 3 -19.5 7s-10.167 9.33301 -13.5 16s-6 13.334 -8 20.001l-50.5 173l-57 199.5l-60 208.5l-60.5 200c14 4.66699 26.833 4.5 38.5 -0.5s21.167 -15.5 28.5 -31.5l55.5 -182l59.5 -206.5l58.5 -208.5z" />
    <glyph glyph-name="bracketright" unicode="]" horiz-adv-x="355" 
d="M-123 -34c10 -7.33301 19.998 -12.6719 29.998 -16.0049s20.167 -3.66602 30.5 -0.999023s20.666 8.33398 30.999 17.001s20.833 21.334 31.5 38.001c8.66699 14 20.5 35.167 35.5 63.5s30.833 60.333 47.5 96l50 112.5c16.667 39.333 31.5 77.166 44.5 113.499
s23.167 69.333 30.5 99s10 52.5 8 68.5c-4 26.667 -11.333 47.167 -22 61.5s-28.667 24.5 -54 30.5c-3.33301 3.33301 -4.66602 7.16602 -3.99902 11.499s3.66699 6.5 9 6.5c20.667 -4.66699 37.334 -9.83398 50.001 -15.501s23 -12.5 31 -20.5s14.333 -17.167 19 -27.5
s9 -22.166 13 -35.499c5.33301 -18 5.83301 -42.167 1.5 -72.5s-12.166 -63.666 -23.499 -99.999s-24.833 -74 -40.5 -113s-31.667 -76.5 -48 -112.5s-32 -68.833 -47 -98.5s-27.5 -52.834 -37.5 -69.501c-13.333 -23.333 -29 -41.666 -47 -54.999
s-36.333 -22.166 -55 -26.499s-36.5 -4.16602 -53.5 0.500977s-31.5 14 -43.5 28c-4.66699 5.33301 -5 10.333 -1 15s8.66699 5.33398 14 2.00098z" />
    <glyph glyph-name="asciicircum" unicode="^" horiz-adv-x="461" 
d="M221 651l-94.002 -158.998c-3.33301 -4.66699 -7.66602 -8.33398 -12.999 -11.001s-10.666 -4 -15.999 -4s-10.666 1.16699 -15.999 3.5s-9.33301 6.16602 -12 11.499l150 274c1.33301 2.66699 3.33301 4.16699 6 4.5s4.66699 -1.16699 6 -4.5l18 -40l121 -282
c-4 -2.66699 -8.83301 -5 -14.5 -7s-11.334 -3 -17.001 -3s-11.167 1.5 -16.5 4.5s-9.33301 8.5 -12 16.5z" />
    <glyph glyph-name="underscore" unicode="_" horiz-adv-x="653" 
d="M89 -109h98.501c25.667 0 47.834 0.166992 66.501 0.5s35.5 0.666016 50.5 0.999023s31.5 0.333008 49.5 0s39.333 -0.666016 64 -0.999023s56 -1.16602 94 -2.49902c17.333 -2.66699 30.166 -8.83398 38.499 -18.501s12.166 -21.834 11.499 -36.501
c-44 0.666992 -80 1.33398 -108 2.00098s-51.5 1 -70.5 1h-49.5c-14 0 -29.167 -0.166992 -45.5 -0.5s-35.833 -0.333008 -58.5 0s-51.667 0.5 -87 0.5c-7.33301 0 -14.5 0.666992 -21.5 2s-13.167 4 -18.5 8s-9.5 9.5 -12.5 16.5s-3.5 16.167 -1.5 27.5z" />
    <glyph glyph-name="grave" unicode="`" horiz-adv-x="486" 
d="M102 676c14.667 14.667 29.167 20.998 43.5 18.998s28.5 -8.83301 42.5 -20.5s28 -26.334 42 -44.001s28.333 -34.667 43 -51s29.5 -30.166 44.5 -41.499s30.833 -16.666 47.5 -15.999c-20 -20 -39.667 -30.833 -59 -32.5s-37.833 2.16602 -55.5 11.499
s-34.5 22.5 -50.5 39.5s-30.5 34.333 -43.5 52s-24.167 34.334 -33.5 50.001s-16.333 26.834 -21 33.501z" />
    <glyph glyph-name="a" unicode="a" horiz-adv-x="437" 
d="M164 189c7.33301 28 15.001 55.334 23.001 82.001s16.333 53 25 79c-6.66699 1.33301 -11.667 2 -15 2c-24.667 0 -47.334 -8.16699 -68.001 -24.5s-38.5 -35.833 -53.5 -58.5s-26.667 -45.834 -35 -69.501s-12.5 -42.5 -12.5 -56.5c0 -12 2 -23 6 -33s10.667 -15 20 -15
c14.667 0 32 8.83301 52 26.5s39.333 40.167 58 67.5zM457.001 274.001l-29 -54.499l-37.5 -68.5c-13.667 -24 -28.167 -48 -43.5 -72s-31.166 -45.5 -47.499 -64.5s-32.833 -34.5 -49.5 -46.5s-33 -18 -49 -18c-11.333 0 -20.833 2.5 -28.5 7.5s-14 11.667 -19 20
s-8.66699 17.833 -11 28.5s-3.5 22 -3.5 34c0 13.333 0.666992 25.833 2 37.5l4 33.5c-17.333 -18.667 -35.333 -33 -54 -43s-38.334 -15 -59.001 -15c-27.333 0 -47.333 9.16699 -60 27.5s-19 40.166 -19 65.499c0 24 4.16699 47.833 12.5 71.5s19.833 46.167 34.5 67.5
c21.333 30.667 47.5 56 78.5 76s63.833 30 98.5 30c7.33301 0 15 -0.5 23 -1.5s15.667 -2.5 23 -4.5l23 76c7.33301 -9.33301 15.666 -13.833 24.999 -13.5s18 1.66602 26 3.99902s14.833 4 20.5 5s8.5 -2.5 8.5 -10.5l-20 -62l-31 -95.5l-34 -108.5
c-11.333 -37.333 -20.833 -71.5 -28.5 -102.5s-12.667 -56.333 -15 -76s0.166992 -29.5 7.5 -29.5c12 0 25 5.83301 39 17.5s28.167 26.834 42.5 45.501s28.833 39.334 43.5 62.001s28.5 45.667 41.5 69l36.5 66l29 53c4.66699 5.33301 9.83398 7.16602 15.501 5.49902
s7.16699 -7.16699 4.5 -16.5z" />
    <glyph glyph-name="b" unicode="b" 
d="M190 883c-2 -27.333 -0.999023 -48.3389 3.00098 -63.0059s8.83301 -26 14.5 -34s11 -14.167 16 -18.5s7.5 -10.5 7.5 -18.5c-2 -6.66699 -5.5 -17.667 -10.5 -33l-22 -68l-38 -116l-57.5 -176c26 23.333 53.167 41 81.5 53s53.666 16 75.999 12s40 -17 53 -39
s16.833 -55 11.5 -99c-2 -14 -4.83301 -28.167 -8.5 -42.5s-8.16699 -28.5 -13.5 -42.5c26 10 51 21.833 75 35.5s45.333 30.834 64 51.501c5.33301 4.66699 10 4.83398 14 0.500977s4 -9.16602 0 -14.499c-20.667 -24 -45.167 -43.667 -73.5 -59
s-58.166 -28.666 -89.499 -39.999c-10 -23.333 -21.667 -45.666 -35 -66.999s-26.833 -40.5 -40.5 -57.5s-27.167 -31.5 -40.5 -43.5s-25.333 -20.333 -36 -25c-18.667 -8 -35.334 -11.167 -50.001 -9.5s-26.667 6.33398 -36 14.001s-15.666 17.667 -18.999 30
s-2.83301 25.333 1.5 39s12.5 27.5 24.5 41.5s29 26.333 51 37c13.333 6.66699 27.666 12.667 42.999 18s31.666 10.666 48.999 15.999c8.66699 18 16.834 36.833 24.501 56.5s14.167 39.167 19.5 58.5c9.33301 36 9.66602 62.5 0.999023 79.5s-22 25.5 -40 25.5
s-38.667 -8 -62 -24s-45.333 -39 -66 -69l-12 -40l-26 -81.5l-24.5 -82.5l-21 -74.5c-6.33301 -23 -11.166 -42.5 -14.499 -58.5c-12.667 7.33301 -21.834 17.5 -27.501 30.5s-9 26.833 -10 41.5s-0.666992 29.5 1 44.5s3.5 28.167 5.5 39.5c4 24 19.333 81.667 46 173
c30.667 106.667 62.334 208.834 95.001 306.501zM122.001 110.994c-15.333 -6.66699 -27.5039 -15.6699 -36.5039 -27.0029s-15.167 -22.5 -18.5 -33.5s-3.66602 -20.333 -0.999023 -28s7.83398 -11.667 15.501 -12s17.834 4.83398 30.501 15.501s28 28.667 46 54
c4.66699 6.66699 9.83398 14.834 15.501 24.501s11.834 20.834 18.501 33.501l-36.5 -13.5c-11.667 -4.33301 -22.834 -8.83301 -33.501 -13.5z" />
    <glyph glyph-name="c" unicode="c" horiz-adv-x="312" 
d="M179 305c3.33301 10 5.83398 21.165 7.50098 33.498s2.16699 23.833 1.5 34.5s-2.83398 19.667 -6.50098 27s-9.5 11 -17.5 11c-9.33301 0 -19.166 -6.33301 -29.499 -19s-20.5 -29 -30.5 -49s-19.833 -42.5 -29.5 -67.5s-18.5 -49.833 -26.5 -74.5
c-16 -50 -24.333 -91 -25 -123s4.16602 -54.833 14.499 -68.5s25.5 -18.167 45.5 -13.5s42.5 18.334 67.5 41.001s51.5 54.667 79.5 96s55.333 92 82 152c8 7.33301 13.833 8.5 17.5 3.5s4.5 -10.167 2.5 -15.5c-34.667 -75.333 -69.667 -136.5 -105 -183.5
s-68.833 -81.667 -100.5 -104s-60.167 -33 -85.5 -32s-45.5 11.667 -60.5 32s-23.833 49.5 -26.5 87.5s3.33301 83 18 135c3.33301 13.333 7.5 26.333 12.5 39l15.5 38c5.33301 14 13.166 30.167 23.499 48.5s22.333 35.5 36 51.5s28.5 29.667 44.5 41s32.667 17 50 17
c18 0 31.833 -4.66699 41.5 -14s15.834 -21.166 18.501 -35.499s2.66699 -30.166 0 -47.499s-7 -34 -13 -50c-4 -6.66699 -9.33301 -9.33398 -16 -8.00098s-8.66699 7 -6 17z" />
    <glyph glyph-name="d" unicode="d" horiz-adv-x="444" 
d="M464 274l-29.002 -54.498l-37.5 -68.5c-13.667 -24 -28.167 -48 -43.5 -72s-31.166 -45.5 -47.499 -64.5s-32.833 -34.5 -49.5 -46.5s-33 -18 -49 -18c-11.333 0 -20.833 2.5 -28.5 7.5s-14 11.667 -19 20s-8.66699 17.833 -11 28.5s-3.5 22 -3.5 34
c0 13.333 0.666992 25.833 2 37.5l4 33.5c-17.333 -18.667 -35.333 -33 -54 -43s-38.334 -15 -59.001 -15c-27.333 0 -47.333 9.16699 -60 27.5s-19 40.166 -19 65.499c0 21.333 3.66699 44.5 11 69.5s17 48.167 29 69.5s26.833 40.666 44.5 57.999s37 31.666 58 42.999
s43 19.333 66 24s46.167 5 69.5 1l56.5 179.5l39.5 125l25 81l14 48c3.33301 11.667 5.83301 20 7.5 25l4.5 13.5c-2 -27.333 -0.833008 -48.333 3.5 -63s9.83301 -26 16.5 -34s12.834 -14.167 18.501 -18.5s8.5 -10.5 8.5 -18.5c-2 -7.33301 -6 -20.333 -12 -39l-24 -74
l-36.5 -111.5l-49.5 -151.5l-24 -73l-28 -86.5l-26.5 -88c-8.33301 -29 -15 -54.833 -20 -77.5s-7.66699 -41 -8 -55s2.5 -21 8.5 -21c12 0 25 5.83301 39 17.5s28.167 26.834 42.5 45.501s28.833 39.334 43.5 62.001s28.5 45.667 41.5 69l36.5 66l29 53
c4.66699 5.33301 9.83398 7.16602 15.501 5.49902s7.16699 -7.16699 4.5 -16.5zM170.998 189.002l13.002 47.001l14.5 50l15 48.5l13.5 41.5c-6.66699 1.33301 -11.667 2 -15 2c-24.667 0 -47.5 -8.83301 -68.5 -26.5s-39.5 -38.834 -55.5 -63.501s-28.667 -50.5 -38 -77.5
s-14.333 -49.5 -15 -67.5c-0.666992 -12 1.16602 -23 5.49902 -33s11.166 -15 20.499 -15c14.667 0 32 8.83301 52 26.5s39.333 40.167 58 67.5z" />
    <glyph glyph-name="e" unicode="e" horiz-adv-x="312" 
d="M154 443c12 0 21.0029 -4.33398 27.0029 -13.001s9.16699 -20.167 9.5 -34.5s-2.5 -30.166 -8.5 -47.499s-14.833 -34.833 -26.5 -52.5s-26.334 -34.334 -44.001 -50.001s-38.167 -28.5 -61.5 -38.5c-1.33301 -2.66699 -2 -4.66699 -2 -6c-16 -50 -24.333 -91 -25 -123
s4.16602 -54.833 14.499 -68.5s25.5 -18.167 45.5 -13.5s42.5 18.334 67.5 41.001s51.5 54.667 79.5 96s55.333 92 82 152c8 7.33301 13.833 8.5 17.5 3.5s4.5 -10.167 2.5 -15.5c-34.667 -75.333 -69.667 -136.5 -105 -183.5s-68.833 -81.667 -100.5 -104
s-60.167 -33 -85.5 -32s-45.5 11.667 -60.5 32s-23.833 49.5 -26.5 87.5s3.33301 83 18 135c3.33301 13.333 7.5 26.333 12.5 39l15.5 38c5.33301 14 13.166 30.167 23.499 48.5s22.333 35.5 36 51.5s28.5 29.667 44.5 41s32.667 17 50 17zM160.003 410.999
c-8 0 -16.335 -4.83301 -25.002 -14.5s-17.167 -22.5 -25.5 -38.5s-16.666 -34.167 -24.999 -54.5s-16.166 -41.5 -23.499 -63.5c21.333 10 39.833 24.5 55.5 43.5s27.834 38 36.501 57s13.667 35.5 15 49.5s-1.33398 21 -8.00098 21z" />
    <glyph glyph-name="f" unicode="f" horiz-adv-x="209" 
d="M21 108c17.333 -36.667 25.999 -75.3301 25.999 -115.997s-4.66699 -78.667 -14 -114c-7.33301 -26.667 -18.5 -46.334 -33.5 -59.001s-29.833 -18.667 -44.5 -18s-27.5 8.16699 -38.5 22.5s-16.5 35.166 -16.5 62.499c1.33301 29.333 5.5 61.5 12.5 96.5
s15.5 70.333 25.5 106s20.5 70.5 31.5 104.5l30.5 92c16 46 30.5 89.5 43.5 130.5l35 111.5l26.5 86l17 55c-2 -27.333 -0.833008 -48.333 3.5 -63s9.83301 -26 16.5 -34s12.834 -14.167 18.501 -18.5s8.5 -10.5 8.5 -18.5l-72.5 -212l-67.5 -186
c82 24 142.667 73.667 182 149c2.66699 4 5.66699 6.33301 9 7s6 0.166992 8 -1.5s3.5 -4.16699 4.5 -7.5s0.5 -6.33301 -1.5 -9c-3.33301 -4.66699 -8.5 -13.334 -15.5 -26.001s-18.167 -27 -33.5 -43s-36 -32.667 -62 -50s-59 -33 -99 -47zM10.999 -19.9961
c0 12.667 -0.667969 25.3311 -2.00098 37.998s-3.66602 25 -6.99902 37c-2 -5.33301 -5.5 -14 -10.5 -26s-10.333 -25.667 -16 -41s-11 -31.666 -16 -48.999s-8.5 -33.333 -10.5 -48c-2 -17.333 -1.66699 -30.666 1 -39.999s6.66699 -14.5 12 -15.5s11.333 2.33301 18 10
s12.667 19.5 18 35.5c5.33301 16.667 8.83301 33.5 10.5 50.5s2.5 33.167 2.5 48.5z" />
    <glyph glyph-name="g" unicode="g" horiz-adv-x="412" 
d="M210 80c18 7.33301 35.6699 16.334 53.0029 27.001s34.333 23.834 51 39.501s33.167 34.834 49.5 57.501s32.5 49.667 48.5 81c3.33301 6 8 7.66699 14 5s8 -7.66699 6 -15c-18 -36.667 -36.5 -67.334 -55.5 -92.001s-38 -45.5 -57 -62.5s-38.5 -30.667 -58.5 -41
s-40 -19.5 -60 -27.5l-26.5 -80.5c-9.66699 -29 -19.834 -57.333 -30.501 -85s-21.834 -53.5 -33.501 -77.5s-23.5 -43.667 -35.5 -59c-20.667 -26.667 -42.5 -43.667 -65.5 -51s-44.5 -8 -64.5 -2s-37 17.833 -51 35.5s-22.333 38.5 -25 62.5s1.83301 50.167 13.5 78.5
s33.5 56.166 65.5 83.499c30 26 59.833 45.5 89.5 58.5s59.167 24.5 88.5 34.5l19 61c-17.333 -18.667 -35.333 -33 -54 -43s-38.334 -15 -59.001 -15c-27.333 0 -47.333 9.16699 -60 27.5s-19 40.166 -19 65.499c0 24 4.16699 47.833 12.5 71.5s19.833 46.167 34.5 67.5
c21.333 30.667 47.5 56 78.5 76s63.833 30 98.5 30c7.33301 0 15 -0.5 23 -1.5s15.667 -2.5 23 -4.5l15 50c7.33301 -9.33301 15.666 -13.833 24.999 -13.5s18 1.66602 26 3.99902s14.833 4 20.5 5s8.5 -2.5 8.5 -10.5c-3.33301 -11.333 -8.66602 -28.166 -15.999 -50.499
l-26 -78.5l-32 -99.5zM-36.9971 -60.999c-26.667 -23.333 -45.168 -47.5 -55.501 -72.5s-14.666 -47.5 -12.999 -67.5s8 -36.333 19 -49s24.333 -18.5 40 -17.5s32.5 10.167 50.5 27.5s34.667 46 50 86l32.5 87.5l30.5 89.5c-25.333 -8.66699 -50.833 -19.167 -76.5 -31.5
s-51.5 -29.833 -77.5 -52.5zM164.002 189.001c7.33301 29.333 15.168 57.501 23.501 84.501l24.5 76.5c-6.66699 1.33301 -11.667 2 -15 2c-24.667 0 -47.334 -8.16699 -68.001 -24.5s-38.5 -35.833 -53.5 -58.5s-26.667 -45.834 -35 -69.501s-12.5 -42.5 -12.5 -56.5
c0 -12 2 -23 6 -33s10.667 -15 20 -15c14.667 0 32 8.83301 52 26.5s39.333 40.167 58 67.5z" />
    <glyph glyph-name="h" unicode="h" horiz-adv-x="418" 
d="M140 754c9.33301 29.333 16.9961 55.167 22.9961 77.5s11 39.5 15 51.5c-2 -27.333 -0.833008 -48.333 3.5 -63s9.5 -26 15.5 -34s11.833 -14.167 17.5 -18.5s8.5 -10.5 8.5 -18.5c-25.333 -84 -51.666 -166.5 -78.999 -247.5s-53.666 -163.167 -78.999 -246.5l43 73
c14 22.667 27.833 42.5 41.5 59.5s27.667 30.5 42 40.5s29.166 15 44.499 15c17.333 0 28.666 -8.33301 33.999 -25s6.66602 -38 3.99902 -64s-8.16699 -55 -16.5 -87s-17.333 -63.333 -27 -94s-19.167 -58.834 -28.5 -84.501s-16 -45.5 -20 -59.5
c-3.33301 -10.667 -5.16602 -21.834 -5.49902 -33.501s3.16699 -17.5 10.5 -17.5c12 0 25 5.66699 39 17s28.167 26 42.5 44s28.666 38.333 42.999 61s28 45.334 41 68.001l36.5 65l29 52c4.66699 5.33301 9.83398 7.16602 15.501 5.49902s7.16699 -7.16699 4.5 -16.5
l-29 -54.5l-37.5 -68.5c-13.667 -24 -28.167 -48 -43.5 -72s-31.166 -45.5 -47.499 -64.5s-32.833 -34.5 -49.5 -46.5s-33 -18 -49 -18c-22 0 -37.667 6.5 -47 19.5s-14.5 30.167 -15.5 51.5s1.33301 45.5 7 72.5s12.834 54.5 21.501 82.5s17.834 55.333 27.501 82l24.5 70
c3.33301 11.333 6.16602 21.833 8.49902 31.5s3.5 18.167 3.5 25.5c0 4 -0.5 6.5 -1.5 7.5s-2.16699 1.5 -3.5 1.5c-7.33301 0 -16.166 -5.5 -26.499 -16.5s-21 -25.167 -32 -42.5s-22.167 -36.666 -33.5 -57.999l-32 -62.5c-10 -20.333 -18.833 -39.166 -26.5 -56.499
l-17.5 -40c-19.333 -46.667 -35.666 -91.667 -48.999 -135l-80 -2l15.5 49l19 63l24 83l31.5 109l57 198c22 76.667 49.667 167 83 271z" />
    <glyph glyph-name="i" unicode="i" horiz-adv-x="250" 
d="M99 524c13.333 0 24 -4.50098 32 -13.501s12 -19.167 12 -30.5s-4.33301 -21.166 -13 -29.499s-18.667 -12.5 -30 -12.5c-12 0 -22.333 3.83301 -31 11.5s-13 18.167 -13 31.5c0 12.667 4.16699 23 12.5 31s18.5 12 30.5 12zM51 434.999
c7.33301 -9.33301 15.667 -13.834 25 -13.501s18 1.66602 26 3.99902s14.833 4 20.5 5s8.5 -2.5 8.5 -10.5l-19.5 -60l-29.5 -90.5l-32 -102.5c-10.667 -35.333 -19.667 -67.5 -27 -96.5s-11.833 -52.667 -13.5 -71s1.16602 -27.5 8.49902 -27.5c12 0 25 5.83301 39 17.5
s28.167 26.834 42.5 45.501s28.833 39.334 43.5 62.001s28.5 45.667 41.5 69l36.5 66l29 53c4.66699 5.33301 9.83398 7.16602 15.501 5.49902s7.16699 -7.16699 4.5 -16.5l-29 -54.5l-37.5 -68.5c-13.667 -24 -28.167 -48 -43.5 -72s-31.166 -45.5 -47.499 -64.5
s-32.833 -34.5 -49.5 -46.5s-33 -18 -49 -18c-11.333 0 -20.833 2.5 -28.5 7.5s-14 11.667 -19 20s-8.66699 17.833 -11 28.5s-3.5 22 -3.5 34c0 38.667 4.66699 78.834 14 120.501s20.666 83.167 33.999 124.5c8.66699 26.667 17.5 52.5 26.5 77.5s17.167 49.167 24.5 72.5
z" />
    <glyph glyph-name="j" unicode="j" horiz-adv-x="236" 
d="M43 435c7.33301 -9.33301 15.665 -13.8311 24.998 -13.498s18 1.66602 26 3.99902s14.833 4 20.5 5s8.5 -2.5 8.5 -10.5l-85 -265l-52 -156c17.333 7.33301 37 20 59 38s44.333 39.667 67 65s44.667 53.666 66 84.999s40.666 64 57.999 98c3.33301 6 8 7.66699 14 5
s8 -7.66699 6 -15c-19.333 -39.333 -41.166 -76 -65.499 -110s-49 -64.167 -74 -90.5s-49.833 -48.5 -74.5 -66.5s-47 -31 -67 -39c-13.333 -36 -28.333 -72.333 -45 -109s-34.667 -69.667 -54 -99c-16.667 -24 -34.667 -41.5 -54 -52.5s-38.166 -16.833 -56.499 -17.5
s-34.5 3.16602 -48.5 11.499s-24.167 20 -30.5 35s-7.16602 32.333 -2.49902 52s16.667 40.834 36 63.501c12 13.333 25.333 25.833 40 37.5s30.167 22.167 46.5 31.5s32.666 17.833 48.999 25.5s31.833 14.5 46.5 20.5c18.667 54 35.834 107.333 51.501 160l46.5 157l22 75
c7.33301 24.667 14.333 49.667 21 75zM-261.001 -161.998c-22.667 -26 -33.834 -48.834 -33.501 -68.501s7 -33.167 20 -40.5s29.667 -6.66602 50 2.00098s39.5 28.334 57.5 59.001c10.667 18 20.667 40 30 66l29 83c-25.333 -10.667 -52.166 -24.334 -80.499 -41.001
s-52.5 -36.667 -72.5 -60zM88.999 524.001c13.333 0 24 -4.50098 32 -13.501s12 -19.167 12 -30.5s-4.33301 -21.166 -13 -29.499s-18.667 -12.5 -30 -12.5c-12 0 -22.333 3.83301 -31 11.5s-13 18.167 -13 31.5c0 12.667 4.16699 23 12.5 31s18.5 12 30.5 12z" />
    <glyph glyph-name="k" unicode="k" horiz-adv-x="424" 
d="M360 416c-7.33301 4.66699 -16.6699 8.33496 -28.0029 11.002s-24.666 1.66699 -39.999 -3s-32.666 -13.834 -51.999 -27.501s-40.333 -33.834 -63 -60.501c22 6.66699 41.167 6.33398 57.5 -0.999023s23.833 -24.666 22.5 -51.999
c-0.666992 -20.667 -3.83398 -43 -9.50098 -67s-12 -47.667 -19 -71s-14 -45.333 -21 -66l-16.5 -50c-3.33301 -10.667 -5.16602 -21.834 -5.49902 -33.501s3.16699 -17.5 10.5 -17.5c12 0 25 5.66699 39 17s28.167 26 42.5 44s28.666 38.333 42.999 61s28 45.334 41 68.001
l36.5 65l29 52c4.66699 5.33301 9.83398 7.16602 15.501 5.49902s7.16699 -7.16699 4.5 -16.5l-29 -54.5l-37.5 -68.5c-13.667 -24 -28.167 -48 -43.5 -72s-31.166 -45.5 -47.499 -64.5s-32.833 -34.5 -49.5 -46.5s-33 -18 -49 -18c-21.333 0 -37.666 4.33301 -48.999 13
s-19.166 20.167 -23.499 34.5s-5.83301 31.166 -4.5 50.499s4.5 39.666 9.5 60.999s11 43 18 65l20.5 63c10 26 14.833 42.667 14.5 50s-4 8.5 -11 3.5s-16.167 -14.667 -27.5 -29s-22.833 -30.333 -34.5 -48s-22.667 -35.167 -33 -52.5s-17.833 -31.666 -22.5 -42.999
c-19.333 -46.667 -35.666 -91.667 -48.999 -135l-80 -2l18.5 71.5l21.5 82l21.5 81c7 26.333 13.5 49.5 19.5 69.5l93.5 300.5l91.5 297.5c-2 -27.333 -0.833008 -48.333 3.5 -63s9.66602 -26 15.999 -34s12.333 -14.167 18 -18.5s8.5 -10.5 8.5 -18.5l-42 -131l-57.5 -180
l-56.5 -179c20 36 42.833 69.833 68.5 101.5s51.667 56.5 78 74.5s51.666 26.5 75.999 25.5s45.166 -15.833 62.499 -44.5z" />
    <glyph glyph-name="l" unicode="l" horiz-adv-x="247" 
d="M200 884c-2 -27.333 -1.00098 -48.333 2.99902 -63s8.83301 -26 14.5 -34s11.167 -14.333 16.5 -19s8 -11 8 -19c-2.66699 -9.33301 -8.66699 -27.833 -18 -55.5l-33.5 -98.5l-42 -125.5l-44.5 -138l-42 -134.5c-13.333 -43.333 -24.333 -81.666 -33 -114.999
s-14.5 -60 -17.5 -80s-1.83301 -30 3.5 -30c12 0 25 5.83301 39 17.5s28.167 26.834 42.5 45.501s28.833 39.334 43.5 62.001s28.5 45.667 41.5 69l36.5 66l29 53c4.66699 5.33301 9.83398 7.16602 15.501 5.49902s7.16699 -7.16699 4.5 -16.5l-29 -54.5l-37.5 -68.5
c-13.667 -24 -28.167 -48 -43.5 -72s-31.166 -45.5 -47.499 -64.5s-32.833 -34.5 -49.5 -46.5s-33 -18 -49 -18c-11.333 0 -20.833 2.5 -28.5 7.5s-14 11.667 -19 20s-8.66699 17.833 -11 28.5s-3.5 22 -3.5 34c0 25.333 4.66699 59.666 14 102.999
s21.666 90.666 36.999 141.999c8.66699 29.333 19.167 62.833 31.5 100.5l38.5 116.5l40.5 119.5l38.5 111l31.5 91.5c9 26.667 15.5 46.667 19.5 60z" />
    <glyph glyph-name="m" unicode="m" horiz-adv-x="572" 
d="M53 461c7.33301 -9.33301 15.5 -13.8359 24.5 -13.5029s17.333 1.66602 25 3.99902s14.167 4 19.5 5s8 -2.5 8 -10.5c0 -0.666992 -0.833008 -3.5 -2.5 -8.5s-4.66699 -14.667 -9 -29l-19 -60l-31.5 -100.5l44.5 75.5c14.333 23.667 28.5 44.334 42.5 62.001
s28.167 31.667 42.5 42s29.5 15.5 45.5 15.5c19.333 0 33.166 -5.16699 41.499 -15.5s12.833 -23.166 13.5 -38.499c16 16.667 31.833 29.834 47.5 39.501s31.167 14.5 46.5 14.5c18.667 0 31.167 -6.66699 37.5 -20s8.83301 -30.833 7.5 -52.5s-5.83301 -46.5 -13.5 -74.5
s-16.334 -56.5 -26.001 -85.5l-29.5 -85.5c-10 -28 -18.333 -52.833 -25 -74.5s-10.667 -39.167 -12 -52.5s2 -20 10 -20c12 0 25 5.66699 39 17s28.167 26 42.5 44s28.666 38.333 42.999 61s28 45.334 41 68.001l36.5 65l29 52
c4.66699 5.33301 9.83398 7.16602 15.501 5.49902s7.16699 -7.16699 4.5 -16.5l-29 -54.5l-37.5 -68.5c-13.667 -24 -28.167 -48 -43.5 -72s-31.166 -45.5 -47.499 -64.5s-32.833 -34.5 -49.5 -46.5s-33 -18 -49 -18c-26.667 0 -44.5 9.66699 -53.5 29
s-12.333 43.833 -10 73.5s8.66602 62.167 18.999 97.5s21.166 69.166 32.499 101.499l30.5 85.5c9 24.667 13.5 40.667 13.5 48c0 8.66699 -1.33301 13 -4 13c-5.33301 0 -14.666 -6.5 -27.999 -19.5s-32.333 -34.833 -57 -65.5l-28.5 -80.5l-31.5 -91.5
c-10 -30 -18.167 -56.667 -24.5 -80s-8.83301 -38.333 -7.5 -45c-19.333 6.66699 -32 18.5 -38 35.5s-7.83301 36.833 -5.5 59.5s7.5 47 15.5 73s16.5 51.667 25.5 77s17 48.833 24 70.5s10.5 39.5 10.5 53.5c0 4 -0.5 6.5 -1.5 7.5s-2.16699 1.5 -3.5 1.5
c-7.33301 0 -16.166 -5.5 -26.499 -16.5s-21 -25.167 -32 -42.5s-22.167 -36.666 -33.5 -57.999l-32 -62.5c-10 -20.333 -18.833 -39.166 -26.5 -56.499l-17.5 -40c-19.333 -46.667 -35.666 -91.667 -48.999 -135l-80 -2l19 71.5l22 82l22 81l20 69.5c2 6 4 12.667 6 20
s5 17.5 9 30.5l15 49.5z" />
    <glyph glyph-name="n" unicode="n" horiz-adv-x="425" 
d="M53 461c7.33301 -9.33301 15.8281 -14.001 25.4951 -14.001s18.667 1.16699 27 3.5s15 4 20 5s6.83301 -2.16699 5.5 -9.5c-1.33301 -5.33301 -3 -11.5 -5 -18.5s-5.33301 -17.5 -10 -31.5l-18.5 -56.5l-29.5 -91.5l44.5 75.5c14.333 23.667 28.5 44.334 42.5 62.001
s28.167 31.667 42.5 42s29.5 15.5 45.5 15.5c19.333 0 32 -8.33301 38 -25s7.83301 -38 5.5 -64s-8 -55 -17 -87s-18.667 -63.333 -29 -94s-20.5 -58.834 -30.5 -84.501s-17 -45.5 -21 -59.5c-3.33301 -10.667 -5.16602 -21.834 -5.49902 -33.501s3.16699 -17.5 10.5 -17.5
c12 0 25 5.66699 39 17s28.167 26 42.5 44s28.666 38.333 42.999 61s28 45.334 41 68.001l36.5 65l29 52c4.66699 5.33301 9.83398 7.16602 15.501 5.49902s7.16699 -7.16699 4.5 -16.5l-29 -54.5l-37.5 -68.5c-13.667 -24 -28.167 -48 -43.5 -72
s-31.166 -45.5 -47.499 -64.5s-32.833 -34.5 -49.5 -46.5s-33 -18 -49 -18c-22 0 -37.667 6.5 -47 19.5s-14.5 30.167 -15.5 51.5s1.33301 45.5 7 72.5s12.834 54.5 21.501 82.5s17.834 55.333 27.501 82l24.5 70c3.33301 11.333 6.16602 21.833 8.49902 31.5
s3.5 18.167 3.5 25.5c0 4 -0.5 6.5 -1.5 7.5s-2.16699 1.5 -3.5 1.5c-7.33301 0 -16.166 -5.5 -26.499 -16.5s-21 -25.167 -32 -42.5s-22.167 -36.666 -33.5 -57.999l-32 -62.5c-10 -20.333 -18.833 -39.166 -26.5 -56.499l-17.5 -40
c-19.333 -46.667 -35.666 -91.667 -48.999 -135l-80 -2l19 71.5l22 82l22 81l20 69.5c2 6 4 12.667 6 20s5 17.5 9 30.5l15 49.5z" />
    <glyph glyph-name="o" unicode="o" 
d="M460 272c-7.33301 -18.667 -17.835 -39.502 -31.502 -62.502s-29.834 -44.333 -48.501 -64s-39.667 -35.334 -63 -47.001s-48.333 -15.5 -75 -11.5c-25.333 -32 -53.833 -59.5 -85.5 -82.5s-65.5 -34.5 -101.5 -34.5s-63 12.333 -81 37s-27 55.667 -27 93
c0 29.333 4.83301 60.666 14.5 93.999s23.5 65.666 41.5 96.999c12.667 21.333 26.834 41.5 42.501 60.5s32.834 35.5 51.501 49.5s38.5 25 59.5 33s43.167 12 66.5 12c6.66699 0 14 -0.833008 22 -2.5s15.833 -3.66699 23.5 -6s14.5 -5.16602 20.5 -8.49902
s10 -6.33301 12 -9c-12 0.666992 -23.833 0 -35.5 -2s-21.5 -5.66699 -29.5 -11c-27.333 -1.33301 -53.666 -13.5 -78.999 -36.5s-47.833 -50.667 -67.5 -83s-35.334 -66.666 -47.001 -102.999s-17.5 -68.833 -17.5 -97.5c0 -21.333 4.16699 -38.833 12.5 -52.5
s20.166 -20.5 35.499 -20.5c18.667 0 40.334 8.5 65.001 25.5s47.667 38.167 69 63.5c-20 12.667 -34.833 29.5 -44.5 50.5s-14.5 43.5 -14.5 67.5c0 21.333 3.66699 42.833 11 64.5s17.5 41.167 30.5 58.5s28 31.333 45 42s35.167 16 54.5 16
c17.333 0 32.166 -5.83301 44.499 -17.5s18.5 -29.5 18.5 -53.5c0 -13.333 -2 -28.333 -6 -45s-9.66699 -34.167 -17 -52.5s-16.166 -37.166 -26.499 -56.499s-21.833 -38.333 -34.5 -57c16.667 0 33.334 5 50.001 15s32.5 22.833 47.5 38.5s29 33.334 42 53.001
s24.5 39.167 34.5 58.5c2 2.66699 4.33301 4.33398 7 5.00098s5.16699 0.5 7.5 -0.5s4 -3 5 -6s0.5 -6.83301 -1.5 -11.5zM183.998 220.998c0 -19.333 3.83496 -37 11.502 -53s18.5 -28.333 32.5 -37c12.667 17.333 24.167 35.333 34.5 54s19.333 37 27 55
s13.667 34.833 18 50.5s6.5 29.5 6.5 41.5c0 11.333 -2.33301 19.5 -7 24.5s-10.667 7.5 -18 7.5c-14.667 0 -28.334 -4.5 -41.001 -13.5s-23.834 -20.333 -33.501 -34s-17.167 -29 -22.5 -46s-8 -33.5 -8 -49.5z" />
    <glyph glyph-name="p" unicode="p" horiz-adv-x="440" 
d="M440 285c5.33301 4.66699 9.99902 4.83496 13.999 0.501953s4 -9.16602 0 -14.499c-20.667 -24 -44.167 -42.667 -70.5 -56s-54.166 -24.666 -83.499 -33.999c-10 -24 -21.667 -47.167 -35 -69.5s-27 -42.5 -41 -60.5s-28 -33.333 -42 -46s-26.333 -21.334 -37 -26.001
c-18.667 -8 -35 -10.667 -49 -8s-25.167 8.66699 -33.5 18s-13.5 21 -15.5 35s-0.5 28.667 4.5 44s14 30.5 27 45.5s30.5 27.833 52.5 38.5c11.333 5.33301 23.5 10.166 36.5 14.499s26.167 8.5 39.5 12.5c9.33301 17.333 17.5 35.333 24.5 54s12.833 36 17.5 52
c9.33301 36.667 9.83301 63.5 1.5 80.5s-21.5 25 -39.5 24s-38.5 -10 -61.5 -27s-44.5 -41.167 -64.5 -72.5l-50.5 -162l-50.5 -166.5l-45 -154c-14 -48.333 -25.333 -89.5 -34 -123.5l-80 -2c4.66699 14.667 9.5 31 14.5 49l17 63l22.5 83l31 109l59 198l85 272
c7.33301 -9.33301 15.666 -13.833 24.999 -13.5s18 1.66602 26 3.99902s14.833 4 20.5 5s8.5 -2.5 8.5 -10.5c-4.66699 -12.667 -9.16699 -26 -13.5 -40s-9.16602 -28.667 -14.499 -44c26 24.667 53.5 43.334 82.5 56.001s55 17.167 78 13.5s40.667 -16.834 53 -39.501
s15.5 -57.334 9.5 -104.001c-4 -24 -10.667 -49.667 -20 -77c24 8 47.167 18 69.5 30s42.833 28.333 61.5 49zM139.999 130.001c-15.333 -6.66699 -28.001 -16.168 -38.001 -28.501s-17.5 -24.666 -22.5 -36.999s-7.33301 -23.166 -7 -32.499s3.33301 -14.833 9 -16.5
s14.334 2.16602 26.001 11.499s26.5 27 44.5 53c5.33301 7.33301 11.5 17 18.5 29s14.5 25.667 22.5 41l-27 -10z" />
    <glyph glyph-name="q" unicode="q" horiz-adv-x="431" 
d="M22 31c-27.333 0 -47.332 9.16797 -59.999 27.501s-19 40.166 -19 65.499c0 12 1.66699 25.167 5 39.5s7.66602 28.666 12.999 42.999s11.333 28.333 18 42s13.667 25.834 21 36.501c10.667 15.333 22.667 30 36 44s27.666 26.167 42.999 36.5s31.333 18.666 48 24.999
s33.667 9.5 51 9.5c7.33301 0 15 -0.5 23 -1.5s15.667 -2.5 23 -4.5l21 67c7.33301 -9.33301 15.666 -13.833 24.999 -13.5s18 1.66602 26 3.99902s14.833 4 20.5 5s8.5 -2.5 8.5 -10.5l-77 -240.5c-26 -79 -49 -158.833 -69 -239.5c12.667 2.66699 26.5 10.5 41.5 23.5
s30.5 29 46.5 48s32 40 48 63l46 68.5c14.667 22.667 28 44.167 40 64.5l30 51.5c4.66699 5.33301 9.83398 7.16602 15.501 5.49902s7.16699 -7.16699 4.5 -16.5l-27.5 -48l-36.5 -60l-42.5 -65.5c-15 -22.333 -30.5 -43.166 -46.5 -62.499s-32.167 -36.666 -48.5 -51.999
s-32.166 -26.666 -47.499 -33.999c16 -10.667 30.667 -24.334 44 -41.001s24 -35 32 -55s12.667 -41.333 14 -64s-1.33398 -45.667 -8.00098 -69c-7.33301 -24.667 -18.333 -43.667 -33 -57s-30.334 -21 -47.001 -23s-33.167 1.66699 -49.5 11s-29.833 25 -40.5 47
c-11.333 22.667 -18 50 -20 82s-1.16699 65.667 2.5 101s9 71 16 107s14.5 69.333 22.5 100c-17.333 -17.333 -35.666 -31.666 -54.999 -42.999s-38.666 -17 -57.999 -17zM158.001 165.001l12.998 48l14.5 52.5l14.5 51c4.66699 16.333 9 30.5 13 42.5
c-6.66699 1.33301 -11.667 2 -15 2c-16.667 0 -32.667 -4.66699 -48 -14s-29.666 -21.333 -42.999 -36s-25.666 -31.167 -36.999 -49.5s-21 -36.5 -29 -54.5s-14.167 -34.833 -18.5 -50.5s-6.5 -28.167 -6.5 -37.5c0 -12 2.33301 -22.667 7 -32s11.667 -14 21 -14
c14.667 0 33.167 7.83301 55.5 23.5s41.833 38.5 58.5 68.5zM149.999 -190.999c-3.33301 -38 -0.503906 -67.6689 8.49609 -89.002s20 -34.666 33 -39.999s26.333 -3 40 7s23.5 27 29.5 51c4.66699 21.333 5.83398 42.166 3.50098 62.499s-7.66602 39.333 -15.999 57
s-19 33.334 -32 47.001s-27.5 24.834 -43.5 33.501c-5.33301 -23.333 -10.166 -46 -14.499 -68s-7.16602 -42.333 -8.49902 -61z" />
    <glyph glyph-name="r" unicode="r" horiz-adv-x="382" 
d="M0 285l34.9971 75.9941l27 60c-18 4.66699 -30.5 14.834 -37.5 30.501s-9.33301 31.834 -7 48.501s9 31.167 20 43.5s25.5 18.166 43.5 17.499c14 -0.666992 23.333 -5.5 28 -14.5s6.5 -19.167 5.5 -30.5s-3.33301 -22.833 -7 -34.5l-8.5 -26.5
c18.667 -2 37.5 -3.5 56.5 -4.5s35.833 -3.66699 50.5 -8s26 -11.666 34 -21.999s10.333 -25.5 7 -45.5c-4 -21.333 -9.83301 -46.166 -17.5 -74.499s-16.167 -57.333 -25.5 -87l-27.5 -88c-9 -29 -16.5 -55 -22.5 -78s-9.66699 -41.333 -11 -55s1 -20.5 7 -20.5
c12 0 25 5.83301 39 17.5s28.167 26.834 42.5 45.501s28.833 39.334 43.5 62.001s28.5 45.667 41.5 69l36.5 66l29 53c4.66699 5.33301 9.83398 7.16602 15.501 5.49902s7.16699 -7.16699 4.5 -16.5l-29 -54.5l-37.5 -68.5c-13.667 -24 -28.167 -48 -43.5 -72
s-31.166 -45.5 -47.499 -64.5s-32.833 -34.5 -49.5 -46.5s-33 -18 -49 -18c-11.333 0 -20.833 2.5 -28.5 7.5s-14 11.667 -19 20s-8.66699 17.833 -11 28.5s-3.5 22 -3.5 34c0 28 2.5 56.333 7.5 85s11.333 57.334 19 86.001s16 56.834 25 84.501l26.5 79.5
c4 12.667 4.16699 22.167 0.5 28.5s-9.66699 10.666 -18 12.999s-18 3.33301 -29 3s-21.167 -0.5 -30.5 -0.5c-8 -18 -16.333 -37.833 -25 -59.5s-22 -50.167 -40 -85.5c-2 -2.66699 -4.5 -4.5 -7.5 -5.5s-5.66699 -1 -8 0s-4.16602 2.83301 -5.49902 5.5
s-1 6.33398 1 11.001zM74.9971 457.994c1.33301 2 3.33301 7.5 6 16.5s5 18.667 7 29s2.66699 19.5 2 27.5s-4 12 -10 12c-8 0 -14.667 -4 -20 -12s-8.83301 -17 -10.5 -27s-0.666992 -19.667 3 -29s11.167 -15 22.5 -17z" />
    <glyph glyph-name="s" unicode="s" horiz-adv-x="253" 
d="M253 285c2 2.66699 4.33105 4.33203 6.99805 4.99902s5.16699 0.166992 7.5 -1.5s4 -4 5 -7s0.166992 -6.5 -2.5 -10.5c-18.667 -34 -40.834 -60.5 -66.501 -79.5s-52.5 -35.167 -80.5 -48.5c2.66699 -25.333 0.666992 -50.166 -6 -74.499s-21 -48.166 -43 -71.499
c-18.667 -19.333 -37 -32.333 -55 -39s-34.167 -8.66699 -48.5 -6s-26.166 8.83398 -35.499 18.501s-14.666 21.5 -15.999 35.5s2.5 29.333 11.5 46s24.167 32.667 45.5 48c11.333 8 23.333 15.333 36 22s25.667 12.667 39 18c-7.33301 23.333 -15.833 47 -25.5 71
s-18.167 48.667 -25.5 74c-6 20.667 -9.83301 41.167 -11.5 61.5s0.833008 40.166 7.5 59.499c4 12 9.5 23.667 16.5 35s15.833 21.5 26.5 30.5s23 16 37 21s29.667 6.83301 47 5.5c22 -2 38.167 -10.167 48.5 -24.5s16 -31.166 17 -50.499s-2.16699 -39.333 -9.5 -60
s-17.666 -38 -30.999 -52c-12.667 -7.33301 -22.5 -8.33301 -29.5 -3s-12.833 12.333 -17.5 21c9.33301 4 17.833 13.167 25.5 27.5s13 29.5 16 45.5s3.16699 30.667 0.5 44s-9.66699 20.666 -21 21.999c-13.333 1.33301 -25.166 -4.16699 -35.499 -16.5
s-17.5 -28.166 -21.5 -47.499c-3.33301 -16 -3.16602 -33.333 0.500977 -52s8.66699 -37.834 15 -57.501s13.333 -40 21 -61s13.5 -42.167 17.5 -63.5c25.333 11.333 49.666 25.666 72.999 42.999s43.666 41.333 60.999 72zM-15.002 72.998
c-20.667 -16 -32.5 -31.667 -35.5 -47s-0.666992 -27.166 7 -35.499s19.167 -11.833 34.5 -10.5s31.666 10.666 48.999 27.999c13.333 14 21 30 23 48s0.333008 37.333 -5 58c-13.333 -6 -26.166 -12.333 -38.499 -19s-23.833 -14 -34.5 -22z" />
    <glyph glyph-name="t" unicode="t" horiz-adv-x="247" 
d="M-32 544h115.999l36.5 108l34 98.5l27.5 80.5l18 53c-2 -27.333 -1.16699 -48.333 2.5 -63s8.16699 -26 13.5 -34s10.333 -14.333 15 -19s7 -11 7 -19c-3.33301 -12 -11.333 -36.5 -24 -73.5l-45 -131.5h106l-16 -44c-15.333 -0.666992 -31.833 -1 -49.5 -1h-55.5
l-38.5 -118.5l-37.5 -120c-12 -39 -22.833 -76 -32.5 -111s-17.5 -65.667 -23.5 -92s-9.83301 -47.166 -11.5 -62.499s-0.166992 -23 4.5 -23c12 0 25 5.83301 39 17.5s28.167 26.834 42.5 45.501s28.833 39.334 43.5 62.001s28.5 45.667 41.5 69l36.5 66l29 53
c4.66699 5.33301 9.83398 7.16602 15.501 5.49902s7.16699 -7.16699 4.5 -16.5l-29 -54.5l-37.5 -68.5c-13.667 -24 -28.167 -48 -43.5 -72s-31.166 -45.5 -47.499 -64.5s-32.833 -34.5 -49.5 -46.5s-33 -18 -49 -18c-11.333 0 -20.833 2.5 -28.5 7.5s-14 11.667 -19 20
s-8.66699 17.833 -11 28.5s-3.5 22 -3.5 34c0 25.333 4.66699 59.666 14 102.999s21.666 90.666 36.999 141.999c8.66699 29.333 19 62.333 31 99l38 115h-119z" />
    <glyph glyph-name="u" unicode="u" horiz-adv-x="447" 
d="M324 445l-39.501 -144.002l-26 -92l-16.5 -57.5l-11 -40.5c-5.33301 -19.333 -10 -37.5 -14 -54.5s-6.83301 -31.833 -8.5 -44.5s-2 -22.5 -1 -29.5s3.5 -10.5 7.5 -10.5c12 0 25 5.83301 39 17.5s28.167 26.834 42.5 45.501s28.833 39.334 43.5 62.001
s28.5 45.667 41.5 69l36.5 66l29 53c4.66699 5.33301 9.83398 7.16602 15.501 5.49902s7.16699 -7.16699 4.5 -16.5l-29 -54.5l-37.5 -68.5c-13.667 -24 -28.167 -48 -43.5 -72s-31.166 -45.5 -47.499 -64.5s-32.833 -34.5 -49.5 -46.5s-33 -18 -49 -18
c-11.333 0 -20.833 2.5 -28.5 7.5s-14 11.667 -19 20s-8.66699 17.833 -11 28.5s-3.5 22 -3.5 34c0 6.66699 0.333008 15.5 1 26.5s1.83398 22.667 3.50098 35s3.5 24.166 5.5 35.499s4.33301 20.666 7 27.999l-42.5 -71c-13.667 -22 -27.334 -41.333 -41.001 -58
s-27.5 -29.667 -41.5 -39s-28.333 -14 -43 -14c-18.667 0 -31 9.33301 -37 28s-7.83301 42.5 -5.5 71.5s7.83301 61.333 16.5 97s18 70.834 28 105.501c10 34 20 65.167 30 93.5s17.667 50.833 23 67.5c4.66699 3.33301 10.5 4.5 17.5 3.5s14.333 -2.16699 22 -3.5
s15.5 -2.5 23.5 -3.5s15 0.166992 21 3.5l-16 -50.5l-19 -63l-20.5 -68.5l-19.5 -66.5l-16.5 -57.5c-5 -17.333 -8.83301 -31.333 -11.5 -42c-3.33301 -11.333 -6.16602 -21.833 -8.49902 -31.5s-3.5 -18.167 -3.5 -25.5c0 -4 0.5 -6.5 1.5 -7.5s2.16699 -1.5 3.5 -1.5
c7.33301 0 16.166 5.33301 26.499 16s21 24.334 32 41.001s22.167 35.167 33.5 55.5s22 40.5 32 60.5l26.5 55l17.5 39c9.33301 23.333 18.166 47.833 26.499 73.5l22.5 70.5c6 4.66699 12.333 7 19 7s13.5 -0.833008 20.5 -2.5s14 -3.16699 21 -4.5
s13.5 -0.666016 19.5 2.00098z" />
    <glyph glyph-name="v" unicode="v" horiz-adv-x="371" 
d="M393 273c-16.667 -32 -35.6621 -57.835 -56.9951 -77.502s-41.333 -30.834 -60 -33.501c-21.333 -2 -39.333 6.66699 -54 26l-14 -25l-18 -30c-13.333 -22.667 -27.333 -45 -42 -67s-29.667 -41.5 -45 -58.5s-30.833 -30.833 -46.5 -41.5s-30.834 -16 -45.501 -16
c-11.333 0 -20.666 2.5 -27.999 7.5s-13.333 11.667 -18 20s-7.83398 17.833 -9.50098 28.5s-2.5 22 -2.5 34c0 19.333 2.16699 42.5 6.5 69.5s9.83301 55 16.5 84s13.834 58 21.501 87s15 55.167 22 78.5l17.5 58c4.66699 15.333 7 24 7 26
c5.33301 2.66699 11.166 4 17.499 4s13 -0.5 20 -1.5s14 -1.83301 21 -2.5s14.167 0 21.5 2l-39.5 -144l-26 -92l-17 -57.5c-4.33301 -14.333 -8.16602 -27.833 -11.499 -40.5c-5.33301 -19.333 -9.83301 -37.5 -13.5 -54.5s-6.33398 -31.833 -8.00098 -44.5
s-2 -22.5 -1 -29.5s3.5 -10.5 7.5 -10.5c12 0 24.667 5.5 38 16.5s27 25.333 41 43s28 37.5 42 59.5l41 67c4.66699 7.33301 9.5 15.666 14.5 24.999l16.5 31c-2 6.66699 -3.83301 13.334 -5.5 20.001s-2.83398 13.334 -3.50098 20.001c-2 20 -1.66699 38.5 1 55.5
s7 31.667 13 44s12.833 22 20.5 29s15.5 11.167 23.5 12.5c7.33301 0.666992 13.666 -1.16602 18.999 -5.49902s8.66602 -12.166 9.99902 -23.499c1.33301 -15.333 -2.66699 -36.5 -12 -63.5s-22.666 -56.833 -39.999 -89.5c5.33301 -9.33301 10.666 -16.5 15.999 -21.5
s12.666 -6.83301 21.999 -5.5c16.667 2 33.667 12 51 30s33.333 41 48 69c2 3.33301 4.66699 5.66602 8 6.99902s6.33301 1.5 9 0.5s4.66699 -3.16699 6 -6.5s1 -7.66602 -1 -12.999zM224.005 245.998c13.333 26 23.498 49.168 30.498 69.501s9.83301 36.166 8.5 47.499
c0 5.33301 -1.33301 8 -4 8c-5.33301 -0.666992 -10.666 -4.33398 -15.999 -11.001s-9.66602 -15.167 -12.999 -25.5s-5.83301 -22.166 -7.5 -35.499s-1.5 -27 0.5 -41z" />
    <glyph glyph-name="w" unicode="w" horiz-adv-x="551" 
d="M573 273c-16.667 -32 -35.666 -57.8389 -56.999 -77.5059s-41.333 -30.834 -60 -33.501c-21.333 -2 -39.333 6.66699 -54 26l-14 -25l-18 -30c-13.333 -22.667 -27.333 -45 -42 -67s-29.667 -41.5 -45 -58.5s-30.833 -30.833 -46.5 -41.5s-30.834 -16 -45.501 -16
c-11.333 0 -20.666 2.5 -27.999 7.5s-13.333 11.667 -18 20s-7.83398 17.833 -9.50098 28.5s-2.5 22 -2.5 34v3c-19.333 -26.667 -39.5 -48.834 -60.5 -66.501s-41.167 -26.5 -60.5 -26.5c-11.333 0 -20.666 2.5 -27.999 7.5s-13.333 11.667 -18 20
s-7.83398 17.833 -9.50098 28.5s-2.5 22 -2.5 34c0 14.667 1.33301 31.667 4 51s6.16699 39.833 10.5 61.5s9.16602 43.834 14.499 66.501s11 44.667 17 66c5.33301 20.667 10.666 40.167 15.999 58.5l14.5 49l10.5 35c2.66699 9 4 14.167 4 15.5
c6.66699 4 13.334 5.83301 20.001 5.5s13.334 -1.16602 20.001 -2.49902s13.334 -2.5 20.001 -3.5s13.334 -0.166992 20.001 2.5l-39.5 -144l-26 -92l-17 -57.5c-4.33301 -14.333 -8.16602 -27.833 -11.499 -40.5c-5.33301 -19.333 -9.83301 -37.5 -13.5 -54.5
s-6.33398 -31.833 -8.00098 -44.5s-2 -22.5 -1 -29.5s3.5 -10.5 7.5 -10.5c17.333 0.666992 36.5 12.334 57.5 35.001s42.167 50.334 63.5 83.001c4 32.667 10.833 68.834 20.5 108.501s19.334 77.167 29.001 112.5l25.5 90.5c7.33301 25 11.333 38.833 12 41.5
c6 3.33301 12.333 4.83301 19 4.5s13.5 -1 20.5 -2s13.833 -1.83301 20.5 -2.5s13.334 0 20.001 2l-39.5 -144l-26 -92l-17 -57.5c-4.33301 -14.333 -8.16602 -27.833 -11.499 -40.5c-5.33301 -19.333 -9.83301 -37.5 -13.5 -54.5s-6.33398 -31.833 -8.00098 -44.5
s-2 -22.5 -1 -29.5s3.5 -10.5 7.5 -10.5c12 0 24.667 5.5 38 16.5s27 25.333 41 43s28 37.5 42 59.5l41 67c4.66699 7.33301 9.5 15.666 14.5 24.999l16.5 31c-2 6.66699 -3.83301 13.334 -5.5 20.001s-2.83398 13.334 -3.50098 20.001c-2 20 -1.66699 38.5 1 55.5
s7 31.667 13 44s12.833 22 20.5 29s15.5 11.167 23.5 12.5c7.33301 0.666992 13.666 -1.16602 18.999 -5.49902s8.66602 -12.166 9.99902 -23.499c1.33301 -15.333 -2.66699 -36.5 -12 -63.5s-22.666 -56.833 -39.999 -89.5c5.33301 -9.33301 10.666 -16.5 15.999 -21.5
s12.666 -6.83301 21.999 -5.5c16.667 2 33.667 12 51 30s33.333 41 48 69c2 3.33301 4.66699 5.66602 8 6.99902s6.33301 1.5 9 0.5s4.66699 -3.16699 6 -6.5s1 -7.66602 -1 -12.999zM404.001 245.994c13.333 26 23.498 49.168 30.498 69.501s9.83301 36.166 8.5 47.499
c0 5.33301 -1.33301 8 -4 8c-5.33301 -0.666992 -10.666 -4.33398 -15.999 -11.001s-9.66602 -15.167 -12.999 -25.5s-5.83301 -22.166 -7.5 -35.499s-1.5 -27 0.5 -41z" />
    <glyph glyph-name="x" unicode="x" horiz-adv-x="649" 
d="M112 -58c22 13.333 42.3291 28.832 60.9961 46.499s36 36.5 52 56.5s31.167 41.167 45.5 63.5l42.5 68.5c-2 38 -3.5 76.167 -4.5 114.5s-4 73 -9 104s-12.833 56.167 -23.5 75.5s-26.667 29 -48 29c-16.667 0 -34.5 -6.83301 -53.5 -20.5s-37.833 -31.5 -56.5 -53.5
s-36.5 -46.333 -53.5 -73s-31.833 -53 -44.5 -79c-4.66699 -5.33301 -9.66699 -6.66602 -15 -3.99902s-7 7.66699 -5 15c12.667 27.333 28 55.333 46 84s37.167 54.667 57.5 78s41.5 42.333 63.5 57s43.667 22 65 22c26 0 47.667 -6.66699 65 -20s31.5 -31 42.5 -53
s19.333 -47.333 25 -76s9.83398 -58.667 12.501 -90c16 27.333 33 53.666 51 78.999s37.5 48.666 58.5 69.999s44.333 40.333 70 57s54.167 29.667 85.5 39c6 2 9.83301 0.666992 11.5 -4s-0.166016 -7.66699 -5.49902 -9c-32.667 -13.333 -61.834 -30 -87.501 -50
s-49.167 -42.167 -70.5 -66.5s-41 -50.166 -59 -77.499s-35 -55.333 -51 -84c1.33301 -33.333 2.16602 -65.666 2.49902 -96.999s1.33301 -59.166 3 -83.499s4.83398 -44.333 9.50098 -60s12 -23.834 22 -24.501c12 -1.33301 25 3.5 39 14.5s28.167 25.667 42.5 44
s28.833 38.833 43.5 61.5s28.5 45.667 41.5 69l36.5 67l29 53c4.66699 5.33301 9.83398 7.16602 15.501 5.49902s7.16699 -7.16699 4.5 -16.5l-29 -54.5l-37.5 -68.5c-13.667 -24 -28.167 -48 -43.5 -72s-31.166 -45.5 -47.499 -64.5s-32.833 -34.5 -49.5 -46.5
s-33 -18 -49 -18c-17.333 0 -31.666 4.66699 -42.999 14s-20.833 22 -28.5 38s-13.5 34.833 -17.5 56.5s-7 44.834 -9 69.501c-26 -44 -54.333 -83.667 -85 -119s-68 -62 -112 -80c-9.33301 0 -11.333 4.33301 -6 13z" />
    <glyph glyph-name="y" unicode="y" horiz-adv-x="417" 
d="M133 445l-24.9971 -77.502l-28 -89.5l-26 -85c-8 -26.667 -14 -47.667 -18 -63c-2 -6.66699 -3.83301 -14.5 -5.5 -23.5s-3 -17.667 -4 -26s-1.16699 -15.5 -0.5 -21.5s2.66699 -9 6 -9c10.667 0 24.167 9.83301 40.5 29.5s32.833 42.834 49.5 69.501
s32.167 53.667 46.5 81s24.833 49 31.5 65l20.5 77l11 42c2.33301 9.33301 4 15.5 5 18.5s1.83301 5.83301 2.5 8.5c6 4 12.333 5.66699 19 5s13.334 -1.83398 20.001 -3.50098s13.334 -3 20.001 -4s13.334 -0.5 20.001 1.5l-52.5 -192.5
c-16.333 -60.333 -35.166 -120.166 -56.499 -179.499c17.333 7.33301 34.833 16.333 52.5 27s35.167 24.334 52.5 41.001s34.5 37.167 51.5 61.5s34.167 53.5 51.5 87.5c3.33301 6 8 7.66699 14 5s8 -7.66699 6 -15c-19.333 -39.333 -38.833 -72.333 -58.5 -99
s-39.5 -49 -59.5 -67s-40.167 -32.333 -60.5 -43s-40.5 -20 -60.5 -28c-13.333 -36 -27.5 -72.333 -42.5 -109s-32.167 -69.667 -51.5 -99c-16.667 -24 -34.834 -41.5 -54.501 -52.5s-38.667 -16.833 -57 -17.5s-34.833 3.16602 -49.5 11.499s-25.334 20 -32.001 35
s-7.83398 32.5 -3.50098 52.5s16.166 41 35.499 63c12 13.333 25.667 25.833 41 37.5s31.166 22.334 47.499 32.001s33 18.334 50 26.001s32.833 14.5 47.5 20.5l20 72.5c6 22.333 12.667 44.166 20 65.499c-14.667 -24.667 -28.334 -46.667 -41.001 -66
s-25.334 -35.833 -38.001 -49.5s-25.5 -24 -38.5 -31s-26.833 -10.5 -41.5 -10.5c-18.667 0 -31.667 7.5 -39 22.5s-10.666 34.833 -9.99902 59.5s4.5 53 11.5 85s16.167 65 27.5 99l51 158c6 4.66699 12.167 7 18.5 7s13 -0.833008 20 -2.5s14.167 -3 21.5 -4
s14.666 -0.5 21.999 1.5zM-37.9971 -93.002c-22.667 -26 -33.834 -48.8359 -33.501 -68.5029s7 -33.167 20 -40.5s29.667 -6.66602 50 2.00098s39.5 28.334 57.5 59.001c10.667 18 21.334 40.167 32.001 66.5s21 54.166 31 83.499c-12.667 -5.33301 -26 -11.5 -40 -18.5
s-28 -14.667 -42 -23s-27.5 -17.666 -40.5 -27.999s-24.5 -21.166 -34.5 -32.499z" />
    <glyph glyph-name="z" unicode="z" horiz-adv-x="470" 
d="M33 75c0 7.33301 1.66797 13.8369 5.00098 19.5039s9 8.83398 17 9.50098l8 -3c13.333 -2.66699 28.5 2.33301 45.5 15s33.5 29.5 49.5 50.5s30.5 44.5 43.5 70.5s22.667 51.167 29 75.5s8.16602 45.666 5.49902 63.999s-11.667 30.833 -27 37.5
c-18 7.33301 -36.167 7.66602 -54.5 0.999023s-36 -17.334 -53 -32.001s-32.667 -31.834 -47 -51.501s-25.833 -38.834 -34.5 -57.501c-2 -4 -4.33301 -6.5 -7 -7.5s-5.33398 -1 -8.00098 0s-4.5 3 -5.5 6s-0.833008 7.16699 0.5 12.5
c8.66699 17.333 19.334 36.166 32.001 56.499s27.334 38.833 44.001 55.5s35.834 30 57.501 40s46.5 13 74.5 9c30.667 -4.66699 54.167 -16.167 70.5 -34.5s26.333 -40.333 30 -66s1.66699 -53.167 -6 -82.5s-20.167 -57.166 -37.5 -83.499s-38.666 -49.333 -63.999 -69
s-53.666 -32.5 -84.999 -38.5c7.33301 -6 14.166 -12.667 20.499 -20s12.166 -14.666 17.499 -21.999c29.333 11.333 58.666 24.333 87.999 39s57.666 32 84.999 52s53.166 43.333 77.499 70s46.166 58 65.499 94c4 5.33301 9.5 7.33301 16.5 6s8.83301 -7.33301 5.5 -18
c-20 -37.333 -42.5 -69.833 -67.5 -97.5s-51.667 -52 -80 -73s-57.666 -39.167 -87.999 -54.5s-60.5 -29 -90.5 -41c7.33301 -27.333 9.16602 -57.333 5.49902 -90s-11.667 -65.5 -24 -98.5s-28.5 -64.833 -48.5 -95.5s-42.333 -57.834 -67 -81.501
s-51.334 -42.667 -80.001 -57s-57.667 -21.5 -87 -21.5c-34 0 -60.5 9.5 -79.5 28.5s-31.167 42.333 -36.5 70s-4 57.334 4 89.001s21.667 60.167 41 85.5c14.667 19.333 31.834 36.666 51.501 51.999s41 29.333 64 42s46.833 24 71.5 34s49.334 19.333 74.001 28l16.5 6
c5.66699 2 11.167 3.66699 16.5 5c-9.33301 30.667 -27.666 54.667 -54.999 72zM-151.999 -398.996c25.333 1.33301 49.502 8.33105 72.502 20.998s44.333 29 64 49s37.167 42.833 52.5 68.5s27.833 52.334 37.5 80.001s16.334 55.167 20.001 82.5s3.5 53 -0.5 77l-30 -11
c-26 -9.33301 -53 -20.166 -81 -32.499s-54.833 -27.166 -80.5 -44.499s-48.334 -37.333 -68.001 -60s-33.834 -48.334 -42.501 -77.001c-4.66699 -15.333 -7.5 -32 -8.5 -50s0.5 -34.833 4.5 -50.5s10.667 -28.667 20 -39s22.666 -14.833 39.999 -13.5z" />
    <glyph glyph-name="braceleft" unicode="{" horiz-adv-x="270" 
d="M135 -105c-26 3.33301 -45.332 11 -57.999 23s-21 26.833 -25 44.5s-4.5 37.5 -1.5 59.5s7.16699 44.833 12.5 68.5l16.5 70.5c5.66699 23.333 9.5 45 11.5 65s0.833008 37.667 -3.5 53s-13.833 27 -28.5 35c24.667 6.66699 44.167 17.667 58.5 33
s25.666 33.166 33.999 53.499s14.5 42.166 18.5 65.499l12 68c4 22 9 42.167 15 60.5s14.833 32.833 26.5 43.5s27.167 16.5 46.5 17.5s44.666 -4.83301 75.999 -17.5c-20.667 6.66699 -37.167 4.83398 -49.5 -5.49902s-22.833 -25.666 -31.5 -45.999
s-16.334 -44.166 -23.001 -71.499s-14.667 -54.833 -24 -82.5s-21.166 -54 -35.499 -79s-33.166 -44.833 -56.499 -59.5c12.667 -14.667 19.667 -33.5 21 -56.5s-0.5 -48 -5.5 -75s-11 -54.5 -18 -82.5s-12.333 -54.333 -16 -79s-4 -46.334 -1 -65.001s12.833 -32 29.5 -40z
" />
    <glyph glyph-name="bar" unicode="|" horiz-adv-x="284" 
d="M103 -123c2 60 3.33301 125.668 4 197.001s1.5 143.5 2.5 216.5s2.33301 144.333 4 214s3.83398 133.167 6.50098 190.5c7.33301 34 26.666 50 57.999 48c-3.33301 -66 -5.83301 -135.5 -7.5 -208.5s-3.16699 -145.333 -4.5 -217s-2.5 -140.834 -3.5 -207.501
s-2.5 -127 -4.5 -181c0 -7.33301 -1 -14.5 -3 -21.5s-5 -13 -9 -18s-9.5 -8.83301 -16.5 -11.5s-15.833 -3 -26.5 -1z" />
    <glyph glyph-name="braceright" unicode="}" horiz-adv-x="267" 
d="M87 649c30.667 0 54.3301 -5.16992 70.9971 -15.5029s28.167 -24.166 34.5 -41.499s8.83301 -37.166 7.5 -59.499s-4.16602 -45.666 -8.49902 -69.999s-9.16602 -48.666 -14.499 -72.999s-8.83301 -47 -10.5 -68s-0.333984 -39.5 3.99902 -55.5s13.833 -28 28.5 -36
c-24.667 -6.66699 -44.167 -17.667 -58.5 -33s-25.666 -33.166 -33.999 -53.499s-14.5 -42.166 -18.5 -65.499l-12 -68c-4 -22 -9 -42.167 -15 -60.5s-14.833 -32.833 -26.5 -43.5s-27.167 -16.5 -46.5 -17.5s-44.666 4.83301 -75.999 17.5
c20.667 -6.66699 37.167 -4.83398 49.5 5.49902s22.833 25.666 31.5 45.999s16.334 44.166 23.001 71.499s14.667 54.833 24 82.5s21.166 53.834 35.499 78.501s33.166 44.667 56.499 60c-13.333 14.667 -20.666 33.667 -21.999 57s-0.333008 48.5 3 75.5
s7.83301 54.667 13.5 83s9 54.833 10 79.5s-2 46.167 -9 64.5s-20.833 31.166 -41.5 38.499z" />
    <glyph glyph-name="asciitilde" unicode="~" horiz-adv-x="766" 
d="M404 347c14.667 -3.33301 29.334 -6.50098 44.001 -9.50098s28.334 -4.5 41.001 -4.5c22 0 42.667 5.33301 62 16s36.666 31.667 51.999 63c2.66699 6.66699 7.66699 10 15 10c4 0 8 -1.66699 12 -5s6 -7.66602 6 -12.999c0 -2.66699 -0.666992 -5.33398 -2 -8.00098
c-20 -41.333 -46 -69.666 -78 -84.999s-66.333 -23 -103 -23c-16 0 -32.5 1.33301 -49.5 4s-33.833 5.66699 -50.5 9c-16 3.33301 -31.833 6.33301 -47.5 9s-30.167 4 -43.5 4c-17.333 0 -33.333 -3 -48 -9s-28 -17.333 -40 -34v1c-2.66699 -6 -7.33398 -9 -14.001 -9
c-4 0 -8 1.66699 -12 5s-6 7.33301 -6 12c0 4 1 7.33301 3 10c18 24 41.167 41.667 69.5 53s57.5 17 87.5 17c17.333 0 34.5 -1.33301 51.5 -4s33.5 -5.66699 49.5 -9h1z" />
    <glyph glyph-name="a.001" horiz-adv-x="437" 
d="M32 53c-27.333 0 -47.333 9.16992 -60 27.5029s-19 40.166 -19 65.499c0 24 4.16699 47.833 12.5 71.5s19.833 46.167 34.5 67.5c21.333 30.667 47.5 56 78.5 76s63.833 30 98.5 30c7.33301 0 15 -0.5 23 -1.5s15.667 -2.5 23 -4.5l23 76
c7.33301 -9.33301 15.666 -13.833 24.999 -13.5s18 1.66602 26 3.99902s14.833 4 20.5 5s8.5 -2.5 8.5 -10.5c-2 -8 -5.33301 -18.833 -10 -32.5l-16 -47.5l-19.5 -58.5l-20.5 -64.5c-14 -48.667 -27.167 -97.334 -39.5 -146.001s-22.333 -96.5 -30 -143.5
s-12 -92.5 -13 -136.5s3 -85.833 12 -125.5s24 -76.667 45 -111s49.5 -64.833 85.5 -91.5c3.33301 -4 3.83301 -8.33301 1.5 -13s-6.83301 -6.66699 -13.5 -6c-51.333 38 -91.166 81 -119.499 129s-48 99.5 -59 154.5s-14.833 112.5 -11.5 172.5s11.666 121 24.999 183
c-17.333 -18 -35.166 -31.833 -53.499 -41.5s-37.5 -14.5 -57.5 -14.5zM212 350.003c-6.66699 1.33301 -11.665 2.00195 -14.998 2.00195c-24.667 0 -47.334 -8.16699 -68.001 -24.5s-38.5 -35.833 -53.5 -58.5s-26.667 -45.834 -35 -69.501s-12.5 -42.5 -12.5 -56.5
c0 -12 2 -23 6 -33s10.667 -15 20 -15c14 0 30.667 8.5 50 25.5s38.333 38.5 57 64.5c5.33301 21.333 11.666 44.166 18.999 68.499s18 56.5 32 96.5z" />
    <glyph glyph-name="b.001" 
d="M325 283c-2 -14 -4.83008 -28.1709 -8.49707 -42.5039s-8.16699 -28.5 -13.5 -42.5c26 10 51 21.833 75 35.5s45.333 30.834 64 51.501c5.33301 4.66699 10 4.83398 14 0.500977s4 -9.16602 0 -14.499c-20.667 -24 -45.167 -43.667 -73.5 -59
s-58.166 -28.666 -89.499 -39.999c-10 -23.333 -21.667 -45.666 -35 -66.999s-26.833 -40.5 -40.5 -57.5s-27.167 -31.5 -40.5 -43.5s-25.333 -20.333 -36 -25c-18.667 -8 -35.334 -11.167 -50.001 -9.5s-26.667 6.33398 -36 14.001s-15.666 17.667 -18.999 30
s-2.83301 25.333 1.5 39s12.5 27.5 24.5 41.5s29 26.333 51 37c13.333 6.66699 27.666 12.667 42.999 18s31.666 10.666 48.999 15.999c8.66699 18 16.834 36.833 24.501 56.5s14.167 39.167 19.5 58.5c9.33301 36 9.66602 62.5 0.999023 79.5s-22 25.5 -40 25.5
s-38.667 -8 -62 -24s-45.333 -39 -66 -69l-12 -40l-26 -81.5l-24.5 -82.5l-21 -74.5c-6.33301 -23 -11.166 -42.5 -14.499 -58.5c-12.667 7.33301 -21.834 17.5 -27.501 30.5s-9 26.833 -10 41.5s-0.666992 29.5 1 44.5s3.5 28.167 5.5 39.5c4 24 19.333 81.667 46 173
l18.5 63.5l19.5 62.5c14 49.333 27.333 98.666 40 147.999s23.167 97.833 31.5 145.5s13.166 94 14.499 139s-2.5 87.667 -11.5 128s-23.833 77.833 -44.5 112.5s-49.334 65.667 -86.001 93c-3.33301 4 -3.83301 8.33301 -1.5 13s6.83301 6.66699 13.5 6
c64.667 -48 111.5 -103.833 140.5 -167.5s45.5 -132.167 49.5 -205.5s-1.83301 -149.5 -17.5 -228.5s-35.834 -157.833 -60.501 -236.5c26 23.333 53 40.833 81 52.5s53.167 15.5 75.5 11.5s39.833 -17 52.5 -39s16.334 -55 11.001 -99zM122.003 110.996
c-15.333 -6.66699 -27.5039 -15.6699 -36.5039 -27.0029s-15.167 -22.5 -18.5 -33.5s-3.66602 -20.333 -0.999023 -28s7.83398 -11.667 15.501 -12s17.834 4.83398 30.501 15.501s28 28.667 46 54c4.66699 6.66699 9.83398 14.834 15.501 24.501
s11.834 20.834 18.501 33.501l-36.5 -13.5c-11.667 -4.33301 -22.834 -8.83301 -33.501 -13.5z" />
    <glyph glyph-name="c.001" horiz-adv-x="312" 
d="M179 305c3.33301 10 5.83398 21.165 7.50098 33.498s2.16699 23.833 1.5 34.5s-2.83398 19.667 -6.50098 27s-9.5 11 -17.5 11c-9.33301 0 -19.166 -6.33301 -29.499 -19s-20.5 -29 -30.5 -49s-19.833 -42.5 -29.5 -67.5s-18.5 -49.833 -26.5 -74.5
c-16 -50 -24.333 -91 -25 -123s4.16602 -54.833 14.499 -68.5s25.5 -18.167 45.5 -13.5s42.5 18.334 67.5 41.001s51.5 54.667 79.5 96s55.333 92 82 152c8 7.33301 13.833 8.5 17.5 3.5s4.5 -10.167 2.5 -15.5c-34.667 -75.333 -69.667 -136.5 -105 -183.5
s-68.833 -81.667 -100.5 -104s-60.167 -33 -85.5 -32s-45.5 11.667 -60.5 32s-23.833 49.5 -26.5 87.5s3.33301 83 18 135c3.33301 13.333 7.5 26.333 12.5 39l15.5 38c5.33301 14 13.166 30.167 23.499 48.5s22.333 35.5 36 51.5s28.5 29.667 44.5 41s32.667 17 50 17
c18 0 31.833 -4.66699 41.5 -14s15.834 -21.166 18.501 -35.499s2.66699 -30.166 0 -47.499s-7 -34 -13 -50c-4 -6.66699 -9.33301 -9.33398 -16 -8.00098s-8.66699 7 -6 17z" />
    <glyph glyph-name="d.001" horiz-adv-x="444" 
d="M310 373c-33.333 -101.333 -61.499 -196.665 -84.499 -285.998s-36.167 -171.5 -39.5 -246.5s5.66699 -142.167 27 -201.5s59.666 -109.666 114.999 -150.999c3.33301 -4 3.83301 -8.33301 1.5 -13s-6.83301 -6.66699 -13.5 -6c-51.333 38 -91.333 81.167 -120 129.5
s-48.5 100 -59.5 155s-14.5 112.833 -10.5 173.5s12.667 122 26 184c-17.333 -18.667 -35.333 -33 -54 -43s-38.334 -15 -59.001 -15c-27.333 0 -47.333 9.16699 -60 27.5s-19 40.166 -19 65.499c0 21.333 3.66699 44.5 11 69.5s17 48.167 29 69.5
s26.833 40.666 44.5 57.999s37 31.666 58 42.999s43 19.333 66 24s46.167 5 69.5 1l56.5 179.5l39.5 125l25 81l14 48c3.33301 11.667 5.83301 20 7.5 25l4.5 13.5c-2 -27.333 -0.833008 -48.333 3.5 -63s9.83301 -26 16.5 -34s12.834 -14.167 18.501 -18.5
s8.5 -10.5 8.5 -18.5c-2 -7.33301 -6 -20.333 -12 -39l-24 -74l-36.5 -111.5zM227.001 376.001c-6.66699 1.33301 -11.667 2 -15 2c-24.667 0 -47.5 -8.83301 -68.5 -26.5s-39.5 -38.834 -55.5 -63.501s-28.667 -50.5 -38 -77.5s-14.333 -49.5 -15 -67.5
c-0.666992 -12 1.16602 -23 5.49902 -33s11.166 -15 20.499 -15c14.667 0 31.834 8.66699 51.501 26s38.834 39.666 57.501 66.999c5.33301 20.667 11 41.334 17 62.001s12.333 41.334 19 62.001c3.33301 12 6.83301 23.333 10.5 34z" />
    <glyph glyph-name="e.001" horiz-adv-x="312" 
d="M154 443c12 0 21.0029 -4.33398 27.0029 -13.001s9.16699 -20.167 9.5 -34.5s-2.5 -30.166 -8.5 -47.499s-14.833 -34.833 -26.5 -52.5s-26.334 -34.334 -44.001 -50.001s-38.167 -28.5 -61.5 -38.5c-1.33301 -2.66699 -2 -4.66699 -2 -6c-16 -50 -24.333 -91 -25 -123
s4.16602 -54.833 14.499 -68.5s25.5 -18.167 45.5 -13.5s42.5 18.334 67.5 41.001s51.5 54.667 79.5 96s55.333 92 82 152c8 7.33301 13.833 8.5 17.5 3.5s4.5 -10.167 2.5 -15.5c-34.667 -75.333 -69.667 -136.5 -105 -183.5s-68.833 -81.667 -100.5 -104
s-60.167 -33 -85.5 -32s-45.5 11.667 -60.5 32s-23.833 49.5 -26.5 87.5s3.33301 83 18 135c3.33301 13.333 7.5 26.333 12.5 39l15.5 38c5.33301 14 13.166 30.167 23.499 48.5s22.333 35.5 36 51.5s28.5 29.667 44.5 41s32.667 17 50 17zM160.003 410.999
c-8 0 -16.335 -4.83301 -25.002 -14.5s-17.167 -22.5 -25.5 -38.5s-16.666 -34.167 -24.999 -54.5s-16.166 -41.5 -23.499 -63.5c21.333 10 39.833 24.5 55.5 43.5s27.834 38 36.501 57s13.667 35.5 15 49.5s-1.33398 21 -8.00098 21z" />
    <glyph glyph-name="f.001" horiz-adv-x="209" 
d="M29 136c82 24 142.667 73.6709 182 149.004c2.66699 4 5.66699 6.33301 9 7s6 0.166992 8 -1.5s3.5 -4.16699 4.5 -7.5s0.5 -6.33301 -1.5 -9c-3.33301 -4.66699 -8.5 -13.334 -15.5 -26.001s-18.167 -27 -33.5 -43s-36 -32.667 -62 -50s-59 -33 -99 -47
c17.333 -36.667 26 -75.334 26 -116.001s-4.66699 -78.667 -14 -114c-7.33301 -26.667 -18.5 -46.334 -33.5 -59.001s-29.833 -18.667 -44.5 -18s-27.5 8.16699 -38.5 22.5s-16.5 35.166 -16.5 62.499c1.33301 29.333 5.5 61.5 12.5 96.5s15.5 70.333 25.5 106
s20.5 70.5 31.5 104.5l30.5 92l5 16l41 149c13.333 50 24.166 99.167 32.499 147.5s13.333 95.333 15 141s-1.83301 88.834 -10.5 129.501s-23.5 78.667 -44.5 114s-49.833 66.666 -86.5 93.999c-3.33301 4 -3.83301 8.33301 -1.5 13s6.83301 6.66699 13.5 6
c43.333 -32 78.333 -67.667 105 -107s46.834 -81.333 60.501 -126s21.5 -91.5 23.5 -140.5s-0.166992 -99.167 -6.5 -150.5s-16 -103.5 -29 -156.5s-27.5 -105.5 -43.5 -157.5c-7.33301 -21.333 -14.833 -42 -22.5 -62zM11 -19.9961
c0 12.667 -0.667969 25.3311 -2.00098 37.998s-3.66602 25 -6.99902 37c-2 -5.33301 -5.5 -14 -10.5 -26s-10.333 -25.667 -16 -41s-11 -31.666 -16 -48.999s-8.5 -33.333 -10.5 -48c-2 -17.333 -1.66699 -30.666 1 -39.999s6.66699 -14.5 12 -15.5s11.333 2.33301 18 10
s12.667 19.5 18 35.5c5.33301 16.667 8.83301 33.5 10.5 50.5s2.5 33.167 2.5 48.5z" />
    <glyph glyph-name="g.001" horiz-adv-x="412" 
d="M32 53c-27.333 0 -47.334 9.16895 -60.001 27.502s-19 40.166 -19 65.499c0 24 4.16699 47.833 12.5 71.5s19.833 46.167 34.5 67.5c21.333 30.667 47.5 56 78.5 76s63.833 30 98.5 30c7.33301 0 15 -0.5 23 -1.5s15.667 -2.5 23 -4.5l15 50
c7.33301 -9.33301 15.666 -13.833 24.999 -13.5s18 1.66602 26 3.99902s14.833 4 20.5 5s8.5 -2.5 8.5 -10.5l-58.5 -182c-20.333 -65.333 -42.833 -130.5 -67.5 -195.5s-52.834 -127.5 -84.501 -187.5s-68.167 -112.833 -109.5 -158.5s-88.5 -81.834 -141.5 -108.501
s-113.5 -39 -181.5 -37c-5.33301 3.33301 -7.66602 7.5 -6.99902 12.5s4 8.5 10 10.5c62.667 2 117.334 18 164.001 48s87.834 69.5 123.501 118.5s67 104.833 94 167.5s52.5 127.334 76.5 194.001c-16.667 -15.333 -33.5 -27.333 -50.5 -36s-34.833 -13 -53.5 -13z
M163.999 189.002c7.33301 29.333 15.168 57.501 23.501 84.501l24.5 76.5c-6.66699 1.33301 -11.667 2 -15 2c-24.667 0 -47.334 -8.16699 -68.001 -24.5s-38.5 -35.833 -53.5 -58.5s-26.667 -45.834 -35 -69.501s-12.5 -42.5 -12.5 -56.5c0 -12 2 -23 6 -33
s10.667 -15 20 -15c14.667 0 32 8.83301 52 26.5s39.333 40.167 58 67.5z" />
    <glyph glyph-name="h.001" horiz-adv-x="418" 
d="M256 259c-13.333 -51.333 -28.332 -99.832 -44.999 -145.499s-29.334 -90.5 -38.001 -134.5c-10 -52 -15.5 -101.667 -16.5 -149s3.66699 -92 14 -134s27.166 -81.167 50.499 -117.5s54.666 -68.833 93.999 -97.5c3.33301 -4 3.83301 -8.33301 1.5 -13
s-6.83301 -6.66699 -13.5 -6c-64 47.333 -111.667 102.166 -143 164.499s-50 129.333 -56 201s-1.16699 146.667 14.5 225s38.5 157.166 68.5 236.499l13 39c3.33301 11.333 6.16602 21.833 8.49902 31.5s3.5 18.167 3.5 25.5c0 4 -0.5 6.5 -1.5 7.5s-2.16699 1.5 -3.5 1.5
c-7.33301 0 -16.166 -5.5 -26.499 -16.5s-21 -25.167 -32 -42.5s-22.167 -36.666 -33.5 -57.999l-32 -62.5c-10 -20.333 -18.833 -39.166 -26.5 -56.499l-17.5 -40c-19.333 -46.667 -35.666 -91.667 -48.999 -135l-80 -2l15.5 49l19 63l24 83l31.5 109l57 198
c22 76.667 49.667 167 83 271c9.33301 29.333 17 55.166 23 77.499s11 39.5 15 51.5c-2 -27.333 -0.833008 -48.333 3.5 -63s9.5 -26 15.5 -34s11.833 -14.167 17.5 -18.5s8.5 -10.5 8.5 -18.5c-25.333 -84 -51.666 -166.5 -78.999 -247.5s-53.666 -163.167 -78.999 -246.5
l43 73c14 22.667 27.833 42.5 41.5 59.5s27.667 30.5 42 40.5s29.166 15 44.499 15c13.333 0 23 -5.16699 29 -15.5s9.33301 -24 10 -41s-0.833008 -36.5 -4.5 -58.5s-8.5 -45 -14.5 -69z" />
    <glyph glyph-name="i.001" horiz-adv-x="250" 
d="M131 -512c3.33301 -4 3.83496 -8.33203 1.50195 -12.999s-6.83301 -6.66699 -13.5 -6c-42.667 31.333 -77.334 66.5 -104.001 105.5s-47 80.667 -61 125s-22.167 90.833 -24.5 139.5s-0.5 98.5 5.5 149.5s15.167 102.667 27.5 155s26.5 104.5 42.5 156.5l4 12l42 123
c7.33301 -9.33301 15.666 -13.833 24.999 -13.5s18 1.66602 26 3.99902s14.833 4 20.5 5s8.5 -2.5 8.5 -10.5l-50.5 -161.5c-18.333 -57 -34.833 -114.833 -49.5 -173.5s-26 -117 -34 -175s-9.5 -113 -4.5 -165s18.333 -100.167 40 -144.5s54.5 -81.833 98.5 -112.5z
M99.002 524.001c13.333 0 24 -4.50098 32 -13.501s12 -19.167 12 -30.5s-4.33301 -21.166 -13 -29.499s-18.667 -12.5 -30 -12.5c-12 0 -22.333 3.83301 -31 11.5s-13 18.167 -13 31.5c0 12.667 4.16699 23 12.5 31s18.5 12 30.5 12z" />
    <glyph glyph-name="j.001" horiz-adv-x="236" 
d="M54 200l-57.499 -155.499c-19.667 -51.667 -41.5 -101.334 -65.5 -149.001s-50.5 -92.167 -79.5 -133.5s-61.5 -77.333 -97.5 -108s-76.333 -55.167 -121 -73.5s-94.667 -28.166 -150 -29.499c-5.33301 3.33301 -7.66602 7.5 -6.99902 12.5s4 8.5 10 10.5
c43.333 1.33301 83 9.66602 119 24.999s68.667 36 98 62s56.166 56.833 80.499 92.5s46.5 74.167 66.5 115.5s38.833 84.833 56.5 130.5s34.5 91.834 50.5 138.501l21.5 73.5l21.5 73.5l22 75c7.33301 24.667 14.333 49.667 21 75
c7.33301 -9.33301 15.666 -13.833 24.999 -13.5s18 1.66602 26 3.99902s14.833 4 20.5 5s8.5 -2.5 8.5 -10.5l-37.5 -117.5c-11.667 -36.333 -22.167 -70.5 -31.5 -102.5zM89.001 524.001c13.333 0 24 -4.50098 32 -13.501s12 -19.167 12 -30.5
s-4.33301 -21.166 -13 -29.499s-18.667 -12.5 -30 -12.5c-12 0 -22.333 3.83301 -31 11.5s-13 18.167 -13 31.5c0 12.667 4.16699 23 12.5 31s18.5 12 30.5 12z" />
    <glyph glyph-name="k.001" horiz-adv-x="424" 
d="M143 180l18.999 56.998c10 26 14.833 42.667 14.5 50s-4 8.5 -11 3.5s-16.167 -14.667 -27.5 -29s-22.833 -30.333 -34.5 -48s-22.667 -35.167 -33 -52.5s-17.833 -31.666 -22.5 -42.999c-19.333 -46.667 -35.666 -91.667 -48.999 -135l-80 -2l18.5 71.5l21.5 82l21.5 81
c7 26.333 13.5 49.5 19.5 69.5l93.5 300.5l91.5 297.5c-2 -27.333 -0.833008 -48.333 3.5 -63s9.66602 -26 15.999 -34s12.333 -14.167 18 -18.5s8.5 -10.5 8.5 -18.5l-42 -131l-57.5 -180l-56.5 -179c20 36 42.833 69.833 68.5 101.5s51.667 56.5 78 74.5
s51.666 26.5 75.999 25.5s45.166 -15.833 62.499 -44.5c-7.33301 4.66699 -16.666 8.33398 -27.999 11.001s-24.666 1.66699 -39.999 -3s-32.666 -13.834 -51.999 -27.501s-40.333 -33.834 -63 -60.501c22 6.66699 41.167 6.33398 57.5 -0.999023
s23.833 -24.666 22.5 -51.999c0 -3.33301 -0.166992 -6.83301 -0.5 -10.5s-0.833008 -7.5 -1.5 -11.5h-1c-3.33301 -24 -8.16602 -48.333 -14.499 -73s-13.333 -49.334 -21 -74.001s-14.834 -49.167 -21.501 -73.5s-12 -48.166 -16 -71.499
c-7.33301 -46.667 -11.5 -92 -12.5 -136s3 -85.667 12 -125s23.833 -76 44.5 -110s49 -64.333 85 -91c3.33301 -4 3.83301 -8.33301 1.5 -13s-6.83301 -6.66699 -13.5 -6c-61.333 45.333 -107.833 93.5 -139.5 144.5s-52 105.167 -61 162.5s-8.83301 118 0.5 182
s24.333 131.667 45 203z" />
    <glyph glyph-name="l.001" horiz-adv-x="247" 
d="M15 -28c12 0 24.998 5.83105 38.998 17.498s28.167 26.834 42.5 45.501s28.833 39.334 43.5 62.001s28.5 45.667 41.5 69l36.5 66l29 53c4.66699 5.33301 9.83398 7.16602 15.501 5.49902s7.16699 -7.16699 4.5 -16.5l-29 -54.5l-37.5 -68.5
c-13.667 -24 -28.167 -48 -43.5 -72s-31.166 -45.5 -47.499 -64.5s-32.833 -34.5 -49.5 -46.5s-33 -18 -49 -18c-11.333 0 -20.833 2.5 -28.5 7.5s-14 11.667 -19 20s-8.66699 17.833 -11 28.5s-3.5 22 -3.5 34c0 25.333 4.66699 59.666 14 102.999
s21.666 90.666 36.999 141.999l43 135c22.667 72.667 41.834 139.667 57.501 201s22.834 118.5 21.501 171.5s-13.5 102.167 -36.5 147.5s-61.5 88.333 -115.5 129c-3.33301 4 -3.83301 8.33301 -1.5 13s6.83301 6.66699 13.5 6c65.333 -48 113.666 -98.667 144.999 -152
s50.166 -110.166 56.499 -170.499s2.33301 -124.666 -12 -192.999s-34.166 -141.833 -59.499 -220.5l-44.5 -141c-14.333 -46 -26.166 -86.667 -35.499 -122s-15.833 -63.666 -19.5 -84.999s-2.83398 -32 2.49902 -32z" />
    <glyph glyph-name="m.001" horiz-adv-x="572" 
d="M345 313c7.33301 17.333 12.9971 32.3291 16.9971 44.9961s6 21.667 6 27c0 8.66699 -1.33301 13 -4 13c-5.33301 0 -14.666 -6.5 -27.999 -19.5s-32.333 -34.833 -57 -65.5l-28.5 -80.5l-31.5 -91.5c-10 -30 -18.167 -56.667 -24.5 -80s-8.83301 -38.333 -7.5 -45
c-19.333 6.66699 -32 18.5 -38 35.5s-7.83301 36.833 -5.5 59.5s7.5 47 15.5 73s16.5 51.667 25.5 77s17 48.833 24 70.5s10.5 39.5 10.5 53.5c0 4 -0.5 6.5 -1.5 7.5s-2.16699 1.5 -3.5 1.5c-7.33301 0 -16.166 -5.5 -26.499 -16.5s-21 -25.167 -32 -42.5
s-22.167 -36.666 -33.5 -57.999l-32 -62.5c-10 -20.333 -18.833 -39.166 -26.5 -56.499l-17.5 -40c-19.333 -46.667 -35.666 -91.667 -48.999 -135l-80 -2l19 71.5l22 82l22 81l20 69.5c2 6 4 12.667 6 20s5 17.5 9 30.5l15 49.5l23 76
c7.33301 -9.33301 15.5 -13.833 24.5 -13.5s17.333 1.66602 25 3.99902s14.167 4 19.5 5s8 -2.5 8 -10.5c0 -0.666992 -0.833008 -3.5 -2.5 -8.5s-4.66699 -14.667 -9 -29l-19 -60l-31.5 -100.5l44.5 75.5c14.333 23.667 28.5 44.334 42.5 62.001s28.167 31.667 42.5 42
s29.5 15.5 45.5 15.5c19.333 0 33.166 -5.16699 41.499 -15.5s12.833 -23.166 13.5 -38.499c16 16.667 31.833 29.834 47.5 39.501s31.167 14.5 46.5 14.5c18 0 30.333 -6.33301 37 -19s9.5 -29.5 8.5 -50.5s-5 -45 -12 -72s-15.167 -54.833 -24.5 -83.5
c-20 -71.333 -37.667 -142 -53 -212s-23 -136.667 -23 -200s10.5 -122.166 31.5 -176.499s57.833 -101.166 110.5 -140.499c3.33301 -4 3.83301 -8.33301 1.5 -13s-6.83301 -6.66699 -13.5 -6c-58.667 43.333 -103.167 93.166 -133.5 149.499
s-49.666 116.666 -57.999 180.999s-7.5 131.833 2.5 202.5s25.667 141.667 47 213z" />
    <glyph glyph-name="n.001" horiz-adv-x="425" 
d="M181 253l14.4971 39.4971c4.33301 12.333 8.16602 24.166 11.499 35.499s6.16602 21.833 8.49902 31.5s3.5 18.167 3.5 25.5c0 4 -0.5 6.5 -1.5 7.5s-2.16699 1.5 -3.5 1.5c-7.33301 0 -16.166 -5.5 -26.499 -16.5s-21 -25.167 -32 -42.5s-22.167 -36.666 -33.5 -57.999
l-32 -62.5c-10 -20.333 -18.833 -39.166 -26.5 -56.499l-17.5 -40c-19.333 -46.667 -35.666 -91.667 -48.999 -135l-80 -2l19 71.5l22 82l22 81l20 69.5c2 6 4 12.667 6 20s5 17.5 9 30.5l15 49.5l23 76c7.33301 -9.33301 15.833 -14 25.5 -14s18.667 1.16699 27 3.5
s15 4 20 5s6.83301 -2.16699 5.5 -9.5c-1.33301 -5.33301 -3 -11.5 -5 -18.5s-5.33301 -17.5 -10 -31.5l-18.5 -56.5l-29.5 -91.5l44.5 75.5c14.333 23.667 28.5 44.334 42.5 62.001s28.167 31.667 42.5 42s29.5 15.5 45.5 15.5c16.667 0 28.334 -6.33301 35.001 -19
s9.83398 -29.167 9.50098 -49.5s-3.5 -43.666 -9.5 -69.999s-13 -53.166 -21 -80.499c-13.333 -48 -26 -96 -38 -144s-21.5 -94.833 -28.5 -140.5s-10.667 -90.167 -11 -133.5s4.16699 -84.5 13.5 -123.5s24.5 -75.167 45.5 -108.5s49.167 -63.333 84.5 -90
c3.33301 -4 3.83301 -8.33301 1.5 -13s-6.83301 -6.66699 -13.5 -6c-61.333 45.333 -107.333 98 -138 158s-49.5 124.5 -56.5 193.5s-4.16699 140.667 8.5 215s31.334 148.166 56.001 221.499z" />
    <glyph glyph-name="o.001" 
d="M460 272c-7.33301 -18.667 -17.835 -39.502 -31.502 -62.502s-29.834 -44.333 -48.501 -64s-39.667 -35.334 -63 -47.001s-48.333 -15.5 -75 -11.5c-25.333 -32 -53.833 -59.5 -85.5 -82.5s-65.5 -34.5 -101.5 -34.5s-63 12.333 -81 37s-27 55.667 -27 93
c0 29.333 4.83301 60.666 14.5 93.999s23.5 65.666 41.5 96.999c12.667 21.333 26.834 41.5 42.501 60.5s32.834 35.5 51.501 49.5s38.5 25 59.5 33s43.167 12 66.5 12c6.66699 0 14 -0.833008 22 -2.5s15.833 -3.66699 23.5 -6s14.5 -5.16602 20.5 -8.49902
s10 -6.33301 12 -9c-12 0.666992 -23.833 0 -35.5 -2s-21.5 -5.66699 -29.5 -11c-27.333 -1.33301 -53.666 -13.5 -78.999 -36.5s-47.833 -50.667 -67.5 -83s-35.334 -66.666 -47.001 -102.999s-17.5 -68.833 -17.5 -97.5c0 -21.333 4.16699 -38.833 12.5 -52.5
s20.166 -20.5 35.499 -20.5c18.667 0 40.334 8.5 65.001 25.5s47.667 38.167 69 63.5c-20 12.667 -34.833 29.5 -44.5 50.5s-14.5 43.5 -14.5 67.5c0 21.333 3.66699 42.833 11 64.5s17.5 41.167 30.5 58.5s28 31.333 45 42s35.167 16 54.5 16
c17.333 0 32.166 -5.83301 44.499 -17.5s18.5 -29.5 18.5 -53.5c0 -13.333 -2 -28.333 -6 -45s-9.66699 -34.167 -17 -52.5s-16.166 -37.166 -26.499 -56.499s-21.833 -38.333 -34.5 -57c16.667 0 33.334 5 50.001 15s32.5 22.833 47.5 38.5s29 33.334 42 53.001
s24.5 39.167 34.5 58.5c2 2.66699 4.33301 4.33398 7 5.00098s5.16699 0.5 7.5 -0.5s4 -3 5 -6s0.5 -6.83301 -1.5 -11.5zM183.998 220.998c0 -19.333 3.83496 -37 11.502 -53s18.5 -28.333 32.5 -37c12.667 17.333 24.167 35.333 34.5 54s19.333 37 27 55
s13.667 34.833 18 50.5s6.5 29.5 6.5 41.5c0 11.333 -2.33301 19.5 -7 24.5s-10.667 7.5 -18 7.5c-14.667 0 -28.334 -4.5 -41.001 -13.5s-23.834 -20.333 -33.501 -34s-17.167 -29 -22.5 -46s-8 -33.5 -8 -49.5z" />
    <glyph glyph-name="p.001" horiz-adv-x="440" 
d="M440 285c5.33301 4.66699 9.99902 4.83496 13.999 0.501953s4 -9.16602 0 -14.499c-20.667 -24 -44.167 -42.667 -70.5 -56s-54.166 -24.666 -83.499 -33.999c-10 -24 -21.667 -47.167 -35 -69.5s-27 -42.5 -41 -60.5s-28 -33.333 -42 -46s-26.333 -21.334 -37 -26.001
c-18.667 -8 -35 -10.667 -49 -8s-25.167 8.66699 -33.5 18s-13.5 21 -15.5 35s-0.5 28.667 4.5 44s14 30.5 27 45.5s30.5 27.833 52.5 38.5c11.333 5.33301 23.5 10.166 36.5 14.499s26.167 8.5 39.5 12.5c9.33301 17.333 17.5 35.333 24.5 54s12.833 36 17.5 52
c9.33301 36.667 9.83301 63.5 1.5 80.5s-21.5 25 -39.5 24s-38.5 -10 -61.5 -27s-44.5 -41.167 -64.5 -72.5l-50.5 -162l-50.5 -166.5l-45 -154c-14 -48.333 -25.333 -89.5 -34 -123.5l-80 -2c4.66699 14.667 9.5 31 14.5 49l17 63l22.5 83l31 109l59 198l85 272
c7.33301 -9.33301 15.666 -13.833 24.999 -13.5s18 1.66602 26 3.99902s14.833 4 20.5 5s8.5 -2.5 8.5 -10.5c-4.66699 -12.667 -9.16699 -26 -13.5 -40s-9.16602 -28.667 -14.499 -44c26 24.667 53.5 43.334 82.5 56.001s55 17.167 78 13.5s40.667 -16.834 53 -39.501
s15.5 -57.334 9.5 -104.001c-4 -24 -10.667 -49.667 -20 -77c24 8 47.167 18 69.5 30s42.833 28.333 61.5 49zM139.999 130.001c-15.333 -6.66699 -28.001 -16.168 -38.001 -28.501s-17.5 -24.666 -22.5 -36.999s-7.33301 -23.166 -7 -32.499s3.33301 -14.833 9 -16.5
s14.334 2.16602 26.001 11.499s26.5 27 44.5 53c5.33301 7.33301 11.5 17 18.5 29s14.5 25.667 22.5 41l-27 -10z" />
    <glyph glyph-name="q.001" horiz-adv-x="431" 
d="M130 71c0.666992 3.33301 1.16895 6.50098 1.50195 9.50098s1.16602 6.16699 2.49902 9.5c-17.333 -17.333 -35.666 -31.5 -54.999 -42.5s-38.333 -16.5 -57 -16.5c-27.333 0 -47.333 9.16699 -60 27.5s-19 40.166 -19 65.499c0 12 1.66699 25.167 5 39.5
s7.66602 28.666 12.999 42.999s11.333 28.333 18 42s13.667 25.834 21 36.501c10.667 15.333 22.667 30 36 44s27.666 26.167 42.999 36.5s31.333 18.666 48 24.999s33.667 9.5 51 9.5c7.33301 0 15 -0.5 23 -1.5s15.667 -2.5 23 -4.5l21 67
c7.33301 -9.33301 15.666 -13.833 24.999 -13.5s18 1.66602 26 3.99902s14.833 4 20.5 5s8.5 -2.5 8.5 -10.5l-62 -195l-40 -147.5c-12.667 -49 -23 -97.167 -31 -144.5s-12.667 -93.333 -14 -138s2.5 -87.167 11.5 -127.5s23.833 -77.666 44.5 -111.999
s49.334 -65.166 86.001 -92.499c3.33301 -4 3.83301 -8.33301 1.5 -13s-6.83301 -6.66699 -13.5 -6c-48 35.333 -86.333 75 -115 119s-49.5 91.5 -62.5 142.5s-19.167 105 -18.5 162s6.66699 116.167 18 177.5zM213.002 359.001
c-6.66699 1.33301 -11.668 1.99902 -15.001 1.99902c-16.667 0 -32.667 -4.66699 -48 -14s-29.666 -21.333 -42.999 -36s-25.666 -31.167 -36.999 -49.5s-21 -36.5 -29 -54.5s-14.167 -34.833 -18.5 -50.5s-6.5 -28.167 -6.5 -37.5c0 -12 2.33301 -22.667 7 -32
s11.667 -14 21 -14c13.333 0 29.833 6.33301 49.5 19s37.5 31 53.5 55c7.33301 28 15.166 55.667 23.499 83s17.5 55 27.5 83l7.5 24.5c2.33301 7.66699 4.83301 14.834 7.5 21.501z" />
    <glyph glyph-name="r.001" horiz-adv-x="382" 
d="M115 230l10 35.9961l37 109c4 12.667 4.16699 22.167 0.5 28.5s-9.66699 10.666 -18 12.999s-18 3.33301 -29 3s-21.167 -0.5 -30.5 -0.5c-8 -18 -16.333 -37.833 -25 -59.5s-22 -50.167 -40 -85.5c-2 -2.66699 -4.5 -4.5 -7.5 -5.5s-5.66699 -1 -8 0
s-4.16602 2.83301 -5.49902 5.5s-1 6.33398 1 11.001l35 76l27 60c-18 4.66699 -30.5 14.834 -37.5 30.501s-9.33301 31.834 -7 48.501s9 31.167 20 43.5s25.5 18.166 43.5 17.499c14 -0.666992 23.333 -5.5 28 -14.5s6.5 -19.167 5.5 -30.5s-3.33301 -22.833 -7 -34.5
l-8.5 -26.5c18.667 -2 37.5 -3.5 56.5 -4.5s35.833 -3.66699 50.5 -8s26 -11.666 34 -21.999s10.333 -25.5 7 -45.5s-8.5 -42.833 -15.5 -68.5s-14.833 -52.5 -23.5 -80.5l-38 -143c-12 -47.333 -21.5 -94 -28.5 -140s-10.833 -90.5 -11.5 -133.5
s3.66602 -83.833 12.999 -122.5s24.333 -74.834 45 -108.501s48.667 -63.5 84 -89.5c3.33301 -4 3.83301 -8.33301 1.5 -13s-6.83301 -6.66699 -13.5 -6c-60 44 -105 94.833 -135 152.5s-49.167 119.334 -57.5 185.001s-7.5 134.334 2.5 206.001s25 143.834 45 216.501z
M75 457.996c1.33301 2 3.33301 7.5 6 16.5s5 18.667 7 29s2.66699 19.5 2 27.5s-4 12 -10 12c-8 0 -14.667 -4 -20 -12s-8.83301 -17 -10.5 -27s-0.666992 -19.667 3 -29s11.167 -15 22.5 -17z" />
    <glyph glyph-name="s.001" horiz-adv-x="253" 
d="M-574 125c48 -6.66699 99.001 -10.835 153.001 -12.502s107.5 0.666016 160.5 6.99902s103.833 17.833 152.5 34.5s91.334 40 128.001 70c-4 10 -7.66699 20 -11 30s-6.33301 20.333 -9 31c-6 20.667 -9.83301 41.167 -11.5 61.5s0.833008 40.166 7.5 59.499
c4 12 9.5 24 16.5 36s15.833 22.667 26.5 32s23 16.333 37 21s29.667 5.66699 47 3c18 -3.33301 31.5 -10.666 40.5 -21.999s14.5 -25 16.5 -41s1 -33.5 -3 -52.5s-9.83301 -37.667 -17.5 -56s-16.667 -35.5 -27 -51.5s-20.833 -29 -31.5 -39c6.66699 -22 12.667 -44 18 -66
c25.333 11.333 49.666 25.666 72.999 42.999s43.666 41.333 60.999 72c2 2.66699 4.33301 4.33398 7 5.00098s5.16699 0.166992 7.5 -1.5s4 -4 5 -7s0.166992 -6.5 -2.5 -10.5c-18.667 -34 -40.834 -60.5 -66.501 -79.5s-52.5 -35.167 -80.5 -48.5
c2.66699 -25.333 0.666992 -50.166 -6 -74.499s-21 -48.166 -43 -71.499c-18.667 -19.333 -37 -32.333 -55 -39s-34.167 -8.66699 -48.5 -6s-26.166 8.83398 -35.499 18.501s-14.666 21.5 -15.999 35.5s2.5 29.333 11.5 46s24.167 32.667 45.5 48
c11.333 8 23.333 15.333 36 22s25.667 12.667 39 18c-2 5.33301 -4 12 -6 20s-4.33301 14.667 -7 20c-32 -20 -65.833 -36.167 -101.5 -48.5s-72 -22 -109 -29s-74.167 -11.5 -111.5 -13.5s-73.5 -2.5 -108.5 -1.5s-68 3.33301 -99 7s-58.833 7.5 -83.5 11.5
c-7.33301 2 -10.333 5.66699 -9 11s4.66602 8 9.99902 8zM-14.999 72.999c-20.667 -16 -32.5 -31.667 -35.5 -47s-0.666992 -27.166 7 -35.499s19.167 -11.833 34.5 -10.5s31.666 10.666 48.999 27.999c13.333 14 21 30 23 48s0.333008 37.333 -5 58
c-13.333 -6 -26.166 -12.333 -38.499 -19s-23.833 -14 -34.5 -22zM122.001 467.999c-13.333 1.33301 -25.167 -4.16602 -35.5 -16.499s-17.5 -28.166 -21.5 -47.499c-3.33301 -17.333 -3 -36 1 -56s9.66699 -40.667 17 -62c10 12.667 19.333 26 28 40s16.334 29 23.001 45
c4 10 7.16699 20.5 9.5 31.5s3.16602 21.167 2.49902 30.5s-3 17.166 -7 23.499s-9.66699 10.166 -17 11.499z" />
    <glyph glyph-name="t.001" horiz-adv-x="247" 
d="M80 268l-41.001 -149.5c-13.333 -49.667 -24.166 -98.5 -32.499 -146.5s-13.5 -94.667 -15.5 -140s1.33301 -88.333 10 -129s23.5 -78.5 44.5 -113.5s49.833 -66.167 86.5 -93.5c3.33301 -4 3.83301 -8.33301 1.5 -13s-6.83301 -6.66699 -13.5 -6
c-43.333 32 -78.5 67.667 -105.5 107s-47.333 81.5 -61 126.5s-21.5 92.167 -23.5 141.5s0.166992 100 6.5 152s16 104.5 29 157.5s27.833 105.833 44.5 158.5l27 85l32 94h-119l18 45h116l36.5 108l34 98.5l27.5 80.5l18 53c-2 -27.333 -1.16699 -48.333 2.5 -63
s8.16699 -26 13.5 -34s10.333 -14.333 15 -19s7 -11 7 -19c-3.33301 -12 -11.333 -36.5 -24 -73.5l-45 -131.5h106l-16 -44c-15.333 -0.666992 -31.833 -1 -49.5 -1h-55.5l-37.5 -115c-13 -39.333 -25.167 -78 -36.5 -116z" />
    <glyph glyph-name="u.001" horiz-adv-x="447" 
d="M166 165l-42.4961 -71.0039c-13.667 -22 -27.334 -41.333 -41.001 -58s-27.5 -29.667 -41.5 -39s-28.333 -14 -43 -14c-18.667 0 -31 9.33301 -37 28s-7.83301 42.5 -5.5 71.5s7.83301 61.333 16.5 97s18 70.834 28 105.501c10 34 20 65.167 30 93.5
s17.667 50.833 23 67.5c4.66699 3.33301 10.5 4.5 17.5 3.5s14.333 -2.16699 22 -3.5s15.5 -2.5 23.5 -3.5s15 0.166992 21 3.5l-16 -50.5l-19 -63l-20.5 -68.5l-19.5 -66.5l-16.5 -57.5c-5 -17.333 -8.83301 -31.333 -11.5 -42
c-3.33301 -11.333 -6.16602 -21.833 -8.49902 -31.5s-3.5 -18.167 -3.5 -25.5c0 -4 0.5 -6.5 1.5 -7.5s2.16699 -1.5 3.5 -1.5c7.33301 0 16.166 5.33301 26.499 16s21 24.334 32 41.001s22.167 35.167 33.5 55.5s22 40.5 32 60.5l26.5 55l17.5 39l11 28
c4 14.667 8.66699 30.334 14 47.001s13.333 39.667 24 69c6 4.66699 12.333 7 19 7s13.5 -0.833008 20.5 -2.5s14 -3.16699 21 -4.5s13.5 -0.666016 19.5 2.00098l-44 -159c-18.667 -68 -34.834 -135.5 -48.501 -202.5s-19.834 -130.833 -18.501 -191.5
s12.666 -116.667 33.999 -168s57.333 -96 108 -134c3.33301 -4 3.83301 -8.33301 1.5 -13s-6.83301 -6.66699 -13.5 -6c-49.333 36 -88.5 76.333 -117.5 121s-49.833 92.5 -62.5 143.5s-18.167 104.333 -16.5 160s8.16699 112.167 19.5 169.5z" />
    <glyph glyph-name="v.001" horiz-adv-x="371" 
d="M393 273c-16.667 -32 -35.6602 -57.834 -56.9932 -77.501s-41.333 -30.834 -60 -33.501c-21.333 -2 -39.333 6.66699 -54 26l-14 -25l-18 -30c-13.333 -22.667 -27.333 -45 -42 -67s-29.667 -41.5 -45 -58.5s-30.833 -30.833 -46.5 -41.5s-30.834 -16 -45.501 -16
c-11.333 0 -20.666 2.5 -27.999 7.5s-13.333 11.667 -18 20s-7.83398 17.833 -9.50098 28.5s-2.5 22 -2.5 34c0 19.333 2.83301 44.5 8.5 75.5s12.667 64.167 21 99.5s17.333 71.166 27 107.499l27 99c8.33301 29.667 15.5 54.167 21.5 73.5s9 30 9 32
c5.33301 2.66699 11.166 4 17.499 4s13 -0.5 20 -1.5s14 -1.83301 21 -2.5s14.167 0 21.5 2l-77.5 -278.5l-39.5 -139.5c-5.33301 -19.333 -9.83301 -37.5 -13.5 -54.5s-6.33398 -31.833 -8.00098 -44.5s-2 -22.5 -1 -29.5s3.5 -10.5 7.5 -10.5c12 0 24.667 5.5 38 16.5
s27 25.333 41 43s28 37.5 42 59.5l41 67c4.66699 7.33301 9.5 15.666 14.5 24.999l16.5 31c-2 6.66699 -3.83301 13.334 -5.5 20.001s-2.83398 13.334 -3.50098 20.001c-2 20 -1.66699 38.5 1 55.5s7 31.667 13 44s12.833 22 20.5 29s15.5 11.167 23.5 12.5
c7.33301 0.666992 13.666 -1.16602 18.999 -5.49902s8.66602 -12.166 9.99902 -23.499c1.33301 -15.333 -2.66699 -36.5 -12 -63.5s-22.666 -56.833 -39.999 -89.5c5.33301 -9.33301 10.666 -16.5 15.999 -21.5s12.666 -6.83301 21.999 -5.5c16.667 2 33.667 12 51 30
s33.333 41 48 69c2 3.33301 4.66699 5.66602 8 6.99902s6.33301 1.5 9 0.5s4.66699 -3.16699 6 -6.5s1 -7.66602 -1 -12.999zM224.007 245.999c13.333 26 23.498 49.168 30.498 69.501s9.83301 36.166 8.5 47.499c0 5.33301 -1.33301 8 -4 8
c-5.33301 -0.666992 -10.666 -4.33398 -15.999 -11.001s-9.66602 -15.167 -12.999 -25.5s-5.83301 -22.166 -7.5 -35.499s-1.5 -27 0.5 -41z" />
    <glyph glyph-name="w.001" horiz-adv-x="551" 
d="M573 273c-16.667 -32 -35.666 -57.8369 -56.999 -77.5039s-41.333 -30.834 -60 -33.501c-21.333 -2 -39.333 6.66699 -54 26l-14 -25l-18 -30c-13.333 -22.667 -27.333 -45 -42 -67s-29.667 -41.5 -45 -58.5s-30.833 -30.833 -46.5 -41.5s-30.834 -16 -45.501 -16
c-11.333 0 -20.666 2.5 -27.999 7.5s-13.333 11.667 -18 20s-7.83398 17.833 -9.50098 28.5s-2.5 22 -2.5 34v3c-19.333 -26.667 -39.5 -48.834 -60.5 -66.501s-41.167 -26.5 -60.5 -26.5c-11.333 0 -20.666 2.5 -27.999 7.5s-13.333 11.667 -18 20
s-7.83398 17.833 -9.50098 28.5s-2.5 22 -2.5 34c0 14.667 1.33301 31.667 4 51s6.16699 39.833 10.5 61.5s9.16602 43.834 14.499 66.501s11 44.667 17 66c5.33301 20.667 12.333 46.167 21 76.5l25.5 88l21.5 74c6 21 9 32.167 9 33.5
c6.66699 4 13.334 5.83301 20.001 5.5s13.334 -1.16602 20.001 -2.49902s13.334 -2.5 20.001 -3.5s13.334 -0.166992 20.001 2.5l-81.5 -293.5l-44.5 -154.5c-5.33301 -19.333 -9.83301 -37.5 -13.5 -54.5s-6.33398 -31.833 -8.00098 -44.5s-2 -22.5 -1 -29.5
s3.5 -10.5 7.5 -10.5c17.333 0.666992 36.5 12.334 57.5 35.001s42.167 50.334 63.5 83.001c2.66699 21.333 7.33398 46.666 14.001 75.999s14 59.5 22 90.5s16.333 61.667 25 92l23.5 82l17.5 60c4.66699 15.667 7.33398 24.5 8.00098 26.5
c6 3.33301 12.333 4.83301 19 4.5s13.5 -1 20.5 -2s13.833 -1.83301 20.5 -2.5s13.334 0 20.001 2l-43.5 -155.5l-34 -117.5l-24.5 -83c-6.66699 -22 -11.667 -39.333 -15 -52c-5.33301 -19.333 -9.83301 -37.5 -13.5 -54.5s-6.33398 -31.833 -8.00098 -44.5
s-2 -22.5 -1 -29.5s3.5 -10.5 7.5 -10.5c12 0 24.667 5.5 38 16.5s27 25.333 41 43s28 37.5 42 59.5l41 67c4.66699 7.33301 9.5 15.666 14.5 24.999l16.5 31c-2 6.66699 -3.83301 13.334 -5.5 20.001s-2.83398 13.334 -3.50098 20.001c-2 20 -1.66699 38.5 1 55.5
s7 31.667 13 44s12.833 22 20.5 29s15.5 11.167 23.5 12.5c7.33301 0.666992 13.666 -1.16602 18.999 -5.49902s8.66602 -12.166 9.99902 -23.499c1.33301 -15.333 -2.66699 -36.5 -12 -63.5s-22.666 -56.833 -39.999 -89.5c5.33301 -9.33301 10.666 -16.5 15.999 -21.5
s12.666 -6.83301 21.999 -5.5c16.667 2 33.667 12 51 30s33.333 41 48 69c2 3.33301 4.66699 5.66602 8 6.99902s6.33301 1.5 9 0.5s4.66699 -3.16699 6 -6.5s1 -7.66602 -1 -12.999zM404.001 245.996c13.333 26 23.498 49.168 30.498 69.501s9.83301 36.166 8.5 47.499
c0 5.33301 -1.33301 8 -4 8c-5.33301 -0.666992 -10.666 -4.33398 -15.999 -11.001s-9.66602 -15.167 -12.999 -25.5s-5.83301 -22.166 -7.5 -35.499s-1.5 -27 0.5 -41z" />
    <glyph glyph-name="x.001" horiz-adv-x="649" 
d="M112 -58c22 13.333 42.3291 28.832 60.9961 46.499s36 36.5 52 56.5s31.167 41.167 45.5 63.5l42.5 68.5c-2 38 -3.5 76.167 -4.5 114.5s-4 73 -9 104s-12.833 56.167 -23.5 75.5s-26.667 29 -48 29c-16.667 0 -34.5 -6.83301 -53.5 -20.5s-37.833 -31.5 -56.5 -53.5
s-36.5 -46.333 -53.5 -73s-31.833 -53 -44.5 -79c-4.66699 -5.33301 -9.66699 -6.66602 -15 -3.99902s-7 7.66699 -5 15c12.667 27.333 28 55.333 46 84s37.167 54.667 57.5 78s41.5 42.333 63.5 57s43.667 22 65 22c26 0 47.667 -6.66699 65 -20s31.5 -31 42.5 -53
s19.333 -47.333 25 -76s9.83398 -58.667 12.501 -90c16 27.333 33 53.666 51 78.999s37.5 48.666 58.5 69.999s44.333 40.333 70 57s54.167 29.667 85.5 39c6 2 9.83301 0.666992 11.5 -4s-0.166016 -7.66699 -5.49902 -9c-32.667 -13.333 -61.834 -30 -87.501 -50
s-49.167 -42.167 -70.5 -66.5s-41 -50.166 -59 -77.499s-35 -55.333 -51 -84c1.33301 -33.333 2.16602 -65.666 2.49902 -96.999s1.33301 -59.166 3 -83.499s4.83398 -44.333 9.50098 -60s12 -23.834 22 -24.501c12 -1.33301 25 3.5 39 14.5s28.167 25.667 42.5 44
s28.833 38.833 43.5 61.5s28.5 45.667 41.5 69l36.5 67l29 53c4.66699 5.33301 9.83398 7.16602 15.501 5.49902s7.16699 -7.16699 4.5 -16.5l-29 -54.5l-37.5 -68.5c-13.667 -24 -28.167 -48 -43.5 -72s-31.166 -45.5 -47.499 -64.5s-32.833 -34.5 -49.5 -46.5
s-33 -18 -49 -18c-17.333 0 -31.666 4.66699 -42.999 14s-20.833 22 -28.5 38s-13.5 34.833 -17.5 56.5s-7 44.834 -9 69.501c-26 -44 -54.333 -83.667 -85 -119s-68 -62 -112 -80c-9.33301 0 -11.333 4.33301 -6 13z" />
    <glyph glyph-name="y.001" horiz-adv-x="417" 
d="M-317 -449c-5.33301 3.33301 -7.66797 7.5 -7.00098 12.5s4 8.5 10 10.5c66 2 123 19.333 171 52s90.167 75.334 126.5 128.001s68.333 112.5 96 179.5s53.5 135.5 77.5 205.5l12 37c-14.667 -24.667 -28.334 -46.667 -41.001 -66s-25.334 -35.833 -38.001 -49.5
s-25.5 -24 -38.5 -31s-26.833 -10.5 -41.5 -10.5c-18.667 0 -31.667 7.5 -39 22.5s-10.666 34.833 -9.99902 59.5s4.5 53 11.5 85s16.167 65 27.5 99l51 158c6 4.66699 12.167 7 18.5 7s13 -0.833008 20 -2.5s14.167 -3 21.5 -4s14.666 -0.5 21.999 1.5l-25 -77.5l-28 -89.5
l-26 -85c-8 -26.667 -14 -47.667 -18 -63c-2 -6.66699 -3.83301 -14.5 -5.5 -23.5s-3 -17.667 -4 -26s-1.16699 -15.5 -0.5 -21.5s2.66699 -9 6 -9c10.667 0 24.167 9.83301 40.5 29.5s32.833 42.834 49.5 69.501s32.167 53.667 46.5 81s24.833 49 31.5 65l20.5 77l11 42
c2.33301 9.33301 4 15.5 5 18.5s1.83301 5.83301 2.5 8.5c6 4 12.333 5.66699 19 5s13.334 -1.83398 20.001 -3.50098s13.334 -3 20.001 -4s13.334 -0.5 20.001 1.5l-51 -182.5c-18 -65 -38.667 -129.833 -62 -194.5s-50.5 -127.167 -81.5 -187.5
s-67.333 -113.833 -109 -160.5s-89.667 -84.834 -144 -114.501s-116.833 -46.167 -187.5 -49.5z" />
    <glyph glyph-name="z.001" horiz-adv-x="470" 
d="M33 75c0 7.33301 1.66797 13.8369 5.00098 19.5039s9 8.83398 17 9.50098l8 -3c13.333 -2.66699 28.5 2.33301 45.5 15s33.5 29.5 49.5 50.5s30.5 44.5 43.5 70.5s22.667 51.167 29 75.5s8.16602 45.666 5.49902 63.999s-11.667 30.833 -27 37.5
c-18 7.33301 -36.167 7.66602 -54.5 0.999023s-36 -17.334 -53 -32.001s-32.667 -31.834 -47 -51.501s-25.833 -38.834 -34.5 -57.501c-2 -4 -4.33301 -6.5 -7 -7.5s-5.33398 -1 -8.00098 0s-4.5 3 -5.5 6s-0.833008 7.16699 0.5 12.5
c8.66699 17.333 19.334 36.166 32.001 56.499s27.334 38.833 44.001 55.5s35.834 30 57.501 40s46.5 13 74.5 9c30.667 -4.66699 54.167 -16.167 70.5 -34.5s26.333 -40.333 30 -66s1.66699 -53.167 -6 -82.5s-20.167 -57.166 -37.5 -83.499s-38.666 -49.333 -63.999 -69
s-53.666 -32.5 -84.999 -38.5c7.33301 -6 14.166 -12.667 20.499 -20s12.166 -14.666 17.499 -21.999c29.333 11.333 58.666 24.333 87.999 39s57.666 32 84.999 52s53.166 43.333 77.499 70s46.166 58 65.499 94c4 5.33301 9.5 7.33301 16.5 6s8.83301 -7.33301 5.5 -18
c-20 -37.333 -42.5 -69.833 -67.5 -97.5s-51.667 -52 -80 -73s-57.666 -39.167 -87.999 -54.5s-60.5 -29 -90.5 -41c7.33301 -27.333 9.16602 -57.333 5.49902 -90s-11.667 -65.5 -24 -98.5s-28.5 -64.833 -48.5 -95.5s-42.333 -57.834 -67 -81.501
s-51.334 -42.667 -80.001 -57s-57.667 -21.5 -87 -21.5c-34 0 -60.5 9.5 -79.5 28.5s-31.167 42.333 -36.5 70s-4 57.334 4 89.001s21.667 60.167 41 85.5c14.667 19.333 31.834 36.666 51.501 51.999s41 29.333 64 42s46.833 24 71.5 34s49.334 19.333 74.001 28l16.5 6
c5.66699 2 11.167 3.66699 16.5 5c-9.33301 30.667 -27.666 54.667 -54.999 72zM-151.999 -398.996c25.333 1.33301 49.502 8.33105 72.502 20.998s44.333 29 64 49s37.167 42.833 52.5 68.5s27.833 52.334 37.5 80.001s16.334 55.167 20.001 82.5s3.5 53 -0.5 77l-30 -11
c-26 -9.33301 -53 -20.166 -81 -32.499s-54.833 -27.166 -80.5 -44.499s-48.334 -37.333 -68.001 -60s-33.834 -48.334 -42.501 -77.001c-4.66699 -15.333 -7.5 -32 -8.5 -50s0.5 -34.833 4.5 -50.5s10.667 -28.667 20 -39s22.666 -14.833 39.999 -13.5z" />
    <glyph glyph-name="a.002" horiz-adv-x="1014" 
d="M307 -137c28.667 0 59.5029 8.83203 92.5029 26.499s64.5 41.834 94.5 72.501s56.667 66.834 80 108.501s39.666 86.834 48.999 135.501c-25.333 5.33301 -49 14 -71 26s-39.667 28 -53 48c-11.333 16 -18.333 34.167 -21 54.5s-1.16699 39.666 4.5 57.999
s15.5 34.166 29.5 47.499s32.333 21 55 23c20 2 36.833 -2.66699 50.5 -14s24.667 -25.666 33 -42.999s14.166 -36.5 17.499 -57.5s5 -40.5 5 -58.5c0 -10 -0.333008 -19.667 -1 -29s-1.66699 -18.666 -3 -27.999c26 0 51.667 3.16699 77 9.5s48.333 15 69 26
s37.334 24 50.001 39s19 31.167 19 48.5c8 -9.33301 10.667 -20.833 8 -34.5s-9.66699 -27.667 -21 -42s-26.833 -27.833 -46.5 -40.5s-42.5 -22.334 -68.5 -29.001c-30 -8 -61 -11 -93 -9c-11.333 -51.333 -30.333 -99.166 -57 -143.499s-57 -82.666 -91 -114.999
s-69.5 -57.666 -106.5 -75.999s-70.833 -27.5 -101.5 -27.5c-35.333 0 -64.833 6.66699 -88.5 20s-42 32 -55 56s-21 52.667 -24 86s-1.16699 70 5.5 110c-17.333 -18.667 -35.333 -33 -54 -43s-38.334 -15 -59.001 -15c-27.333 0 -47.333 9.16699 -60 27.5
s-19 40.166 -19 65.499c0 24 4.16699 47.833 12.5 71.5s19.833 46.167 34.5 67.5c21.333 30.667 47.5 56 78.5 76s63.833 30 98.5 30c7.33301 0 15 -0.5 23 -1.5s15.667 -2.5 23 -4.5l23 76c7.33301 -9.33301 15.666 -13.833 24.999 -13.5s18 1.66602 26 3.99902
s14.833 4 20.5 5s8.5 -2.5 8.5 -10.5c-6 -28.667 -16 -62.834 -30 -102.501s-27.833 -81.167 -41.5 -124.5s-25.667 -86.333 -36 -129s-15.166 -80.834 -14.499 -114.501s8.66699 -61 24 -82s41.666 -31.167 78.999 -30.5zM212.003 349.999
c-6.66699 1.33301 -11.667 2.00098 -15 2.00098c-24.667 0 -47.334 -8.16699 -68.001 -24.5s-38.5 -35.833 -53.5 -58.5s-26.667 -45.834 -35 -69.501s-12.5 -42.5 -12.5 -56.5c0 -12 2 -23 6 -33s10.667 -15 20 -15c14 0 30.833 8.66699 50.5 26s38.834 39 57.501 65l9 32
l20 67c6.66699 22 13.667 43.667 21 65zM631.003 290c0 8 -0.665039 20.333 -1.99805 37s-4.33301 33.334 -9 50.001s-11.334 31.167 -20.001 43.5s-20.334 18.166 -35.001 17.499c-13.333 -0.666992 -25.166 -5.83398 -35.499 -15.501s-18 -21.667 -23 -36
s-6.5 -30.166 -4.5 -47.499s8.66699 -34 20 -50c11.333 -15.333 26.166 -27.333 44.499 -36s38.5 -14.667 60.5 -18c1.33301 9.33301 2.33301 18.5 3 27.5s1 18.167 1 27.5z" />
    <glyph glyph-name="b.002" horiz-adv-x="1127" 
d="M840 513l-23.9922 -72.0098l-28 -85c26 23.333 53.167 41 81.5 53s53.666 16 75.999 12s40 -17 53 -39s16.833 -55 11.5 -99c-2 -14 -4.83301 -28.167 -8.5 -42.5s-8.16699 -28.5 -13.5 -42.5c26 10 51 21.833 75 35.5s45.333 30.834 64 51.501
c5.33301 4.66699 10 4.83398 14 0.500977s4 -9.16602 0 -14.499c-20.667 -24 -45.167 -43.667 -73.5 -59s-58.166 -28.666 -89.499 -39.999c-10 -23.333 -21.667 -45.666 -35 -66.999s-26.833 -40.5 -40.5 -57.5s-27.167 -31.5 -40.5 -43.5s-25.333 -20.333 -36 -25
c-18.667 -8 -35.334 -11.167 -50.001 -9.5s-26.667 6.33398 -36 14.001s-15.666 17.667 -18.999 30s-2.83301 25.333 1.5 39s12.5 27.5 24.5 41.5s29 26.333 51 37c13.333 6.66699 27.666 12.667 42.999 18s31.666 10.666 48.999 15.999
c8.66699 18 16.834 36.833 24.501 56.5s14.167 39.167 19.5 58.5c9.33301 36 9.66602 62.5 0.999023 79.5s-22 25.5 -40 25.5s-38.667 -8 -62 -24s-45.333 -39 -66 -69l-12 -40l-26 -81.5l-24.5 -82.5l-21 -74.5c-6.33301 -23 -11.166 -42.5 -14.499 -58.5
c-12.667 7.33301 -21.834 17.5 -27.501 30.5s-9 26.833 -10 41.5s-0.666992 29.5 1 44.5s3.5 28.167 5.5 39.5c4 24 19.333 81.667 46 173l38.5 129l39.5 125c18 61.333 32 116.5 42 165.5s14 90.667 12 125s-11 60.5 -27 78.5s-41 27 -75 27
c-29.333 0 -60.833 -9.5 -94.5 -28.5s-65.834 -45.167 -96.501 -78.5s-57.834 -72.666 -81.501 -117.999s-40.5 -94.333 -50.5 -147c26.667 -5.33301 51.167 -14.666 73.5 -27.999s40.166 -30.666 53.499 -51.999c11.333 -17.333 18.5 -37 21.5 -59s1.5 -43 -4.5 -63
s-16.333 -37.167 -31 -51.5s-33.334 -22.5 -56.001 -24.5c-20.667 -2 -37.834 3 -51.501 15s-24.667 27.5 -33 46.5s-14.333 39.833 -18 62.5s-5.5 43.667 -5.5 63c0 10.667 0.333008 21 1 31s1.66699 20.333 3 31c-26 -0.666992 -52.167 -4.5 -78.5 -11.5
s-49.833 -16.333 -70.5 -28s-37.5 -25.5 -50.5 -41.5s-19.5 -33.333 -19.5 -52c-8 10 -10.833 22.5 -8.5 37.5s9.33301 30.167 21 45.5s27.5 29.833 47.5 43.5s43.333 24.167 70 31.5c30 8 61.667 11 95 9c11.333 56 30.666 107.833 57.999 155.5s58.5 89.167 93.5 124.5
s71.333 63 109 83s72.167 30 103.5 30c45.333 0 81.333 -11.667 108 -35s45 -55.166 55 -95.499s11.667 -87.666 5 -141.999s-20.667 -112.5 -42 -174.5zM383.008 470.99c0 -9.33301 0.666992 -23.0039 2 -41.0039s4.33301 -36 9 -54s11.334 -33.667 20.001 -47
s20.667 -19.666 36 -18.999c13.333 0.666992 25.333 6.33398 36 17.001s18.5 23.834 23.5 39.501s6.66699 32.834 5 51.501s-8.5 36.667 -20.5 54c-11.333 17.333 -26.333 30.5 -45 39.5s-39.334 15.167 -62.001 18.5c-1.33301 -9.33301 -2.33301 -19 -3 -29s-1 -20 -1 -30z
M807.008 110.986c-15.333 -6.66699 -27.5039 -15.6699 -36.5039 -27.0029s-15.167 -22.5 -18.5 -33.5s-3.66602 -20.333 -0.999023 -28s7.83398 -11.667 15.501 -12s17.834 4.83398 30.501 15.501s28 28.667 46 54c4.66699 6.66699 9.83398 14.834 15.501 24.501
s11.834 20.834 18.501 33.501l-36.5 -13.5c-11.667 -4.33301 -22.834 -8.83301 -33.501 -13.5z" />
    <glyph glyph-name="c.002" horiz-adv-x="821" 
d="M62 241c-19.333 -58 -34.165 -110.507 -44.498 -157.507s-14.333 -86.833 -12 -119.5s11.666 -57.667 27.999 -75s41.5 -26 75.5 -26c28.667 0 59.5 8.83301 92.5 26.5s64.5 41.834 94.5 72.501s56.667 66.834 80 108.501s39.666 86.834 48.999 135.501
c-25.333 5.33301 -49 14 -71 26s-39.667 28 -53 48c-11.333 16 -18.333 34.167 -21 54.5s-1.16699 39.666 4.5 57.999s15.5 34.166 29.5 47.499s32.333 21 55 23c20 2 36.833 -2.66699 50.5 -14s24.667 -25.666 33 -42.999s14.166 -36.5 17.499 -57.5s5 -40.5 5 -58.5
c0 -10 -0.333008 -19.667 -1 -29s-1.66699 -18.666 -3 -27.999c26 0 51.667 3.16699 77 9.5s48.333 15 69 26s37.334 24 50.001 39s19 31.167 19 48.5c8 -9.33301 10.667 -20.833 8 -34.5s-9.66699 -27.667 -21 -42s-26.833 -27.833 -46.5 -40.5
s-42.5 -22.334 -68.5 -29.001c-30 -8 -61 -11 -93 -9c-11.333 -51.333 -30.333 -99.166 -57 -143.499s-57 -82.666 -91 -114.999s-69.5 -57.666 -106.5 -75.999s-70.833 -27.5 -101.5 -27.5c-42.667 0 -77 9.83301 -103 29.5s-44.167 46.834 -54.5 81.501
s-13.333 75.334 -9 122.001s15.5 97 33.5 151c7.33301 22 15.333 42.667 24 62c5.33301 14 13.166 30.167 23.499 48.5s22.333 35.5 36 51.5s28.5 29.667 44.5 41s32.667 17 50 17c18 0 31.833 -4.66699 41.5 -14s15.834 -21.166 18.501 -35.499s2.66699 -30.166 0 -47.499
s-7 -34 -13 -50c-4 -6.66699 -9.33301 -9.33398 -16 -8.00098s-8.66699 7 -6 17c3.33301 10 5.83301 21.167 7.5 33.5s2.16699 23.833 1.5 34.5s-2.83398 19.667 -6.50098 27s-9.5 11 -17.5 11s-16.5 -4.83301 -25.5 -14.5s-18 -22.334 -27 -38.001s-17.667 -33.667 -26 -54
s-16.166 -41.5 -23.499 -63.5zM433.001 289.993c0 8 -0.665039 20.333 -1.99805 37s-4.33301 33.334 -9 50.001s-11.334 31.167 -20.001 43.5s-20.334 18.166 -35.001 17.499c-13.333 -0.666992 -25.166 -5.83398 -35.499 -15.501s-18 -21.667 -23 -36
s-6.5 -30.166 -4.5 -47.499s8.66699 -34 20 -50c11.333 -15.333 26.166 -27.333 44.499 -36s38.5 -14.667 60.5 -18c1.33301 9.33301 2.33301 18.5 3 27.5s1 18.167 1 27.5z" />
    <glyph glyph-name="d.002" horiz-adv-x="1023" 
d="M268 241c-18 -58.667 -32.001 -111.503 -42.001 -158.503s-14.167 -86.667 -12.5 -119s10.5 -57.166 26.5 -74.499s41 -26 75 -26c28.667 0 59.5 8.83301 92.5 26.5s64.5 41.834 94.5 72.501s56.667 66.834 80 108.501s39.666 86.834 48.999 135.501
c-25.333 5.33301 -49 14 -71 26s-39.667 28 -53 48c-11.333 16 -18.333 34.167 -21 54.5s-1.16699 39.666 4.5 57.999s15.5 34.166 29.5 47.499s32.333 21 55 23c20 2 36.833 -2.66699 50.5 -14s24.667 -25.666 33 -42.999s14.166 -36.5 17.499 -57.5s5 -40.5 5 -58.5
c0 -10 -0.333008 -19.667 -1 -29s-1.66699 -18.666 -3 -27.999c26 0 51.667 3.16699 77 9.5s48.333 15 69 26s37.334 24 50.001 39s19 31.167 19 48.5c8 -9.33301 10.667 -20.833 8 -34.5s-9.66699 -27.667 -21 -42s-26.833 -27.833 -46.5 -40.5
s-42.5 -22.334 -68.5 -29.001c-30 -8 -61 -11 -93 -9c-11.333 -51.333 -30.333 -99.166 -57 -143.499s-57 -82.666 -91 -114.999s-69.5 -57.666 -106.5 -75.999s-70.833 -27.5 -101.5 -27.5c-33.333 0 -61.666 6.16699 -84.999 18.5s-41.666 29.5 -54.999 51.5
s-22 48.333 -26 79s-3.66699 64.667 1 102h-1l3 21c-17.333 -18.667 -35.333 -33 -54 -43s-38.334 -15 -59.001 -15c-27.333 0 -47.333 9.16699 -60 27.5s-19 40.166 -19 65.499c0 21.333 3.66699 44.5 11 69.5s17 48.167 29 69.5s26.833 40.666 44.5 57.999
s37 31.666 58 42.999s43 19.333 66 24s46.167 5 69.5 1l56.5 179.5l39.5 125l25 81l14 48c3.33301 11.667 5.83301 20 7.5 25l4.5 13.5c-2 -27.333 -0.833008 -48.333 3.5 -63s9.83301 -26 16.5 -34s12.834 -14.167 18.501 -18.5s8.5 -10.5 8.5 -18.5
c-2 -7.33301 -6 -20.333 -12 -39l-24 -74l-36.5 -111.5l-49.5 -151.5l-20 -61zM170.999 188.997l13.002 47.001l14.5 50l15 48.5l13.5 41.5c-6.66699 1.33301 -11.667 2 -15 2c-24.667 0 -47.5 -8.83301 -68.5 -26.5s-39.5 -38.834 -55.5 -63.501s-28.667 -50.5 -38 -77.5
s-14.333 -49.5 -15 -67.5c-0.666992 -12 1.16602 -23 5.49902 -33s11.166 -15 20.499 -15c14.667 0 32 8.83301 52 26.5s39.333 40.167 58 67.5zM639.001 289.998c0 8 -0.665039 20.333 -1.99805 37s-4.33301 33.334 -9 50.001s-11.334 31.167 -20.001 43.5
s-20.334 18.166 -35.001 17.499c-13.333 -0.666992 -25.166 -5.83398 -35.499 -15.501s-18 -21.667 -23 -36s-6.5 -30.166 -4.5 -47.499s8.66699 -34 20 -50c11.333 -15.333 26.166 -27.333 44.499 -36s38.5 -14.667 60.5 -18c1.33301 9.33301 2.33301 18.5 3 27.5
s1 18.167 1 27.5z" />
    <glyph glyph-name="e.002" horiz-adv-x="816" 
d="M0 285c5.33301 14 13.168 30.1641 23.501 48.4971s22.333 35.5 36 51.5s28.5 29.667 44.5 41s32.667 17 50 17c12 0 21 -4.33301 27 -13s9 -20 9 -34s-2.83301 -29.667 -8.5 -47s-14.167 -34.833 -25.5 -52.5s-25.666 -34.334 -42.999 -50.001
s-37.666 -28.5 -60.999 -38.5c-16.667 -53.333 -29 -101.333 -37 -144s-10.333 -79 -7 -109s13.166 -52.833 29.499 -68.5s40.5 -23.5 72.5 -23.5c28.667 0 59.5 8.83301 92.5 26.5s64.5 41.834 94.5 72.501s56.667 66.834 80 108.501s39.666 86.834 48.999 135.501
c-25.333 5.33301 -49 14 -71 26s-39.667 28 -53 48c-11.333 16 -18.333 34.167 -21 54.5s-1.16699 39.666 4.5 57.999s15.5 34.166 29.5 47.499s32.333 21 55 23c20 2 36.833 -2.66699 50.5 -14s24.667 -25.666 33 -42.999s14.166 -36.5 17.499 -57.5s5 -40.5 5 -58.5
c0 -10 -0.333008 -19.667 -1 -29s-1.66699 -18.666 -3 -27.999c26 0 51.667 3.16699 77 9.5s48.333 15 69 26s37.334 24 50.001 39s19 31.167 19 48.5c8 -9.33301 10.667 -20.833 8 -34.5s-9.66699 -27.667 -21 -42s-26.833 -27.833 -46.5 -40.5
s-42.5 -22.334 -68.5 -29.001c-30 -8 -61 -11 -93 -9c-11.333 -51.333 -30.333 -99.166 -57 -143.499s-57 -82.666 -91 -114.999s-69.5 -57.666 -106.5 -75.999s-70.833 -27.5 -101.5 -27.5c-42 0 -76 9.83301 -102 29.5s-44.333 46.5 -55 80.5s-14 74.167 -10 120.5
s14.667 96.166 32 149.499c3.33301 11.333 7.16602 22.333 11.499 33zM434.002 289.997c0 8 -0.665039 20.333 -1.99805 37s-4.33301 33.334 -9 50.001s-11.334 31.167 -20.001 43.5s-20.334 18.166 -35.001 17.499c-13.333 -0.666992 -25.166 -5.83398 -35.499 -15.501
s-18 -21.667 -23 -36s-6.5 -30.166 -4.5 -47.499s8.66699 -34 20 -50c11.333 -15.333 26.166 -27.333 44.499 -36s38.5 -14.667 60.5 -18c1.33301 9.33301 2.33301 18.5 3 27.5s1 18.167 1 27.5zM160.004 410.997c-8 0 -16.334 -4.83398 -25.001 -14.501
s-17.167 -22.5 -25.5 -38.5s-16.666 -34.167 -24.999 -54.5s-16.166 -41.166 -23.499 -62.499h2c20.667 10 38.834 24.5 54.501 43.5s27.667 37.833 36 56.5s13.166 35 14.499 49s-1.33398 21 -8.00098 21z" />
    <glyph glyph-name="f.002" horiz-adv-x="739" 
d="M28 134l10 -0.00195312c28.667 0 59.5 8.83301 92.5 26.5s64.5 41.834 94.5 72.501s56.667 66.834 80 108.501s39.666 86.834 48.999 135.501c-25.333 5.33301 -49 14 -71 26s-39.667 28 -53 48c-11.333 16 -18.333 34.167 -21 54.5s-1.16699 39.666 4.5 57.999
s15.5 34.166 29.5 47.499s32.333 21 55 23c20 2 36.833 -2.66699 50.5 -14s24.667 -25.666 33 -42.999s14.166 -36.5 17.499 -57.5s5 -40.5 5 -58.5c0 -10 -0.333008 -19.667 -1 -29s-1.66699 -18.666 -3 -27.999c26 0 51.667 3.16699 77 9.5s48.333 15 69 26
s37.334 24 50.001 39s19 31.167 19 48.5c8 -9.33301 10.667 -20.833 8 -34.5s-9.66699 -27.667 -21 -42s-26.833 -27.833 -46.5 -40.5s-42.5 -22.334 -68.5 -29.001c-30 -8 -61 -11 -93 -9c-11.333 -51.333 -30.333 -99.166 -57 -143.499s-57 -82.666 -91 -114.999
s-69.5 -57.666 -106.5 -75.999s-70.833 -27.5 -101.5 -27.5h-17v-2c17.333 -36.667 26 -75.334 26 -116.001s-4.66699 -78.667 -14 -114c-7.33301 -26.667 -18.5 -46.334 -33.5 -59.001s-29.833 -18.667 -44.5 -18s-27.5 8.16699 -38.5 22.5s-16.5 35.166 -16.5 62.499
c1.33301 29.333 5.5 61.5 12.5 96.5s15.5 70.333 25.5 106s20.5 70.5 31.5 104.5l30.5 92c16 46 30.5 89.5 43.5 130.5l35 111.5l26.5 86l17 55c-2 -27.333 -0.833008 -48.333 3.5 -63s9.83301 -26 16.5 -34s12.834 -14.167 18.501 -18.5s8.5 -10.5 8.5 -18.5l-72.5 -212
l-67.5 -186zM253 559.998c11.333 -15.333 26.168 -27.333 44.501 -36s38.5 -14.667 60.5 -18c1.33301 9.33301 2.33301 18.5 3 27.5s1 18.167 1 27.5c0 8 -0.666992 20.333 -2 37s-4.33301 33.334 -9 50.001s-11.334 31.167 -20.001 43.5s-20.334 18.166 -35.001 17.499
c-13.333 -0.666992 -25.166 -5.83398 -35.499 -15.501s-18 -21.667 -23 -36s-6.5 -30.166 -4.5 -47.499s8.66699 -34 20 -50zM11.002 -20.002c0 12.667 -0.667969 25.3311 -2.00098 37.998s-3.66602 25 -6.99902 37c-2 -5.33301 -5.5 -14 -10.5 -26s-10.333 -25.667 -16 -41
s-11 -31.666 -16 -48.999s-8.5 -33.333 -10.5 -48c-2 -17.333 -1.66699 -30.666 1 -39.999s6.66699 -14.5 12 -15.5s11.333 2.33301 18 10s12.667 19.5 18 35.5c5.33301 16.667 8.83301 33.5 10.5 50.5s2.5 33.167 2.5 48.5z" />
    <glyph glyph-name="g.002" horiz-adv-x="948" 
d="M776 50c-24 -77.333 -52.5 -141.995 -85.5 -193.995s-68 -92.833 -105 -122.5s-74.667 -48.667 -113 -57s-74.833 -7.5 -109.5 2.5c-30 9.33301 -56 24.833 -78 46.5s-40.167 47.167 -54.5 76.5s-25 61.666 -32 96.999s-10.667 71.166 -11 107.499
s2.83398 72.5 9.50098 108.5s16.334 69.333 29.001 100c-28 18.667 -51.333 40.334 -70 65.001c-16.667 21.333 -29 43 -37 65s-12.167 42.167 -12.5 60.5s2.66699 33.666 9 45.999s15.5 19.833 27.5 22.5c-10.667 -14 -15.5 -30.833 -14.5 -50.5s6.33301 -40.167 16 -61.5
s22.834 -42.333 39.501 -63s35.334 -39 56.001 -55c8.66699 16.667 18.667 33 30 49c10.667 14 23.834 28.333 39.501 43s32 26.5 49 35.5s34.333 13.833 52 14.5s34.167 -6 49.5 -20c16.667 -15.333 26.5 -32.5 29.5 -51.5s1.16699 -37.5 -5.5 -55.5
s-17.334 -34.333 -32.001 -49s-31.334 -25 -50.001 -31c-22.667 -7.33301 -46 -9.33301 -70 -6s-47.667 10.666 -71 21.999c-14.667 -32.667 -25.5 -66.834 -32.5 -102.501s-10.167 -71 -9.5 -106s4.83398 -68.667 12.501 -101s18.5 -61 32.5 -86s31.167 -45.833 51.5 -62.5
s43.166 -26.667 68.499 -30s51.666 1.33398 78.999 14.001s54.5 33.5 81.5 62.5s53 65.667 78 110s47.833 96.5 68.5 156.5l19 61c-17.333 -18.667 -35.333 -33 -54 -43s-38.334 -15 -59.001 -15c-27.333 0 -47.333 9.16699 -60 27.5s-19 40.166 -19 65.499
c0 24 4.16699 47.833 12.5 71.5s19.833 46.167 34.5 67.5c21.333 30.667 47.5 56 78.5 76s63.833 30 98.5 30c7.33301 0 15 -0.5 23 -1.5s15.667 -2.5 23 -4.5l15 50c7.33301 -9.33301 15.666 -13.833 24.999 -13.5s18 1.66602 26 3.99902s14.833 4 20.5 5
s8.5 -2.5 8.5 -10.5c-3.33301 -11.333 -8.5 -29.833 -15.5 -55.5l-25 -89.5l-31.5 -109.5zM729 189.005c7.33301 29.333 15.168 57.501 23.501 84.501l24.5 76.5c-6.66699 1.33301 -11.667 2 -15 2c-24.667 0 -47.334 -8.16699 -68.001 -24.5s-38.5 -35.833 -53.5 -58.5
s-26.667 -45.834 -35 -69.501s-12.5 -42.5 -12.5 -56.5c0 -12 2 -23 6 -33s10.667 -15 20 -15c14.667 0 32 8.83301 52 26.5s39.333 40.167 58 67.5zM390.002 201.006c18.667 5.33301 33.998 14.332 45.998 26.999s20.5 26.167 25.5 40.5s6.16699 28.5 3.5 42.5
s-9 25.333 -19 34c-11.333 9.33301 -24.166 11.833 -38.499 7.5s-28.333 -11.666 -42 -21.999s-26.167 -21.666 -37.5 -33.999s-19.333 -21.833 -24 -28.5c-5.33301 -7.33301 -10.5 -14.833 -15.5 -22.5s-9.83301 -15.834 -14.5 -24.501c19.333 -10.667 38.833 -18 58.5 -22
s38.834 -3.33301 57.501 2z" />
    <glyph glyph-name="h.002" horiz-adv-x="999" 
d="M247 228c-19.333 -58.667 -33.8359 -110.671 -43.5029 -156.004s-13.334 -83.5 -11.001 -114.5s11.833 -54.5 28.5 -70.5s42 -24 76 -24c28.667 0 59.5 8.83301 92.5 26.5s64.5 41.834 94.5 72.501s56.667 66.834 80 108.501s39.666 86.834 48.999 135.501
c-25.333 5.33301 -49 14 -71 26s-39.667 28 -53 48c-11.333 16 -18.333 34.167 -21 54.5s-1.16699 39.666 4.5 57.999s15.5 34.166 29.5 47.499s32.333 21 55 23c20 2 36.833 -2.66699 50.5 -14s24.667 -25.666 33 -42.999s14.166 -36.5 17.499 -57.5s5 -40.5 5 -58.5
c0 -10 -0.333008 -19.667 -1 -29s-1.66699 -18.666 -3 -27.999c26 0 51.667 3.16699 77 9.5s48.333 15 69 26s37.334 24 50.001 39s19 31.167 19 48.5c8 -9.33301 10.667 -20.833 8 -34.5s-9.66699 -27.667 -21 -42s-26.833 -27.833 -46.5 -40.5
s-42.5 -22.334 -68.5 -29.001c-30 -8 -61 -11 -93 -9c-11.333 -51.333 -30.333 -99.166 -57 -143.499s-57 -82.666 -91 -114.999s-69.5 -57.666 -106.5 -75.999s-70.833 -27.5 -101.5 -27.5c-43.333 0 -78 10 -104 30s-44.167 47.5 -54.5 82.5
s-13.166 76.167 -8.49902 123.5s16.334 98.333 35.001 153c0 1.33301 0.333008 2.33301 1 3c1.33301 3.33301 2.5 6.66602 3.5 9.99902s2.16699 6.66602 3.5 9.99902l15 40.5c4.66699 13 8.66699 25.167 12 36.5s6.16602 21.833 8.49902 31.5s3.5 18.167 3.5 25.5
c0 4 -0.5 6.5 -1.5 7.5s-2.16699 1.5 -3.5 1.5c-7.33301 0 -16.166 -5.5 -26.499 -16.5s-21 -25.167 -32 -42.5s-22.167 -36.666 -33.5 -57.999l-32 -62.5c-10 -20.333 -18.833 -39.166 -26.5 -56.499l-17.5 -40c-19.333 -46.667 -35.666 -91.667 -48.999 -135l-80 -2
l15.5 49l19 63l24 83l31.5 109l57 198c22 76.667 49.667 167 83 271c9.33301 29.333 17 55.166 23 77.499s11 39.5 15 51.5c-2 -27.333 -0.833008 -48.333 3.5 -63s9.5 -26 15.5 -34s11.833 -14.167 17.5 -18.5s8.5 -10.5 8.5 -18.5
c-25.333 -84 -51.666 -166.5 -78.999 -247.5s-53.666 -163.167 -78.999 -246.5l43 73c14 22.667 27.833 42.5 41.5 59.5s27.667 30.5 42 40.5s29.166 15 44.499 15c14.667 0 25 -6.16699 31 -18.5s8.83301 -28.5 8.5 -48.5s-3.16602 -43 -8.49902 -69s-12 -52.333 -20 -79z
M620.997 289.996c0 8 -0.665039 20.333 -1.99805 37s-4.33301 33.334 -9 50.001s-11.334 31.167 -20.001 43.5s-20.334 18.166 -35.001 17.499c-13.333 -0.666992 -25.166 -5.83398 -35.499 -15.501s-18 -21.667 -23 -36s-6.5 -30.166 -4.5 -47.499s8.66699 -34 20 -50
c11.333 -15.333 26.166 -27.333 44.499 -36s38.5 -14.667 60.5 -18c1.33301 9.33301 2.33301 18.5 3 27.5s1 18.167 1 27.5z" />
    <glyph glyph-name="i.002" horiz-adv-x="818" 
d="M73 241c-18.667 -58.667 -33.166 -111.336 -43.499 -158.003s-14.5 -86.334 -12.5 -119.001s11.167 -57.667 27.5 -75s41.5 -26 75.5 -26c28.667 0 59.5 8.83301 92.5 26.5s64.5 41.834 94.5 72.501s56.667 66.834 80 108.501s39.666 86.834 48.999 135.501
c-25.333 5.33301 -49 14 -71 26s-39.667 28 -53 48c-11.333 16 -18.333 34.167 -21 54.5s-1.16699 39.666 4.5 57.999s15.5 34.166 29.5 47.499s32.333 21 55 23c20 2 36.833 -2.66699 50.5 -14s24.667 -25.666 33 -42.999s14.166 -36.5 17.499 -57.5s5 -40.5 5 -58.5
c0 -10 -0.333008 -19.667 -1 -29s-1.66699 -18.666 -3 -27.999c26 0 51.667 3.16699 77 9.5s48.333 15 69 26s37.334 24 50.001 39s19 31.167 19 48.5c8 -9.33301 10.667 -20.833 8 -34.5s-9.66699 -27.667 -21 -42s-26.833 -27.833 -46.5 -40.5
s-42.5 -22.334 -68.5 -29.001c-30 -8 -61 -11 -93 -9c-11.333 -51.333 -30.333 -99.166 -57 -143.499s-57 -82.666 -91 -114.999s-69.5 -57.666 -106.5 -75.999s-70.833 -27.5 -101.5 -27.5c-42 0 -75.833 9.5 -101.5 28.5s-44.167 45 -55.5 78
s-15.666 72.167 -12.999 117.5s12 94.333 28 147c3.33301 12.667 6.83301 25.167 10.5 37.5l11.5 37.5c8.66699 26.667 17.5 52.5 26.5 77.5s17.167 49.167 24.5 72.5c7.33301 -9.33301 15.666 -13.833 24.999 -13.5s18 1.66602 26 3.99902s14.833 4 20.5 5
s8.5 -2.5 8.5 -10.5l-23 -71zM444.001 289.998c0 8 -0.665039 20.333 -1.99805 37s-4.33301 33.334 -9 50.001s-11.334 31.167 -20.001 43.5s-20.334 18.166 -35.001 17.499c-13.333 -0.666992 -25.166 -5.83398 -35.499 -15.501s-18 -21.667 -23 -36
s-6.5 -30.166 -4.5 -47.499s8.66699 -34 20 -50c11.333 -15.333 26.166 -27.333 44.499 -36s38.5 -14.667 60.5 -18c1.33301 9.33301 2.33301 18.5 3 27.5s1 18.167 1 27.5zM99.0029 523.998c13.333 0 24 -4.50098 32 -13.501s12 -19.167 12 -30.5
s-4.33301 -21.166 -13 -29.499s-18.667 -12.5 -30 -12.5c-12 0 -22.333 3.83301 -31 11.5s-13 18.167 -13 31.5c0 12.667 4.16699 23 12.5 31s18.5 12 30.5 12z" />
    <glyph glyph-name="j.002" horiz-adv-x="891" 
d="M707 55c-27.333 -86.667 -58.335 -156.827 -93.002 -210.494s-70.167 -94.334 -106.5 -122.001s-72.5 -44.5 -108.5 -50.5s-69 -4.33301 -99 5c-30.667 8.66699 -57 23.834 -79 45.501s-40.167 47.167 -54.5 76.5s-25 61.666 -32 96.999s-10.5 71.333 -10.5 108
s3.33301 73 10 109s16.334 69.333 29.001 100c-28 18.667 -51.333 40.334 -70 65.001c-16.667 21.333 -29 43 -37 65s-12.167 42.167 -12.5 60.5s2.66699 33.666 9 45.999s15.5 19.833 27.5 22.5c-10.667 -14 -15.5 -30.833 -14.5 -50.5s6.33301 -40.167 16 -61.5
s22.834 -42.333 39.501 -63s35.334 -39 56.001 -55c8.66699 16.667 18.667 33 30 49c10.667 14 23.834 28.333 39.501 43s32 26.5 49 35.5s34.333 13.833 52 14.5s34.167 -6 49.5 -20c16.667 -15.333 26.5 -32.5 29.5 -51.5s1.16699 -37.5 -5.5 -55.5
s-17.334 -34.333 -32.001 -49s-31.334 -25 -50.001 -31c-22.667 -7.33301 -46 -9.33301 -70 -6s-47.667 10.666 -71 21.999c-14.667 -32.667 -25.5 -66.834 -32.5 -102.501s-10.167 -71 -9.5 -106s4.83398 -68.667 12.501 -101s18.5 -61 32.5 -86s31.167 -45.833 51.5 -62.5
s43.166 -26.667 68.499 -30s52 1.33398 80 14.001s55.5 33.667 82.5 63s53.167 66.666 78.5 111.999s48 98.666 68 159.999c12.667 39.333 24.334 78.166 35.001 116.499l33 114.5l22 75c7.33301 24.667 14.333 49.667 21 75c7.33301 -9.33301 15.666 -13.833 24.999 -13.5
s18 1.66602 26 3.99902s14.833 4 20.5 5s8.5 -2.5 8.5 -10.5l-33 -105l-31 -100l-28 -89zM326.998 199.007c18.667 5.33301 33.998 14.332 45.998 26.999s20.5 26.167 25.5 40.5s6.16699 28.5 3.5 42.5s-9 25.333 -19 34c-11.333 9.33301 -24.166 11.833 -38.499 7.5
s-28.333 -11.666 -42 -21.999s-26.167 -21.666 -37.5 -33.999s-19.333 -21.833 -24 -28.5c-5.33301 -7.33301 -10.5 -14.833 -15.5 -22.5s-9.83301 -15.834 -14.5 -24.501c19.333 -10.667 38.833 -18 58.5 -22s38.834 -3.33301 57.501 2zM786.996 524.006
c13.333 0 24 -4.50098 32 -13.501s12 -19.167 12 -30.5s-4.33301 -21.166 -13 -29.499s-18.667 -12.5 -30 -12.5c-12 0 -22.333 3.83301 -31 11.5s-13 18.167 -13 31.5c0 12.667 4.16699 23 12.5 31s18.5 12 30.5 12z" />
    <glyph glyph-name="k.002" horiz-adv-x="997" 
d="M250 226c-4 -19.333 -9.16406 -38.8408 -15.4971 -58.5078l-18.5 -58.5c-6 -19.333 -11.5 -38.666 -16.5 -57.999s-8.16699 -38.333 -9.5 -57s-0.333008 -36 3 -52s9.16602 -29.833 17.499 -41.5s19.166 -20.834 32.499 -27.501s29.666 -10 48.999 -10
c28.667 0 59.5 8.83301 92.5 26.5s64.5 41.834 94.5 72.501s56.667 66.834 80 108.501s39.666 86.834 48.999 135.501c-25.333 5.33301 -49 14 -71 26s-39.667 28 -53 48c-11.333 16 -18.333 34.167 -21 54.5s-1.16699 39.666 4.5 57.999s15.5 34.166 29.5 47.499
s32.333 21 55 23c20 2 36.833 -2.66699 50.5 -14s24.667 -25.666 33 -42.999s14.166 -36.5 17.499 -57.5s5 -40.5 5 -58.5c0 -10 -0.333008 -19.667 -1 -29s-1.66699 -18.666 -3 -27.999c26 0 51.667 3.16699 77 9.5s48.333 15 69 26s37.334 24 50.001 39s19 31.167 19 48.5
c8 -9.33301 10.667 -20.833 8 -34.5s-9.66699 -27.667 -21 -42s-26.833 -27.833 -46.5 -40.5s-42.5 -22.334 -68.5 -29.001c-30 -8 -61 -11 -93 -9c-11.333 -51.333 -30.333 -99.166 -57 -143.499s-57 -82.666 -91 -114.999s-69.5 -57.666 -106.5 -75.999
s-70.833 -27.5 -101.5 -27.5c-42.667 0 -77.167 9.83301 -103.5 29.5s-44.833 46.5 -55.5 80.5s-14 74 -10 120s15.333 95.667 34 149c10 29.333 15 48.833 15 58.5s-3.16699 12.667 -9.5 9s-15 -12.334 -26 -26.001s-22.333 -29.167 -34 -46.5s-22.5 -34.666 -32.5 -51.999
s-17.333 -31.666 -22 -42.999c-19.333 -46.667 -35.666 -91.667 -48.999 -135l-80 -2l18.5 71.5l21.5 82l21.5 81c7 26.333 13.5 49.5 19.5 69.5l93.5 300.5l91.5 297.5c-2 -27.333 -0.833008 -48.333 3.5 -63s9.66602 -26 15.999 -34s12.333 -14.167 18 -18.5
s8.5 -10.5 8.5 -18.5l-42 -131l-57.5 -180l-56.5 -179c20 36 42.833 69.833 68.5 101.5s51.667 56.5 78 74.5s51.666 26.5 75.999 25.5s45.166 -15.833 62.499 -44.5c-7.33301 4.66699 -16.666 8.33398 -27.999 11.001s-24.666 1.66699 -39.999 -3
s-32.666 -13.834 -51.999 -27.501s-40.333 -33.834 -63 -60.501c22 6.66699 41.167 6.33398 57.5 -0.999023s23.833 -24.666 22.5 -51.999c-0.666992 -9.33301 -1.5 -18.666 -2.5 -27.999s-2.5 -19 -4.5 -29zM616.003 289.992c0 8 -0.665039 20.333 -1.99805 37
s-4.33301 33.334 -9 50.001s-11.334 31.167 -20.001 43.5s-20.334 18.166 -35.001 17.499c-13.333 -0.666992 -25.166 -5.83398 -35.499 -15.501s-18 -21.667 -23 -36s-6.5 -30.166 -4.5 -47.499s8.66699 -34 20 -50c11.333 -15.333 26.166 -27.333 44.499 -36
s38.5 -14.667 60.5 -18c1.33301 9.33301 2.33301 18.5 3 27.5s1 18.167 1 27.5z" />
    <glyph glyph-name="l.002" horiz-adv-x="840" 
d="M75 241c-18.667 -58.667 -32.999 -111.339 -42.999 -158.006s-14 -86.334 -12 -119.001s11.167 -57.667 27.5 -75s41.5 -26 75.5 -26c28.667 0 59.5 8.83301 92.5 26.5s64.5 41.834 94.5 72.501s56.667 66.834 80 108.501s39.666 86.834 48.999 135.501
c-25.333 5.33301 -49 14 -71 26s-39.667 28 -53 48c-11.333 16 -18.333 34.167 -21 54.5s-1.16699 39.666 4.5 57.999s15.5 34.166 29.5 47.499s32.333 21 55 23c20 2 36.833 -2.66699 50.5 -14s24.667 -25.666 33 -42.999s14.166 -36.5 17.499 -57.5s5 -40.5 5 -58.5
c0 -10 -0.333008 -19.667 -1 -29s-1.66699 -18.666 -3 -27.999c26 0 51.667 3.16699 77 9.5s48.333 15 69 26s37.334 24 50.001 39s19 31.167 19 48.5c8 -9.33301 10.667 -20.833 8 -34.5s-9.66699 -27.667 -21 -42s-26.833 -27.833 -46.5 -40.5
s-42.5 -22.334 -68.5 -29.001c-30 -8 -61 -11 -93 -9c-11.333 -51.333 -30.333 -99.166 -57 -143.499s-57 -82.666 -91 -114.999s-69.5 -57.666 -106.5 -75.999s-70.833 -27.5 -101.5 -27.5c-44 0 -79.167 10.333 -105.5 31s-44.5 49.334 -54.5 86.001
s-12.667 79.834 -8 129.501s16 103.5 34 161.5l6 18.5c2 6.33301 3.66699 12.833 5 19.5c8.66699 29.333 19.167 62.833 31.5 100.5l38.5 116.5l40.5 119.5l38.5 111l31.5 91.5c9 26.667 15.5 46.667 19.5 60c-2 -27.333 -1 -48.333 3 -63s8.83301 -26 14.5 -34
s11.167 -14.333 16.5 -19s8 -11 8 -19c-3.33301 -11.333 -10.833 -34.5 -22.5 -69.5l-41.5 -124l-51.5 -154.5zM447.001 289.995c0 8 -0.665039 20.333 -1.99805 37s-4.33301 33.334 -9 50.001s-11.334 31.167 -20.001 43.5s-20.334 18.166 -35.001 17.499
c-13.333 -0.666992 -25.166 -5.83398 -35.499 -15.501s-18 -21.667 -23 -36s-6.5 -30.166 -4.5 -47.499s8.66699 -34 20 -50c11.333 -15.333 26.166 -27.333 44.499 -36s38.5 -14.667 60.5 -18c1.33301 9.33301 2.33301 18.5 3 27.5s1 18.167 1 27.5z" />
    <glyph glyph-name="m.002" horiz-adv-x="1170" 
d="M310 210c6.66699 20.667 13.498 40.4922 20.498 59.4922l18.5 51.5l13.5 40c3.66699 11.333 5.5 19.333 5.5 24c0 8.66699 -1.33301 13 -4 13c-5.33301 0 -14.666 -6.5 -27.999 -19.5s-32.333 -34.833 -57 -65.5l-28.5 -80.5l-31.5 -91.5
c-10 -30 -18.167 -56.667 -24.5 -80s-8.83301 -38.333 -7.5 -45c-19.333 6.66699 -32 18.5 -38 35.5s-7.83301 36.833 -5.5 59.5s7.5 47 15.5 73s16.5 51.667 25.5 77s17 48.833 24 70.5s10.5 39.5 10.5 53.5c0 4 -0.5 6.5 -1.5 7.5s-2.16699 1.5 -3.5 1.5
c-7.33301 0 -16.166 -5.5 -26.499 -16.5s-21 -25.167 -32 -42.5s-22.167 -36.666 -33.5 -57.999l-32 -62.5c-10 -20.333 -18.833 -39.166 -26.5 -56.499l-17.5 -40c-19.333 -46.667 -35.666 -91.667 -48.999 -135l-80 -2l19 71.5l22 82l22 81l20 69.5c2 6 4 12.667 6 20
s5 17.5 9 30.5l15 49.5l23 76c7.33301 -9.33301 15.5 -13.833 24.5 -13.5s17.333 1.66602 25 3.99902s14.167 4 19.5 5s8 -2.5 8 -10.5c0 -0.666992 -0.833008 -3.5 -2.5 -8.5s-4.66699 -14.667 -9 -29l-19 -60l-31.5 -100.5l44.5 75.5
c14.333 23.667 28.5 44.334 42.5 62.001s28.167 31.667 42.5 42s29.5 15.5 45.5 15.5c19.333 0 33.166 -5.16699 41.499 -15.5s12.833 -23.166 13.5 -38.499c16 16.667 31.833 29.834 47.5 39.501s31.167 14.5 46.5 14.5c18.667 0 31.334 -7 38.001 -21s9 -32.333 7 -55
s-7 -48.334 -15 -77.001s-17 -58 -27 -88c-17.333 -54 -30.333 -102 -39 -144s-11.667 -77.5 -9 -106.5s12 -51 28 -66s40.333 -22.5 73 -22.5c28.667 0 59.5 8.83301 92.5 26.5s64.5 41.834 94.5 72.501s56.667 66.834 80 108.501s39.666 86.834 48.999 135.501
c-25.333 5.33301 -49 14 -71 26s-39.667 28 -53 48c-11.333 16 -18.333 34.167 -21 54.5s-1.16699 39.666 4.5 57.999s15.5 34.166 29.5 47.499s32.333 21 55 23c20 2 36.833 -2.66699 50.5 -14s24.667 -25.666 33 -42.999s14.166 -36.5 17.499 -57.5s5 -40.5 5 -58.5
c0 -10 -0.333008 -19.667 -1 -29s-1.66699 -18.666 -3 -27.999c26 0 51.667 3.16699 77 9.5s48.333 15 69 26s37.334 24 50.001 39s19 31.167 19 48.5c8 -9.33301 10.667 -20.833 8 -34.5s-9.66699 -27.667 -21 -42s-26.833 -27.833 -46.5 -40.5
s-42.5 -22.334 -68.5 -29.001c-30 -8 -61 -11 -93 -9c-11.333 -51.333 -30.333 -99.166 -57 -143.499s-57 -82.666 -91 -114.999s-69.5 -57.666 -106.5 -75.999s-70.833 -27.5 -101.5 -27.5c-42 0 -75.833 9.5 -101.5 28.5s-44 45.167 -55 78.5s-14.833 72.5 -11.5 117.5
s13.333 93.833 30 146.5zM771.998 289.992c0 8 -0.665039 20.333 -1.99805 37s-4.33301 33.334 -9 50.001s-11.334 31.167 -20.001 43.5s-20.334 18.166 -35.001 17.499c-13.333 -0.666992 -25.166 -5.83398 -35.499 -15.501s-18 -21.667 -23 -36s-6.5 -30.166 -4.5 -47.499
s8.66699 -34 20 -50c11.333 -15.333 26.166 -27.333 44.499 -36s38.5 -14.667 60.5 -18c1.33301 9.33301 2.33301 18.5 3 27.5s1 18.167 1 27.5z" />
    <glyph glyph-name="n.002" horiz-adv-x="1019" 
d="M262 241c-18.667 -61.333 -32.8301 -115.508 -42.4971 -162.508s-13.334 -86.5 -11.001 -118.5s11.5 -56.167 27.5 -72.5s40.333 -24.5 73 -24.5c28.667 0 59.5 8.83301 92.5 26.5s64.5 41.834 94.5 72.501s56.667 66.834 80 108.501s39.666 86.834 48.999 135.501
c-25.333 5.33301 -49 14 -71 26s-39.667 28 -53 48c-11.333 16 -18.333 34.167 -21 54.5s-1.16699 39.666 4.5 57.999s15.5 34.166 29.5 47.499s32.333 21 55 23c20 2 36.833 -2.66699 50.5 -14s24.667 -25.666 33 -42.999s14.166 -36.5 17.499 -57.5s5 -40.5 5 -58.5
c0 -10 -0.333008 -19.667 -1 -29s-1.66699 -18.666 -3 -27.999c26 0 51.667 3.16699 77 9.5s48.333 15 69 26s37.334 24 50.001 39s19 31.167 19 48.5c8 -9.33301 10.667 -20.833 8 -34.5s-9.66699 -27.667 -21 -42s-26.833 -27.833 -46.5 -40.5
s-42.5 -22.334 -68.5 -29.001c-30 -8 -61 -11 -93 -9c-11.333 -51.333 -30.333 -99.166 -57 -143.499s-57 -82.666 -91 -114.999s-69.5 -57.666 -106.5 -75.999s-70.833 -27.5 -101.5 -27.5c-44.667 0 -80.5 10.333 -107.5 31s-45.833 49 -56.5 85
s-13.334 78.5 -8.00098 127.5s18.333 102.167 39 159.5l31 86c3.33301 11.333 6.16602 21.833 8.49902 31.5s3.5 18.167 3.5 25.5c0 4 -0.5 6.5 -1.5 7.5s-2.16699 1.5 -3.5 1.5c-7.33301 0 -16.166 -5.5 -26.499 -16.5s-21 -25.167 -32 -42.5
s-22.167 -36.666 -33.5 -57.999l-32 -62.5c-10 -20.333 -18.833 -39.166 -26.5 -56.499l-17.5 -40c-19.333 -46.667 -35.666 -91.667 -48.999 -135l-80 -2l19 71.5l22 82l22 81l20 69.5c2 6 4 12.667 6 20s5 17.5 9 30.5l15 49.5l23 76
c7.33301 -9.33301 15.833 -14 25.5 -14s18.667 1.16699 27 3.5s15 4 20 5s6.83301 -2.16699 5.5 -9.5c-1.33301 -5.33301 -3 -11.5 -5 -18.5s-5.33301 -17.5 -10 -31.5l-18.5 -56.5l-29.5 -91.5l44.5 75.5c14.333 23.667 28.5 44.334 42.5 62.001s28.167 31.667 42.5 42
s29.5 15.5 45.5 15.5s27.333 -5.66699 34 -17s10.167 -26.5 10.5 -45.5s-1.83398 -40.5 -6.50098 -64.5s-11 -49 -19 -75zM633.004 289.992c0 8 -0.665039 20.333 -1.99805 37s-4.33301 33.334 -9 50.001s-11.334 31.167 -20.001 43.5s-20.334 18.166 -35.001 17.499
c-13.333 -0.666992 -25.166 -5.83398 -35.499 -15.501s-18 -21.667 -23 -36s-6.5 -30.166 -4.5 -47.499s8.66699 -34 20 -50c11.333 -15.333 26.166 -27.333 44.499 -36s38.5 -14.667 60.5 -18c1.33301 9.33301 2.33301 18.5 3 27.5s1 18.167 1 27.5z" />
    </font>
</defs>
</svg>
