<?xml version="1.0" standalone="no"?>
<!DOCTYPE svg PUBLIC "-//W3C//DTD SVG 1.1//EN" "http://www.w3.org/Graphics/SVG/1.1/DTD/svg11.dtd" >
<svg>
<metadata>
Created by FontForge 20090622 at Fri Jan 29 12:41:19 2016
 By deploy user
Copyright (c) 2016 Caveras / Cliff Modes
</metadata>
<defs>
<font id="WWareTypeA" horiz-adv-x="448" >
  <font-face 
    font-family="WWareTypeA"
    font-weight="400"
    font-stretch="normal"
    units-per-em="1024"
    panose-1="0 0 4 0 0 0 0 0 0 0"
    ascent="819"
    descent="-205"
    x-height="320"
    cap-height="512"
    bbox="0 -128 768 640"
    underline-thickness="51"
    underline-position="127"
    unicode-range="U+0020-U+FFFD"
  />
<missing-glyph horiz-adv-x="832" 
d="M0 -128v768h768v-768h-768z" />
    <glyph glyph-name=".notdef" horiz-adv-x="832" 
d="M0 -128v768h768v-768h-768z" />
    <glyph glyph-name="NULL" horiz-adv-x="0" 
 />
    <glyph glyph-name="nonmarkingreturn" horiz-adv-x="192" 
 />
    <glyph glyph-name="space" unicode=" " horiz-adv-x="256" 
 />
    <glyph glyph-name="exclam" unicode="!" horiz-adv-x="128" 
d="M0 0v64h64v-64h-64zM0 128v384h64v-384h-64z" />
    <glyph glyph-name="quotedbl" unicode="&#x22;" horiz-adv-x="256" 
d="M0 512v128h64v-128h-64zM128 512v128h64v-128h-64z" />
    <glyph glyph-name="numbersign" unicode="#" horiz-adv-x="512" 
d="M256 192v128h-64v-128h64zM64 0v128h-64v64h128v128h-64v64h64v64h64v-64h128v64h64v-64h64v-64h-128v-128h64v-64h-64v-128h-64v128h-128v-128h-64z" />
    <glyph glyph-name="dollar" unicode="$" 
d="M0 64v64h64v-64h-64zM320 64v128h64v-128h-64zM0 320v64h64v-64h-64zM128 -64v64h-64v64h64v192h-64v64h64v64h-64v64h64v64h64v-64h128v-64h-128v-128h128v-64h-128v-128h128v-64h-128v-64h-64z" />
    <glyph glyph-name="percent" unicode="%" horiz-adv-x="640" 
d="M384 0v64h128v-64h-128zM128 0v128h64v-128h-64zM192 128v64h64v-64h-64zM320 64v128h64v-128h-64zM512 64v128h64v-128h-64zM64 192v64h128v-64h-128zM384 192v64h128v-64h-128zM0 256v128h64v-128h-64zM256 192v64h-64v128h64v-64h64v-128h-64zM64 384v64h128v-64h-128
zM320 320v128h128v-64h-64v-64h-64z" />
    <glyph glyph-name="ampersand" unicode="&#x26;" horiz-adv-x="576" 
d="M64 0v64h192v-64h-192zM0 64v64h64v-64h-64zM320 0v64h-64v64h64v128h128v-64h-64v-128h128v-64h-192zM256 320v64h-64v-64h64zM64 128v128h64v192h192v-192h-64v-128h-64v64h-64v-64h-64z" />
    <glyph glyph-name="quotesingle" unicode="'" horiz-adv-x="192" 
d="M0 512v64h64v-64h-64zM64 576v64h64v-64h-64z" />
    <glyph glyph-name="parenleft" unicode="(" horiz-adv-x="256" 
d="M128 -64v64h64v-64h-64zM64 0v64h64v-64h-64zM0 64v448h64v-448h-64zM64 512v64h64v-64h-64zM128 576v64h64v-64h-64z" />
    <glyph glyph-name="parenright" unicode=")" horiz-adv-x="256" 
d="M0 -64v64h64v-64h-64zM64 0v64h64v-64h-64zM128 64v448h64v-448h-64zM64 512v64h64v-64h-64zM0 576v64h64v-64h-64z" />
    <glyph glyph-name="asterisk" unicode="*" horiz-adv-x="512" 
d="M0 320v64h128v-64h-128zM320 320v64h128v-64h-128zM192 64v128h-64v-64h-128v64h64v64h64v64h64v192h64v-192h64v-64h64v-64h64v-64h-128v64h-64v-128h-64z" />
    <glyph glyph-name="plus" unicode="+" horiz-adv-x="576" 
d="M256 0v192h-256v64h256v192h64v-192h192v-64h-192v-192h-64z" />
    <glyph glyph-name="comma" unicode="," horiz-adv-x="192" 
d="M64 -64v64h-64v128h128v-192h-64z" />
    <glyph glyph-name="hyphen" unicode="-" horiz-adv-x="256" 
d="M0 256v64h192v-64h-192z" />
    <glyph glyph-name="period" unicode="." horiz-adv-x="192" 
d="M0 0v128h128v-128h-128z" />
    <glyph glyph-name="slash" unicode="/" 
d="M0 -64v64h64v-64h-64zM64 0v128h64v-128h-64zM128 128v128h64v-128h-64zM192 256v128h64v-128h-64zM256 384v128h64v-128h-64zM320 512v64h64v-64h-64z" />
    <glyph glyph-name="zero" unicode="0" horiz-adv-x="384" 
d="M64 0v64h128v64h64v256h64v-320h-64v-64h-192zM0 64v320h64v64h192v-64h-128v-64h-64v-256h-64z" />
    <glyph glyph-name="one" unicode="1" horiz-adv-x="256" 
d="M64 0v192h64v-192h-64zM0 320v64h64v-64h-64zM128 192v192h-64v64h128v-256h-64z" />
    <glyph glyph-name="two" unicode="2" horiz-adv-x="384" 
d="M256 0v64h64v-64h-64zM0 0v128h64v-64h64v-64h-128zM128 64v64h-64v64h128v-64h64v-64h-128zM192 192v64h64v-64h-64zM256 256v128h64v-128h-64zM0 320v64h64v64h192v-64h-128v-64h-128z" />
    <glyph glyph-name="three" unicode="3" horiz-adv-x="384" 
d="M64 0v64h192v-64h-192zM0 64v64h64v-64h-64zM256 64v128h-128v64h64v64h64v-64h64v-192h-64zM0 320v64h64v-64h-64zM256 320v64h64v-64h-64zM64 384v64h192v-64h-192z" />
    <glyph glyph-name="four" unicode="4" horiz-adv-x="512" 
d="M0 64v64h64v-64h-64zM128 256v128h64v-128h-64zM64 384v64h64v-64h-64zM256 0v128h-192v128h64v-64h128v256h64v-192h128v-64h-128v-192h-64z" />
    <glyph glyph-name="five" unicode="5" horiz-adv-x="384" 
d="M64 0v64h192v-64h-192zM0 64v64h64v-64h-64zM256 64v192h64v-192h-64zM64 192v320h64v-64h192v-64h-192v-64h128v-64h-128v-64h-64z" />
    <glyph glyph-name="six" unicode="6" horiz-adv-x="384" 
d="M64 0v64h192v-64h-192zM256 64v128h64v-128h-64zM0 64v192h64v-192h-64zM128 192v64h128v-64h-128zM64 256v128h64v-128h-64zM128 384v128h64v-128h-64z" />
    <glyph glyph-name="seven" unicode="7" horiz-adv-x="384" 
d="M128 0v192h64v-192h-64zM192 192v128h64v-128h-64zM256 320v64h-256v64h320v-128h-64z" />
    <glyph glyph-name="eight" unicode="8" horiz-adv-x="384" 
d="M64 0v64h192v-64h-192zM0 64v128h64v-128h-64zM256 64v128h64v-128h-64zM0 256v128h64v-128h-64zM64 192v64h128v64h64v64h64v-128h-64v-64h-192zM64 384v64h192v-64h-192z" />
    <glyph glyph-name="nine" unicode="9" horiz-adv-x="384" 
d="M128 0v128h64v-128h-64zM0 256v128h64v-128h-64zM192 128v64h-128v64h128v64h64v64h-192v64h256v-192h-64v-128h-64z" />
    <glyph glyph-name="colon" unicode=":" horiz-adv-x="192" 
d="M0 0v128h128v-128h-128zM0 192v128h128v-128h-128z" />
    <glyph glyph-name="semicolon" unicode=";" horiz-adv-x="192" 
d="M64 -64v64h-64v128h128v-192h-64zM0 192v128h128v-128h-128z" />
    <glyph glyph-name="less" unicode="&#x3c;" horiz-adv-x="320" 
d="M192 0v64h64v-64h-64zM128 64v64h64v-64h-64zM64 128v64h64v-64h-64zM0 192v64h64v-64h-64zM64 256v64h64v-64h-64zM128 320v64h64v-64h-64zM192 384v64h64v-64h-64z" />
    <glyph glyph-name="equal" unicode="=" 
d="M0 128v64h384v-64h-384zM0 256v64h384v-64h-384z" />
    <glyph glyph-name="greater" unicode="&#x3e;" horiz-adv-x="320" 
d="M0 0v64h64v-64h-64zM64 64v64h64v-64h-64zM128 128v64h64v-64h-64zM192 192v64h64v-64h-64zM128 256v64h64v-64h-64zM64 320v64h64v-64h-64zM0 384v64h64v-64h-64z" />
    <glyph glyph-name="question" unicode="?" horiz-adv-x="384" 
d="M128 0v64h64v-64h-64zM128 128v128h64v-128h-64zM192 256v64h64v-64h-64zM0 320v128h64v-128h-64zM256 320v128h64v-128h-64zM64 448v64h192v-64h-192z" />
    <glyph glyph-name="at" unicode="@" horiz-adv-x="576" 
d="M128 0v64h320v-64h-320zM64 64v64h64v-64h-64zM128 128v192h64v-128h64v-64h-128zM0 128v256h64v-256h-64zM320 128v64h-64v64h64v64h-128v64h192v-192h64v-64h-128zM448 192v192h64v-192h-64zM64 384v64h64v-64h-64zM384 384v64h64v-64h-64zM128 448v64h256v-64h-256z
" />
    <glyph glyph-name="A" unicode="A" horiz-adv-x="512" 
d="M0 0v64h64v-64h-64zM320 0v64h64v64h-256v-64h-64v128h64v128h64v-128h128v128h64v-128h64v-192h-128zM192 320v128h128v-128h-128zM128 448v64h64v-64h-64z" />
    <glyph glyph-name="B" unicode="B" 
d="M320 64v128h64v-128h-64zM256 320v64h64v-64h-64zM64 0v448h192v-64h-128v-128h64v64h64v-64h64v-64h-192v-128h192v-64h-256zM0 448v64h64v-64h-64z" />
    <glyph glyph-name="C" unicode="C" 
d="M320 64v64h64v-64h-64zM64 0v64h-64v320h64v64h192v-64h-128v-64h-64v-192h64v-64h192v-64h-256zM256 320v64h64v64h64v-128h-128z" />
    <glyph glyph-name="D" unicode="D" 
d="M128 0v64h128v64h64v192h64v-256h-64v-64h-192zM256 320v64h64v-64h-64zM0 0v512h64v-64h192v-64h-192v-256h64v-64h-64v-64h-64z" />
    <glyph glyph-name="E" unicode="E" 
d="M0 0v448h192v-64h-128v-128h64v64h128v-64h-64v-64h-128v-128h128v64h192v-64h-128v-64h-256zM192 448v64h128v-64h-128z" />
    <glyph glyph-name="F" unicode="F" 
d="M64 0v448h192v-64h-128v-128h64v64h128v-64h-64v-64h-128v-192h-64zM0 448v64h64v-64h-64zM256 448v64h128v-64h-128z" />
    <glyph glyph-name="G" unicode="G" 
d="M320 0v64h-64v64h64v64h-192v64h256v-256h-64zM64 0v64h-64v320h64v64h192v-64h-128v-64h-64v-192h64v-64h128v-64h-192zM256 320v64h64v64h64v-128h-128z" />
    <glyph glyph-name="H" unicode="H" 
d="M0 448v64h64v-64h-64zM0 0v256h64v192h64v-128h192v128h-64v64h128v-512h-64v64h-64v64h64v128h-192v-64h-64v-192h-64z" />
    <glyph glyph-name="I" unicode="I" horiz-adv-x="256" 
d="M64 0v448h64v-384h64v-64h-128zM0 448v64h64v-64h-64z" />
    <glyph glyph-name="J" unicode="J" horiz-adv-x="320" 
d="M0 64v64h64v-64h-64zM64 0v64h64v64h64v320h64v-384h-64v-64h-128zM128 448v64h64v-64h-64z" />
    <glyph glyph-name="K" unicode="K" horiz-adv-x="576" 
d="M320 0v64h-64v128h64v-64h64v-64h128v-64h-192zM64 0v448h64v-192h64v64h64v-128h-128v-192h-64zM256 320v128h128v-64h-64v-64h-64zM0 448v64h64v-64h-64z" />
    <glyph glyph-name="L" unicode="L" 
d="M0 0v128h64v320h64v-384h256v-64h-384zM0 448v64h64v-64h-64z" />
    <glyph glyph-name="M" unicode="M" horiz-adv-x="576" 
d="M256 64v64h-64v128h64v-64h64v-128h-64zM320 192v128h64v-128h-64zM64 0v448h64v-64h64v-128h-64v-256h-64zM0 448v64h64v-64h-64zM448 0v320h-64v192h64v-64h64v-448h-64z" />
    <glyph glyph-name="N" unicode="N" horiz-adv-x="512" 
d="M64 0v448h64v-64h64v-64h-64v-320h-64zM0 448v64h64v-64h-64zM384 0v64h-64v64h-64v64h-64v128h64v-64h64v-64h64v256h-64v64h128v-512h-64z" />
    <glyph glyph-name="O" unicode="O" 
d="M256 64v64h64v192h-64v64h-128v-64h-64v-192h64v-64h128zM64 0v64h-64v320h64v64h320v-384h-64v-64h-256z" />
    <glyph glyph-name="P" unicode="P" 
d="M192 128v64h64v64h64v128h64v-192h-64v-64h-128zM0 0v128h64v384h64v-64h192v-64h-192v-128h64v-64h-64v-128h-64v-64h-64z" />
    <glyph glyph-name="Q" unicode="Q" 
d="M128 128v64h128v-64h-128zM320 -64v64h-256v64h-64v320h64v64h320v-320h-64v192h-64v64h-128v-64h-64v-192h64v-64h128v64h64v-64h64v-128h-64z" />
    <glyph glyph-name="R" unicode="R" horiz-adv-x="512" 
d="M320 0v64h-64v64h128v-64h64v-64h-128zM256 256v64h64v-64h-64zM320 320v128h64v-128h-64zM64 0v448h-64v64h128v-64h64v-64h-64v-128h128v-128h-64v64h-64v-192h-64zM192 448v64h128v-64h-128z" />
    <glyph glyph-name="S" unicode="S" horiz-adv-x="384" 
d="M64 0v64h192v-64h-192zM0 64v64h64v-64h-64zM256 64v128h64v-128h-64zM64 192v64h192v-64h-192zM0 256v128h64v-128h-64zM64 384v64h128v-64h-128zM192 320v64h64v64h64v-128h-128z" />
    <glyph glyph-name="T" unicode="T" horiz-adv-x="512" 
d="M384 320v64h64v-64h-64zM192 0v320h-192v64h192v64h192v-64h-128v-384h-64z" />
    <glyph glyph-name="U" unicode="U" 
d="M0 384v64h64v-64h-64zM128 0v64h-64v320h64v-256h64v-64h64v64h64v256h-64v64h128v-384h-64v-64h-192z" />
    <glyph glyph-name="V" unicode="V" horiz-adv-x="512" 
d="M192 0v192h64v-64h64v-64h-64v-64h-64zM320 128v128h64v-128h-64zM128 192v128h-64v64h-64v64h128v-64h64v-192h-64zM384 256v128h-64v64h128v-192h-64z" />
    <glyph glyph-name="W" unicode="W" horiz-adv-x="704" 
d="M384 0v128h64v-128h-64zM448 128v128h64v-128h-64zM192 0v128h-64v128h-64v128h-64v64h128v-128h64v-128h64v192h64v-128h64v-128h-128v-128h-64zM512 256v192h64v-64h64v-64h-64v-64h-64z" />
    <glyph glyph-name="X" unicode="X" horiz-adv-x="512" 
d="M0 0v128h64v-64h64v-64h-128zM128 64v64h64v-64h-64zM192 128v64h64v-64h-64zM0 320v64h64v-64h-64zM384 0v128h-64v64h-64v64h-64v64h-64v64h-64v64h128v-64h64v-64h64v-64h64v-64h64v-192h-64zM320 320v128h128v-64h-64v-64h-64z" />
    <glyph glyph-name="Y" unicode="Y" horiz-adv-x="512" 
d="M192 0v192h-64v128h64v-64h128v-64h-64v-192h-64zM320 256v64h64v-64h-64zM64 320v64h-64v64h128v-128h-64zM384 320v64h-64v64h128v-128h-64z" />
    <glyph glyph-name="Z" unicode="Z" 
d="M0 0v128h64v64h128v-64h-64v-64h128v64h64v-64h64v-64h-384zM192 192v64h64v-64h-64zM256 256v64h-256v64h256v64h64v-64h64v-64h-64v-64h-64z" />
    <glyph glyph-name="bracketleft" unicode="[" horiz-adv-x="256" 
d="M0 -64v704h192v-64h-128v-576h128v-64h-192z" />
    <glyph glyph-name="backslash" unicode="\" 
d="M320 -64v64h64v-64h-64zM256 0v128h64v-128h-64zM192 128v128h64v-128h-64zM128 256v128h64v-128h-64zM64 384v128h64v-128h-64zM0 512v64h64v-64h-64z" />
    <glyph glyph-name="bracketright" unicode="]" horiz-adv-x="256" 
d="M0 -64v64h128v576h-128v64h192v-704h-192z" />
    <glyph glyph-name="asciicircum" unicode="^" horiz-adv-x="320" 
d="M0 576v64h256v-64h-256z" />
    <glyph glyph-name="underscore" unicode="_" horiz-adv-x="384" 
d="M0 -64v64h320v-64h-320z" />
    <glyph glyph-name="grave" unicode="`" horiz-adv-x="256" 
d="M128 512v64h64v-64h-64zM0 576v64h128v-64h-128z" />
    <glyph glyph-name="a" unicode="a" horiz-adv-x="384" 
d="M192 64v64h-64v-64h64zM0 192v64h64v-64h-64zM64 0v64h-64v64h64v64h128v64h64v-192h64v-64h-256zM64 256v64h128v-64h-128z" />
    <glyph glyph-name="b" unicode="b" horiz-adv-x="320" 
d="M192 64v192h64v-192h-64zM0 0v448h64v-128h128v-64h-128v-192h128v-64h-192z" />
    <glyph glyph-name="c" unicode="c" horiz-adv-x="320" 
d="M64 0v64h128v-64h-128zM192 64v64h64v-64h-64zM0 64v192h64v-192h-64zM192 192v64h-128v64h192v-128h-64z" />
    <glyph glyph-name="d" unicode="d" horiz-adv-x="384" 
d="M64 0v64h64v-64h-64zM0 64v192h64v-192h-64zM192 0v64h-64v64h64v128h-128v64h128v128h64v-384h64v-64h-128z" />
    <glyph glyph-name="e" unicode="e" horiz-adv-x="384" 
d="M64 0v64h192v-64h-192zM256 64v64h64v-64h-64zM0 64v192h64v-64h128v-64h-128v-64h-64zM192 192v64h64v-64h-64zM64 256v64h128v-64h-128z" />
    <glyph glyph-name="f" unicode="f" horiz-adv-x="384" 
d="M64 0v64h64v192h-128v64h128v128h64v-128h64v-64h-64v-256h-128zM256 384v64h64v-64h-64zM192 448v64h64v-64h-64z" />
    <glyph glyph-name="g" unicode="g" horiz-adv-x="384" 
d="M0 -64v64h64v-64h-64zM64 64v192h64v-192h-64zM64 -128v64h128v64h-64v64h128v192h-128v64h192v-384h-64v-64h-192z" />
    <glyph glyph-name="h" unicode="h" horiz-adv-x="384" 
d="M0 0v128h64v-128h-64zM192 0v128h64v-64h64v-64h-128zM256 128v128h64v-128h-64zM64 128v320h64v-128h128v-64h-128v-128h-64z" />
    <glyph glyph-name="i" unicode="i" horiz-adv-x="192" 
d="M64 0v256h64v-256h-64zM0 256v64h64v-64h-64zM64 320v64h-64v64h128v-128h-64z" />
    <glyph glyph-name="j" unicode="j" horiz-adv-x="256" 
d="M0 -128v64h64v64h64v256h64v-320h-64v-64h-128zM64 256v64h64v-64h-64zM128 320v64h-64v64h128v-128h-64z" />
    <glyph glyph-name="k" unicode="k" 
d="M256 0v64h128v-64h-128zM192 192v64h64v-64h-64zM256 256v64h64v-64h-64zM64 0v384h-64v64h128v-256h64v-64h64v-64h-128v-64h-64z" />
    <glyph glyph-name="l" unicode="l" horiz-adv-x="192" 
d="M64 0v448h64v-448h-64zM0 448v64h64v-64h-64z" />
    <glyph glyph-name="m" unicode="m" horiz-adv-x="576" 
d="M0 0v128h64v-128h-64zM64 128v128h64v-128h-64zM0 256v64h64v-64h-64zM192 0v256h-64v64h128v-64h64v-64h-64v-192h-64zM384 0v256h-64v64h128v-256h64v-64h-128z" />
    <glyph glyph-name="n" unicode="n" horiz-adv-x="384" 
d="M0 0v128h64v-128h-64zM192 0v128h64v-64h64v-64h-128zM64 128v128h64v-128h-64zM256 128v128h64v-128h-64zM0 256v64h64v-64h-64zM128 256v64h128v-64h-128z" />
    <glyph glyph-name="o" unicode="o" horiz-adv-x="320" 
d="M64 0v64h128v-64h-128zM0 64v192h64v-192h-64zM192 64v192h-128v64h192v-256h-64z" />
    <glyph glyph-name="p" unicode="p" horiz-adv-x="384" 
d="M0 -128v128h64v-128h-64zM64 0v256h64v-192h128v-64h-192zM256 64v192h64v-192h-64zM0 256v64h64v-64h-64zM128 256v64h128v-64h-128z" />
    <glyph glyph-name="q" unicode="q" 
d="M320 -64v64h64v-64h-64zM192 -128v128h-128v64h128v64h64v-192h64v-64h-128zM0 64v128h64v-128h-64zM64 192v64h64v-64h-64zM256 128v128h-128v64h192v-192h-64z" />
    <glyph glyph-name="r" unicode="r" horiz-adv-x="384" 
d="M64 0v320h64v-64h64v-64h-64v-192h-64zM256 192v64h-64v64h128v-128h-64zM0 320v64h64v-64h-64z" />
    <glyph glyph-name="s" unicode="s" horiz-adv-x="320" 
d="M0 0v64h192v-64h-192zM192 64v64h64v-64h-64zM64 128v64h128v-64h-128zM0 192v64h64v-64h-64zM192 192v64h-128v64h192v-128h-64z" />
    <glyph glyph-name="t" unicode="t" horiz-adv-x="384" 
d="M256 64v64h64v-64h-64zM128 0v256h-128v64h128v128h64v-128h64v-64h-64v-192h64v-64h-128zM64 448v64h64v-64h-64z" />
    <glyph glyph-name="u" unicode="u" 
d="M64 0v64h64v-64h-64zM320 64v64h64v-64h-64zM0 64v256h64v-256h-64zM192 0v64h-64v64h64v192h64v-256h64v-64h-128z" />
    <glyph glyph-name="v" unicode="v" 
d="M192 0v64h-64v128h64v-64h64v64h64v-128h-64v-64h-64zM64 192v64h-64v64h128v-128h-64zM320 192v128h64v-128h-64z" />
    <glyph glyph-name="w" unicode="w" horiz-adv-x="576" 
d="M320 0v128h64v64h64v-128h-64v-64h-64zM64 128v128h-64v64h128v-192h-64zM128 0v128h64v64h64v128h64v-192h-64v-64h-64v-64h-64zM448 192v128h64v-128h-64z" />
    <glyph glyph-name="x" unicode="x" 
d="M0 0v128h64v-64h64v-64h-128zM128 64v64h64v-64h-64zM320 0v64h-64v64h-64v128h128v-128h64v-128h-64zM0 256v64h64v-64h-64zM128 256v64h-64v64h128v-128h-64zM320 256v128h64v-128h-64z" />
    <glyph glyph-name="y" unicode="y" 
d="M0 -64v64h64v-64h-64zM64 -128v64h64v64h64v-128h-128zM192 0v64h-64v128h64v-64h64v64h64v-128h-64v-64h-64zM64 192v64h-64v64h128v-128h-64zM320 192v64h-64v64h128v-128h-64z" />
    <glyph glyph-name="z" unicode="z" horiz-adv-x="384" 
d="M0 0v64h64v64h64v-64h192v-64h-320zM128 128v64h64v-64h-64zM192 192v64h-192v64h192v64h64v-64h64v-64h-64v-64h-64z" />
    <glyph glyph-name="braceleft" unicode="{" horiz-adv-x="320" 
d="M128 -64v64h128v-64h-128zM64 0v256h64v-256h-64zM0 256v64h64v-64h-64zM64 320v256h64v-256h-64zM128 576v64h128v-64h-128z" />
    <glyph glyph-name="bar" unicode="|" horiz-adv-x="128" 
d="M0 -64v704h64v-704h-64z" />
    <glyph glyph-name="braceright" unicode="}" horiz-adv-x="320" 
d="M0 -64v64h128v-64h-128zM128 0v256h64v-256h-64zM192 256v64h64v-64h-64zM128 320v256h64v-256h-64zM0 576v64h128v-64h-128z" />
    <glyph glyph-name="asciitilde" unicode="~" 
d="M0 512v64h64v-64h-64zM192 512v64h128v-64h-128zM64 576v64h128v-64h-128zM320 576v64h64v-64h-64z" />
    <glyph glyph-name="uni007F" horiz-adv-x="832" 
d="M0 -128v768h768v-768h-768z" />
    <glyph glyph-name="uni00A0" unicode="&#xa0;" horiz-adv-x="256" 
 />
    <glyph glyph-name="exclamdown" unicode="&#xa1;" horiz-adv-x="128" 
d="M0 0v384h64v-384h-64zM0 448v64h64v-64h-64z" />
    <glyph glyph-name="cent" unicode="&#xa2;" horiz-adv-x="512" 
d="M0 0v64h64v-64h-64zM128 0v64h256v-64h-256zM384 64v64h64v-64h-64zM192 192v64h64v-64h-64zM256 256v64h64v-64h-64zM64 64v320h64v64h192v-64h-128v-64h-64v-128h64v-64h-64v-64h-64zM320 320v64h64v64h64v-128h-128z" />
    <glyph glyph-name="sterling" unicode="&#xa3;" horiz-adv-x="512" 
d="M64 0v64h64v64h64v-64h256v-64h-384zM192 128v64h-192v64h192v64h64v-64h192v-64h-192v-64h-64zM128 320v64h64v-64h-64zM320 320v64h64v-64h-64zM192 384v64h128v-64h-128z" />
    <glyph glyph-name="currency" unicode="&#xa4;" 
d="M0 64v64h64v-64h-64zM128 64v64h128v-64h-128zM320 64v64h64v-64h-64zM64 128v64h64v-64h-64zM256 128v64h64v-64h-64zM0 192v128h64v-128h-64zM320 192v128h64v-128h-64zM64 320v64h64v-64h-64zM256 320v64h64v-64h-64zM0 384v64h64v-64h-64zM128 384v64h128v-64h-128z
M320 384v64h64v-64h-64z" />
    <glyph glyph-name="yen" unicode="&#xa5;" horiz-adv-x="384" 
d="M128 0v128h-128v64h128v64h64v-64h128v-64h-128v-128h-64zM64 256v64h64v-64h-64zM192 256v64h64v-64h-64zM0 320v192h64v-192h-64zM256 320v192h64v-192h-64z" />
    <glyph glyph-name="brokenbar" unicode="&#xa6;" horiz-adv-x="128" 
d="M0 -64v320h64v-320h-64zM0 320v320h64v-320h-64z" />
    <glyph glyph-name="dieresis" unicode="&#xa8;" horiz-adv-x="320" 
d="M0 448v64h64v-64h-64zM192 448v64h64v-64h-64z" />
    <glyph glyph-name="copyright" unicode="&#xa9;" horiz-adv-x="576" 
d="M128 0v64h256v-64h-256zM64 64v64h64v-64h-64zM384 64v64h64v-64h-64zM192 128v64h192v-64h-192zM128 192v128h64v-128h-64zM0 128v256h64v-256h-64zM320 256v64h-128v64h192v-128h-64zM448 128v256h64v-256h-64zM64 384v64h64v-64h-64zM384 384v64h64v-64h-64zM128 448
v64h256v-64h-256z" />
    <glyph glyph-name="ordfeminine" unicode="&#xaa;" horiz-adv-x="384" 
d="M192 384v64h-64v-64h64zM64 320v64h-64v64h64v64h128v64h64v-192h64v-64h-256zM64 576v64h128v-64h-128z" />
    <glyph glyph-name="guillemotleft" unicode="&#xab;" horiz-adv-x="512" 
d="M192 0v64h64v-64h-64zM384 0v64h64v-64h-64zM128 64v64h64v-64h-64zM320 64v64h64v-64h-64zM64 128v64h64v-64h-64zM256 128v64h64v-64h-64zM0 192v64h64v-64h-64zM192 192v64h64v-64h-64zM64 256v64h64v-64h-64zM256 256v64h64v-64h-64zM128 320v64h64v-64h-64zM320 320
v64h64v-64h-64zM192 384v64h64v-64h-64zM384 384v64h64v-64h-64z" />
    <glyph glyph-name="logicalnot" unicode="&#xac;" horiz-adv-x="384" 
d="M256 128v64h-256v64h320v-128h-64z" />
    <glyph glyph-name="uni00AD" unicode="&#xad;" horiz-adv-x="256" 
d="M0 256v64h192v-64h-192z" />
    <glyph glyph-name="registered" unicode="&#xae;" horiz-adv-x="576" 
d="M128 0v64h256v-64h-256zM64 64v64h64v-64h-64zM384 64v64h64v-64h-64zM192 128v192h64v-192h-64zM0 128v256h64v-256h-64zM128 320v64h64v-64h-64zM320 256v64h-64v64h128v-128h-64zM448 128v256h64v-256h-64zM64 384v64h64v-64h-64zM384 384v64h64v-64h-64zM128 448v64
h256v-64h-256z" />
    <glyph glyph-name="macron" unicode="&#xaf;" horiz-adv-x="320" 
d="M0 576v64h256v-64h-256z" />
    <glyph glyph-name="degree" unicode="&#xb0;" horiz-adv-x="320" 
d="M64 384v64h128v-64h-128zM0 448v128h64v-128h-64zM192 448v128h-128v64h192v-192h-64z" />
    <glyph glyph-name="twosuperior" unicode="&#xb2;" horiz-adv-x="384" 
d="M0 -64v128h320v-128h-320zM256 128v64h64v-64h-64zM0 128v128h64v-64h64v-64h-128zM128 192v64h-64v64h128v-64h64v-64h-128zM192 320v64h64v-64h-64zM256 384v128h64v-128h-64zM0 448v64h64v64h192v-64h-128v-64h-128z" />
    <glyph glyph-name="threesuperior" unicode="&#xb3;" horiz-adv-x="384" 
d="M0 -64v128h320v-128h-320zM64 128v64h192v-64h-192zM0 192v64h64v-64h-64zM256 192v128h-128v64h64v64h64v-64h64v-192h-64zM0 448v64h64v-64h-64zM256 448v64h64v-64h-64zM64 512v64h192v-64h-192z" />
    <glyph glyph-name="acute" unicode="&#xb4;" horiz-adv-x="256" 
d="M0 512v64h64v-64h-64zM64 576v64h128v-64h-128z" />
    <glyph glyph-name="mu" unicode="&#xb5;" horiz-adv-x="512" 
d="M0 -128v128h64v-128h-64zM384 64v64h64v-64h-64zM64 0v320h64v-256h64v-64h-128zM256 0v64h-64v64h64v192h64v-256h64v-64h-128z" />
    <glyph glyph-name="periodcentered" unicode="&#xb7;" horiz-adv-x="192" 
d="M0 192v128h128v-128h-128z" />
    <glyph glyph-name="cedilla" unicode="&#xb8;" horiz-adv-x="192" 
d="M0 -64v64h64v-64h-64zM64 0v64h64v-64h-64z" />
    <glyph glyph-name="onesuperior" unicode="&#xb9;" horiz-adv-x="384" 
d="M0 -64v128h320v-128h-320zM128 128v192h64v-192h-64zM64 448v64h64v-64h-64zM192 320v192h-64v64h128v-256h-64z" />
    <glyph glyph-name="ordmasculine" unicode="&#xba;" horiz-adv-x="320" 
d="M64 320v64h128v-64h-128zM0 384v128h64v-128h-64zM192 384v128h-128v64h192v-192h-64z" />
    <glyph glyph-name="guillemotright" unicode="&#xbb;" horiz-adv-x="512" 
d="M0 0v64h64v-64h-64zM192 0v64h64v-64h-64zM64 64v64h64v-64h-64zM256 64v64h64v-64h-64zM128 128v64h64v-64h-64zM320 128v64h64v-64h-64zM192 192v64h64v-64h-64zM384 192v64h64v-64h-64zM128 256v64h64v-64h-64zM320 256v64h64v-64h-64zM64 320v64h64v-64h-64zM256 320
v64h64v-64h-64zM0 384v64h64v-64h-64zM192 384v64h64v-64h-64z" />
    <glyph glyph-name="questiondown" unicode="&#xbf;" horiz-adv-x="384" 
d="M64 0v64h192v-64h-192zM0 64v128h64v-128h-64zM256 64v128h64v-128h-64zM64 192v64h64v-64h-64zM128 256v128h64v-128h-64zM128 448v64h64v-64h-64z" />
    <glyph glyph-name="Agrave" unicode="&#xc0;" horiz-adv-x="512" 
d="M0 0v64h64v-64h-64zM320 0v64h64v64h-256v-64h-64v128h64v128h64v-128h128v128h64v-128h64v-192h-128zM192 320v128h128v-128h-128zM256 512v64h64v-64h-64zM128 576v64h128v-64h-128z" />
    <glyph glyph-name="Aacute" unicode="&#xc1;" horiz-adv-x="512" 
d="M0 0v64h64v-64h-64zM320 0v64h64v64h-256v-64h-64v128h64v128h64v-128h128v128h64v-128h64v-192h-128zM192 320v128h128v-128h-128zM192 512v64h64v-64h-64zM256 576v64h128v-64h-128z" />
    <glyph glyph-name="Acircumflex" unicode="&#xc2;" horiz-adv-x="512" 
d="M0 0v64h64v-64h-64zM320 0v64h64v64h-256v-64h-64v128h64v128h64v-128h128v128h64v-128h64v-192h-128zM192 320v128h128v-128h-128zM128 512v64h64v-64h-64zM256 512v64h64v-64h-64zM192 576v64h64v-64h-64z" />
    <glyph glyph-name="Atilde" unicode="&#xc3;" horiz-adv-x="512" 
d="M0 0v64h64v-64h-64zM320 0v64h64v64h-256v-64h-64v128h64v128h64v-128h128v128h64v-128h64v-192h-128zM192 320v128h128v-128h-128zM64 512v64h64v-64h-64zM256 512v64h128v-64h-128zM128 576v64h128v-64h-128zM384 576v64h64v-64h-64z" />
    <glyph glyph-name="Adieresis" unicode="&#xc4;" horiz-adv-x="512" 
d="M0 0v64h64v-64h-64zM320 0v64h64v64h-256v-64h-64v128h64v128h64v-128h128v128h64v-128h64v-192h-128zM192 320v128h128v-128h-128zM128 512v64h64v-64h-64zM320 512v64h64v-64h-64z" />
    <glyph glyph-name="AE" unicode="&#xc6;" horiz-adv-x="768" 
d="M128 320v128h128v-128h-128zM0 0v192h64v128h64v-128h128v128h64v128h192v-64h-128v-128h64v64h128v-64h-64v-64h-128v-128h128v64h192v-64h-128v-64h-320v64h64v64h-256v-128h-64zM64 448v64h64v-64h-64zM512 448v64h128v-64h-128z" />
    <glyph glyph-name="Ccedilla" unicode="&#xc7;" 
d="M128 -64v64h64v-64h-64zM320 128v64h64v-64h-64zM192 0v64h-128v64h-64v256h64v64h192v-64h-128v-64h-64v-128h64v-64h192v-64h-64v-64h-64zM256 320v64h64v64h64v-128h-128z" />
    <glyph glyph-name="Egrave" unicode="&#xc8;" 
d="M0 0v448h320v-64h-256v-128h64v64h128v-64h-64v-64h-128v-128h128v64h192v-64h-128v-64h-256zM192 512v64h64v-64h-64zM64 576v64h128v-64h-128z" />
    <glyph glyph-name="Eacute" unicode="&#xc9;" 
d="M0 0v448h320v-64h-256v-128h64v64h128v-64h-64v-64h-128v-128h128v64h192v-64h-128v-64h-256zM64 512v64h64v-64h-64zM128 576v64h128v-64h-128z" />
    <glyph glyph-name="Ecircumflex" unicode="&#xca;" 
d="M0 0v448h320v-64h-256v-128h64v64h128v-64h-64v-64h-128v-128h128v64h192v-64h-128v-64h-256zM64 512v64h64v-64h-64zM192 512v64h64v-64h-64zM128 576v64h64v-64h-64z" />
    <glyph glyph-name="Edieresis" unicode="&#xcb;" 
d="M0 0v448h320v-64h-256v-128h64v64h128v-64h-64v-64h-128v-128h128v64h192v-64h-128v-64h-256zM64 512v64h64v-64h-64zM256 512v64h64v-64h-64z" />
    <glyph glyph-name="Igrave" unicode="&#xcc;" horiz-adv-x="320" 
d="M128 0v384h64v-320h64v-64h-128zM64 384v64h64v-64h-64zM128 512v64h64v-64h-64zM0 576v64h128v-64h-128z" />
    <glyph glyph-name="Iacute" unicode="&#xcd;" horiz-adv-x="320" 
d="M128 0v384h64v-320h64v-64h-128zM64 384v64h64v-64h-64zM0 512v64h64v-64h-64zM64 576v64h128v-64h-128z" />
    <glyph glyph-name="Icircumflex" unicode="&#xce;" horiz-adv-x="320" 
d="M128 0v384h64v-320h64v-64h-128zM64 384v64h64v-64h-64zM0 512v64h64v-64h-64zM128 512v64h64v-64h-64zM64 576v64h64v-64h-64z" />
    <glyph glyph-name="Idieresis" unicode="&#xcf;" horiz-adv-x="320" 
d="M128 0v384h64v-320h64v-64h-128zM64 384v64h64v-64h-64zM0 512v64h64v-64h-64zM192 512v64h64v-64h-64z" />
    <glyph glyph-name="Eth" unicode="&#xd0;" horiz-adv-x="512" 
d="M192 0v64h128v64h64v192h64v-256h-64v-64h-192zM320 320v64h64v-64h-64zM64 0v192h-64v64h64v256h64v-64h192v-64h-192v-128h128v-64h-128v-64h64v-64h-64v-64h-64z" />
    <glyph glyph-name="Ntilde" unicode="&#xd1;" horiz-adv-x="512" 
d="M256 128v64h64v-64h-64zM192 192v64h64v-64h-64zM64 0v384h64v-64h64v-64h-64v-256h-64zM0 384v64h64v-64h-64zM384 0v64h-64v64h64v256h-64v64h128v-448h-64zM64 512v64h64v-64h-64zM256 512v64h128v-64h-128zM128 576v64h128v-64h-128zM384 576v64h64v-64h-64z" />
    <glyph glyph-name="Ograve" unicode="&#xd2;" 
d="M256 64v64h64v192h-64v64h-128v-64h-64v-192h64v-64h128zM64 0v64h-64v320h64v64h320v-384h-64v-64h-256zM192 512v64h64v-64h-64zM64 576v64h128v-64h-128z" />
    <glyph glyph-name="Oacute" unicode="&#xd3;" 
d="M256 64v64h64v192h-64v64h-128v-64h-64v-192h64v-64h128zM64 0v64h-64v320h64v64h320v-384h-64v-64h-256zM128 512v64h64v-64h-64zM192 576v64h128v-64h-128z" />
    <glyph glyph-name="Ocircumflex" unicode="&#xd4;" 
d="M256 64v64h64v192h-64v64h-128v-64h-64v-192h64v-64h128zM64 0v64h-64v320h64v64h320v-384h-64v-64h-256zM64 512v64h64v-64h-64zM256 512v64h64v-64h-64zM128 576v64h128v-64h-128z" />
    <glyph glyph-name="Otilde" unicode="&#xd5;" 
d="M256 64v64h64v192h-64v64h-128v-64h-64v-192h64v-64h128zM64 0v64h-64v320h64v64h320v-384h-64v-64h-256zM0 512v64h64v-64h-64zM192 512v64h128v-64h-128zM64 576v64h128v-64h-128zM320 576v64h64v-64h-64z" />
    <glyph glyph-name="Odieresis" unicode="&#xd6;" 
d="M256 64v64h64v192h-64v64h-128v-64h-64v-192h64v-64h128zM64 0v64h-64v320h64v64h320v-384h-64v-64h-256zM64 512v64h64v-64h-64zM256 512v64h64v-64h-64z" />
    <glyph glyph-name="multiply" unicode="&#xd7;" horiz-adv-x="384" 
d="M0 64v64h64v-64h-64zM256 64v64h64v-64h-64zM64 128v64h64v-64h-64zM192 128v64h64v-64h-64zM128 192v64h64v-64h-64zM64 256v64h64v-64h-64zM192 256v64h64v-64h-64zM0 320v64h64v-64h-64zM256 320v64h64v-64h-64z" />
    <glyph glyph-name="Ugrave" unicode="&#xd9;" 
d="M0 384v64h64v-64h-64zM128 0v64h-64v320h64v-256h64v-64h64v64h64v256h-64v64h128v-384h-64v-64h-192zM192 512v64h64v-64h-64zM64 576v64h128v-64h-128z" />
    <glyph glyph-name="Uacute" unicode="&#xda;" 
d="M0 384v64h64v-64h-64zM128 0v64h-64v320h64v-256h64v-64h64v64h64v256h-64v64h128v-384h-64v-64h-192zM128 512v64h64v-64h-64zM192 576v64h128v-64h-128z" />
    <glyph glyph-name="Ucircumflex" unicode="&#xdb;" 
d="M0 384v64h64v-64h-64zM128 0v64h-64v320h64v-256h64v-64h64v64h64v256h-64v64h128v-384h-64v-64h-192zM128 512v64h64v-64h-64zM256 512v64h64v-64h-64zM192 576v64h64v-64h-64z" />
    <glyph glyph-name="Udieresis" unicode="&#xdc;" 
d="M0 384v64h64v-64h-64zM128 0v64h-64v320h64v-256h64v-64h64v64h64v256h-64v64h128v-384h-64v-64h-192zM128 512v64h64v-64h-64zM256 512v64h64v-64h-64z" />
    <glyph glyph-name="Yacute" unicode="&#xdd;" horiz-adv-x="512" 
d="M192 0v192h-64v128h64v-64h128v-64h-64v-192h-64zM320 256v64h64v-64h-64zM64 320v64h-64v64h128v-128h-64zM384 320v64h-64v64h128v-128h-64zM128 512v64h64v-64h-64zM192 576v64h128v-64h-128z" />
    <glyph glyph-name="germandbls" unicode="&#xdf;" horiz-adv-x="384" 
d="M128 64v64h128v-64h-128zM256 128v128h64v-128h-64zM128 256v128h64v-64h64v-64h-128zM0 -64v512h64v-512h-64zM192 384v64h64v-64h-64zM64 448v64h128v-64h-128z" />
    <glyph glyph-name="agrave" unicode="&#xe0;" horiz-adv-x="384" 
d="M192 64v64h-64v-64h64zM0 192v64h64v-64h-64zM64 0v64h-64v64h64v64h128v64h64v-192h64v-64h-256zM64 256v64h128v-64h-128zM192 384v64h64v-64h-64zM64 448v64h128v-64h-128z" />
    <glyph glyph-name="aacute" unicode="&#xe1;" horiz-adv-x="384" 
d="M192 64v64h-64v-64h64zM0 192v64h64v-64h-64zM64 0v64h-64v64h64v64h128v64h64v-192h64v-64h-256zM64 256v64h128v-64h-128zM64 384v64h64v-64h-64zM128 448v64h128v-64h-128z" />
    <glyph glyph-name="acircumflex" unicode="&#xe2;" horiz-adv-x="384" 
d="M192 64v64h-64v-64h64zM0 192v64h64v-64h-64zM64 0v64h-64v64h64v64h128v64h64v-192h64v-64h-256zM64 256v64h128v-64h-128zM64 384v64h64v-64h-64zM192 384v64h64v-64h-64zM128 448v64h64v-64h-64z" />
    <glyph glyph-name="atilde" unicode="&#xe3;" 
d="M192 64v64h-64v-64h64zM0 192v64h64v-64h-64zM64 0v64h-64v64h64v64h128v64h64v-192h64v-64h-256zM64 256v64h128v-64h-128zM0 384v64h64v-64h-64zM192 384v64h128v-64h-128zM64 448v64h128v-64h-128zM320 448v64h64v-64h-64z" />
    <glyph glyph-name="adieresis" unicode="&#xe4;" horiz-adv-x="384" 
d="M192 64v64h-64v-64h64zM0 192v64h64v-64h-64zM64 0v64h-64v64h64v64h128v64h64v-192h64v-64h-256zM64 256v64h128v-64h-128zM64 384v64h64v-64h-64zM192 384v64h64v-64h-64z" />
    <glyph glyph-name="ae" unicode="&#xe6;" horiz-adv-x="576" 
d="M256 0v64h192v-64h-192zM448 64v64h64v-64h-64zM0 192v64h64v-64h-64zM64 0v64h-64v64h64v64h128v64h64v-64h128v-64h-128v-64h-64v64h-64v-64h64v-64h-128zM384 192v64h64v-64h-64zM64 256v64h128v-64h-128zM256 256v64h128v-64h-128z" />
    <glyph glyph-name="ccedilla" unicode="&#xe7;" horiz-adv-x="320" 
d="M64 -64v64h64v-64h-64zM128 0v64h-64v64h192v-64h-64v-64h-64zM0 128v128h64v-128h-64zM192 192v64h-128v64h192v-128h-64z" />
    <glyph glyph-name="egrave" unicode="&#xe8;" horiz-adv-x="384" 
d="M64 0v64h192v-64h-192zM256 64v64h64v-64h-64zM0 64v192h64v-64h128v-64h-128v-64h-64zM192 192v64h64v-64h-64zM64 256v64h128v-64h-128zM192 384v64h64v-64h-64zM64 448v64h128v-64h-128z" />
    <glyph glyph-name="eacute" unicode="&#xe9;" horiz-adv-x="384" 
d="M64 0v64h192v-64h-192zM256 64v64h64v-64h-64zM0 64v192h64v-64h128v-64h-128v-64h-64zM192 192v64h64v-64h-64zM64 256v64h128v-64h-128zM64 384v64h64v-64h-64zM128 448v64h128v-64h-128z" />
    <glyph glyph-name="ecircumflex" unicode="&#xea;" horiz-adv-x="384" 
d="M64 0v64h192v-64h-192zM256 64v64h64v-64h-64zM0 64v192h64v-64h128v-64h-128v-64h-64zM192 192v64h64v-64h-64zM64 256v64h128v-64h-128zM64 384v64h64v-64h-64zM192 384v64h64v-64h-64zM128 448v64h64v-64h-64z" />
    <glyph glyph-name="edieresis" unicode="&#xeb;" horiz-adv-x="384" 
d="M64 0v64h192v-64h-192zM256 64v64h64v-64h-64zM0 64v192h64v-64h128v-64h-128v-64h-64zM192 192v64h64v-64h-64zM64 256v64h128v-64h-128zM0 384v64h64v-64h-64zM192 384v64h64v-64h-64z" />
    <glyph glyph-name="igrave" unicode="&#xec;" horiz-adv-x="256" 
d="M128 0v256h64v-256h-64zM64 256v64h64v-64h-64zM128 384v64h64v-64h-64zM0 448v64h128v-64h-128z" />
    <glyph glyph-name="iacute" unicode="&#xed;" horiz-adv-x="256" 
d="M128 0v256h64v-256h-64zM64 256v64h64v-64h-64zM0 384v64h64v-64h-64zM64 448v64h128v-64h-128z" />
    <glyph glyph-name="icircumflex" unicode="&#xee;" horiz-adv-x="256" 
d="M128 0v256h64v-256h-64zM64 256v64h64v-64h-64zM0 384v64h64v-64h-64zM128 384v64h64v-64h-64zM64 448v64h64v-64h-64z" />
    <glyph glyph-name="idieresis" unicode="&#xef;" horiz-adv-x="320" 
d="M128 0v256h64v-256h-64zM64 256v64h64v-64h-64zM0 448v64h64v-64h-64zM192 448v64h64v-64h-64z" />
    <glyph glyph-name="eth" unicode="&#xf0;" horiz-adv-x="320" 
d="M64 0v64h128v-64h-128zM0 64v192h64v-192h-64zM192 64v192h-128v64h128v64h64v-320h-64zM64 384v64h-64v64h128v-64h64v-64h-128zM192 448v64h64v-64h-64z" />
    <glyph glyph-name="ntilde" unicode="&#xf1;" 
d="M0 0v128h64v-128h-64zM192 0v128h64v-64h64v-64h-128zM64 128v128h64v-128h-64zM256 128v128h64v-128h-64zM0 256v64h64v-64h-64zM128 256v64h128v-64h-128zM0 384v64h64v-64h-64zM192 384v64h128v-64h-128zM64 448v64h128v-64h-128zM320 448v64h64v-64h-64z" />
    <glyph glyph-name="ograve" unicode="&#xf2;" horiz-adv-x="320" 
d="M64 0v64h128v-64h-128zM0 64v192h64v-192h-64zM192 64v192h-128v64h192v-256h-64zM128 384v64h64v-64h-64zM0 448v64h128v-64h-128z" />
    <glyph glyph-name="oacute" unicode="&#xf3;" horiz-adv-x="320" 
d="M64 0v64h128v-64h-128zM0 64v192h64v-192h-64zM192 64v192h-128v64h192v-256h-64zM64 384v64h64v-64h-64zM128 448v64h128v-64h-128z" />
    <glyph glyph-name="ocircumflex" unicode="&#xf4;" horiz-adv-x="320" 
d="M64 0v64h128v-64h-128zM0 64v192h64v-192h-64zM192 64v192h-128v64h192v-256h-64zM0 384v64h64v-64h-64zM192 384v64h64v-64h-64zM64 448v64h128v-64h-128z" />
    <glyph glyph-name="otilde" unicode="&#xf5;" 
d="M128 0v64h128v-64h-128zM64 64v192h64v-192h-64zM256 64v192h-128v64h192v-256h-64zM0 384v64h64v-64h-64zM192 384v64h128v-64h-128zM64 448v64h128v-64h-128zM320 448v64h64v-64h-64z" />
    <glyph glyph-name="odieresis" unicode="&#xf6;" horiz-adv-x="320" 
d="M64 0v64h128v-64h-128zM0 64v192h64v-192h-64zM192 64v192h-128v64h192v-256h-64zM0 384v64h64v-64h-64zM192 384v64h64v-64h-64z" />
    <glyph glyph-name="divide" unicode="&#xf7;" 
d="M128 0v128h128v-128h-128zM0 192v64h384v-64h-384zM128 320v128h128v-128h-128z" />
    <glyph glyph-name="ugrave" unicode="&#xf9;" 
d="M64 0v64h64v-64h-64zM320 64v64h64v-64h-64zM0 64v256h64v-256h-64zM192 0v64h-64v64h64v192h64v-256h64v-64h-128zM192 384v64h64v-64h-64zM64 448v64h128v-64h-128z" />
    <glyph glyph-name="uacute" unicode="&#xfa;" 
d="M64 0v64h64v-64h-64zM320 64v64h64v-64h-64zM0 64v256h64v-256h-64zM192 0v64h-64v64h64v192h64v-256h64v-64h-128zM64 384v64h64v-64h-64zM128 448v64h128v-64h-128z" />
    <glyph glyph-name="ucircumflex" unicode="&#xfb;" 
d="M64 0v64h64v-64h-64zM320 64v64h64v-64h-64zM0 64v256h64v-256h-64zM192 0v64h-64v64h64v192h64v-256h64v-64h-128zM64 384v64h64v-64h-64zM192 384v64h64v-64h-64zM128 448v64h64v-64h-64z" />
    <glyph glyph-name="udieresis" unicode="&#xfc;" 
d="M64 0v64h64v-64h-64zM320 64v64h64v-64h-64zM0 64v256h64v-256h-64zM192 0v64h-64v64h64v192h64v-256h64v-64h-128zM0 384v64h64v-64h-64zM192 384v64h64v-64h-64z" />
    <glyph glyph-name="yacute" unicode="&#xfd;" 
d="M0 -64v64h64v-64h-64zM64 -128v64h64v64h64v-128h-128zM192 0v64h-64v128h64v-64h64v64h64v-128h-64v-64h-64zM64 192v64h-64v64h128v-128h-64zM320 192v64h-64v64h128v-128h-64zM128 384v64h64v-64h-64zM192 448v64h128v-64h-128z" />
    <glyph glyph-name="ydieresis" unicode="&#xff;" 
d="M0 -64v64h64v-64h-64zM64 -128v64h64v64h64v-128h-128zM192 0v64h-64v128h64v-64h64v64h64v-128h-64v-64h-64zM64 192v64h-64v64h128v-128h-64zM320 192v64h-64v64h128v-128h-64zM64 384v64h64v-64h-64zM256 384v64h64v-64h-64z" />
    <glyph glyph-name="Amacron" unicode="&#x100;" horiz-adv-x="512" 
d="M0 0v64h64v-64h-64zM320 0v64h64v64h-256v-64h-64v128h64v128h64v-128h128v128h64v-128h64v-192h-128zM192 320v128h128v-128h-128zM128 512v64h256v-64h-256z" />
    <glyph glyph-name="amacron" unicode="&#x101;" horiz-adv-x="384" 
d="M192 64v64h-64v-64h64zM0 192v64h64v-64h-64zM64 0v64h-64v64h64v64h128v64h64v-192h64v-64h-256zM64 256v64h128v-64h-128zM0 384v64h256v-64h-256z" />
    <glyph glyph-name="Aogonek" unicode="&#x104;" horiz-adv-x="512" 
d="M320 -64v64h64v-64h-64zM256 0v64h64v-64h-64zM0 64v64h64v-64h-64zM320 64v64h64v64h-256v-64h-64v128h64v128h64v-128h128v128h64v-128h64v-192h-128zM192 384v128h128v-128h-128z" />
    <glyph glyph-name="aogonek" unicode="&#x105;" horiz-adv-x="384" 
d="M256 -64v64h64v-64h-64zM192 128v64h-64v-64h64zM0 256v64h64v-64h-64zM192 0v64h-128v64h-64v64h64v64h128v64h64v-192h64v-64h-64v-64h-64zM64 320v64h128v-64h-128z" />
    <glyph glyph-name="Cacute" unicode="&#x106;" 
d="M320 64v64h64v-64h-64zM64 0v64h-64v320h64v64h192v-64h-128v-64h-64v-192h64v-64h192v-64h-256zM256 320v64h64v64h64v-128h-128zM128 512v64h64v-64h-64zM192 576v64h128v-64h-128z" />
    <glyph glyph-name="cacute" unicode="&#x107;" horiz-adv-x="320" 
d="M64 0v64h128v-64h-128zM192 64v64h64v-64h-64zM0 64v192h64v-192h-64zM192 192v64h-128v64h192v-128h-64zM64 384v64h64v-64h-64zM128 448v64h128v-64h-128z" />
    <glyph glyph-name="Ccircumflex" unicode="&#x108;" 
d="M320 64v64h64v-64h-64zM64 0v64h-64v320h64v64h192v-64h-128v-64h-64v-192h64v-64h192v-64h-256zM256 320v64h64v64h64v-128h-128zM64 512v64h64v-64h-64zM256 512v64h64v-64h-64zM128 576v64h128v-64h-128z" />
    <glyph glyph-name="ccircumflex" unicode="&#x109;" horiz-adv-x="320" 
d="M64 0v64h128v-64h-128zM192 64v64h64v-64h-64zM0 64v192h64v-192h-64zM192 192v64h-128v64h192v-128h-64zM0 384v64h64v-64h-64zM192 384v64h64v-64h-64zM64 448v64h128v-64h-128z" />
    <glyph glyph-name="Cdotaccent" unicode="&#x10a;" 
d="M320 64v64h64v-64h-64zM64 0v64h-64v320h64v64h192v-64h-128v-64h-64v-192h64v-64h192v-64h-256zM256 320v64h64v64h64v-128h-128zM128 512v64h64v-64h-64z" />
    <glyph glyph-name="cdotaccent" unicode="&#x10b;" horiz-adv-x="320" 
d="M64 0v64h128v-64h-128zM192 64v64h64v-64h-64zM0 64v192h64v-192h-64zM192 192v64h-128v64h192v-128h-64zM128 384v64h64v-64h-64z" />
    <glyph glyph-name="Ccaron" unicode="&#x10c;" 
d="M320 64v64h64v-64h-64zM64 0v64h-64v320h64v64h192v-64h-128v-64h-64v-192h64v-64h192v-64h-256zM256 320v64h64v64h64v-128h-128zM128 512v64h128v-64h-128zM64 576v64h64v-64h-64zM256 576v64h64v-64h-64z" />
    <glyph glyph-name="ccaron" unicode="&#x10d;" horiz-adv-x="320" 
d="M64 0v64h128v-64h-128zM192 64v64h64v-64h-64zM0 64v192h64v-192h-64zM192 192v64h-128v64h192v-128h-64zM128 384v64h64v-64h-64zM64 448v64h64v-64h-64zM192 448v64h64v-64h-64z" />
    <glyph glyph-name="Dcaron" unicode="&#x10e;" 
d="M128 0v64h128v64h64v128h64v-192h-64v-64h-192zM256 256v64h64v-64h-64zM0 0v448h64v-64h192v-64h-192v-192h64v-64h-64v-64h-64zM128 512v64h64v-64h-64zM64 576v64h64v-64h-64zM192 576v64h64v-64h-64z" />
    <glyph glyph-name="dcaron" unicode="&#x10f;" 
d="M64 0v64h64v-64h-64zM0 64v192h64v-192h-64zM192 0v64h-64v64h64v128h-128v64h128v128h64v-384h64v-64h-128zM320 384v128h64v-128h-64zM256 512v64h64v-64h-64z" />
    <glyph glyph-name="Dcroat" unicode="&#x110;" horiz-adv-x="512" 
d="M192 0v64h128v64h64v192h64v-256h-64v-64h-192zM320 320v64h64v-64h-64zM64 0v192h-64v64h64v256h64v-64h192v-64h-192v-128h128v-64h-128v-64h64v-64h-64v-64h-64z" />
    <glyph glyph-name="dcroat" unicode="&#x111;" horiz-adv-x="384" 
d="M64 0v64h64v-64h-64zM0 64v192h64v-192h-64zM192 0v64h-64v64h64v128h-128v64h128v64h-64v64h64v64h64v-64h64v-64h-64v-384h-64z" />
    <glyph glyph-name="Emacron" unicode="&#x112;" 
d="M0 0v448h320v-64h-256v-128h64v64h128v-64h-64v-64h-128v-128h128v64h192v-64h-128v-64h-256zM64 512v64h256v-64h-256z" />
    <glyph glyph-name="emacron" unicode="&#x113;" horiz-adv-x="384" 
d="M64 0v64h192v-64h-192zM256 64v64h64v-64h-64zM0 64v192h64v-64h128v-64h-128v-64h-64zM192 192v64h64v-64h-64zM64 256v64h128v-64h-128zM0 384v64h256v-64h-256z" />
    <glyph glyph-name="Edotaccent" unicode="&#x116;" 
d="M0 0v448h320v-64h-256v-128h64v64h128v-64h-64v-64h-128v-128h128v64h192v-64h-128v-64h-256zM128 512v64h64v-64h-64z" />
    <glyph glyph-name="edotaccent" unicode="&#x117;" horiz-adv-x="384" 
d="M64 0v64h192v-64h-192zM256 64v64h64v-64h-64zM0 64v192h64v-64h128v-64h-128v-64h-64zM192 192v64h64v-64h-64zM64 256v64h128v-64h-128zM64 384v64h64v-64h-64z" />
    <glyph glyph-name="Eogonek" unicode="&#x118;" 
d="M256 -64v64h64v-64h-64zM192 0v64h-192v448h320v-64h-256v-128h64v64h128v-64h-64v-64h-128v-128h128v64h192v-64h-128v-128h-64z" />
    <glyph glyph-name="eogonek" unicode="&#x119;" horiz-adv-x="384" 
d="M192 -64v64h64v-64h-64zM128 0v64h-64v64h192v-64h-64v-64h-64zM256 128v64h64v-64h-64zM0 128v192h64v-64h128v-64h-128v-64h-64zM192 256v64h64v-64h-64zM64 320v64h128v-64h-128z" />
    <glyph glyph-name="Ecaron" unicode="&#x11a;" 
d="M0 0v448h320v-64h-256v-128h64v64h128v-64h-64v-64h-128v-128h128v64h192v-64h-128v-64h-256zM128 512v64h64v-64h-64zM64 576v64h64v-64h-64zM192 576v64h64v-64h-64z" />
    <glyph glyph-name="ecaron" unicode="&#x11b;" horiz-adv-x="384" 
d="M64 0v64h192v-64h-192zM256 64v64h64v-64h-64zM0 64v192h64v-64h128v-64h-128v-64h-64zM192 192v64h64v-64h-64zM64 256v64h128v-64h-128zM64 384v64h64v-64h-64zM0 448v64h64v-64h-64zM128 448v64h64v-64h-64z" />
    <glyph glyph-name="Gcircumflex" unicode="&#x11c;" 
d="M320 0v64h-64v64h64v64h-192v64h256v-256h-64zM64 0v64h-64v320h64v64h192v-64h-128v-64h-64v-192h64v-64h128v-64h-192zM256 320v64h64v64h64v-128h-128zM64 512v64h64v-64h-64zM256 512v64h64v-64h-64zM128 576v64h128v-64h-128z" />
    <glyph glyph-name="gcircumflex" unicode="&#x11d;" horiz-adv-x="384" 
d="M0 -64v64h64v-64h-64zM64 64v192h64v-192h-64zM64 -128v64h128v64h-64v64h128v192h-128v64h192v-384h-64v-64h-192zM64 384v64h64v-64h-64zM256 384v64h64v-64h-64zM128 448v64h128v-64h-128z" />
    <glyph glyph-name="Gdotaccent" unicode="&#x120;" 
d="M320 0v64h-64v64h64v64h-192v64h256v-256h-64zM64 0v64h-64v320h64v64h192v-64h-128v-64h-64v-192h64v-64h128v-64h-192zM256 320v64h64v64h64v-128h-128zM128 512v64h64v-64h-64z" />
    <glyph glyph-name="gdotaccent" unicode="&#x121;" horiz-adv-x="384" 
d="M0 -64v64h64v-64h-64zM64 64v192h64v-192h-64zM64 -128v64h128v64h-64v64h128v192h-128v64h192v-384h-64v-64h-192zM192 384v64h64v-64h-64z" />
    <glyph glyph-name="uni0122" unicode="&#x122;" horiz-adv-x="64" 
 />
    <glyph glyph-name="Hcircumflex" unicode="&#x124;" 
d="M0 384v64h64v-64h-64zM0 0v192h64v192h64v-128h192v128h-64v64h128v-448h-64v64h-64v64h64v64h-192v-64h-64v-128h-64zM128 512v64h64v-64h-64zM256 512v64h64v-64h-64zM192 576v64h64v-64h-64z" />
    <glyph glyph-name="hcircumflex" unicode="&#x125;" horiz-adv-x="384" 
d="M0 0v128h64v-128h-64zM192 0v128h64v-64h64v-64h-128zM256 128v64h64v-64h-64zM64 128v256h64v-128h128v-64h-128v-64h-64zM0 448v64h64v-64h-64zM128 448v64h64v-64h-64zM64 512v64h64v-64h-64z" />
    <glyph glyph-name="Itilde" unicode="&#x128;" 
d="M192 0v384h64v-320h64v-64h-128zM128 384v64h64v-64h-64zM0 512v64h64v-64h-64zM192 512v64h128v-64h-128zM64 576v64h128v-64h-128zM320 576v64h64v-64h-64z" />
    <glyph glyph-name="itilde" unicode="&#x129;" 
d="M192 0v256h64v-256h-64zM128 256v64h64v-64h-64zM0 384v64h64v-64h-64zM192 384v64h128v-64h-128zM64 448v64h128v-64h-128zM320 448v64h64v-64h-64z" />
    <glyph glyph-name="Imacron" unicode="&#x12a;" horiz-adv-x="320" 
d="M128 0v384h64v-320h64v-64h-128zM64 384v64h64v-64h-64zM0 512v64h256v-64h-256z" />
    <glyph glyph-name="imacron" unicode="&#x12b;" horiz-adv-x="320" 
d="M128 0v256h64v-256h-64zM64 256v64h64v-64h-64zM0 384v64h256v-64h-256z" />
    <glyph glyph-name="Iogonek" unicode="&#x12e;" horiz-adv-x="256" 
d="M64 -64v64h64v-64h-64zM0 0v64h64v-64h-64zM64 64v384h64v-320h64v-64h-128zM0 448v64h64v-64h-64z" />
    <glyph glyph-name="iogonek" unicode="&#x12f;" horiz-adv-x="192" 
d="M64 -64v64h64v-64h-64zM0 0v64h64v-64h-64zM64 64v256h64v-256h-64zM0 320v64h64v-64h-64z" />
    <glyph glyph-name="Idotaccent" unicode="&#x130;" horiz-adv-x="256" 
d="M64 0v384h64v-320h64v-64h-128zM0 384v64h64v-64h-64zM0 512v64h64v-64h-64z" />
    <glyph glyph-name="dotlessi" unicode="&#x131;" horiz-adv-x="192" 
d="M64 0v320h64v-320h-64zM0 320v64h64v-64h-64z" />
    <glyph glyph-name="Jcircumflex" unicode="&#x134;" horiz-adv-x="320" 
d="M0 64v64h64v-64h-64zM64 0v64h64v64h64v256h64v-320h-64v-64h-128zM128 384v64h64v-64h-64zM64 512v64h64v-64h-64zM192 512v64h64v-64h-64zM128 576v64h64v-64h-64z" />
    <glyph glyph-name="jcircumflex" unicode="&#x135;" horiz-adv-x="256" 
d="M0 -128v64h64v64h64v256h64v-320h-64v-64h-128zM64 256v64h64v-64h-64zM0 384v64h64v-64h-64zM128 384v64h64v-64h-64zM64 448v64h64v-64h-64z" />
    <glyph glyph-name="Lacute" unicode="&#x139;" 
d="M0 0v128h64v256h64v-320h256v-64h-384zM0 384v64h64v-64h-64zM0 512v64h64v-64h-64zM64 576v64h128v-64h-128z" />
    <glyph glyph-name="lacute" unicode="&#x13a;" horiz-adv-x="256" 
d="M64 0v384h64v-384h-64zM0 384v64h64v-64h-64zM0 512v64h64v-64h-64zM64 576v64h128v-64h-128z" />
    <glyph glyph-name="uni013B" unicode="&#x13b;" 
d="M128 -64v64h64v-64h-64zM192 0v64h-192v128h64v256h64v-320h256v-64h-128v-64h-64zM0 448v64h64v-64h-64z" />
    <glyph glyph-name="uni013C" unicode="&#x13c;" horiz-adv-x="256" 
d="M64 -64v64h64v-64h-64zM128 0v64h64v-64h-64zM64 64v384h64v-384h-64zM0 448v64h64v-64h-64z" />
    <glyph glyph-name="Lcaron" unicode="&#x13d;" 
d="M0 0v128h64v320h64v-384h256v-64h-384zM0 448v64h64v-64h-64zM192 384v128h64v-128h-64zM128 512v64h64v-64h-64z" />
    <glyph glyph-name="lcaron" unicode="&#x13e;" horiz-adv-x="320" 
d="M64 0v448h64v-448h-64zM0 448v64h64v-64h-64zM192 384v128h64v-128h-64zM128 512v64h64v-64h-64z" />
    <glyph glyph-name="Ldot" unicode="&#x13f;" 
d="M192 192v64h64v-64h-64zM0 0v128h64v320h64v-384h256v-64h-384zM0 448v64h64v-64h-64z" />
    <glyph glyph-name="ldot" unicode="&#x140;" horiz-adv-x="320" 
d="M192 192v64h64v-64h-64zM64 0v448h64v-448h-64zM0 448v64h64v-64h-64z" />
    <glyph glyph-name="Lslash" unicode="&#x141;" horiz-adv-x="512" 
d="M0 192v64h64v-64h-64zM64 0v128h64v128h-64v64h64v128h64v-64h128v-64h-128v-256h256v-64h-384zM64 448v64h64v-64h-64z" />
    <glyph glyph-name="lslash" unicode="&#x142;" horiz-adv-x="384" 
d="M0 192v64h64v-64h-64zM128 0v256h-64v64h64v128h64v-64h128v-64h-128v-320h-64zM64 448v64h64v-64h-64z" />
    <glyph glyph-name="Nacute" unicode="&#x143;" horiz-adv-x="512" 
d="M256 128v64h64v-64h-64zM192 192v64h64v-64h-64zM64 0v384h64v-64h64v-64h-64v-256h-64zM0 384v64h64v-64h-64zM384 0v64h-64v64h64v256h-64v64h128v-448h-64zM128 512v64h64v-64h-64zM192 576v64h128v-64h-128z" />
    <glyph glyph-name="nacute" unicode="&#x144;" horiz-adv-x="384" 
d="M0 0v128h64v-128h-64zM192 0v128h64v-64h64v-64h-128zM64 128v128h64v-128h-64zM256 128v128h64v-128h-64zM0 256v64h64v-64h-64zM128 256v64h128v-64h-128zM64 384v64h64v-64h-64zM128 448v64h128v-64h-128z" />
    <glyph glyph-name="uni0145" unicode="&#x145;" horiz-adv-x="512" 
d="M192 -64v64h64v-64h-64zM256 0v64h64v-64h-64zM256 192v64h64v-64h-64zM192 256v64h64v-64h-64zM64 64v384h64v-64h64v-64h-64v-256h-64zM0 448v64h64v-64h-64zM384 64v64h-64v64h64v256h-64v64h128v-448h-64z" />
    <glyph glyph-name="uni0146" unicode="&#x146;" horiz-adv-x="384" 
d="M128 -64v64h64v-64h-64zM0 64v128h64v-128h-64zM192 0v192h64v-64h64v-64h-64v-64h-64zM64 192v128h64v-128h-64zM256 192v128h64v-128h-64zM0 320v64h64v-64h-64zM128 320v64h128v-64h-128z" />
    <glyph glyph-name="Ncaron" unicode="&#x147;" horiz-adv-x="512" 
d="M256 128v64h64v-64h-64zM192 192v64h64v-64h-64zM64 0v384h64v-64h64v-64h-64v-256h-64zM0 384v64h64v-64h-64zM384 0v64h-64v64h64v256h-64v64h128v-448h-64zM192 512v64h64v-64h-64zM128 576v64h64v-64h-64zM256 576v64h64v-64h-64z" />
    <glyph glyph-name="ncaron" unicode="&#x148;" horiz-adv-x="384" 
d="M0 0v128h64v-128h-64zM192 0v128h64v-64h64v-64h-128zM64 128v128h64v-128h-64zM256 128v128h64v-128h-64zM0 256v64h64v-64h-64zM128 256v64h128v-64h-128zM128 384v64h64v-64h-64zM64 448v64h64v-64h-64zM192 448v64h64v-64h-64z" />
    <glyph glyph-name="Omacron" unicode="&#x14c;" 
d="M256 64v64h64v192h-64v64h-128v-64h-64v-192h64v-64h128zM64 0v64h-64v320h64v64h320v-384h-64v-64h-256zM64 512v64h256v-64h-256z" />
    <glyph glyph-name="omacron" unicode="&#x14d;" horiz-adv-x="320" 
d="M64 0v64h128v-64h-128zM0 64v192h64v-192h-64zM192 64v192h-128v64h192v-256h-64zM0 384v64h256v-64h-256z" />
    <glyph glyph-name="OE" unicode="&#x152;" horiz-adv-x="640" 
d="M448 64v64h128v-64h-128zM192 64v64h64v192h-64v64h-64v-64h-64v-192h64v-64h64zM64 0v64h-64v320h64v64h384v-64h-128v-128h64v64h128v-64h-64v-64h-128v-128h128v-64h-384zM448 448v64h128v-64h-128z" />
    <glyph glyph-name="oe" unicode="&#x153;" horiz-adv-x="576" 
d="M64 0v64h128v-64h-128zM256 0v64h192v-64h-192zM448 64v64h64v-64h-64zM0 64v192h64v-192h-64zM192 64v192h64v-64h128v-64h-128v-64h-64zM384 192v64h64v-64h-64zM64 256v64h128v-64h-128zM256 256v64h128v-64h-128z" />
    <glyph glyph-name="Racute" unicode="&#x154;" horiz-adv-x="512" 
d="M320 0v64h-64v64h128v-64h64v-64h-128zM256 256v64h64v-64h-64zM320 320v64h64v-64h-64zM64 0v384h-64v64h128v-64h64v-64h-64v-64h128v-128h-64v64h-64v-192h-64zM192 384v64h128v-64h-128zM128 512v64h64v-64h-64zM192 576v64h128v-64h-128z" />
    <glyph glyph-name="racute" unicode="&#x155;" horiz-adv-x="384" 
d="M64 0v320h64v-64h64v-64h-64v-192h-64zM256 192v64h-64v64h128v-128h-64zM0 320v64h64v-64h-64zM128 384v64h64v-64h-64zM192 448v64h128v-64h-128z" />
    <glyph glyph-name="uni0156" unicode="&#x156;" horiz-adv-x="512" 
d="M128 -64v64h64v-64h-64zM192 0v64h64v-64h-64zM320 64v64h-64v64h128v-64h64v-64h-128zM256 320v64h64v-64h-64zM320 384v64h64v-64h-64zM64 64v384h-64v64h128v-64h64v-64h-64v-64h128v-128h-64v64h-64v-192h-64zM192 448v64h128v-64h-128z" />
    <glyph glyph-name="uni0157" unicode="&#x157;" horiz-adv-x="384" 
d="M64 -64v64h64v-64h-64zM128 0v64h64v-64h-64zM64 64v256h64v-64h64v-64h-64v-128h-64zM256 192v64h-64v64h128v-128h-64zM0 320v64h64v-64h-64z" />
    <glyph glyph-name="Rcaron" unicode="&#x158;" horiz-adv-x="512" 
d="M320 0v64h-64v64h128v-64h64v-64h-128zM256 256v64h64v-64h-64zM320 320v64h64v-64h-64zM64 0v384h-64v64h128v-64h64v-64h-64v-64h128v-128h-64v64h-64v-192h-64zM192 384v64h128v-64h-128zM128 512v64h64v-64h-64zM64 576v64h64v-64h-64zM192 576v64h64v-64h-64z" />
    <glyph glyph-name="rcaron" unicode="&#x159;" horiz-adv-x="384" 
d="M64 0v320h64v-64h64v-64h-64v-192h-64zM256 192v64h-64v64h128v-128h-64zM0 320v64h64v-64h-64zM128 384v64h64v-64h-64zM64 448v64h64v-64h-64zM192 448v64h64v-64h-64z" />
    <glyph glyph-name="Sacute" unicode="&#x15a;" horiz-adv-x="384" 
d="M64 0v64h192v-64h-192zM0 64v64h64v-64h-64zM256 64v128h64v-128h-64zM64 192v64h192v-64h-192zM0 256v128h64v-128h-64zM64 384v64h128v-64h-128zM192 320v64h64v64h64v-128h-128zM64 512v64h64v-64h-64zM128 576v64h128v-64h-128z" />
    <glyph glyph-name="sacute" unicode="&#x15b;" horiz-adv-x="320" 
d="M0 0v64h192v-64h-192zM192 64v64h64v-64h-64zM64 128v64h128v-64h-128zM0 192v64h64v-64h-64zM192 192v64h-128v64h192v-128h-64zM64 384v64h64v-64h-64zM128 448v64h128v-64h-128z" />
    <glyph glyph-name="Scircumflex" unicode="&#x15c;" horiz-adv-x="384" 
d="M64 0v64h192v-64h-192zM0 64v64h64v-64h-64zM256 64v128h64v-128h-64zM64 192v64h192v-64h-192zM0 256v128h64v-128h-64zM64 384v64h128v-64h-128zM192 320v64h64v64h64v-128h-128zM64 512v64h64v-64h-64zM192 512v64h64v-64h-64zM128 576v64h64v-64h-64z" />
    <glyph glyph-name="scircumflex" unicode="&#x15d;" horiz-adv-x="320" 
d="M0 0v64h192v-64h-192zM192 64v64h64v-64h-64zM64 128v64h128v-64h-128zM0 192v64h64v-64h-64zM192 192v64h-128v64h192v-128h-64zM64 384v64h64v-64h-64zM192 384v64h64v-64h-64zM128 448v64h64v-64h-64z" />
    <glyph glyph-name="Scedilla" unicode="&#x15e;" horiz-adv-x="384" 
d="M64 -64v64h64v-64h-64zM128 0v64h-64v64h192v-64h-64v-64h-64zM0 128v64h64v-64h-64zM256 128v128h64v-128h-64zM64 256v64h192v-64h-192zM0 320v128h64v-128h-64zM64 448v64h128v-64h-128zM192 384v64h64v64h64v-128h-128z" />
    <glyph glyph-name="scedilla" unicode="&#x15f;" horiz-adv-x="320" 
d="M64 -64v64h64v-64h-64zM128 0v64h-128v64h192v-128h-64zM192 128v64h64v-64h-64zM64 192v64h128v-64h-128zM0 256v64h64v-64h-64zM192 256v64h-128v64h192v-128h-64z" />
    <glyph glyph-name="Scaron" unicode="&#x160;" horiz-adv-x="384" 
d="M64 0v64h192v-64h-192zM0 64v64h64v-64h-64zM256 64v128h64v-128h-64zM64 192v64h192v-64h-192zM0 256v128h64v-128h-64zM64 384v64h128v-64h-128zM192 320v64h64v64h64v-128h-128zM128 512v64h64v-64h-64zM64 576v64h64v-64h-64zM192 576v64h64v-64h-64z" />
    <glyph glyph-name="scaron" unicode="&#x161;" horiz-adv-x="320" 
d="M0 0v64h192v-64h-192zM192 64v64h64v-64h-64zM64 128v64h128v-64h-128zM0 192v64h64v-64h-64zM192 192v64h-128v64h192v-128h-64zM128 384v64h64v-64h-64zM64 448v64h64v-64h-64zM192 448v64h64v-64h-64z" />
    <glyph glyph-name="uni0162" unicode="&#x162;" horiz-adv-x="512" 
d="M192 -64v64h64v-64h-64zM256 0v64h64v-64h-64zM384 320v64h64v-64h-64zM192 64v256h-192v64h192v64h192v-64h-128v-320h-64z" />
    <glyph glyph-name="uni0163" unicode="&#x163;" horiz-adv-x="384" 
d="M128 -64v64h64v-64h-64zM256 128v64h64v-64h-64zM192 0v64h-64v192h-128v64h128v128h64v-128h64v-64h-64v-128h64v-128h-64zM64 448v64h64v-64h-64z" />
    <glyph glyph-name="Tcaron" unicode="&#x164;" horiz-adv-x="512" 
d="M384 320v64h64v-64h-64zM192 0v320h-192v64h192v64h192v-64h-128v-384h-64zM192 512v64h64v-64h-64zM128 576v64h64v-64h-64zM256 576v64h64v-64h-64z" />
    <glyph glyph-name="tcaron" unicode="&#x165;" horiz-adv-x="384" 
d="M256 64v64h64v-64h-64zM128 0v256h-128v64h128v128h64v-128h64v-64h-64v-192h64v-64h-128zM64 448v64h64v-64h-64zM256 384v128h64v-128h-64zM192 512v64h64v-64h-64z" />
    <glyph glyph-name="Tbar" unicode="&#x166;" horiz-adv-x="512" 
d="M384 320v64h64v-64h-64zM192 0v192h-128v64h128v64h-192v64h192v64h192v-64h-128v-128h128v-64h-128v-192h-64z" />
    <glyph glyph-name="tbar" unicode="&#x167;" horiz-adv-x="384" 
d="M256 64v64h64v-64h-64zM128 0v192h-128v64h128v64h-128v64h128v64h64v-64h64v-64h-64v-64h64v-64h-64v-128h64v-64h-128zM64 448v64h64v-64h-64z" />
    <glyph glyph-name="Utilde" unicode="&#x168;" 
d="M0 384v64h64v-64h-64zM128 0v64h-64v320h64v-256h64v-64h64v64h64v256h-64v64h128v-384h-64v-64h-192zM0 512v64h64v-64h-64zM192 512v64h128v-64h-128zM64 576v64h128v-64h-128zM320 576v64h64v-64h-64z" />
    <glyph glyph-name="utilde" unicode="&#x169;" 
d="M64 0v64h64v-64h-64zM320 64v64h64v-64h-64zM0 64v256h64v-256h-64zM192 0v64h-64v64h64v192h64v-256h64v-64h-128zM0 384v64h64v-64h-64zM192 384v64h128v-64h-128zM64 448v64h128v-64h-128zM320 448v64h64v-64h-64z" />
    <glyph glyph-name="Umacron" unicode="&#x16a;" 
d="M0 384v64h64v-64h-64zM128 0v64h-64v320h64v-256h64v-64h64v64h64v256h-64v64h128v-384h-64v-64h-192zM64 512v64h256v-64h-256z" />
    <glyph glyph-name="umacron" unicode="&#x16b;" 
d="M64 0v64h64v-64h-64zM320 64v64h64v-64h-64zM0 64v256h64v-256h-64zM192 0v64h-64v64h64v192h64v-256h64v-64h-128zM0 384v64h256v-64h-256z" />
    <glyph glyph-name="Uogonek" unicode="&#x172;" 
d="M256 -64v64h64v-64h-64zM0 384v64h64v-64h-64zM192 0v64h-64v64h-64v256h64v-192h64v-64h64v64h64v192h-64v64h128v-320h-64v-64h-64v-64h-64z" />
    <glyph glyph-name="uogonek" unicode="&#x173;" 
d="M256 -64v64h64v-64h-64zM64 64v64h64v-64h-64zM320 128v64h64v-64h-64zM0 128v192h64v-192h-64zM192 0v128h-64v64h64v128h64v-192h64v-64h-64v-64h-64z" />
    <glyph glyph-name="Wcircumflex" unicode="&#x174;" horiz-adv-x="704" 
d="M384 0v128h64v-128h-64zM448 128v128h64v-128h-64zM192 0v128h-64v128h-64v128h-64v64h128v-128h64v-128h64v192h64v-128h64v-128h-128v-128h-64zM512 256v192h64v-64h64v-64h-64v-64h-64zM192 512v64h64v-64h-64zM384 512v64h64v-64h-64zM256 576v64h128v-64h-128z" />
    <glyph glyph-name="wcircumflex" unicode="&#x175;" horiz-adv-x="576" 
d="M320 0v128h64v64h64v-128h-64v-64h-64zM64 128v128h-64v64h128v-192h-64zM128 0v128h64v64h64v128h64v-192h-64v-64h-64v-64h-64zM448 192v128h64v-128h-64zM192 384v64h64v-64h-64zM320 384v64h64v-64h-64zM256 448v64h64v-64h-64z" />
    <glyph glyph-name="Ycircumflex" unicode="&#x176;" horiz-adv-x="512" 
d="M192 0v192h-64v128h64v-64h128v-64h-64v-192h-64zM320 256v64h64v-64h-64zM64 320v64h-64v64h128v-128h-64zM384 320v64h-64v64h128v-128h-64zM128 512v64h64v-64h-64zM256 512v64h64v-64h-64zM192 576v64h64v-64h-64z" />
    <glyph glyph-name="ycircumflex" unicode="&#x177;" 
d="M0 -64v64h64v-64h-64zM64 -128v64h64v64h64v-128h-128zM192 0v64h-64v128h64v-64h64v64h64v-128h-64v-64h-64zM64 192v64h-64v64h128v-128h-64zM320 192v64h-64v64h128v-128h-64zM128 384v64h64v-64h-64zM256 384v64h64v-64h-64zM192 448v64h64v-64h-64z" />
    <glyph glyph-name="Ydieresis" unicode="&#x178;" horiz-adv-x="512" 
d="M192 0v192h-64v128h64v-64h128v-64h-64v-192h-64zM320 256v64h64v-64h-64zM64 320v64h-64v64h128v-128h-64zM384 320v64h-64v64h128v-128h-64zM64 512v64h64v-64h-64zM256 512v64h64v-64h-64z" />
    <glyph glyph-name="Zacute" unicode="&#x179;" 
d="M0 0v128h64v64h128v-64h-64v-64h128v64h64v-64h64v-64h-384zM192 192v64h64v-64h-64zM256 256v64h-256v64h256v64h64v-64h64v-64h-64v-64h-64zM128 512v64h64v-64h-64zM192 576v64h128v-64h-128z" />
    <glyph glyph-name="zacute" unicode="&#x17a;" horiz-adv-x="384" 
d="M0 0v64h64v64h64v-64h192v-64h-320zM128 128v64h64v-64h-64zM192 192v64h-192v64h192v64h64v-64h64v-64h-64v-64h-64zM64 448v64h64v-64h-64zM128 512v64h128v-64h-128z" />
    <glyph glyph-name="Zdotaccent" unicode="&#x17b;" 
d="M0 0v128h64v64h128v-64h-64v-64h128v64h64v-64h64v-64h-384zM192 192v64h64v-64h-64zM256 256v64h-256v64h256v64h64v-64h64v-64h-64v-64h-64zM192 512v64h64v-64h-64z" />
    <glyph glyph-name="zdotaccent" unicode="&#x17c;" horiz-adv-x="384" 
d="M0 0v64h64v64h64v-64h192v-64h-320zM128 128v64h64v-64h-64zM192 192v64h-192v64h192v64h64v-64h64v-64h-64v-64h-64zM128 448v64h64v-64h-64z" />
    <glyph glyph-name="Zcaron" unicode="&#x17d;" 
d="M0 0v128h64v64h128v-64h-64v-64h128v64h64v-64h64v-64h-384zM192 192v64h64v-64h-64zM256 256v64h-256v64h256v64h64v-64h64v-64h-64v-64h-64zM128 512v64h64v-64h-64zM64 576v64h64v-64h-64zM192 576v64h64v-64h-64z" />
    <glyph glyph-name="zcaron" unicode="&#x17e;" horiz-adv-x="384" 
d="M0 0v64h64v64h64v-64h192v-64h-320zM128 128v64h64v-64h-64zM192 192v64h-192v64h192v64h64v-64h64v-64h-64v-64h-64zM128 448v64h64v-64h-64zM64 512v64h64v-64h-64zM192 512v64h64v-64h-64z" />
    <glyph glyph-name="longs" unicode="&#x17f;" horiz-adv-x="384" 
d="M64 -64v64h64v320h-128v64h128v128h64v-576h-128zM256 448v64h64v-64h-64zM192 512v64h64v-64h-64z" />
    <glyph glyph-name="uni01CD" unicode="&#x1cd;" horiz-adv-x="512" 
d="M0 0v64h64v-64h-64zM320 0v64h64v64h-256v-64h-64v128h64v128h64v-128h128v128h64v-128h64v-192h-128zM192 320v128h128v-128h-128zM192 512v64h64v-64h-64zM128 576v64h64v-64h-64zM256 576v64h64v-64h-64z" />
    <glyph glyph-name="uni01CE" unicode="&#x1ce;" horiz-adv-x="384" 
d="M192 64v64h-64v-64h64zM0 192v64h64v-64h-64zM64 0v64h-64v64h64v64h128v64h64v-192h64v-64h-256zM64 256v64h128v-64h-128zM128 384v64h64v-64h-64zM64 448v64h64v-64h-64zM192 448v64h64v-64h-64z" />
    <glyph glyph-name="uni01CF" unicode="&#x1cf;" horiz-adv-x="320" 
d="M128 0v384h64v-320h64v-64h-128zM64 384v64h64v-64h-64zM64 512v64h64v-64h-64zM0 576v64h64v-64h-64zM128 576v64h64v-64h-64z" />
    <glyph glyph-name="uni01D0" unicode="&#x1d0;" horiz-adv-x="256" 
d="M128 0v256h64v-256h-64zM64 256v64h64v-64h-64zM64 384v64h64v-64h-64zM0 448v64h64v-64h-64zM128 448v64h64v-64h-64z" />
    <glyph glyph-name="uni01D1" unicode="&#x1d1;" 
d="M256 64v64h64v192h-64v64h-128v-64h-64v-192h64v-64h128zM64 0v64h-64v320h64v64h320v-384h-64v-64h-256zM128 512v64h128v-64h-128zM64 576v64h64v-64h-64zM256 576v64h64v-64h-64z" />
    <glyph glyph-name="uni01D2" unicode="&#x1d2;" horiz-adv-x="320" 
d="M64 0v64h128v-64h-128zM0 64v192h64v-192h-64zM192 64v192h-128v64h192v-256h-64zM64 384v64h128v-64h-128zM0 448v64h64v-64h-64zM192 448v64h64v-64h-64z" />
    <glyph glyph-name="uni01D3" unicode="&#x1d3;" 
d="M0 384v64h64v-64h-64zM128 0v64h-64v320h64v-256h64v-64h64v64h64v256h-64v64h128v-384h-64v-64h-192zM192 512v64h64v-64h-64zM128 576v64h64v-64h-64zM256 576v64h64v-64h-64z" />
    <glyph glyph-name="uni01D4" unicode="&#x1d4;" 
d="M64 0v64h64v-64h-64zM320 64v64h64v-64h-64zM0 64v256h64v-256h-64zM192 0v64h-64v64h64v192h64v-256h64v-64h-128zM128 384v64h64v-64h-64zM64 448v64h64v-64h-64zM192 448v64h64v-64h-64z" />
    <glyph glyph-name="uni01DD" unicode="&#x1dd;" horiz-adv-x="384" 
d="M128 0v64h128v-64h-128zM64 64v64h64v-64h-64zM0 192v64h64v-64h-64zM256 64v64h-128v64h128v64h64v-192h-64zM64 256v64h192v-64h-192z" />
    <glyph glyph-name="uni01E2" unicode="&#x1e2;" horiz-adv-x="768" 
d="M128 320v128h128v-128h-128zM0 0v192h64v128h64v-128h128v128h64v128h320v-64h-256v-128h64v64h128v-64h-64v-64h-128v-128h128v64h192v-64h-128v-64h-320v64h64v64h-256v-128h-64zM256 512v64h256v-64h-256z" />
    <glyph glyph-name="uni01E3" unicode="&#x1e3;" horiz-adv-x="576" 
d="M256 0v64h192v-64h-192zM448 64v64h64v-64h-64zM0 192v64h64v-64h-64zM64 0v64h-64v64h64v64h128v64h64v-64h128v-64h-128v-64h-64v64h-64v-64h64v-64h-128zM384 192v64h64v-64h-64zM64 256v64h128v-64h-128zM256 256v64h128v-64h-128zM128 384v64h256v-64h-256z" />
    <glyph glyph-name="Gcaron" unicode="&#x1e6;" 
d="M320 0v64h-64v64h64v64h-192v64h256v-256h-64zM64 0v64h-64v320h64v64h192v-64h-128v-64h-64v-192h64v-64h128v-64h-192zM256 320v64h64v64h64v-128h-128zM128 512v64h128v-64h-128zM64 576v64h64v-64h-64zM256 576v64h64v-64h-64z" />
    <glyph glyph-name="gcaron" unicode="&#x1e7;" horiz-adv-x="384" 
d="M0 -64v64h64v-64h-64zM64 64v192h64v-192h-64zM64 -128v64h128v64h-64v64h128v192h-128v64h192v-384h-64v-64h-192zM128 384v64h128v-64h-128zM64 448v64h64v-64h-64zM256 448v64h64v-64h-64z" />
    <glyph glyph-name="uni01EA" unicode="&#x1ea;" 
d="M256 -64v64h64v-64h-64zM256 128v64h64v128h-64v64h-128v-64h-64v-128h64v-64h128zM192 0v64h-128v64h-64v256h64v64h320v-320h-64v-64h-64v-64h-64z" />
    <glyph glyph-name="uni01EB" unicode="&#x1eb;" horiz-adv-x="320" 
d="M128 -64v64h64v-64h-64zM64 0v128h128v-64h-64v-64h-64zM0 128v128h64v-128h-64zM192 128v128h-128v64h192v-192h-64z" />
    <glyph glyph-name="uni01F0" unicode="&#x1f0;" horiz-adv-x="256" 
d="M0 -128v64h64v64h64v256h64v-320h-64v-64h-128zM64 256v64h64v-64h-64zM64 384v64h64v-64h-64zM0 448v64h64v-64h-64zM128 448v64h64v-64h-64z" />
    <glyph glyph-name="uni01F4" unicode="&#x1f4;" 
d="M320 0v64h-64v64h64v64h-192v64h256v-256h-64zM64 0v64h-64v320h64v64h192v-64h-128v-64h-64v-192h64v-64h128v-64h-192zM256 320v64h64v64h64v-128h-128zM128 512v64h64v-64h-64zM192 576v64h128v-64h-128z" />
    <glyph glyph-name="uni01F5" unicode="&#x1f5;" horiz-adv-x="384" 
d="M0 -64v64h64v-64h-64zM64 64v192h64v-192h-64zM64 -128v64h128v64h-64v64h128v192h-128v64h192v-384h-64v-64h-192zM128 384v64h64v-64h-64zM192 448v64h128v-64h-128z" />
    <glyph glyph-name="uni01F8" unicode="&#x1f8;" horiz-adv-x="512" 
d="M256 128v64h64v-64h-64zM192 192v64h64v-64h-64zM64 0v384h64v-64h64v-64h-64v-256h-64zM0 384v64h64v-64h-64zM384 0v64h-64v64h64v256h-64v64h128v-448h-64zM256 512v64h64v-64h-64zM128 576v64h128v-64h-128z" />
    <glyph glyph-name="uni01F9" unicode="&#x1f9;" horiz-adv-x="384" 
d="M0 0v128h64v-128h-64zM192 0v128h64v-64h64v-64h-128zM64 128v128h64v-128h-64zM256 128v128h64v-128h-64zM0 256v64h64v-64h-64zM128 256v64h128v-64h-128zM192 384v64h64v-64h-64zM64 448v64h128v-64h-128z" />
    <glyph glyph-name="AEacute" unicode="&#x1fc;" horiz-adv-x="768" 
d="M128 320v128h128v-128h-128zM0 0v192h64v128h64v-128h128v128h64v128h320v-64h-256v-128h64v64h128v-64h-64v-64h-128v-128h128v64h192v-64h-128v-64h-320v64h64v64h-256v-128h-64zM256 512v64h64v-64h-64zM320 576v64h128v-64h-128z" />
    <glyph glyph-name="aeacute" unicode="&#x1fd;" horiz-adv-x="576" 
d="M256 0v64h192v-64h-192zM448 64v64h64v-64h-64zM0 192v64h64v-64h-64zM64 0v64h-64v64h64v64h128v64h64v-64h128v-64h-128v-64h-64v64h-64v-64h64v-64h-128zM384 192v64h64v-64h-64zM64 256v64h128v-64h-128zM256 256v64h128v-64h-128zM128 384v64h64v-64h-64zM192 448
v64h128v-64h-128z" />
    <glyph glyph-name="uni021E" unicode="&#x21e;" 
d="M0 384v64h64v-64h-64zM0 0v192h64v192h64v-128h192v128h-64v64h128v-448h-64v64h-64v64h64v64h-192v-64h-64v-128h-64zM192 512v64h64v-64h-64zM128 576v64h64v-64h-64zM256 576v64h64v-64h-64z" />
    <glyph glyph-name="uni021F" unicode="&#x21f;" horiz-adv-x="384" 
d="M0 0v128h64v-128h-64zM192 0v128h64v-64h64v-64h-128zM256 128v64h64v-64h-64zM64 128v256h64v-128h128v-64h-128v-64h-64zM64 448v64h64v-64h-64zM0 512v64h64v-64h-64zM128 512v64h64v-64h-64z" />
    <glyph glyph-name="uni0226" unicode="&#x226;" horiz-adv-x="512" 
d="M0 0v64h64v-64h-64zM320 0v64h64v64h-256v-64h-64v128h64v128h64v-128h128v128h64v-128h64v-192h-128zM192 320v128h128v-128h-128zM192 512v64h64v-64h-64z" />
    <glyph glyph-name="uni0227" unicode="&#x227;" horiz-adv-x="384" 
d="M192 64v64h-64v-64h64zM0 192v64h64v-64h-64zM64 0v64h-64v64h64v64h128v64h64v-192h64v-64h-256zM64 256v64h128v-64h-128zM64 384v64h64v-64h-64z" />
    <glyph glyph-name="uni0228" unicode="&#x228;" 
d="M128 -64v64h64v-64h-64zM192 0v64h-192v448h320v-64h-256v-128h64v64h128v-64h-64v-64h-128v-128h128v64h192v-64h-128v-128h-64z" />
    <glyph glyph-name="uni0229" unicode="&#x229;" horiz-adv-x="384" 
d="M64 -64v64h64v-64h-64zM128 0v64h-64v64h192v-64h-64v-64h-64zM256 128v64h64v-64h-64zM0 128v192h64v-64h128v-64h-128v-64h-64zM192 256v64h64v-64h-64zM64 320v64h128v-64h-128z" />
    <glyph glyph-name="uni022E" unicode="&#x22e;" 
d="M256 64v64h64v192h-64v64h-128v-64h-64v-192h64v-64h128zM64 0v64h-64v320h64v64h320v-384h-64v-64h-256zM192 512v64h64v-64h-64z" />
    <glyph glyph-name="uni022F" unicode="&#x22f;" horiz-adv-x="320" 
d="M64 0v64h128v-64h-128zM0 64v192h64v-192h-64zM192 64v192h-128v64h192v-256h-64zM128 384v64h64v-64h-64z" />
    <glyph glyph-name="uni0232" unicode="&#x232;" horiz-adv-x="512" 
d="M192 0v192h-64v128h64v-64h128v-64h-64v-192h-64zM320 256v64h64v-64h-64zM64 320v64h-64v64h128v-128h-64zM384 320v64h-64v64h128v-128h-64zM128 512v64h256v-64h-256z" />
    <glyph glyph-name="uni0233" unicode="&#x233;" 
d="M0 -64v64h64v-64h-64zM64 -128v64h64v64h64v-128h-128zM192 0v64h-64v128h64v-64h64v64h64v-128h-64v-64h-64zM64 192v64h-64v64h128v-128h-64zM320 192v64h-64v64h128v-128h-64zM64 384v64h256v-64h-256z" />
    <glyph glyph-name="uni0237" unicode="&#x237;" horiz-adv-x="256" 
d="M0 -128v64h64v64h64v256h64v-320h-64v-64h-128zM64 256v64h64v-64h-64z" />
    <glyph glyph-name="uni023D" unicode="&#x23d;" horiz-adv-x="512" 
d="M64 0v128h64v64h-128v64h128v192h64v-192h128v-64h-128v-128h256v-64h-384zM64 448v64h64v-64h-64z" />
    <glyph glyph-name="uni0241" unicode="&#x241;" 
d="M128 0v256h192v-64h-128v-192h-64zM0 384v64h64v-64h-64zM320 256v192h64v-192h-64zM64 448v64h256v-64h-256z" />
    <glyph glyph-name="uni0242" unicode="&#x242;" horiz-adv-x="384" 
d="M128 0v192h128v-64h-64v-128h-64zM0 256v64h64v-64h-64zM256 192v128h64v-128h-64zM64 320v64h192v-64h-192z" />
    <glyph glyph-name="uni0245" unicode="&#x245;" horiz-adv-x="512" 
d="M0 0v192h64v-128h64v-64h-128zM320 0v64h-64v192h64v-128h64v-64h64v-64h-128zM64 192v128h64v-128h-64zM192 256v64h-64v64h64v64h64v-192h-64z" />
    <glyph glyph-name="uni0248" unicode="&#x248;" horiz-adv-x="384" 
d="M0 64v64h64v-64h-64zM64 0v64h64v64h64v128h-128v64h128v128h64v-128h64v-64h-64v-192h-64v-64h-128zM128 448v64h64v-64h-64z" />
    <glyph glyph-name="uni0249" unicode="&#x249;" horiz-adv-x="320" 
d="M0 -128v64h64v64h64v128h-128v64h128v64h64v-64h64v-64h-64v-192h-64v-64h-128zM64 256v64h64v-64h-64zM128 320v64h-64v64h128v-128h-64z" />
    <glyph glyph-name="uni024C" unicode="&#x24c;" horiz-adv-x="512" 
d="M320 0v64h-64v64h128v-64h64v-64h-128zM256 256v64h64v-64h-64zM320 320v128h64v-128h-64zM64 0v192h-64v64h64v192h-64v64h128v-64h64v-64h-64v-128h128v-128h-64v64h-64v-192h-64zM192 448v64h128v-64h-128z" />
    <glyph glyph-name="uni024D" unicode="&#x24d;" horiz-adv-x="384" 
d="M64 0v64h-64v64h64v192h64v-64h64v-64h-64v-64h64v-64h-64v-64h-64zM256 192v64h-64v64h128v-128h-64zM0 320v64h64v-64h-64z" />
    <glyph glyph-name="uni024E" unicode="&#x24e;" horiz-adv-x="576" 
d="M192 0v192h-64v64h-128v64h64v64h-64v64h128v-128h256v64h-64v64h128v-128h64v-64h-192v-64h-64v-192h-64z" />
    <glyph glyph-name="uni024F" unicode="&#x24f;" 
d="M0 -64v64h64v-64h-64zM64 -128v64h64v64h64v-128h-128zM192 0v64h-192v64h128v64h64v-64h64v64h64v-64h64v-64h-128v-64h-64zM64 192v64h-64v64h128v-128h-64zM320 192v64h-64v64h128v-128h-64z" />
    <glyph glyph-name="tilde" unicode="&#x2dc;" 
d="M0 192v64h64v-64h-64zM192 192v64h128v-64h-128zM64 256v64h128v-64h-128zM320 256v64h64v-64h-64z" />
    <glyph glyph-name="uni03BC" unicode="&#x3bc;" horiz-adv-x="512" 
d="M0 -128v128h64v-128h-64zM384 64v64h64v-64h-64zM64 0v320h64v-256h64v-64h-128zM256 0v64h-64v64h64v192h64v-256h64v-64h-128z" />
    <glyph glyph-name="pi" unicode="&#x3c0;" horiz-adv-x="576" 
d="M64 0v128h64v-128h-64zM256 0v128h64v-64h64v-64h-128zM0 192v64h64v-64h-64zM128 128v128h-64v64h448v-64h-128v-128h-64v128h-128v-128h-64z" />
    <glyph glyph-name="uni042F" unicode="&#x42f;" horiz-adv-x="512" 
d="M0 0v64h64v64h128v-64h-64v-64h-128zM128 256v64h64v-64h-64zM64 320v128h64v-128h-64zM128 448v64h128v-64h-128zM320 0v192h-64v-64h-64v128h128v128h-64v64h64v64h128v-64h-64v-448h-64z" />
    <glyph glyph-name="uni1E60" unicode="&#x1e60;" horiz-adv-x="384" 
d="M64 0v64h192v-64h-192zM0 64v64h64v-64h-64zM256 64v128h64v-128h-64zM64 192v64h192v-64h-192zM0 256v128h64v-128h-64zM64 384v64h128v-64h-128zM192 320v64h64v64h64v-128h-128zM128 512v64h64v-64h-64z" />
    <glyph glyph-name="uni1E61" unicode="&#x1e61;" horiz-adv-x="320" 
d="M0 0v64h192v-64h-192zM192 64v64h64v-64h-64zM64 128v64h128v-64h-128zM0 192v64h64v-64h-64zM192 192v64h-128v64h192v-128h-64zM128 384v64h64v-64h-64z" />
    <glyph glyph-name="uni1E8A" unicode="&#x1e8a;" horiz-adv-x="512" 
d="M0 0v128h64v-64h64v-64h-128zM128 64v64h64v-64h-64zM192 128v64h64v-64h-64zM0 320v64h64v-64h-64zM384 0v128h-64v64h-64v64h-64v64h-64v64h-64v64h128v-64h64v-64h64v-64h64v-64h64v-192h-64zM320 320v128h128v-64h-64v-64h-64zM192 512v64h64v-64h-64z" />
    <glyph glyph-name="uni1E8B" unicode="&#x1e8b;" 
d="M0 0v128h64v-64h64v-64h-128zM128 64v64h64v-64h-64zM320 0v64h-64v64h-64v128h128v-128h64v-128h-64zM0 256v64h64v-64h-64zM128 256v64h-64v64h128v-128h-64zM320 256v128h64v-128h-64zM192 448v64h64v-64h-64z" />
    <glyph glyph-name="uni1E8C" unicode="&#x1e8c;" horiz-adv-x="512" 
d="M0 0v128h64v-64h64v-64h-128zM128 64v64h64v-64h-64zM192 128v64h64v-64h-64zM0 320v64h64v-64h-64zM384 0v128h-64v64h-64v64h-64v64h-64v64h-64v64h128v-64h64v-64h64v-64h64v-64h64v-192h-64zM320 320v128h128v-64h-64v-64h-64zM128 512v64h64v-64h-64zM320 512v64h64
v-64h-64z" />
    <glyph glyph-name="uni1E8D" unicode="&#x1e8d;" 
d="M0 0v128h64v-64h64v-64h-128zM128 64v64h64v-64h-64zM320 0v64h-64v64h-64v128h128v-128h64v-128h-64zM0 256v64h64v-64h-64zM128 256v64h-64v64h128v-128h-64zM320 256v128h64v-128h-64zM64 448v64h64v-64h-64zM256 448v64h64v-64h-64z" />
    <glyph glyph-name="uni1E8E" unicode="&#x1e8e;" horiz-adv-x="512" 
d="M192 0v192h-64v128h64v-64h128v-64h-64v-192h-64zM320 256v64h64v-64h-64zM64 320v64h-64v64h128v-128h-64zM384 320v64h-64v64h128v-128h-64zM192 512v64h64v-64h-64z" />
    <glyph glyph-name="uni1E8F" unicode="&#x1e8f;" 
d="M0 -64v64h64v-64h-64zM64 -128v64h64v64h64v-128h-128zM192 0v64h-64v128h64v-64h64v64h64v-128h-64v-64h-64zM64 192v64h-64v64h128v-128h-64zM320 192v64h-64v64h128v-128h-64zM192 384v64h64v-64h-64z" />
    <glyph glyph-name="uni1E90" unicode="&#x1e90;" 
d="M0 0v128h64v64h128v-64h-64v-64h128v64h64v-64h64v-64h-384zM192 192v64h64v-64h-64zM256 256v64h-256v64h256v64h64v-64h64v-64h-64v-64h-64zM64 512v64h64v-64h-64zM192 512v64h64v-64h-64zM128 576v64h64v-64h-64z" />
    <glyph glyph-name="uni1E91" unicode="&#x1e91;" horiz-adv-x="384" 
d="M0 0v64h64v64h64v-64h192v-64h-320zM128 128v64h64v-64h-64zM192 192v64h-192v64h192v64h64v-64h64v-64h-64v-64h-64zM64 448v64h64v-64h-64zM192 448v64h64v-64h-64zM128 512v64h64v-64h-64z" />
    <glyph glyph-name="uni1EBC" unicode="&#x1ebc;" 
d="M0 0v448h320v-64h-256v-128h64v64h128v-64h-64v-64h-128v-128h128v64h192v-64h-128v-64h-256zM0 512v64h64v-64h-64zM192 512v64h128v-64h-128zM64 576v64h128v-64h-128zM320 576v64h64v-64h-64z" />
    <glyph glyph-name="uni1EBD" unicode="&#x1ebd;" 
d="M64 0v64h192v-64h-192zM256 64v64h64v-64h-64zM0 64v192h64v-64h128v-64h-128v-64h-64zM192 192v64h64v-64h-64zM64 256v64h128v-64h-128zM0 384v64h64v-64h-64zM192 384v64h128v-64h-128zM64 448v64h128v-64h-128zM320 448v64h64v-64h-64z" />
    <glyph glyph-name="Ygrave" unicode="&#x1ef2;" horiz-adv-x="512" 
d="M192 0v192h-64v128h64v-64h128v-64h-64v-192h-64zM320 256v64h64v-64h-64zM64 320v64h-64v64h128v-128h-64zM384 320v64h-64v64h128v-128h-64zM256 512v64h64v-64h-64zM128 576v64h128v-64h-128z" />
    <glyph glyph-name="ygrave" unicode="&#x1ef3;" 
d="M0 -64v64h64v-64h-64zM64 -128v64h64v64h64v-128h-128zM192 0v64h-64v128h64v-64h64v64h64v-128h-64v-64h-64zM64 192v64h-64v64h128v-128h-64zM320 192v64h-64v64h128v-128h-64zM192 384v64h64v-64h-64zM64 448v64h128v-64h-128z" />
    <glyph glyph-name="uni1EF8" unicode="&#x1ef8;" horiz-adv-x="512" 
d="M192 0v192h-64v128h64v-64h128v-64h-64v-192h-64zM320 256v64h64v-64h-64zM64 320v64h-64v64h128v-128h-64zM384 320v64h-64v64h128v-128h-64zM64 512v64h64v-64h-64zM256 512v64h128v-64h-128zM128 576v64h128v-64h-128zM384 576v64h64v-64h-64z" />
    <glyph glyph-name="uni1EF9" unicode="&#x1ef9;" 
d="M0 -64v64h64v-64h-64zM64 -128v64h64v64h64v-128h-128zM192 0v64h-64v128h64v-64h64v64h64v-128h-64v-64h-64zM64 192v64h-64v64h128v-128h-64zM320 192v64h-64v64h128v-128h-64zM0 384v64h64v-64h-64zM192 384v64h128v-64h-128zM64 448v64h128v-64h-128zM320 448v64h64
v-64h-64z" />
    <glyph glyph-name="uni2010" unicode="&#x2010;" horiz-adv-x="256" 
d="M0 256v64h192v-64h-192z" />
    <glyph glyph-name="uni2011" unicode="&#x2011;" horiz-adv-x="256" 
d="M0 256v64h192v-64h-192z" />
    <glyph glyph-name="figuredash" unicode="&#x2012;" horiz-adv-x="320" 
d="M0 256v64h256v-64h-256z" />
    <glyph glyph-name="endash" unicode="&#x2013;" horiz-adv-x="320" 
d="M0 256v64h256v-64h-256z" />
    <glyph glyph-name="emdash" unicode="&#x2014;" horiz-adv-x="384" 
d="M0 256v64h320v-64h-320z" />
    <glyph glyph-name="uni2015" unicode="&#x2015;" horiz-adv-x="384" 
d="M0 256v64h320v-64h-320z" />
    <glyph glyph-name="quoteleft" unicode="&#x2018;" horiz-adv-x="192" 
d="M0 384v128h64v-64h64v-64h-128zM64 512v64h64v-64h-64z" />
    <glyph glyph-name="quoteright" unicode="&#x2019;" horiz-adv-x="192" 
d="M0 384v64h64v-64h-64zM64 448v64h-64v64h128v-128h-64z" />
    <glyph glyph-name="quotesinglbase" unicode="&#x201a;" horiz-adv-x="192" 
d="M0 -64v64h64v-64h-64zM64 0v64h-64v64h128v-128h-64z" />
    <glyph glyph-name="quotereversed" unicode="&#x201b;" horiz-adv-x="192" 
d="M64 384v64h64v-64h-64zM0 448v128h128v-64h-64v-64h-64z" />
    <glyph glyph-name="quotedblleft" unicode="&#x201c;" horiz-adv-x="320" 
d="M0 384v128h64v-64h64v64h64v-64h64v-64h-256zM64 512v64h64v-64h-64zM192 512v64h64v-64h-64z" />
    <glyph glyph-name="quotedblright" unicode="&#x201d;" horiz-adv-x="320" 
d="M0 384v64h64v-64h-64zM128 384v64h64v-64h-64zM64 448v64h-64v64h256v-128h-64v64h-64v-64h-64z" />
    <glyph glyph-name="quotedblbase" unicode="&#x201e;" horiz-adv-x="320" 
d="M0 -64v64h64v-64h-64zM128 -64v64h64v-64h-64zM64 0v64h-64v64h256v-128h-64v64h-64v-64h-64z" />
    <glyph glyph-name="uni201F" unicode="&#x201f;" horiz-adv-x="320" 
d="M64 384v64h64v-64h-64zM192 384v64h64v-64h-64zM0 448v128h256v-64h-64v-64h-64v64h-64v-64h-64z" />
    <glyph glyph-name="dagger" unicode="&#x2020;" horiz-adv-x="384" 
d="M128 0v320h-128v64h128v128h64v-128h128v-64h-128v-320h-64z" />
    <glyph glyph-name="daggerdbl" unicode="&#x2021;" horiz-adv-x="384" 
d="M128 0v128h-128v64h128v128h-128v64h128v128h64v-128h128v-64h-128v-128h128v-64h-128v-128h-64z" />
    <glyph glyph-name="bullet" unicode="&#x2022;" horiz-adv-x="192" 
d="M0 192v128h128v-128h-128z" />
    <glyph glyph-name="onedotenleader" unicode="&#x2024;" horiz-adv-x="192" 
d="M0 192v128h128v-128h-128z" />
    <glyph glyph-name="twodotenleader" unicode="&#x2025;" horiz-adv-x="384" 
d="M0 192v128h128v-128h-128zM192 192v128h128v-128h-128z" />
    <glyph glyph-name="ellipsis" unicode="&#x2026;" horiz-adv-x="576" 
d="M0 0v128h128v-128h-128zM192 0v128h128v-128h-128zM384 0v128h128v-128h-128z" />
    <glyph glyph-name="uni2027" unicode="&#x2027;" horiz-adv-x="192" 
d="M0 192v128h128v-128h-128z" />
    <glyph glyph-name="uni2038" unicode="&#x2038;" horiz-adv-x="384" 
d="M0 64v64h64v-64h-64zM256 64v64h64v-64h-64zM64 128v64h64v-64h-64zM192 128v64h64v-64h-64zM128 192v64h64v-64h-64z" />
    <glyph glyph-name="guilsinglleft" unicode="&#x2039;" horiz-adv-x="320" 
d="M192 0v64h64v-64h-64zM128 64v64h64v-64h-64zM64 128v64h64v-64h-64zM0 192v64h64v-64h-64zM64 256v64h64v-64h-64zM128 320v64h64v-64h-64zM192 384v64h64v-64h-64z" />
    <glyph glyph-name="guilsinglright" unicode="&#x203a;" horiz-adv-x="320" 
d="M0 0v64h64v-64h-64zM64 64v64h64v-64h-64zM128 128v64h64v-64h-64zM192 192v64h64v-64h-64zM128 256v64h64v-64h-64zM64 320v64h64v-64h-64zM0 384v64h64v-64h-64z" />
    <glyph glyph-name="uni203D" unicode="&#x203d;" horiz-adv-x="384" 
d="M128 0v64h64v-64h-64zM128 128v256h64v-64h64v-64h-64v-128h-64zM256 320v128h64v-128h-64zM0 320v128h64v64h192v-64h-128v-64h-64v-64h-64z" />
    <glyph glyph-name="uni203E" unicode="&#x203e;" horiz-adv-x="384" 
d="M0 576v64h320v-64h-320z" />
    <glyph glyph-name="uni2043" unicode="&#x2043;" horiz-adv-x="192" 
d="M0 192v128h128v-128h-128z" />
    <glyph glyph-name="fraction" unicode="&#x2044;" 
d="M0 -64v64h64v-64h-64zM64 0v128h64v-128h-64zM128 128v128h64v-128h-64zM192 256v128h64v-128h-64zM256 384v128h64v-128h-64zM320 512v64h64v-64h-64z" />
    <glyph glyph-name="uni204F" unicode="&#x204f;" horiz-adv-x="192" 
d="M0 -64v192h128v-128h-64v-64h-64zM0 192v128h128v-128h-128z" />
    <glyph glyph-name="uni2053" unicode="&#x2053;" 
d="M0 192v64h64v-64h-64zM192 192v64h128v-64h-128zM64 256v64h128v-64h-128zM320 256v64h64v-64h-64z" />
    <glyph glyph-name="uni2056" unicode="&#x2056;" horiz-adv-x="576" 
d="M0 192v128h128v-128h-128zM192 192v128h128v-128h-128zM384 192v128h128v-128h-128z" />
    <glyph glyph-name="uni2070" unicode="&#x2070;" horiz-adv-x="384" 
d="M0 -64v128h320v-128h-320zM64 128v64h128v64h64v256h64v-320h-64v-64h-192zM0 192v320h64v64h192v-64h-128v-64h-64v-256h-64z" />
    <glyph glyph-name="uni2071" unicode="&#x2071;" horiz-adv-x="320" 
d="M0 -64v128h256v-128h-256zM128 128v256h64v-256h-64zM64 384v64h64v-64h-64zM128 448v64h-64v64h128v-128h-64z" />
    <glyph glyph-name="uni2074" unicode="&#x2074;" horiz-adv-x="512" 
d="M0 -64v128h448v-128h-448zM0 192v64h64v-64h-64zM128 384v128h64v-128h-64zM64 512v64h64v-64h-64zM256 128v128h-192v128h64v-64h128v256h64v-192h128v-64h-128v-192h-64z" />
    <glyph glyph-name="uni2075" unicode="&#x2075;" horiz-adv-x="384" 
d="M0 -64v128h320v-128h-320zM64 128v64h192v-64h-192zM0 192v64h64v-64h-64zM256 192v192h64v-192h-64zM64 320v256h256v-64h-192v-64h128v-64h-128v-64h-64z" />
    <glyph glyph-name="uni2076" unicode="&#x2076;" horiz-adv-x="384" 
d="M0 -64v128h320v-128h-320zM64 128v64h192v-64h-192zM256 192v128h64v-128h-64zM0 192v192h64v-192h-64zM128 320v64h128v-64h-128zM64 384v128h64v-128h-64zM128 512v64h64v-64h-64z" />
    <glyph glyph-name="uni2077" unicode="&#x2077;" horiz-adv-x="384" 
d="M0 -64v128h320v-128h-320zM128 128v192h64v-192h-64zM192 320v128h64v-128h-64zM256 448v64h-256v64h320v-128h-64z" />
    <glyph glyph-name="uni2078" unicode="&#x2078;" horiz-adv-x="384" 
d="M0 -64v128h320v-128h-320zM64 128v64h192v-64h-192zM0 192v128h64v-128h-64zM256 192v128h64v-128h-64zM0 384v128h64v-128h-64zM64 320v64h128v64h64v64h64v-128h-64v-64h-192zM64 512v64h192v-64h-192z" />
    <glyph glyph-name="uni2079" unicode="&#x2079;" horiz-adv-x="384" 
d="M0 -64v128h320v-128h-320zM128 128v128h64v-128h-64zM0 384v128h64v-128h-64zM192 256v64h-128v64h128v64h64v64h-192v64h256v-192h-64v-128h-64z" />
    <glyph glyph-name="uni207A" unicode="&#x207a;" horiz-adv-x="384" 
d="M0 -64v128h320v-128h-320zM128 192v128h-128v64h128v128h64v-128h128v-64h-128v-128h-64z" />
    <glyph glyph-name="uni207B" unicode="&#x207b;" horiz-adv-x="320" 
d="M0 -64v128h256v-128h-256zM0 320v64h256v-64h-256z" />
    <glyph glyph-name="uni207C" unicode="&#x207c;" horiz-adv-x="320" 
d="M0 -64v128h256v-128h-256zM0 256v64h256v-64h-256zM0 384v64h256v-64h-256z" />
    <glyph glyph-name="uni207D" unicode="&#x207d;" horiz-adv-x="320" 
d="M0 -64v128h256v-128h-256zM128 128v64h64v-64h-64zM64 192v320h64v-320h-64zM128 512v64h64v-64h-64z" />
    <glyph glyph-name="uni207E" unicode="&#x207e;" horiz-adv-x="320" 
d="M0 -64v128h256v-128h-256zM64 128v64h64v-64h-64zM128 192v320h64v-320h-64zM64 512v64h64v-64h-64z" />
    <glyph glyph-name="uni207F" unicode="&#x207f;" horiz-adv-x="384" 
d="M0 -64v128h320v-128h-320zM0 128v128h64v-128h-64zM192 128v128h64v-64h64v-64h-128zM64 256v128h64v-128h-64zM256 256v128h64v-128h-64zM0 384v64h64v-64h-64zM128 384v64h128v-64h-128z" />
    <glyph glyph-name="Euro" unicode="&#x20ac;" horiz-adv-x="512" 
d="M128 0v64h256v-64h-256zM384 64v64h64v-64h-64zM64 64v64h-64v64h64v64h-64v64h64v64h64v-64h192v-64h-192v-64h192v-64h-192v-64h-64zM384 320v64h64v-64h-64zM128 384v64h256v-64h-256z" />
    <glyph glyph-name="trademark" unicode="&#x2122;" 
d="M64 448v128h-64v64h256v-64h64v64h64v-192h-64v64h-64v-64h-64v128h-64v-128h-64z" />
    <glyph glyph-name="arrowleft" unicode="&#x2190;" horiz-adv-x="704" 
d="M128 128v64h64v-64h-64zM64 192v64h-64v64h64v64h64v-64h512v-64h-512v-64h-64zM128 384v64h64v-64h-64z" />
    <glyph glyph-name="arrowup" unicode="&#x2191;" horiz-adv-x="384" 
d="M0 384v64h64v-64h-64zM256 384v64h64v-64h-64zM128 -64v512h-64v64h64v64h64v-64h64v-64h-64v-512h-64z" />
    <glyph glyph-name="arrowright" unicode="&#x2192;" horiz-adv-x="704" 
d="M448 128v64h64v-64h-64zM512 192v64h-512v64h512v64h64v-64h64v-64h-64v-64h-64zM448 384v64h64v-64h-64z" />
    <glyph glyph-name="arrowdown" unicode="&#x2193;" horiz-adv-x="384" 
d="M0 64v64h64v-64h-64zM256 64v64h64v-64h-64zM128 -64v64h-64v64h64v512h64v-512h64v-64h-64v-64h-64z" />
    <glyph glyph-name="arrowboth" unicode="&#x2194;" horiz-adv-x="704" 
d="M128 128v64h64v-64h-64zM448 128v64h64v-64h-64zM64 192v64h-64v64h64v64h64v-64h384v64h64v-64h64v-64h-64v-64h-64v64h-384v-64h-64zM128 384v64h64v-64h-64zM448 384v64h64v-64h-64z" />
    <glyph glyph-name="arrowupdn" unicode="&#x2195;" horiz-adv-x="384" 
d="M0 64v64h64v-64h-64zM256 64v64h64v-64h-64zM0 384v64h64v-64h-64zM256 384v64h64v-64h-64zM128 -64v64h-64v64h64v384h-64v64h64v64h64v-64h64v-64h-64v-384h64v-64h-64v-64h-64z" />
    <glyph glyph-name="uni2196" unicode="&#x2196;" horiz-adv-x="640" 
d="M512 0v64h64v-64h-64zM448 64v64h64v-64h-64zM384 128v64h64v-64h-64zM320 192v64h64v-64h-64zM256 256v64h64v-64h-64zM192 320v64h64v-64h-64zM128 384v64h64v-64h-64zM0 320v256h256v-64h-128v-64h-64v-128h-64z" />
    <glyph glyph-name="uni2197" unicode="&#x2197;" horiz-adv-x="640" 
d="M0 0v64h64v-64h-64zM64 64v64h64v-64h-64zM128 128v64h64v-64h-64zM192 192v64h64v-64h-64zM256 256v64h64v-64h-64zM320 320v64h64v-64h-64zM384 384v64h64v-64h-64zM512 320v128h-64v64h-128v64h256v-256h-64z" />
    <glyph glyph-name="uni2198" unicode="&#x2198;" horiz-adv-x="640" 
d="M384 128v64h64v-64h-64zM320 192v64h64v-64h-64zM320 0v64h128v64h64v128h64v-256h-256zM256 256v64h64v-64h-64zM192 320v64h64v-64h-64zM128 384v64h64v-64h-64zM64 448v64h64v-64h-64zM0 512v64h64v-64h-64z" />
    <glyph glyph-name="uni2199" unicode="&#x2199;" horiz-adv-x="640" 
d="M128 128v64h64v-64h-64zM0 0v256h64v-128h64v-64h128v-64h-256zM192 192v64h64v-64h-64zM256 256v64h64v-64h-64zM320 320v64h64v-64h-64zM384 384v64h64v-64h-64zM448 448v64h64v-64h-64zM512 512v64h64v-64h-64z" />
    <glyph glyph-name="filledbox" unicode="&#x25a0;" horiz-adv-x="704" 
d="M0 -64v640h640v-640h-640z" />
    <glyph glyph-name="H22073" unicode="&#x25a1;" horiz-adv-x="704" 
d="M576 0v512h-512v-512h512zM0 -64v640h640v-640h-640z" />
    <glyph glyph-name="H18543" unicode="&#x25aa;" horiz-adv-x="320" 
d="M0 128v256h256v-256h-256z" />
    <glyph glyph-name="H18551" unicode="&#x25ab;" horiz-adv-x="320" 
d="M192 192v128h-128v-128h128zM0 128v256h256v-256h-256z" />
    <glyph glyph-name="uni2605" unicode="&#x2605;" horiz-adv-x="832" 
d="M128 -64v64h64v-64h-64zM576 -64v64h64v-64h-64zM192 0v256h-64v64h-128v64h320v192h128v-192h320v-64h-128v-64h-64v-256h-128v64h-128v-64h-128z" />
    <glyph glyph-name="uni2606" unicode="&#x2606;" horiz-adv-x="832" 
d="M128 -64v64h64v-64h-64zM576 -64v64h64v-64h-64zM320 64v64h128v-64h-128zM192 0v256h64v-192h64v-64h-128zM448 0v64h64v192h64v-256h-128zM128 256v64h-128v64h320v-64h-128v-64h-64zM576 256v64h-128v64h320v-64h-128v-64h-64zM320 384v192h128v-192h-128z" />
    <glyph glyph-name="uniFFFC" unicode="&#xfffc;" horiz-adv-x="832" 
d="M704 -64v640h-640v-640h640zM0 -128v768h768v-768h-768z" />
    <glyph glyph-name="uniFFFD" unicode="&#xfffd;" horiz-adv-x="832" 
d="M0 -128v768h768v-768h-768z" />
  </font>
</defs>
</svg>
