<?xml version="1.0" standalone="no"?>
<!DOCTYPE svg PUBLIC "-//W3C//DTD SVG 1.1//EN" "http://www.w3.org/Graphics/SVG/1.1/DTD/svg11.dtd" >
<svg>
<metadata>
Created by FontForge 20090914 at Mon Feb 25 16:31:13 2019
 By www-data
Copyright (c) 2019 by Creative LAB. All rights reserved.
</metadata>
<defs>
<font id="SweetyScript" horiz-adv-x="529" >
  <font-face 
    font-family="Sweety Script"
    font-weight="400"
    font-stretch="normal"
    units-per-em="1000"
    panose-1="2 0 5 3 0 0 0 2 0 4"
    ascent="750"
    descent="-250"
    x-height="466"
    cap-height="796"
    bbox="-1451.01 -585 2199.99 1756.51"
    underline-thickness="50"
    underline-position="-50"
    unicode-range="U+000D-U+201E"
  />
<missing-glyph horiz-adv-x="272" 
 />
    <glyph glyph-name=".notdef" horiz-adv-x="272" 
 />
    <glyph glyph-name="NULL" horiz-adv-x="0" 
 />
    <glyph glyph-name="NULL" horiz-adv-x="0" 
 />
    <glyph glyph-name="nonmarkingreturn" unicode="&#xd;" horiz-adv-x="272" 
 />
    <glyph glyph-name="space" unicode=" " horiz-adv-x="272" 
 />
    <glyph glyph-name="exclam" unicode="!" horiz-adv-x="298" 
d="M102 -140c-17.333 0 -30.668 7.33496 -40.001 22.002s-14 31.334 -14 50.001c0 19.333 5.33301 36.166 16 50.499s27 21.5 49 21.5c16.667 0 29.5 -7.16699 38.5 -21.5s13.5 -29.833 13.5 -46.5c0 -18.667 -5.16699 -35.834 -15.5 -51.501
s-26.166 -23.834 -47.499 -24.501zM158.998 77.002c-3.33301 -13.333 -9.66602 -24.167 -18.999 -32.5s-18.666 -12.5 -27.999 -12.5c-16 0 -25.833 8.33301 -29.5 25s-5.5 45 -5.5 85c0 30.667 0.5 66 1.5 106s2.5 81.333 4.5 124s4.16699 85 6.5 127
s4.83301 80.333 7.5 115s5.5 64 8.5 88s5.83301 39.667 8.5 47c6.66699 16 14.167 27.667 22.5 35s16.833 11 25.5 11c18 0 31 -11.167 39 -33.5s12 -49.5 12 -81.5c0 -24 -0.833008 -53.333 -2.5 -88s-3.83398 -71.667 -6.50098 -111s-5.83398 -79.5 -9.50098 -120.5
s-7.5 -79.833 -11.5 -116.5s-8 -69.667 -12 -99s-8 -52 -12 -68z" />
    <glyph glyph-name="quotedbl" unicode="&#x22;" horiz-adv-x="512" 
d="M397 612c2 -12 2.99805 -24.665 2.99805 -37.998c0 -20 -2.33301 -40.667 -7 -62s-10.834 -40.666 -18.501 -57.999s-16.5 -31.5 -26.5 -42.5s-20.333 -16.5 -31 -16.5c-19.333 0 -29 14.667 -29 44c0 10.667 0.833008 22.667 2.5 36s3.83398 27.666 6.50098 42.999
c2.66699 16 4.83398 32.167 6.50098 48.5s2.5 31.166 2.5 44.499c0 23.333 3.66699 40.666 11 51.999s16.333 17 27 17s20.834 -5.66699 30.501 -17s17.167 -28.333 22.5 -51zM220.998 612.002c2 -12 2.99902 -24.665 2.99902 -37.998c0 -20 -2.33301 -40.667 -7 -62
s-10.834 -40.666 -18.501 -57.999s-16.5 -31.5 -26.5 -42.5s-20.333 -16.5 -31 -16.5c-11.333 0 -19.166 3.66699 -23.499 11s-6.5 18.333 -6.5 33c0 10.667 0.833008 22.667 2.5 36s3.83398 27.666 6.50098 42.999c2.66699 16 5 32.167 7 48.5s3 31.166 3 44.499
c0 23.333 3.66699 40.666 11 51.999s16 17 26 17c10.667 0 21 -5.66699 31 -17s17.667 -28.333 23 -51z" />
    <glyph glyph-name="numbersign" unicode="#" horiz-adv-x="764" 
d="M270 549c0.666992 10.667 4.16699 18.998 10.5 24.998s14.5 9 24.5 9s18.167 -3.5 24.5 -10.5s9.5 -15.5 9.5 -25.5l-6 -157h101l5 159c0.666992 10.667 4.33398 19 11.001 25s15 9 25 9s18 -3.5 24 -10.5s9 -15.5 9 -25.5l-5 -163c20 -0.666992 40.333 -1.5 61 -2.5
s41.334 -1.83301 62.001 -2.5c5.33301 0 10 -2.16699 14 -6.5s6 -9.16602 6 -14.499c-1.33301 -12.667 -8.33301 -19 -21 -19l-124 5v-91l125 -6c5.33301 0 10 -2 14 -6s6 -8.66699 6 -14c-0.666992 -5.33301 -3 -9.83301 -7 -13.5s-8.66699 -5.5 -14 -5.5l-128 5l-7 -157
c-0.666992 -9.33301 -4.33398 -17.166 -11.001 -23.499s-15 -9.5 -25 -9.5c-9.33301 0 -17.333 3.66699 -24 11s-9.66699 15.333 -9 24l6 158h-100l-7 -160c-0.666992 -9.33301 -4.33398 -17.166 -11.001 -23.499s-14.667 -9.5 -24 -9.5s-17.5 3.66699 -24.5 11
s-10.167 15.333 -9.5 24l7 164c-20 0.666992 -40.667 1.5 -62 2.5s-42 1.83301 -62 2.5c-6 0 -10.667 2 -14 6s-5 8.66699 -5 14c0 6 2 10.667 6 14s8.66699 5 14 5l124 -5v92c-20.667 0.666992 -41.5 1.5 -62.5 2.5s-41.833 1.83301 -62.5 2.5c-6 0 -10.667 2 -14 6
s-5 9 -5 15c0 5.33301 2 9.66602 6 12.999s8.66699 5 14 5l129 -5zM428 258.998v87h-96v-87h96z" />
    <glyph glyph-name="dollar" unicode="$" horiz-adv-x="659" 
d="M468 722c2.66699 6.66699 5.00098 14.001 7.00098 22.001s3 16.667 3 26c0 17.333 -4 33.166 -12 47.499s-21.667 21.5 -41 21.5c-12.667 0 -26 -3.5 -40 -10.5s-26.667 -16.333 -38 -28s-20.833 -25.167 -28.5 -40.5s-11.5 -31.333 -11.5 -48c0 -30 8.66699 -60 26 -90
s37.333 -61 60 -93c14 -19.333 28.167 -40 42.5 -62s27.333 -45 39 -69s21.167 -49.333 28.5 -76s11 -54.334 11 -83.001c0 -58.667 -12.333 -109 -37 -151s-59.334 -72.667 -104.001 -92l-4 -121c-0.666992 -10 -4.33398 -18.167 -11.001 -24.5s-14.667 -9.5 -24 -9.5
s-17.5 3.83301 -24.5 11.5s-10.167 16.167 -9.5 25.5l3 101c-3.33301 -0.666992 -6.16602 -0.833984 -8.49902 -0.500977s-5.16602 0.5 -8.49902 0.5c-21.333 0 -42.166 3.66699 -62.499 11s-38.5 18.5 -54.5 33.5s-29 34.333 -39 58s-15 51.5 -15 83.5
c0 16.667 2.66699 33.667 8 51s13.166 33.166 23.499 47.499s22.833 26.166 37.5 35.499s31.667 14 51 14c8 0 12 -4.66699 12 -14c0 -4 -1 -7.5 -3 -10.5s-4.66699 -4.5 -8 -4.5c-16 0 -29.667 -3.66699 -41 -11s-20.666 -16.666 -27.999 -27.999s-12.833 -24 -16.5 -38
s-5.5 -28 -5.5 -42c0 -19.333 2.83301 -37.666 8.5 -54.999s13.5 -32.5 23.5 -45.5s21.667 -23.167 35 -30.5s27.666 -11 42.999 -11c26.667 0 49 7.83301 67 23.5s32.333 34.5 43 56.5s18.334 45.167 23.001 69.5s7 45.166 7 62.499c0 46.667 -9.5 89.334 -28.5 128.001
s-41.833 75.667 -68.5 111c-36 48 -61.833 91.833 -77.5 131.5s-23.5 75.834 -23.5 108.501c0 22.667 3.16699 43.334 9.5 62.001s14.833 35.334 25.5 50.001s23 27.167 37 37.5s28.667 18.5 44 24.5l3 102c0.666992 9.33301 4.33398 17.166 11.001 23.499
s14.667 9.5 24 9.5c10 0 18.333 -3.33301 25 -10s10 -14.667 10 -24l-2 -90c18 0 34.5 -3.5 49.5 -10.5s28 -16.333 39 -28s19.5 -25.5 25.5 -41.5s9 -33 9 -51c0 -15.333 -2.33301 -29.333 -7 -42s-10.834 -23.5 -18.501 -32.5s-16.334 -16 -26.001 -21
s-19.5 -7.5 -29.5 -7.5c-4.66699 0 -10.834 1 -18.501 3s-15.167 4.83301 -22.5 8.5s-13.666 8 -18.999 13s-8 10.167 -8 15.5c0 9.33301 4.33301 14 13 14c5.33301 0 9.66602 -1.66699 12.999 -5h-1c8 -5.33301 16 -9.83301 24 -13.5s15.667 -5.5 23 -5.5s14.333 2 21 6
s12.667 11 18 21h-1z" />
    <glyph glyph-name="percent" unicode="%" horiz-adv-x="541" 
d="M380 751c3.33301 5.33301 8.16602 10.5 14.499 15.5s12.5 7.5 18.5 7.5c11.333 0 20 -3.66699 26 -11s9 -15.333 9 -24c0 -4 -0.666992 -8 -2 -12l-314 -859c-3.33301 -6 -8.16602 -11.333 -14.499 -16s-12.833 -7 -19.5 -7c-10 0 -18 3.83301 -24 11.5s-9 15.5 -9 23.5
v6.5c0 2.33301 0.666992 4.5 2 6.5zM363 190c-6 0 -11.333 -3.00098 -16 -9.00098s-8.5 -13.833 -11.5 -23.5s-5.33301 -20.5 -7 -32.5s-2.5 -24.333 -2.5 -37c0 -30 3 -51.833 9 -65.5s13.333 -20.5 22 -20.5h-1c5.33301 0.666992 10.666 4.33398 15.999 11.001
s10 15 14 25s7.33301 20.833 10 32.5s4 23.167 4 34.5c0 10.667 -0.833008 21.167 -2.5 31.5s-4.16699 19.5 -7.5 27.5s-7.16602 14.333 -11.499 19s-9.5 7 -15.5 7zM357 211.999c23.333 0 40.499 -10.334 51.499 -31.001s16.5 -45.667 16.5 -75
c0 -16 -1.83301 -31.833 -5.5 -47.5s-8.66699 -29.5 -15 -41.5s-14.333 -21.667 -24 -29s-20.5 -11 -32.5 -11c-13.333 0 -25.333 3 -36 9s-19.667 14 -27 24s-13.166 21.667 -17.499 35s-6.5 27.666 -6.5 42.999c0 14.667 1.83301 29.334 5.5 44.001
s9.5 27.834 17.5 39.501s18 21.167 30 28.5s26.333 11.333 43 12zM184.999 597.998c-6 0 -11.334 -3.16797 -16.001 -9.50098s-8.5 -14.666 -11.5 -24.999s-5.33301 -22 -7 -35s-2.5 -25.833 -2.5 -38.5c0 -26.667 2.66699 -46.5 8 -59.5s11.333 -19.5 18 -19.5
c6 0 11.833 3 17.5 9s10.834 13.833 15.501 23.5s8.5 20.5 11.5 32.5s4.5 24.333 4.5 37c0 10.667 -0.833008 21.167 -2.5 31.5s-4.16699 19.5 -7.5 27.5s-7.33301 14.333 -12 19s-10 7 -16 7zM178.998 620.997c23.333 0 40.333 -10.498 51 -31.498s16 -45.5 16 -73.5
c0 -15.333 -1.66699 -30.666 -5 -45.999s-8 -29.333 -14 -42s-13.667 -22.834 -23 -30.501s-20 -11.5 -32 -11.5c-28.667 0 -50.667 10.833 -66 32.5s-23 48.5 -23 80.5c0 14.667 1.83301 29.167 5.5 43.5s9.5 27.166 17.5 38.499s18 20.666 30 27.999s26.333 11.333 43 12z
" />
    <glyph glyph-name="ampersand" unicode="&#x26;" horiz-adv-x="654" 
d="M352 919c12 3.33301 22.9932 2.16992 32.9932 -3.49707s16.333 -13.834 19 -24.501c2.66699 -11.333 1 -21.666 -5 -30.999s-15 -15.666 -27 -18.999c-14.667 -4 -27.667 -1 -39 9c-4.66699 -6.66699 -7.83398 -13.834 -9.50098 -21.501s-2.5 -15.5 -2.5 -23.5
c0 -3.33301 -0.166992 -4.83301 -0.5 -4.5s-0.166016 -1.16699 0.500977 -4.5c13.333 5.33301 27.5 9.5 42.5 12.5s31.167 4.5 48.5 4.5c34 -1.33301 61.833 -12.5 83.5 -33.5s32.5 -48.167 32.5 -81.5c0 -16 -2.66699 -30 -8 -42s-12.166 -22 -20.499 -30
s-17.666 -14.167 -27.999 -18.5s-20.166 -6.5 -29.499 -6.5c-12 0 -23.5 2.33301 -34.5 7s-21.333 10.667 -31 18s-18.5 15.833 -26.5 25.5s-15 19.167 -21 28.5c-16 -20 -28.333 -41.667 -37 -65s-13 -45.666 -13 -66.999c0 -23.333 6.5 -43.5 19.5 -60.5
s33.5 -26.167 61.5 -27.5h7c2.66699 0 5.66699 0.333008 9 1c4 0.666992 8.33301 1.16699 13 1.5s9 0.5 13 0.5h4c3.33301 0 5 -1.66699 5 -5l1 -6c0 -2.66699 -1 -4.33398 -3 -5.00098c-32 -14 -59.333 -31.5 -82 -52.5s-41 -44 -55 -69s-24.167 -51 -30.5 -78
s-9.5 -53.833 -9.5 -80.5c0 -27.333 3 -53.333 9 -78s14.333 -46.334 25 -65.001s23.5 -33.5 38.5 -44.5s31.167 -16.5 48.5 -16.5c18 0 36.167 5.5 54.5 16.5s35 25.833 50 44.5s27.833 40.167 38.5 64.5s17.334 49.833 20.001 76.5v1c0.666992 4 1 7.83301 1 11.5v12.5
c0 15.333 -2.33301 31 -7 47s-12 30 -22 42c-5.33301 -11.333 -14.666 -18.666 -27.999 -21.999c-11.333 -3.33301 -22 -2 -32 4s-16.333 14 -19 24c-2.66699 11.333 -1.16699 21.666 4.5 30.999s14.5 15.666 26.5 18.999c14 2.66699 26.333 0.333984 37 -6.99902
c25.333 -12.667 43.666 -32.5 54.999 -59.5s17 -53.833 17 -80.5c0 -34.667 -6 -68.5 -18 -101.5s-28.833 -62.333 -50.5 -88s-47.5 -46.334 -77.5 -62.001s-63 -23.5 -99 -23.5c-30.667 0 -57.667 6.66699 -81 20s-42.666 31.166 -57.999 53.499s-27 48.166 -35 77.499
s-12 59.666 -12 90.999c0 28.667 3.16699 57.5 9.5 86.5s16 56.333 29 82s29.333 48.334 49 68.001s43.167 35.167 70.5 46.5c-33.333 9.33301 -57.833 26.333 -73.5 51s-23.5 52.667 -23.5 84c0 18.667 2.5 37.667 7.5 57s12.333 38 22 56s21.334 34.833 35.001 50.5
s29.167 29.5 46.5 41.5c-1.33301 4 -2 8.16699 -2 12.5v13.5c0 15.333 2.5 29.833 7.5 43.5s13.167 25.5 24.5 35.5c0.666992 8 3.83398 15.333 9.50098 22s13.167 11.334 22.5 14.001zM458.993 752.004c-21.333 0 -41.168 -4.33203 -59.501 -12.999
s-34.833 -20.334 -49.5 -35.001c4.66699 -8 10.334 -16.333 17.001 -25s14.167 -16.5 22.5 -23.5s17 -12.833 26 -17.5s18.5 -7 28.5 -7c13.333 0 25.666 5.66699 36.999 17s17 29.333 17 54c0 13.333 -2.66699 25 -8 35s-15.666 15 -30.999 15zM347.991 702.005l2 2
c-1.33301 0 -2 1 -2 3v-5z" />
    <glyph glyph-name="quotesingle" unicode="'" horiz-adv-x="341" 
d="M225 612c2 -12 3.00098 -24.666 3.00098 -37.999c0 -20 -2.33301 -40.667 -7 -62s-10.834 -40.666 -18.501 -57.999s-16.5 -31.5 -26.5 -42.5s-20.333 -16.5 -31 -16.5c-11.333 0 -19 3.66699 -23 11s-6 18.333 -6 33c0 10.667 0.833008 22.667 2.5 36l5.5 43
c2.66699 16 5 32.167 7 48.5s3 31.166 3 44.499c0 23.333 3.66699 40.666 11 51.999s16.333 17 27 17c10 0 20 -5.66699 30 -17s17.667 -28.333 23 -51z" />
    <glyph glyph-name="parenleft" unicode="(" horiz-adv-x="515" 
d="M340 -80c2 -2 3.33203 -4.33301 3.99902 -7s1 -5 1 -7c0 -6.66699 -4.66699 -11.334 -14 -14.001c-44 6.66699 -81 21.5 -111 44.5s-54.167 51.5 -72.5 85.5s-31.5 72.167 -39.5 114.5s-12 86.5 -12 132.5c0 90 10.167 168 30.5 234s46.5 120.5 78.5 163.5
s67.5 74.833 106.5 95.5s77.167 31.334 114.5 32.001c7.33301 -2.66699 11 -7.66699 11 -15c0 -8.66699 -4 -13.667 -12 -15c-24.667 -3.33301 -46.667 -12.166 -66 -26.499s-36.833 -32.333 -52.5 -54s-29.167 -45.834 -40.5 -72.501s-21.166 -53.667 -29.499 -81
s-15 -54.333 -20 -81s-8.5 -50.667 -10.5 -72c-2 -18 -3.83301 -38.333 -5.5 -61s-2.5 -46.667 -2.5 -72c0 -34 2 -68.833 6 -104.5s11.167 -68.667 21.5 -99s24.5 -56.333 42.5 -78s41 -35.5 69 -41.5z" />
    <glyph glyph-name="parenright" unicode=")" horiz-adv-x="467" 
d="M122 769c-3.33301 3.33301 -4.99805 7.66406 -4.99805 12.9971c0 3.33301 1 6.5 3 9.5s5.33301 5.16699 10 6.5c44 -7.33301 81.167 -22.5 111.5 -45.5s54.666 -51.833 72.999 -86.5s31.5 -73.5 39.5 -116.5s12 -87.5 12 -133.5
c0 -89.333 -10.167 -166.666 -30.5 -231.999s-46.5 -119.333 -78.5 -162s-67.5 -74.5 -106.5 -95.5s-76.833 -31.5 -113.5 -31.5c-8 0 -12 4.66699 -12 14c0 3.33301 1 6.5 3 9.5s5.33301 4.83301 10 5.5c24 3.33301 45.667 12.166 65 26.499s36.666 32.333 51.999 54
s28.833 45.834 40.5 72.501s21.5 53.834 29.5 81.501s14.667 54.834 20 81.501s9.33301 50.667 12 72c2 17.333 3.66699 37.166 5 59.499s2 45.833 2 70.5c0 34 -1.83301 68.833 -5.5 104.5s-10.667 68.834 -21 99.501s-24.5 57 -42.5 79s-41.333 36 -70 42z" />
    <glyph glyph-name="asterisk" unicode="*" horiz-adv-x="541" 
d="M282 783c0.666992 5.33301 2.66504 8.99512 5.99805 10.9951s6.66602 3 9.99902 3c11.333 0 17 -6.33301 17 -19l-10 -79l26.5 29c9 10 18.167 19.667 27.5 29c4 4 8 6 12 6s7.66699 -1.66699 11 -5s5 -7.66602 5 -12.999s-1 -8.66602 -3 -9.99902l-67 -68l95 -2
c4.66699 0 8.33398 -1.66699 11.001 -5s4 -6.66602 4 -9.99902c0 -10.667 -5.33301 -16 -16 -16l-91 2l32.5 -33c11 -10.667 21.5 -21.667 31.5 -33v1c1.33301 -1.33301 2.16602 -3.16602 2.49902 -5.49902s0.5 -4.16602 0.5 -5.49902c0 -4.66699 -1.66699 -8.66699 -5 -12
s-7 -5 -11 -5c-5.33301 0 -9.33301 2 -12 6l-64 68l-11 -94c-0.666992 -5.33301 -2.66699 -9 -6 -11s-7 -3 -11 -3c-10.667 0 -16 6 -16 18l10 80l-54 -59c-3.33301 -3.33301 -7.66602 -5 -12.999 -5c-10.667 0 -16 5.33301 -16 16c0 2.66699 0.333008 4.66699 1 6
s1.66699 3 3 5l64 68c-15.333 0 -30.666 0.333008 -45.999 1s-30.666 1 -45.999 1c-5.33301 0 -9.33301 1.83301 -12 5.5s-4 7.16699 -4 10.5c0 4 1.5 7.66699 4.5 11s7.16699 5 12.5 5l90 -2l-32 33l-31 32c-2.66699 2 -4 5.66699 -4 11c0 4 1.5 7.83301 4.5 11.5
s7.16699 5.5 12.5 5.5c1.33301 0 3 -0.5 5 -1.5s4 -2.16699 6 -3.5l64 -69z" />
    <glyph glyph-name="plus" unicode="+" horiz-adv-x="623" 
d="M478 303c6 0 10.832 -2.16699 14.499 -6.5s5.5 -9.16602 5.5 -14.499c-0.666992 -5.33301 -3 -9.83301 -7 -13.5s-8.66699 -5.5 -14 -5.5h-144l-7 -141c-0.666992 -9.33301 -4 -17.5 -10 -24.5s-14.333 -10.5 -25 -10.5c-9.33301 0 -17.5 3.5 -24.5 10.5
s-10.167 15.167 -9.5 24.5l7 141h-144c-5.33301 0 -9.83301 2.16699 -13.5 6.5s-5.5 9.16602 -5.5 14.499c0.666992 5.33301 2.83398 9.83301 6.50098 13.5s8.16699 5.5 13.5 5.5h144l7 142c0.666992 9.33301 4.16699 17.333 10.5 24s14.833 10 25.5 10
c9.33301 0 17.333 -3.33301 24 -10s9.66699 -14.667 9 -24l-7 -142h144z" />
    <glyph glyph-name="comma" unicode="," horiz-adv-x="298" 
d="M123 179c4 5.33301 8.99902 9 14.999 11s12.333 3 19 3c15.333 0 27 -4.5 35 -13.5s12 -21.167 12 -36.5c0 -11.333 -2.33301 -24 -7 -38s-10.667 -27.833 -18 -41.5s-16 -26.167 -26 -37.5s-20.333 -20 -31 -26h1c-1.33301 -1.33301 -2.66602 -2 -3.99902 -2h-4
c-3.33301 0 -7 1.83301 -11 5.5s-6 7.16699 -6 10.5c0 2.66699 2 6 6 10l10.5 11c4.33301 4.66699 8.5 9.83398 12.5 15.501s7.33301 11.667 10 18s4 13.166 4 20.499c0 3.33301 -1.16699 6.66602 -3.5 9.99902s-5.16602 6.66602 -8.49902 9.99902
c-4.66699 4.66699 -8.83398 9.83398 -12.501 15.501s-5.5 12.834 -5.5 21.501c0 12.667 4 23.667 12 33z" />
    <glyph glyph-name="hyphen" unicode="-" horiz-adv-x="603" 
d="M456 317c8 0 15 -2.83301 21 -8.5s9 -12.834 9 -21.501c0 -9.33301 -3 -17 -9 -23s-13 -9 -21 -9h-310c-9.33301 0 -16.833 3 -22.5 9s-8.5 13.667 -8.5 23c0 8.66699 2.83301 15.834 8.5 21.501s13.167 8.5 22.5 8.5h310z" />
    <glyph glyph-name="period" unicode="." horiz-adv-x="326" 
d="M163 14c-16 0.666992 -27.832 6 -35.499 16s-11.5 21 -11.5 33c0 14 4.66699 27 14 39s22.666 18 39.999 18c16.667 0 29 -4.33301 37 -13s12 -20 12 -34c0 -14.667 -4.83301 -28.167 -14.5 -40.5s-23.5 -18.5 -41.5 -18.5z" />
    <glyph glyph-name="slash" unicode="/" horiz-adv-x="300" 
d="M188 775c1.33301 8 5.16504 14.8311 11.498 20.498s13.833 8.5 22.5 8.5c10.667 0 19.167 -3.5 25.5 -10.5s9.5 -15.167 9.5 -24.5v-5l-137 -904c-1.33301 -8 -5.16602 -15 -11.499 -21s-13.833 -9 -22.5 -9c-9.33301 0 -17.666 3.33301 -24.999 10s-11 15.667 -11 27
c0 0.666992 0.166992 1.33398 0.5 2.00098s0.5 1.33398 0.5 2.00098z" />
    <glyph glyph-name="zero" unicode="0" horiz-adv-x="631" 
d="M359 695c27.333 0 51.333 -8.49902 72 -25.499s37.834 -39.833 51.501 -68.5s23.834 -61.5 30.501 -98.5s10 -75.5 10 -115.5c0 -46 -4.5 -91.833 -13.5 -137.5s-22.333 -86.834 -40 -123.501s-39.667 -66.334 -66 -89.001s-56.833 -34 -91.5 -34
c-32.667 0 -61.334 8.83301 -86.001 26.5s-45.167 41.167 -61.5 70.5s-28.5 62.833 -36.5 100.5s-12 76.834 -12 117.501c0 45.333 5 90.5 15 135.5s25.167 85.333 45.5 121s45.666 64.667 75.999 87s65.833 33.5 106.5 33.5zM324 33.001
c18.667 0 35.332 12.166 49.999 36.499s27.334 55.5 38.001 93.5s18.834 80.5 24.501 127.5s8.5 93.167 8.5 138.5c0 32 -1.5 62.333 -4.5 91s-7.83301 54 -14.5 76s-15 39.333 -25 52s-22 19 -36 19c-22 0 -42 -11.833 -60 -35.5s-33.167 -54.167 -45.5 -91.5
s-22 -79 -29 -125s-10.5 -91.333 -10.5 -136c0 -33.333 2 -64.833 6 -94.5s10.167 -55.667 18.5 -78s19.166 -40.166 32.499 -53.499s29 -20 47 -20z" />
    <glyph glyph-name="one" unicode="1" horiz-adv-x="334" 
d="M86 589c1.33301 11.333 6 21.833 14 31.5s17.667 17.834 29 24.501s23.333 11.667 36 15s24.334 4.66602 35.001 3.99902s19.667 -3.66699 27 -9s11.333 -13.666 12 -24.999c-11.333 -101.333 -21.166 -200.5 -29.499 -297.5s-15.833 -194.167 -22.5 -291.5
c-1.33301 -13.333 -5.83301 -23.333 -13.5 -30s-16.167 -10 -25.5 -10c-12 0 -22.167 4.16699 -30.5 12.5s-12.5 20.166 -12.5 35.499c3.33301 43.333 7 85.333 11 126s7.66699 80 11 118v-1c5.33301 54 10.166 106.333 14.499 157s8.16602 101 11.499 151
c-46.667 -22 -69 -25.667 -67 -11z" />
    <glyph glyph-name="two" unicode="2" horiz-adv-x="577" 
d="M132 482c-4 11.333 -3.83496 22.1641 0.498047 32.4971s11.833 17.166 22.5 20.499v1c0 22.667 4.5 42.667 13.5 60s20.833 32 35.5 44s31.167 21 49.5 27s36.833 9 55.5 9c19.333 0 38.333 -3.33301 57 -10s35.334 -16.667 50.001 -30s26.5 -30.5 35.5 -51.5
s13.5 -45.5 13.5 -73.5c0 -31.333 -4.5 -58.833 -13.5 -82.5s-21 -45 -36 -64s-31.833 -36.167 -50.5 -51.5l-57 -45l-25 -19c-30.667 -24 -57 -50.167 -79 -78.5s-36.333 -63.833 -43 -106.5c18 13.333 36.333 20 55 20c16.667 0 32.334 -4.16699 47.001 -12.5
s29 -17.166 43 -26.499c11.333 -8 23 -15.333 35 -22s23.667 -10 35 -10c15.333 0 26.833 5 34.5 15s15.167 21.667 22.5 35v2c2.66699 2.66699 6.33398 4 11.001 4c3.33301 0 6.16602 -1.5 8.49902 -4.5s3.5 -6.83301 3.5 -11.5c-2 -5.33301 -5 -11.666 -9 -18.999
s-9.33301 -14.5 -16 -21.5s-14.834 -12.833 -24.501 -17.5s-20.5 -7 -32.5 -7c-19.333 0 -35.5 3.5 -48.5 10.5l-38.5 21.5c-10.667 7.33301 -21.167 13.333 -31.5 18s-21.833 7 -34.5 7c-11.333 0 -24.666 -3 -39.999 -9s-32 -15.667 -50 -29
c-5.33301 -4 -10.333 -7.33301 -15 -10s-8.66699 -4 -12 -4c-7.33301 0 -11 4.33301 -11 13c2.66699 40 9.5 75.833 20.5 107.5s24.5 60.5 40.5 86.5s34.167 49.833 54.5 71.5l63.5 64.5c34 34 58.833 66.667 74.5 98s23.5 59 23.5 83c0 17.333 -3.16699 33 -9.5 47
s-14.5 25.833 -24.5 35.5s-21.5 17 -34.5 22s-25.833 7.5 -38.5 7.5c-20 0 -38.5 -7.5 -55.5 -22.5s-25.5 -38.833 -25.5 -71.5c12 -4.66699 20.667 -13.667 26 -27c4 -11.333 3.5 -22.166 -1.5 -32.499s-12.5 -17.166 -22.5 -20.499c-10.667 -3.33301 -21 -2.5 -31 2.5
s-17 13.167 -21 24.5z" />
    <glyph glyph-name="three" unicode="3" horiz-adv-x="549" 
d="M154 172c-4 -11.333 -10.6719 -19.5029 -20.0049 -24.5029s-19 -6.16699 -29 -3.5c-0.666992 -3.33301 -1.16699 -6.5 -1.5 -9.5s-0.5 -6.16699 -0.5 -9.5c0 -12.667 3 -25 9 -37s13.833 -22.5 23.5 -31.5s20.667 -16.333 33 -22s24.833 -8.5 37.5 -8.5
c15.333 0 30.333 5 45 15s27.5 23.167 38.5 39.5s19.833 34.833 26.5 55.5s10 41.667 10 63c0 43.333 -9.33301 75.833 -28 97.5s-48 40.167 -88 55.5c-2 0.666992 -3 2.33398 -3 5.00098v11c0 2 1.33301 3.66699 4 5c40 12 71 30.667 93 56s33 61 33 107
c0 38.667 -7.5 66.167 -22.5 82.5s-32.833 24.5 -53.5 24.5c-13.333 0 -26.666 -2.83301 -39.999 -8.5s-25.5 -13.167 -36.5 -22.5s-19.833 -20.333 -26.5 -33s-10 -26 -10 -40s4.33301 -27.667 13 -41c0.666992 -0.666992 1 -2 1 -4
c-2.66699 -8.66699 -7.66699 -13 -15 -13c-5.33301 0 -9.66602 2.66699 -12.999 8s-6 11.5 -8 18.5s-3.33301 14.333 -4 22s-1 13.5 -1 17.5c0 21.333 4.83301 40.166 14.5 56.499s22.167 30.166 37.5 41.499s33 20 53 26s40 9 60 9c19.333 0 38 -2.66699 56 -8
s34 -13.666 48 -24.999s25.333 -25.666 34 -42.999s13 -38 13 -62c0 -29.333 -4.16699 -54.166 -12.5 -74.499s-18.666 -37.333 -30.999 -51s-25.666 -24.834 -39.999 -33.501s-27.5 -16 -39.5 -22c15.333 -8.66699 29.666 -18 42.999 -28s25 -21.167 35 -33.5
s17.833 -26.166 23.5 -41.499s8.5 -32.666 8.5 -51.999c0 -36 -6.5 -67.5 -19.5 -94.5s-29.167 -49.667 -48.5 -68s-40.166 -32.166 -62.499 -41.499s-43.166 -14 -62.499 -14c-20 0 -39.333 3.66699 -58 11s-35.167 17 -49.5 29s-26 26 -35 42s-13.5 33 -13.5 51
c0 4 0.5 9.5 1.5 16.5s3.16699 14.167 6.5 21.5c-8.66699 11.333 -10.334 24.333 -5.00098 39c4 11.333 11 19.666 21 24.999s20.333 6.33301 31 3s18.334 -10.333 23.001 -21s5 -21.667 1 -33z" />
    <glyph glyph-name="four" unicode="4" horiz-adv-x="500" 
d="M368 37c0 -4 -0.669922 -8.83203 -2.00293 -14.499s-3.66602 -11 -6.99902 -16s-7.5 -9.16699 -12.5 -12.5s-11.167 -5 -18.5 -5c-15.333 0 -28.166 4 -38.499 12s-15.5 17.333 -15.5 28l14 174l-198 9c-2.66699 0.666992 -5.16699 3 -7.5 7s-3.5 8 -3.5 12
c0 4.66699 1.33301 8.33398 4 11.001v-1c41.333 47.333 76.5 95.166 105.5 143.499s52.667 92.666 71 132.999s31.833 74 40.5 101s13.334 42.5 14.001 46.5s5.16699 7.33301 13.5 10s18.166 4 29.499 4c12.667 0 24.834 -2.33301 36.501 -7s17.5 -13 17.5 -25l-5 -65
c-7.33301 -93.333 -14 -184 -20 -272s-11.333 -176 -16 -264zM290.997 231.001l7.00195 99.001c1.33301 16 2.33301 30.667 3 44l2 39c0.666992 12.667 1.66699 25.5 3 38.5s3.33301 27.167 6 42.5c-3.33301 -7.33301 -5.83301 -13 -7.5 -17s-3.83398 -8.66699 -6.50098 -14
l-20 -44c-6.66699 -14 -15 -29.333 -25 -46s-22.333 -35.834 -37 -57.501s-33.334 -47.5 -56.001 -77.5z" />
    <glyph glyph-name="five" unicode="5" horiz-adv-x="569" 
d="M179 171c-4 -11.333 -10.998 -19.501 -20.998 -24.501s-20.333 -5.83301 -31 -2.5h-1c-2 -4 -3.33301 -8.16699 -4 -12.5s-1 -8.5 -1 -12.5c0 -12.667 3.16699 -24.667 9.5 -36s14.5 -21.166 24.5 -29.499s21.667 -15 35 -20s27 -7.5 41 -7.5s28.5 3.33301 43.5 10
s28.667 17.834 41 33.501s22.333 36 30 61s11.5 55.833 11.5 92.5c0 20.667 -2.16699 40.167 -6.5 58.5s-10.666 34 -18.999 47s-18.166 23.333 -29.499 31s-24 11.5 -38 11.5c-13.333 0 -27.833 -3.83301 -43.5 -11.5s-32.167 -20.167 -49.5 -37.5h1l-3 -3
c-3.33301 -3.33301 -7.66602 -7.33301 -12.999 -12s-10.666 -7 -15.999 -7c-10.667 0 -18 2.5 -22 7.5s-6 11.167 -6 18.5c1.33301 24.667 3.66602 49.334 6.99902 74.001l10 75c3.33301 26 6.5 52 9.5 78s5.5 52.333 7.5 79c0 5.33301 1.83301 11.166 5.5 17.499
s9.16699 9.5 16.5 9.5c10.667 0 22 -0.833008 34 -2.5s24.667 -3.16699 38 -4.5c15.333 -2 31.666 -3.83301 48.999 -5.5s33.666 -2.5 48.999 -2.5c18 0 35.333 1.83301 52 5.5s31 9.16699 43 16.5c8 6 14.667 9 20 9c6.66699 0 10 -4 10 -12
c0 -1.33301 -0.666992 -2.66602 -2 -3.99902c-10 -10 -22.5 -18.833 -37.5 -26.5s-31.167 -14 -48.5 -19s-35 -8.83301 -53 -11.5s-35 -4 -51 -4c-21.333 0 -39.333 2 -54 6l-30 -225c13.333 9.33301 28 16.5 44 21.5s32.667 7.5 50 7.5c20.667 0 41.5 -4 62.5 -12
s39.667 -19.833 56 -35.5s29.666 -35.334 39.999 -59.001s15.5 -50.834 15.5 -81.501c0 -2 -0.166992 -3.83301 -0.5 -5.5s-0.5 -3.16699 -0.5 -4.5v-10c-2 -30 -8 -58 -18 -84s-23.5 -48.667 -40.5 -68s-37.667 -34.666 -62 -45.999s-51.833 -17 -82.5 -17
c-19.333 0 -38.333 3.66699 -57 11s-35.334 17 -50.001 29s-26.334 26 -35.001 42s-13 33 -13 51c0 4.66699 0.666992 11.167 2 19.5s3.66602 16.5 6.99902 24.5c-6 11.333 -6.66699 23 -2 35c4 11.333 11 19.666 21 24.999s20.333 6.33301 31 3s18.334 -10.333 23.001 -21
s5 -21.667 1 -33z" />
    <glyph glyph-name="six" unicode="6" horiz-adv-x="649" 
d="M450 554c-4 10.667 -4.16992 20.8311 -0.50293 30.498s9.83398 16.834 18.501 21.501c-6 11.333 -14.833 21.166 -26.5 29.499s-26.834 12.5 -45.501 12.5c-24 0 -46.333 -10.333 -67 -31s-38.5 -47.5 -53.5 -80.5s-27.333 -70.333 -37 -112
s-15.5 -83.834 -17.5 -126.501c16.667 44 39.334 76.167 68.001 96.5s58.334 30.5 89.001 30.5c26.667 0 49.334 -5.33301 68.001 -16s34 -24.667 46 -42s20.833 -36.666 26.5 -57.999s8.5 -42.333 8.5 -63c0 -32 -4.66699 -63.5 -14 -94.5s-22.333 -58.5 -39 -82.5
s-36.5 -43.333 -59.5 -58s-48.167 -22 -75.5 -22c-30.667 0 -59 4.16699 -85 12.5s-48.5 22.833 -67.5 43.5s-33.833 48.167 -44.5 82.5s-16 77.166 -16 128.499c0 72 7.5 134.333 22.5 187s35 96.167 60 130.5s53.667 59.833 86 76.5s65.5 25 99.5 25
c21.333 0 41.5 -6.16699 60.5 -18.5s32.833 -28.166 41.5 -47.499c6.66699 -2 12.667 -5.5 18 -10.5s9.33301 -11.167 12 -18.5c4 -11.333 3.5 -22.166 -1.5 -32.499s-12.5 -17.166 -22.5 -20.499c-10.667 -3.33301 -21 -2.5 -31 2.5s-17 13.167 -21 24.5zM342.997 16.9971
c16.667 0 32.3311 7.16797 46.998 21.501s27.5 32.666 38.5 54.999s19.5 47.166 25.5 74.499s9 54.333 9 81c0 18.667 -1.83301 36.834 -5.5 54.501s-9.33398 33.334 -17.001 47.001s-17.5 24.5 -29.5 32.5s-26.333 12 -43 12c-29.333 0 -57.166 -16.167 -83.499 -48.5
s-47.166 -81.5 -62.499 -147.5c2.66699 -24 7.33398 -46.833 14.001 -68.5s15 -40.834 25 -57.501s21.833 -30.167 35.5 -40.5s29.167 -15.5 46.5 -15.5z" />
    <glyph glyph-name="seven" unicode="7" horiz-adv-x="570" 
d="M102 554c-4 10.667 -4.16699 21.001 -0.5 31.001s10.167 17 19.5 21c4 19.333 13.667 36.333 29 51s33.333 22 54 22c16 0 30.167 -0.833008 42.5 -2.5s24.166 -3.16699 35.499 -4.5c10 -1.33301 20 -2.5 30 -3.5s20 -1.5 30 -1.5c4.66699 0 10.334 0.333008 17.001 1
s13 1.66699 19 3c7.33301 1.33301 15.833 2.66602 25.5 3.99902s19.5 2 29.5 2c8 0 14.833 -0.833008 20.5 -2.5s8.83398 -4.16699 9.50098 -7.5c0 -0.666992 -0.166992 -1.33398 -0.5 -2.00098s-0.5 -1.66699 -0.5 -3l-6 -16h1c-2.66699 -6 -5.16699 -12.167 -7.5 -18.5
s-4.5 -13.166 -6.5 -20.499l-4 -11l-53.5 -140.5c-19.667 -53 -38.5 -106.833 -56.5 -161.5s-33.5 -107.667 -46.5 -159s-20.833 -96 -23.5 -134c-0.666992 -9.33301 -7.33398 -14 -20.001 -14c-7.33301 0 -15.5 1.5 -24.5 4.5s-17.333 7 -25 12s-14.167 10.667 -19.5 17
s-8 13.166 -8 20.499c1.33301 21.333 6.5 47.666 15.5 78.999s20.167 65 33.5 101s28.333 73.167 45 111.5l50 111.5l48.5 100.5l40.5 78.5c-17.333 -4 -34 -6 -50 -6c-11.333 0 -22.5 0.833008 -33.5 2.5s-21.5 3.5 -31.5 5.5l-34.5 6c-11.667 2 -24.167 3 -37.5 3
c-11.333 0 -21.833 -2.5 -31.5 -7.5s-17.167 -11.5 -22.5 -19.5c10.667 -5.33301 18.667 -14.333 24 -27c4 -11.333 3.5 -22.166 -1.5 -32.499s-12.5 -17.166 -22.5 -20.499c-10.667 -3.33301 -21 -2.5 -31 2.5s-17 13.167 -21 24.5z" />
    <glyph glyph-name="eight" unicode="8" horiz-adv-x="597" 
d="M440 382c-7.33301 -10 -16.501 -16.1748 -27.501 -18.5078s-21.167 -0.5 -30.5 5.5c-9.33301 6.66699 -14.833 15.667 -16.5 27s1.16602 22 8.49902 32c6 8.66699 13.667 14.334 23 17.001s18.333 2.33398 27 -0.999023c6.66699 12.667 12.834 27.5 18.501 44.5
s8.5 32.833 8.5 47.5s-2 28.834 -6 42.501s-10.333 25.834 -19 36.501s-19.834 19.167 -33.501 25.5s-29.834 9.5 -48.501 9.5s-36.834 -8.83301 -54.501 -26.5s-28.5 -45.167 -32.5 -82.5v-6c0 -22.667 5.16699 -43.5 15.5 -62.5s23.5 -37.667 39.5 -56s33 -36.333 51 -54
s35 -36 51 -55s29.167 -39.167 39.5 -60.5s15.5 -44.666 15.5 -69.999c0 -26 -4.66699 -50.333 -14 -73s-22.666 -42.5 -39.999 -59.5s-38.166 -30.333 -62.499 -40s-51.833 -14.5 -82.5 -14.5c-21.333 0 -42.166 3.16699 -62.499 9.5s-38.333 15.833 -54 28.5
s-28.167 28.667 -37.5 48s-14 42 -14 68c0 20.667 4.33301 41.5 13 62.5s20.167 40.667 34.5 59s31 35 50 50s38.5 26.833 58.5 35.5l-12 12h1l-33 32.5c-10.667 11 -20.167 22.667 -28.5 35s-15 25.5 -20 39.5s-7.5 29.333 -7.5 46c0 10 1.66699 24 5 42s11.5 36 24.5 54
s32 33.667 57 47s59.167 20 102.5 20c26.667 0 49.334 -3.5 68.001 -10.5s33.834 -16.167 45.501 -27.5s20.167 -24.666 25.5 -39.999s8 -31.333 8 -48c0 -21.333 -4.83301 -44.166 -14.5 -68.499s-21.167 -45.166 -34.5 -62.499c5.33301 -14 3.66602 -27.333 -5.00098 -40z
M269.999 15.9922c16.667 0.666992 31.498 5.5 44.498 14.5s23.833 20.667 32.5 35s15.167 30.333 19.5 48s6.5 35.167 6.5 52.5c0 18 -2.5 34.333 -7.5 49s-11.667 28.334 -20 41.001s-17.666 24.5 -27.999 35.5l-31.5 32.5l-6 6
c-19.333 -5.33301 -36.666 -14.333 -51.999 -27s-28.5 -27.5 -39.5 -44.5s-19.5 -35.333 -25.5 -55s-9 -38.834 -9 -57.501c0 -20 3.33301 -38 10 -54s15.5 -29.667 26.5 -41s23.5 -20 37.5 -26s28 -9 42 -9z" />
    <glyph glyph-name="nine" unicode="9" horiz-adv-x="618" 
d="M91 82c-4 11.333 -3.66895 22.3301 0.998047 32.9971s12.334 17.667 23.001 21s21 2.33301 31 -3s17 -13.666 21 -24.999c3.33301 -9.33301 3.5 -18.333 0.5 -27s-8.16699 -15.667 -15.5 -21c6 -11.333 15 -21.333 27 -30s27.667 -13 47 -13
c24 0 46.167 10.167 66.5 30.5s38.333 47 54 80s28.167 70.5 37.5 112.5s15 84.333 17 127c-16.667 -44 -39.167 -76.667 -67.5 -98s-57.5 -32 -87.5 -32c-26 0 -48.5 6 -67.5 18s-34.833 27.333 -47.5 46s-22 39.5 -28 62.5s-9 45.5 -9 67.5
c0 32.667 4.83301 63.834 14.5 93.501s23.334 55.834 41.001 78.501s38.667 40.5 63 53.5s51.5 19.5 81.5 19.5c28.667 0 55.667 -7.16699 81 -21.5s47.333 -34.5 66 -60.5s33.334 -56.833 44.001 -92.5s16 -74.5 16 -116.5c0 -68 -8.16699 -127 -24.5 -177
s-37.5 -91.167 -63.5 -123.5s-55.167 -56.333 -87.5 -72s-64.5 -23.5 -96.5 -23.5c-21.333 0 -41.5 5.83301 -60.5 17.5s-33.167 27.167 -42.5 46.5c-16.667 1.33301 -28.334 11 -35.001 29zM226.998 610.997c-12 -7.33301 -22.6689 -17.3291 -32.002 -29.9961
s-17.333 -27.167 -24 -43.5s-11.667 -33.833 -15 -52.5s-5 -37.334 -5 -56.001c0 -20 2 -39.333 6 -58s10.333 -35.334 19 -50.001s19.334 -26.334 32.001 -35.001s28 -13 46 -13c22 0 42 7.66699 60 23s33.167 33.666 45.5 54.999s22 43.833 29 67.5s10.5 43.5 10.5 59.5
c0 18.667 -2.83301 37 -8.5 55s-13.667 34 -24 48s-22.666 25.333 -36.999 34s-29.833 13 -46.5 13c-17.333 0 -36.333 -5.66699 -57 -17h1z" />
    <glyph glyph-name="colon" unicode=":" horiz-adv-x="390" 
d="M178 121c-16.667 0.666992 -28.832 6.16895 -36.499 16.502s-11.5 21.5 -11.5 33.5c0 13.333 4.66699 26.166 14 38.499s22.666 18.5 39.999 18.5c16.667 0 29.167 -4.33301 37.5 -13s12.5 -20.334 12.5 -35.001c0 -14 -4.83301 -27.333 -14.5 -40s-23.5 -19 -41.5 -19z
M193.002 381.002c-16.667 0.666992 -28.833 5.83301 -36.5 15.5s-11.5 20.834 -11.5 33.501c0 13.333 4.83301 26.166 14.5 38.499s23.167 18.5 40.5 18.5c16.667 0 29 -4.5 37 -13.5s12 -20.167 12 -33.5c0 -14 -4.83301 -27.333 -14.5 -40s-23.5 -19 -41.5 -19z" />
    <glyph glyph-name="semicolon" unicode=";" horiz-adv-x="370" 
d="M191 385c-16.667 0 -28.833 5.00098 -36.5 15.001s-11.5 21.333 -11.5 34c0 13.333 4.83301 26.166 14.5 38.499s23.167 18.5 40.5 18.5c16.667 0 29 -4.5 37 -13.5s12 -20.167 12 -33.5c0 -14 -4.83301 -27.333 -14.5 -40s-23.5 -19 -41.5 -19zM158.001 182.001
c4 5.33301 9.16699 9.16211 15.5 11.4951s12.833 3.5 19.5 3.5c15.333 0 27 -4.66699 35 -14s12 -21.666 12 -36.999c0 -12 -2.33301 -25 -7 -39s-10.834 -27.5 -18.501 -40.5s-16.5 -25 -26.5 -36s-20.333 -19.833 -31 -26.5h1c-1.33301 -1.33301 -2.66602 -2 -3.99902 -2
h-4c-4 0 -8 1.83301 -12 5.5s-6 7.16699 -6 10.5c0 2.66699 2 6 6 10l11 11c4.66699 4.66699 9 9.83398 13 15.501s7.5 11.834 10.5 18.501s4.5 13.667 4.5 21c0 2.66699 -1.5 5.83398 -4.5 9.50098s-5.5 6.83398 -7.5 9.50098c-4 4.66699 -8 10.334 -12 17.001
s-6 13.667 -6 21c0 13.333 3.66699 23.666 11 30.999z" />
    <glyph glyph-name="less" unicode="&#x3c;" horiz-adv-x="533" 
d="M106 284c-3.33301 3.33301 -3.33398 5.99902 -0.000976562 7.99902l263 198h6c4.66699 0 9.66699 -1.66699 15 -5s10.333 -7.5 15 -12.5s8.5 -10.333 11.5 -16s4.5 -10.5 4.5 -14.5c0 -2 -1.33301 -5.66699 -4 -11c-16 -12.667 -32 -24.667 -48 -36l-49 -34l-64.5 -47
c-21.667 -16 -42.167 -32.667 -61.5 -50l176 -168c7.33301 -7.33301 11 -14.666 11 -21.999c0 -6.66699 -2.16699 -12.167 -6.5 -16.5s-9.83301 -6.5 -16.5 -6.5c-7.33301 0 -13.666 2.66699 -18.999 8h1z" />
    <glyph glyph-name="equal" unicode="=" horiz-adv-x="615" 
d="M471 414c8 0 15 -3 21 -9s9 -13.333 9 -22s-3 -16 -9 -22s-13 -9 -21 -9h-311c-8.66699 0 -16 3 -22 9s-9 13.333 -9 22s3 16 9 22s13.333 9 22 9h311zM471 238c8 0 15 -3 21 -9s9 -13.333 9 -22c0 -9.33301 -3 -16.833 -9 -22.5s-13 -8.5 -21 -8.5h-311
c-8.66699 0 -16 2.83301 -22 8.5s-9 13.167 -9 22.5s3 16.833 9 22.5s13.333 8.5 22 8.5h311z" />
    <glyph glyph-name="greater" unicode="&#x3e;" horiz-adv-x="559" 
d="M206 62l0.998047 0.000976562c-5.33301 -5.33301 -11.666 -8 -18.999 -8c-6 0 -11.333 2.16699 -16 6.5s-7 9.83301 -7 16.5c0 7.33301 4 14.666 12 21.999l175 168c-18.667 16.667 -38.834 32.834 -60.501 48.501l-63.5 45.5l-53 37.5c-18 13 -35 26.167 -51 39.5
c0.666992 -0.666992 1 1.66602 1 6.99902c0 4 1.5 8.83301 4.5 14.5s6.83301 11 11.5 16s9.83398 9.16699 15.501 12.5s10.834 5 15.501 5h5l263 -198c3.33301 -2 3.33301 -4.66699 0 -8z" />
    <glyph glyph-name="question" unicode="?" horiz-adv-x="593" 
d="M154 20c-1.33301 -0.666992 -2.66211 -0.165039 -3.99512 1.50195s-2 3.16699 -2 4.5c5.33301 48 13 89.5 23 124.5s21.667 66.5 35 94.5l19 36l37 77c14 29.333 27.167 60.166 39.5 92.499s22.833 64.666 31.5 96.999s13 62.166 13 89.499
c0 14.667 -1.83301 28.667 -5.5 42s-9.5 25.166 -17.5 35.499s-18.333 18.666 -31 24.999s-27.667 9.5 -45 9.5s-34 -3.83301 -50 -11.5s-30.333 -18 -43 -31s-22.834 -27.833 -30.501 -44.5s-11.5 -33.667 -11.5 -51c0 -13.333 4.5 -26.333 13.5 -39s23.5 -19 43.5 -19
c22.667 0 45 11 67 33c3.33301 1.33301 5.5 2.16602 6.5 2.49902s2.16699 0.5 3.5 0.5c5.33301 0 9.66602 -1.5 12.999 -4.5s5 -7.16699 5 -12.5c0 -4 -1.33301 -7.66699 -4 -11c-14 -16 -29.167 -27.833 -45.5 -35.5s-32.166 -11.5 -47.499 -11.5s-28.5 3 -39.5 9
s-20.167 13.5 -27.5 22.5s-12.833 19.167 -16.5 30.5s-5.5 22.333 -5.5 33c0 20.667 5 42.334 15 65.001s24.5 43.334 43.5 62.001s41.667 34 68 46s56.166 18 89.499 18c32.667 0 60.5 -4 83.5 -12s41.667 -19 56 -33s24.666 -30.167 30.999 -48.5s9.5 -37.5 9.5 -57.5
c0 -34 -7.33301 -71.167 -22 -111.5s-32.834 -80.666 -54.501 -120.999s-44.334 -78.666 -68.001 -114.999l-62.5 -93.5c-17.333 -25.333 -33 -52.5 -47 -81.5s-23 -60.5 -27 -94.5c0 -2.66699 -1.33301 -4 -4 -4zM156.004 -110.998
c-13.333 0 -22.832 4.49902 -28.499 13.499s-8.5 20.167 -8.5 33.5c0 8.66699 1.33301 17.334 4 26.001s6.16699 16.5 10.5 23.5s9.66602 12.667 15.999 17s13.5 6.5 21.5 6.5c10 0 18.167 -6.16699 24.5 -18.5s9.5 -25.5 9.5 -39.5c0 -16 -3.83301 -30.333 -11.5 -43
s-20.167 -19 -37.5 -19z" />
    <glyph glyph-name="at" unicode="@" horiz-adv-x="990" 
d="M384 750c20.667 8.66699 43.4971 15.168 68.4971 19.501s50.167 6.5 75.5 6.5c34 0 67.333 -4.16699 100 -12.5s61.667 -21.833 87 -40.5c23.333 -17.333 44 -38.666 62 -63.999s33 -52.666 45 -81.999s21 -60 27 -92s9 -63.667 9 -95c0 -32.667 -3.83301 -65 -11.5 -97
s-19 -60.833 -34 -86.5s-33.833 -46.334 -56.5 -62.001s-49.334 -23.5 -80.001 -23.5c-18 0 -32.833 4.33301 -44.5 13s-20.667 20.167 -27 34.5s-10.833 31 -13.5 50s-4 38.833 -4 59.5c0 23.333 1.16699 46.833 3.5 70.5l6.5 64.5v9.5c0 3 0.333008 6.16699 1 9.5
c-9.33301 -18.667 -21.333 -41.334 -36 -68.001s-30.834 -52.334 -48.501 -77.001s-36.667 -45.667 -57 -63s-40.5 -26 -60.5 -26c-27.333 0 -47.5 11.333 -60.5 34s-19.5 51 -19.5 85c0 32.667 5.33301 67.667 16 105s25.834 72 45.501 104s43.334 58.667 71.001 80
s58.167 32 91.5 32c20 0 38.5 -4.83301 55.5 -14.5s30.833 -24.834 41.5 -45.501l4 11h-1c4.66699 9.33301 10 15.833 16 19.5s11.667 5.5 17 5.5c6 0 11.833 -2 17.5 -6s10.5 -9.16699 14.5 -15.5s7.16699 -13.166 9.5 -20.499s3.5 -14.333 3.5 -21v-5.5
c0 -2.33301 -0.333008 -4.16602 -1 -5.49902c-2 -6.66699 -4.66699 -19.5 -8 -38.5s-6.66602 -41 -9.99902 -66s-6.16602 -51.667 -8.49902 -80s-3.5 -54.833 -3.5 -79.5c0 -30 2.16699 -54.833 6.5 -74.5s12.166 -29.5 23.499 -29.5c8 0 17 4 27 12
c25.333 21.333 44.166 51 56.499 89s18.5 79 18.5 123c0 42.667 -5.5 84.334 -16.5 125.001s-27.667 77 -50 109s-50.333 57.667 -84 77s-73.5 29 -119.5 29c-50 0 -94 -12.333 -132 -37s-69.667 -56.834 -95 -96.501s-44.5 -84.667 -57.5 -135s-19.5 -100.833 -19.5 -151.5
c0 -44.667 5.33301 -89.334 16 -134.001s27.334 -85 50.001 -121s51.334 -65.167 86.001 -87.5s75.667 -33.5 123 -33.5c34.667 0 67.334 7.16699 98.001 21.5s58 31 82 50s43.833 38.333 59.5 58s25.834 34.5 30.501 44.5c2.66699 4.66699 6.33398 8.66699 11.001 12
s9.33398 5 14.001 5c10 0 15 -4.66699 15 -14c0 -7.33301 -4 -17.833 -12 -31.5s-19 -28.667 -33 -45s-30.833 -32.833 -50.5 -49.5s-41.334 -32 -65.001 -46s-48.834 -25.333 -75.501 -34s-54.334 -13 -83.001 -13c-64.667 0 -121.5 12 -170.5 36s-89.833 56 -122.5 96
s-57.167 85.5 -73.5 136.5s-24.5 103.5 -24.5 157.5c0 44 5.5 87.667 16.5 131s27.5 83.833 49.5 121.5s49.5 71.5 82.5 101.5s71.5 54 115.5 72zM622.997 545.001c-0.666992 0 -1 0.666016 -1 1.99902c0 0.666992 0.333008 1.33398 1 2.00098v-4zM441.997 261
c12 0 25.832 10.333 41.499 31s31.834 46 48.501 76s33 61.333 49 94l41 85c-9.33301 20.667 -18.5 35 -27.5 43s-17.5 12 -25.5 12c-13.333 0 -26 -5.5 -38 -16.5s-23.333 -25.5 -34 -43.5s-20.5 -38.167 -29.5 -60.5s-16.667 -44.5 -23 -66.5s-11.333 -43 -15 -63
s-5.5 -36.667 -5.5 -50c0 -27.333 6 -41 18 -41z" />
    <glyph glyph-name="A" unicode="A" horiz-adv-x="591" 
d="M118 202c-13.333 -8.66699 -22.6641 -19.9922 -27.9971 -33.9922s-8 -28.667 -8 -44c0 -10 1 -19.5 3 -28.5s4.66699 -17.167 8 -24.5s7.5 -13.166 12.5 -17.499s10.167 -6.5 15.5 -6.5c7.33301 0 15.166 5.16699 23.499 15.5s16.666 24.166 24.999 41.499
s16.666 37.166 24.999 59.499s16.5 45.5 24.5 69.5v-1l23.5 76l22.5 77l27.5 97.5c9.66699 33 20.167 66.167 31.5 99.5l27.5 75c9.66699 25.333 19.334 48.333 29.001 69s18.834 37.667 27.501 51s16.334 20 23.001 20c14 0 25.5 -5.33301 34.5 -16s16 -25.334 21 -44.001
s8.5 -40.834 10.5 -66.501s3 -53.834 3 -84.501c0 -28 -0.666992 -56.833 -2 -86.5l-4 -92.5c-1.33301 -32 -2.5 -65.167 -3.5 -99.5s-1.5 -67.166 -1.5 -98.499s1 -62.833 3 -94.5s5.5 -61.5 10.5 -89.5s11.333 -53 19 -75s17.167 -39 28.5 -51
c-2 -0.666992 -5.33301 -1 -10 -1c-32 0 -57.833 10.667 -77.5 32s-34.834 48.666 -45.501 81.999s-17.834 70.666 -21.501 111.999s-5.5 81.666 -5.5 120.999c0 52 1 96.667 3 134c0.666992 8 1.16699 14.833 1.5 20.5s0.5 11.5 0.5 17.5l-85 27
c-0.666992 -1.33301 -1.33398 -2.83301 -2.00098 -4.5s-1 -3.16699 -1 -4.5l-16.5 -62.5c-7 -26.333 -15.167 -54.833 -24.5 -85.5s-19.666 -61.834 -30.999 -93.501s-23.333 -60.334 -36 -86.001s-25.834 -46.667 -39.501 -63s-27.5 -24.5 -41.5 -24.5
c-10 0 -19 2.83301 -27 8.5s-14.833 13.167 -20.5 22.5s-10 20.166 -13 32.499s-4.5 25.5 -4.5 39.5c0 10.667 1.16699 21.5 3.5 32.5s6 20.5 11 28.5s11.667 13.833 20 17.5s18.5 3.83398 30.5 0.500977zM397.002 445.008c4 51.333 6.99902 98.168 8.99902 140.501
s3 83.166 3 122.499v18c-19.333 -42 -36.166 -84.667 -50.499 -128s-27.5 -86 -39.5 -128z" />
    <glyph glyph-name="B" unicode="B" horiz-adv-x="752" 
d="M121 684c-11.333 19.333 -12.165 35.3281 -2.49805 47.9951s25.167 19 46.5 19c14 0 27.667 -2.5 41 -7.5s25.833 -11.667 37.5 -20s21.667 -18 30 -29s14.166 -22.833 17.499 -35.5c13.333 16.667 27.333 33.167 42 49.5s30.5 30.833 47.5 43.5
s35.167 22.834 54.5 30.501s40.333 11.5 63 11.5c36 0 61.667 -9.66699 77 -29s23 -43.333 23 -72c0 -20.667 -3.66699 -42.667 -11 -66s-17.166 -45.666 -29.499 -66.999s-26.666 -40.833 -42.999 -58.5s-33.5 -31.5 -51.5 -41.5c30 0 55.667 -4.33301 77 -13
s38.5 -20.334 51.5 -35.001s22.5 -32 28.5 -52s9 -41.333 9 -64c0 -29.333 -4.33301 -60.5 -13 -93.5s-20.334 -65.5 -35.001 -97.5s-31.667 -62.833 -51 -92.5s-39.833 -55.667 -61.5 -78s-43.667 -40.166 -66 -53.499s-43.833 -20 -64.5 -20
c-30.667 0 -52.667 7.83301 -66 23.5s-20 35.167 -20 58.5c0 28.667 7 54.334 21 77.001s31.833 42.834 53.5 60.501s45.667 33.5 72 47.5s52.166 27 77.499 39v-1l21 10c7.33301 16.667 13 33.834 17 51.501s6 35.5 6 53.5c0 28 -5.5 51.333 -16.5 70
s-25.667 33.5 -44 44.5s-39.333 19 -63 24s-47.834 8.16699 -72.501 9.5c-3.33301 0 -5 1.66699 -5 5l1 16c0 3.33301 1.33301 5 4 5c29.333 5.33301 54.5 15.166 75.5 29.499s38.167 30.666 51.5 48.999s23.166 38 29.499 59s9.5 40.833 9.5 59.5
c0 23.333 -4.66699 43.333 -14 60s-23 25 -41 25c-16.667 0 -36.167 -8.83301 -58.5 -26.5s-47.5 -48.5 -75.5 -92.5c0.666992 -8.66699 1.16699 -18.167 1.5 -28.5s0.5 -21.166 0.5 -32.499c0 -32 -1.16699 -67.833 -3.5 -107.5s-6.5 -80.167 -12.5 -121.5
s-13.833 -81.666 -23.5 -120.999s-21.5 -74.333 -35.5 -105s-30.833 -55.334 -50.5 -74.001s-42.167 -28 -67.5 -28c-20 0 -34 7.5 -42 22.5s-12 35.167 -12 60.5c0 23.333 3 50 9 80s13.833 61.167 23.5 93.5s20.167 64.5 31.5 96.5s22.666 61.5 33.999 88.5
s21.833 50.333 31.5 70s17.167 33.167 22.5 40.5v13c0 12.667 -0.833008 27.834 -2.5 45.501s-5 34.5 -10 50.5s-11.667 29.5 -20 40.5s-19.166 16.5 -32.499 16.5c-6.66699 0 -11.667 -3.33301 -15 -10s-5.66602 -14.667 -6.99902 -24zM103.001 33.9951
c9.33301 0 18.6641 9.50098 27.9971 28.501s18 43.333 26 73s15.333 62.667 22 99s12.334 71.833 17.001 106.5s8.33398 66.5 11.001 95.5s4 51.167 4 66.5v3c-6 -10 -13.333 -25 -22 -45s-17.667 -42.833 -27 -68.5s-18.5 -53.334 -27.5 -83.001s-17.167 -58.667 -24.5 -87
s-13.333 -55.333 -18 -81s-7 -47.5 -7 -65.5c0 -13.333 1.33301 -23.833 4 -31.5s7.33398 -11.167 14.001 -10.5zM315.999 32.9961c-11.333 -12.667 -19.6689 -25.499 -25.002 -38.499s-8 -24.5 -8 -34.5c0 -10.667 2.16699 -19.334 6.5 -26.001s10.833 -10 19.5 -10
c10 0 22.167 5.83301 36.5 17.5s29.333 27.167 45 46.5s31.334 42 47.001 68s29.834 53.333 42.501 82c-30 -11.333 -59.5 -25.5 -88.5 -42.5s-54.167 -37.833 -75.5 -62.5z" />
    <glyph glyph-name="C" unicode="C" horiz-adv-x="622" 
d="M470 618c15.333 -10 28.999 -15.166 40.999 -15.499s22.333 3 31 10s15.167 16.667 19.5 29s6.5 25.833 6.5 40.5c0 28 -7.33301 48.833 -22 62.5s-32.667 20.5 -54 20.5c-26.667 0 -52 -6.83301 -76 -20.5s-46.5 -32.167 -67.5 -55.5s-40 -50.833 -57 -82.5
s-31.5 -65.334 -43.5 -101.001s-21.333 -72.5 -28 -110.5s-10 -75.333 -10 -112c0 -32 3.16699 -63.333 9.5 -94s15.666 -57.667 27.999 -81s28 -42.166 47 -56.499s41.167 -21.5 66.5 -21.5c31.333 0 59.666 9.16699 84.999 27.5s47.833 41.166 67.5 68.499
s36.834 57 51.501 89s27.667 61.667 39 89c0.666992 2 1.66699 4.66699 3 8s2.66602 6.33301 3.99902 9c0.666992 4 1.83398 7.33301 3.50098 10s5.16699 4 10.5 4c3.33301 0 6.5 -1.33301 9.5 -4s4.5 -6.66699 4.5 -12c0 -0.666992 -0.666992 -3 -2 -7h1l-3 -10
c-15.333 -42 -33.666 -85 -54.999 -129s-47.666 -83.333 -78.999 -118c-35.333 -38.667 -70.5 -66 -105.5 -82s-68.833 -24 -101.5 -24c-34 0 -63.667 10.333 -89 31s-46.5 47.334 -63.5 80.001s-29.667 69.5 -38 110.5s-12.5 82.167 -12.5 123.5
c0 53.333 6.16699 107.333 18.5 162s30.833 106 55.5 154s55.334 90.167 92.001 126.5s79.334 62.5 128.001 78.5h1c13.333 4 26.166 7.16699 38.499 9.5s25.166 3.5 38.499 3.5c19.333 0 37.5 -2.5 54.5 -7.5s32 -12.833 45 -23.5s23.333 -24.334 31 -41.001
s11.5 -36.334 11.5 -59.001c0 -25.333 -5.66699 -49 -17 -71s-24.5 -38.167 -39.5 -48.5s-30 -13.166 -45 -8.49902s-26.167 21 -33.5 49z" />
    <glyph glyph-name="D" unicode="D" horiz-adv-x="833" 
d="M167 725c-8 11.333 -12.665 22.166 -13.998 32.499s0 19.5 4 27.5s10.5 14.333 19.5 19s19.833 7 32.5 7c18 0 35.167 -3.83301 51.5 -11.5s30.666 -17.834 42.999 -30.501s22.666 -27 30.999 -43s13.5 -32.333 15.5 -49c12 16.667 25 32.5 39 47.5s29 28 45 39
s33.5 19.667 52.5 26s39.5 9.5 61.5 9.5c27.333 0 50.666 -6.16699 69.999 -18.5s35.333 -29.166 48 -50.499s21.834 -46.833 27.501 -76.5s8.5 -61.5 8.5 -95.5c0 -36.667 -3.33301 -75.5 -10 -116.5s-16 -82.167 -28 -123.5s-26.833 -81.666 -44.5 -120.999
s-37.5 -75.833 -59.5 -109.5s-46 -63.5 -72 -89.5s-53.333 -46.333 -82 -61c-26.667 -13.333 -52 -20 -76 -20c-28 0 -51 8 -69 24s-27 36.667 -27 62c0 11.333 1.5 22 4.5 32s7.16699 19.667 12.5 29c-14 -10.667 -29.333 -16 -46 -16c-24.667 0 -42 9 -52 27
s-15 41.667 -15 71c0 30.667 4.33301 65.5 13 104.5s18.834 77.667 30.501 116s23.667 74 36 107l29.5 78.5v-1c1.33301 3.33301 2.66602 7 3.99902 11s2.66602 7.66699 3.99902 11c0.666992 3.33301 1 7.5 1 12.5v14.5c0 16 -1 34.333 -3 55s-5.5 40 -10.5 58
s-12 33.333 -21 46s-20.167 19 -33.5 19c-7.33301 0 -12.666 -4 -15.999 -12s-5 -17 -5 -27v-14zM353.002 544c-0.666992 -32 -1.82715 -68.3301 -3.49414 -108.997s-4.66699 -81.334 -9 -122.001s-10.833 -79.334 -19.5 -116.001s-20.334 -67.334 -35.001 -92.001
c14.667 13.333 31.667 25.333 51 36s39.166 20.334 59.499 29.001s40.666 16.167 60.999 22.5s39.166 11.5 56.499 15.5c6 12.667 13.5 33.167 22.5 61.5s17.833 60.333 26.5 96s16 73.167 22 112.5s9 77 9 113c0 23.333 -1.66699 45.333 -5 66s-8.83301 38.5 -16.5 53.5
s-17.834 26.833 -30.501 35.5s-28 13 -46 13c-12 0 -25.833 -5 -41.5 -15s-30.834 -22.167 -45.501 -36.5s-27.167 -29.5 -37.5 -45.5s-15.833 -29.667 -16.5 -41c-0.666992 -9.33301 -1 -20.333 -1 -33s-0.333008 -27.334 -1 -44.001zM190.009 82.0029
c7.33301 0 14 7.50098 20 22.501s11.167 34.667 15.5 59s8.16602 51.5 11.499 81.5s6 60 8 90s3.5 58.5 4.5 85.5l2.5 66.5c-6.66699 -17.333 -15 -40.5 -25 -69.5s-19.5 -60 -28.5 -93s-16.667 -66 -23 -99s-9.5 -61.833 -9.5 -86.5c0 -16.667 1.83301 -30.334 5.5 -41.001
s9.83398 -16 18.501 -16zM282.009 51.0039c-7.33301 -14.667 -11.0029 -28.6641 -11.0029 -41.9971c0 -7.33301 1.66699 -13.333 5 -18s9 -7 17 -7c10 0 22.5 4.66699 37.5 14s31.333 22.166 49 38.499s35.834 36.166 54.501 59.499s37 49 55 77
c-20 -5.33301 -40.333 -11.333 -61 -18s-40.167 -14.834 -58.5 -24.501s-35.166 -21 -50.499 -34s-27.666 -28.167 -36.999 -45.5z" />
    <glyph glyph-name="E" unicode="E" horiz-adv-x="614" 
d="M411 619c12 -5.33301 22.9941 -6.83594 32.9941 -4.50293s18.667 6.83301 26 13.5s13 15.167 17 25.5s6 20.833 6 31.5c0 19.333 -5.83301 33.5 -17.5 42.5s-25.5 13.5 -41.5 13.5c-21.333 0 -41.666 -6.66699 -60.999 -20s-36.333 -30.333 -51 -51
s-26.334 -43.5 -35.001 -68.5s-13 -48.833 -13 -71.5c0 -26 7 -48 21 -66s37.333 -27 70 -27c4 0 8.33301 0.333008 13 1s9.66699 1.66699 15 3l17 3c4 1.33301 6 -0.333984 6 -5.00098v-9c0 -0.666992 -1 -2 -3 -4c-50.667 -24.667 -90.667 -56.334 -120 -95.001
s-44 -87 -44 -145c0 -21.333 2.16699 -43.833 6.5 -67.5s11.5 -45.5 21.5 -65.5s23.167 -36.667 39.5 -50s36.5 -20 60.5 -20c13.333 0 27.5 5.33301 42.5 16s29.833 24.834 44.5 42.501s29 37.834 43 60.501s27.167 45.667 39.5 69s23.333 46.333 33 69s17.5 43 23.5 61v-1
c0 1.33301 0.166992 2.33301 0.5 3s0.5 1.66699 0.5 3c0.666992 4.66699 2 9.33398 4 14.001s6.33301 7 13 7c3.33301 0 6.33301 -1.33301 9 -4s4 -5.66699 4 -9c0 -1.33301 -0.166992 -3.66602 -0.5 -6.99902s-1.16602 -8 -2.49902 -14l-29.5 -80.5
c-11 -29 -23.5 -58 -37.5 -87s-29.667 -56.833 -47 -83.5s-36.5 -50.5 -57.5 -71.5s-44.167 -37.667 -69.5 -50s-53 -18.5 -83 -18.5s-55.667 8.33301 -77 25s-39 37.5 -53 62.5s-24.333 51.833 -31 80.5s-10 55.334 -10 80.001c0 32 2.83301 60.667 8.5 86
s14.834 48.5 27.501 69.5s28.834 39.833 48.501 56.5s43.167 32 70.5 46c-37.333 5.33301 -67.166 21.666 -89.499 48.999s-33.5 60 -33.5 98c0 28.667 6.66699 57.667 20 87s31 55.5 53 78.5s47.333 41.833 76 56.5s58.334 22 89.001 22
c34.667 0 62.334 -10.667 83.001 -32s31 -47.666 31 -78.999c0 -19.333 -4.66699 -37.166 -14 -53.499s-20.333 -28.833 -33 -37.5s-25 -11.834 -37 -9.50098s-20.333 12.833 -25 31.5z" />
    <glyph glyph-name="F" unicode="F" horiz-adv-x="475" 
d="M444 472c-8 -14.667 -16.6709 -26.335 -26.0039 -35.002s-18.333 -15.167 -27 -19.5s-16.334 -7.33301 -23.001 -9l-14 -3.5c-5.33301 -31.333 -10.166 -62.5 -14.499 -93.5s-9.33301 -62 -15 -93s-12.167 -61.667 -19.5 -92s-16.666 -60.5 -27.999 -90.5
c-7.33301 -17.333 -16.833 -35 -28.5 -53s-25 -34.5 -40 -49.5s-31.5 -27.333 -49.5 -37s-37.333 -14.5 -58 -14.5c-26.667 0 -47.167 8 -61.5 24s-21.5 39 -21.5 69c0 22 4.16699 46.5 12.5 73.5s21.333 54.833 39 83.5s39.834 57.334 66.501 86.001
s58.334 55.667 95.001 81c13.333 60.667 25.333 123.167 36 187.5s24.667 124.833 42 181.5c-16.667 3.33301 -32.834 7 -48.501 11l-43.5 11c-28.667 7.33301 -54.334 13.166 -77.001 17.499s-44.334 6.5 -65.001 6.5h-14c-15.333 -0.666992 -28.333 -3.5 -39 -8.5
s-19.5 -11.333 -26.5 -19s-12.167 -16.167 -15.5 -25.5s-5 -18.333 -5 -27c0 -10 2 -19 6 -27s9.33301 -14.333 16 -19s14.334 -7.5 23.001 -8.5s17.334 0.5 26.001 4.5c-3.33301 -14.667 -10.5 -23.5 -21.5 -26.5s-22.5 -1.83301 -34.5 3.5s-22.667 14.5 -32 27.5
s-14 28.167 -14 45.5c0 14 2.5 27.5 7.5 40.5s12.667 24.5 23 34.5s23.5 18 39.5 24s35 9 57 9c31.333 0 62.666 -3.16699 93.999 -9.5s62.333 -13.166 93 -20.499c12 -3.33301 23.333 -6 34 -8s21.667 -4.33301 33 -7c16.667 28 36.334 51.333 59.001 70s50.667 28 84 28
c12.667 0 23.334 -3.83301 32.001 -11.5s13 -18.167 13 -31.5c0 -12 -4.5 -23.5 -13.5 -34.5s-19.667 -20.667 -32 -29s-25.333 -15.333 -39 -21s-25.167 -9.5 -34.5 -11.5c-1.33301 -2 -3.33301 -10 -6 -24s-5.5 -31.667 -8.5 -53l-10 -70.5l-10.5 -74.5h1
c10 0.666992 23.333 4.83398 40 12.501s31.334 16.167 44.001 25.5zM85.9961 -80.001c11.333 0 22.5 6.66699 33.5 20s21.167 30.666 30.5 51.999s18 45 26 71s15.333 51.5 22 76.5s12.167 48.167 16.5 69.5s7.5 38 9.5 50c-32 -24 -59 -48.667 -81 -74
s-40 -50.166 -54 -74.499s-24.167 -47.5 -30.5 -69.5s-9.5 -41.667 -9.5 -59s3.33301 -32 10 -44s15.667 -18 27 -18zM470.996 765.999c-8 -0.666992 -15.498 -3.99902 -22.498 -9.99902s-13.333 -13.167 -19 -21.5s-10.667 -16.833 -15 -25.5l-10.5 -21
c7.33301 2 15.666 5 24.999 9s18.166 8.83301 26.499 14.5s15.333 11.667 21 18s8.5 13.166 8.5 20.499c0 10.667 -4.66699 16 -14 16z" />
    <glyph glyph-name="G" unicode="G" horiz-adv-x="528" 
d="M341 685c8 -3.33301 15.3379 -3.66113 22.0049 -0.994141s12.167 7 16.5 13s7.83301 12.833 10.5 20.5s4 14.5 4 20.5c0 13.333 -4.83301 22.833 -14.5 28.5s-21.167 8.5 -34.5 8.5c-23.333 0 -45.166 -5.33301 -65.499 -16s-38.833 -24.834 -55.5 -42.501
s-31.5 -37.667 -44.5 -60s-23.833 -45 -32.5 -68s-15.334 -45.5 -20.001 -67.5s-7 -41.333 -7 -58c0 -30.667 5.83301 -56 17.5 -76s30.167 -30 55.5 -30s48.666 8.83301 69.999 26.5s41.333 38.5 60 62.5l6 37c2 9.33301 7 18.666 15 27.999s17.167 17.5 27.5 24.5
s20.666 12.667 30.999 17s19.166 6.5 26.499 6.5c6 0 10.333 -1.33301 13 -4c0.666992 -0.666992 1 -2 1 -4l-5 -38c-3.33301 -27.333 -7.83301 -60.833 -13.5 -100.5s-12.167 -80.334 -19.5 -122.001s-15.333 -81.667 -24 -120s-18 -69.5 -28 -93.5
c-7.33301 -16.667 -16.833 -34.167 -28.5 -52.5s-25.167 -35 -40.5 -50s-32.166 -27.333 -50.499 -37s-37.5 -14.5 -57.5 -14.5c-26.667 0 -47 8.16699 -61 24.5s-21 39.5 -21 69.5c0 22 4.16699 46.333 12.5 73s21.166 54.334 38.499 83.001s39.333 57.167 66 85.5
s58.334 55.166 95.001 80.499c1.33301 7.33301 2.83301 15 4.5 23s3.5 19.333 5.5 34c-14 -16.667 -29 -30.5 -45 -41.5s-31.667 -19.833 -47 -26.5s-29.833 -11.334 -43.5 -14.001s-25.834 -4 -36.501 -4c-19.333 0 -36.166 4 -50.499 12s-26.166 19.167 -35.499 33.5
s-16.333 31.166 -21 50.499s-7 40 -7 62c0 38.667 6.5 79.5 19.5 122.5s31.167 82.667 54.5 119s51.666 66.333 84.999 90s70.666 35.5 111.999 35.5c36 0 65 -8 87 -24s33 -39 33 -69c0 -13.333 -2.5 -25.5 -7.5 -36.5s-11.333 -19.833 -19 -26.5
s-16.334 -9.83398 -26.001 -9.50098s-18.834 5.5 -27.501 15.5zM162.005 -38.9951c11.333 0 22.334 6.66699 33.001 20s20.667 30.5 30 51.5s18 44.333 26 70s15.167 51 21.5 76s11.666 48.333 15.999 70s7.83301 38.5 10.5 50.5c-31.333 -24 -58 -48.667 -80 -74
s-40 -50 -54 -74s-24.167 -46.833 -30.5 -68.5s-9.5 -41.167 -9.5 -58.5c0 -18 3.33301 -33 10 -45s15.667 -18 27 -18z" />
    <glyph glyph-name="H" unicode="H" horiz-adv-x="569" 
d="M31 6c-1.33301 -4 -2.67188 -9.99707 -4.00488 -17.9971s-2 -15.833 -2 -23.5s1.5 -14.334 4.5 -20.001s8.16699 -8.5 15.5 -8.5c8.66699 0 17 7.5 25 22.5s15.5 35 22.5 60s13.333 53.833 19 86.5s10.834 66.667 15.501 102s8.83398 70.833 12.501 106.5
s6.83398 68.834 9.50098 99.501s4.83398 57.834 6.50098 81.501s2.83398 41.167 3.50098 52.5v26c0 24 -1 47.833 -3 71.5s-5 44.834 -9 63.501s-9.16699 33.667 -15.5 45s-13.833 17 -22.5 17c-6 0 -10.5 -1.83301 -13.5 -5.5s-5.33301 -8.33398 -7 -14.001
s-2.5 -11.5 -2.5 -17.5s0.333008 -11.333 1 -16c-9.33301 10 -15 20.333 -17 31s-0.666992 20.167 4 28.5s11.834 15.166 21.501 20.499s21.5 8 35.5 8c26 0 47.167 -7 63.5 -21s29 -32.167 38 -54.5s15.167 -47.666 18.5 -75.999s4.83301 -57 4.5 -86
s-1.83301 -56.667 -4.5 -83s-5.33398 -48.5 -8.00098 -66.5c7.33301 -0.666992 14.833 -1.5 22.5 -2.5s15.5 -2.16699 23.5 -3.5c20.667 -3.33301 39.334 -5.33301 56.001 -6c1.33301 11.333 2.66602 23.333 3.99902 36s2.66602 24.667 3.99902 36l14.5 126.5
c5 42.333 11.167 84.166 18.5 125.499c1.33301 8.66699 5.66602 17 12.999 25s15.833 15.167 25.5 21.5s19.334 11.5 29.001 15.5s17.5 6 23.5 6c6.66699 0 11.334 -1.33301 14.001 -4c0.666992 -0.666992 1 -2.33398 1 -5.00098l-10 -74l-34.5 -256.5
c-11.667 -85 -22.167 -170.833 -31.5 -257.5c-1.33301 -11.333 -2.83301 -26.166 -4.5 -44.499s-2.5 -37.833 -2.5 -58.5c0 -18 0.833008 -36.167 2.5 -54.5s5 -34.833 10 -49.5s11.833 -26.5 20.5 -35.5s19.667 -13.5 33 -13.5c8.66699 0 16.667 4.16699 24 12.5
s14 19.333 20 33s11.333 28.667 16 45s8.66699 32.5 12 48.5s6 30.833 8 44.5s3.66699 24.5 5 32.5c1.33301 9.33301 6.33301 14 15 14c3.33301 0 6.33301 -1.33301 9 -4s4 -7.33398 4 -14.001l-3 -19c-3.33301 -22 -8.16602 -46.833 -14.499 -74.5s-15 -53.834 -26 -78.501
s-25 -45.334 -42 -62.001s-38.167 -25 -63.5 -25c-24.667 0.666992 -44.667 7.16699 -60 19.5s-27.5 28.333 -36.5 48s-15.167 41.834 -18.5 66.501s-5 49.667 -5 75c0 28.667 1.16699 55.5 3.5 80.5s4.5 46.833 6.5 65.5c0 1.33301 0.166992 3 0.5 5s0.5 4 0.5 6l13 115
c-9.33301 0 -18 0.5 -26 1.5s-16.333 2.16699 -25 3.5c-9.33301 1.33301 -18.5 2.33301 -27.5 3s-17.5 1.33398 -25.5 2.00098l-11 -88c-4 -33.333 -8.83301 -68 -14.5 -104s-12.5 -71.667 -20.5 -107s-17.833 -66.833 -29.5 -94.5s-25.5 -50.334 -41.5 -68.001
s-34.667 -26.834 -56 -27.501c-14.667 0.666992 -27.334 4.66699 -38.001 12s-18 16.333 -22 27s-4.16699 22 -0.5 34s12.167 23 25.5 33z" />
    <glyph glyph-name="I" unicode="I" horiz-adv-x="446" 
d="M146 704c-9.33301 10.667 -15 21.499 -17 32.499s-1 20.833 3 29.5s10.833 15.834 20.5 21.501s21.5 8.5 35.5 8.5c25.333 0 46.166 -7.33301 62.499 -22s29.333 -34.334 39 -59.001s16.5 -53 20.5 -85s6 -65.333 6 -100c0 -31.333 -1.33301 -63 -4 -95
s-5.66699 -62.167 -9 -90.5s-7 -53.833 -11 -76.5s-7.33301 -40.667 -10 -54c-7.33301 -36 -17 -72.5 -29 -109.5s-26.833 -70.833 -44.5 -101.5s-38.5 -55.667 -62.5 -75s-51.333 -29 -82 -29c-12.667 0 -23.334 2.5 -32.001 7.5s-15.667 11.5 -21 19.5
s-9.16602 16.833 -11.499 26.5s-3.5 19.167 -3.5 28.5c0 25.333 5.83301 51.333 17.5 78s26.667 52.334 45 77.001s38.833 48 61.5 70s44.667 41 66 57c6.66699 23.333 11.667 46.5 15 69.5s6 45.833 8 68.5c1.33301 12.667 2.5 31.667 3.5 57s1.5 53 1.5 83
c0 26 -0.666992 52 -2 78s-3.83301 49.5 -7.5 70.5s-8.5 38.167 -14.5 51.5s-13.667 20 -23 20c-6 0 -10.667 -2.33301 -14 -7s-5.66602 -10 -6.99902 -16s-1.83301 -12.167 -1.5 -18.5s0.833008 -11.5 1.5 -15.5zM42 -55.001c8.66699 0 17.668 5.33301 27.001 16
s18.5 24.5 27.5 41.5s17.667 36.167 26 57.5l23.5 62.5c7.33301 20.333 13.666 39.5 18.999 57.5l13 43c-18.667 -14.667 -37 -31.334 -55 -50.001s-34.167 -38.5 -48.5 -59.5s-26 -42.667 -35 -65s-13.5 -44.166 -13.5 -65.499c0 -7.33301 0.833008 -15.5 2.5 -24.5
s6.16699 -13.5 13.5 -13.5z" />
    <glyph glyph-name="J" unicode="J" horiz-adv-x="477" 
d="M120 549c-18.667 -17.333 -33.835 -23.6689 -45.502 -19.002s-17.5 17 -17.5 37s6.5 43.333 19.5 70s29.333 51.834 49 75.501s41.334 43.834 65.001 60.501s46.167 25 67.5 25c30.667 0 53.5 -19.167 68.5 -57.5s22.5 -97.166 22.5 -176.499
c0 -33.333 -1.16699 -67.166 -3.5 -101.499s-5.16602 -67 -8.49902 -98s-6.83301 -59.167 -10.5 -84.5s-7.16699 -45.333 -10.5 -60c-8 -36 -18 -72.833 -30 -110.5s-26.833 -71.667 -44.5 -102s-38.5 -55.333 -62.5 -75s-51.667 -29.5 -83 -29.5
c-12.667 0 -23.334 2.5 -32.001 7.5s-15.667 11.5 -21 19.5s-9.16602 17 -11.499 27s-3.5 19.667 -3.5 29c0 26 5.83301 52.333 17.5 79s26.667 52.5 45 77.5s38.833 48.5 61.5 70.5s45 41 67 57c8.66699 30.667 15.5 62.667 20.5 96s8.16699 66.666 9.5 99.999
s1.33301 66.333 0 99s-3.66602 64 -6.99902 94v1c-2 20 -5.83301 34.5 -11.5 43.5s-12.834 13.5 -21.501 13.5c-11.333 0 -23.666 -5.5 -36.999 -16.5s-25.833 -24.333 -37.5 -40s-21.334 -31.834 -29.001 -48.501s-11.5 -31 -11.5 -43c0 -6 1.83301 -10.833 5.5 -14.5
s10.5 -5.5 20.5 -5.5zM73.999 -50.0029c8.66699 0 17.666 5.33301 26.999 16s18.5 24.667 27.5 42s17.833 36.5 26.5 57.5s16.5 41.833 23.5 62.5s13.167 40 18.5 58l13 43c-18.667 -14.667 -37.167 -31.334 -55.5 -50.001s-34.666 -38.5 -48.999 -59.5
s-25.833 -42.667 -34.5 -65s-13 -44.166 -13 -65.499c0 -8 0.833008 -16.5 2.5 -25.5s6.16699 -13.5 13.5 -13.5z" />
    <glyph glyph-name="K" unicode="K" horiz-adv-x="705" 
d="M652 776c0 2.66699 0.164062 5.99023 0.49707 9.99023s-1.16699 6 -4.5 6c-15.333 0 -34.5 -9.5 -57.5 -28.5s-47.167 -42.167 -72.5 -69.5s-50.333 -56.333 -75 -87l-65 -82l-15 -18c-4.66699 -5.33301 -8.66699 -10.666 -12 -15.999
c43.333 -6 77.333 -20.833 102 -44.5s43.167 -52.167 55.5 -85.5s20.166 -69.166 23.499 -107.499s6 -74.5 8 -108.5c0.666992 -19.333 1.66699 -37.5 3 -54.5s3.33301 -31.833 6 -44.5s6.16699 -22.5 10.5 -29.5s10.5 -10.5 18.5 -10.5c12 0 24.5 5.83301 37.5 17.5
s25.167 27.167 36.5 46.5s20.833 41.333 28.5 66s12.167 50 13.5 76c0 5.33301 1.5 9.33301 4.5 12s6.5 4 10.5 4c8 0 12 -5.33301 12 -16c-2 -42 -8.33301 -79.833 -19 -113.5s-23.667 -62.167 -39 -85.5s-32.333 -41.333 -51 -54s-37 -19 -55 -19
c-25.333 0.666992 -45.166 6.83398 -59.499 18.501s-25.5 27.334 -33.5 47.001s-13.5 42.334 -16.5 68.001s-5.83301 52.5 -8.5 80.5c-2 25.333 -4.5 50.833 -7.5 76.5s-8 50.334 -15 74.001s-16.667 45.167 -29 64.5s-28.5 35.333 -48.5 48
c-3.33301 -26 -7.83301 -54.667 -13.5 -86s-12.834 -63 -21.501 -95s-19.167 -62.833 -31.5 -92.5s-26.666 -56 -42.999 -79s-35.166 -41.5 -56.499 -55.5s-45.333 -21 -72 -21c-12.667 0 -23.334 2.5 -32.001 7.5s-15.667 11.5 -21 19.5s-9.16602 16.833 -11.499 26.5
s-3.5 19.167 -3.5 28.5c0 25.333 5.83301 51.333 17.5 78s26.834 52.334 45.501 77.001s39.167 48 61.5 70s44.5 41 66.5 57c3.33301 12.667 7 30.667 11 54s7.66699 49.333 11 78s6.16602 58.834 8.49902 90.501s3.5 62.5 3.5 92.5c0 24.667 -1 48.167 -3 70.5
s-5 41.833 -9 58.5s-9.5 29.834 -16.5 39.501s-15.5 14.5 -25.5 14.5c-5.33301 0 -9.5 -1.83301 -12.5 -5.5s-5.33301 -8 -7 -13s-2.66699 -10.5 -3 -16.5s-0.166016 -11 0.500977 -15c-8 10.667 -12.667 21 -14 31s0 19 4 27s10.5 14.333 19.5 19s20.167 7 33.5 7
c28 0 50.833 -5.66699 68.5 -17s31.5 -26.166 41.5 -44.499s16.833 -39.5 20.5 -63.5s5.5 -49 5.5 -75c0 -20 -0.833008 -39.833 -2.5 -59.5s-3.16699 -38.167 -4.5 -55.5l-3 -28l32 42l63.5 77c23.667 28 47.334 54.167 71.001 78.5s46.667 44.666 69 60.999
s41.5 24.5 57.5 24.5c15.333 0 24.5 -5.16699 27.5 -15.5s-3.5 -21.166 -19.5 -32.499zM79.9971 33.9902c8.66699 0 17.502 5.33398 26.502 16.001s18 24.5 27 41.5s17.667 36 26 57s16.166 41.833 23.499 62.5s13.666 40 18.999 58l13 43
c-18.667 -14.667 -37 -31.334 -55 -50.001s-34.167 -38.5 -48.5 -59.5s-26 -42.667 -35 -65s-13.5 -43.833 -13.5 -64.5c0 -8 1 -16.5 3 -25.5s6.66699 -13.5 14 -13.5z" />
    <glyph glyph-name="L" unicode="L" horiz-adv-x="446" 
d="M126 754c-10 14.667 -15.3301 28.1699 -15.9971 40.5029s1.83301 23.166 7.5 32.499s13.834 16.666 24.501 21.999s23 8 37 8c26 0 47.5 -6 64.5 -18s30.5 -27.833 40.5 -47.5s17 -42.334 21 -68.001s6 -52.167 6 -79.5c0 -36.667 -2.33301 -78.834 -7 -126.501
s-11.667 -96.667 -21 -147s-21.166 -99.833 -35.499 -148.5s-30.833 -92.5 -49.5 -131.5s-39.834 -71.167 -63.501 -96.5s-49.834 -39.333 -78.501 -42c-22.667 0 -40.5 7.16699 -53.5 21.5s-19.5 32.166 -19.5 53.499c0 19.333 4.5 36.5 13.5 51.5s20 27.5 33 37.5
s26.833 17.667 41.5 23s27.667 8 39 8h8c3.33301 10 8 25.833 14 47.5s12.167 46.834 18.5 75.501s12.833 60 19.5 94s12.834 68.667 18.501 104s10.167 70.333 13.5 105s5 67 5 97c0 43.333 -4.33301 78.666 -13 105.999s-23.334 41 -44.001 41
c-6.66699 0 -11.834 -2.33301 -15.501 -7s-6.33398 -10.167 -8.00098 -16.5s-2.33398 -13.166 -2.00098 -20.499s0.833008 -13.666 1.5 -18.999zM106.003 117.003c-1.33301 0 -2.33105 0.166016 -2.99805 0.499023s-1.66699 0.5 -3 0.5c-14.667 0 -27.5 -3.16699 -38.5 -9.5
s-20.167 -14.166 -27.5 -23.499s-12.833 -19.5 -16.5 -30.5s-5.5 -21.5 -5.5 -31.5c0 -18.667 4.66699 -28 14 -28c6 0 13.167 5.16699 21.5 15.5s16.666 22.166 24.999 35.499s15.666 26.833 21.999 40.5s10.5 23.834 12.5 30.501h-1z" />
    <glyph glyph-name="M" unicode="M" horiz-adv-x="845" 
d="M128 661c-9.33301 12 -15.0137 23.665 -17.0137 34.998s-0.833008 21.333 3.5 30s11.166 15.667 20.499 21s21 8 35 8c27.333 0 49 -6 65 -18s28.333 -26.333 37 -43s14.5 -33.667 17.5 -51s5.16699 -31 6.5 -41c0.666992 2.66699 1.5 5 2.5 7s2.16699 4.66699 3.5 8
c4 10 8.83301 21 14.5 33s11.834 23.833 18.501 35.5s13.834 22 21.501 31s15.5 15.5 23.5 19.5c4 1.33301 8.66699 2.66602 14 3.99902s10 2 14 2c12 0 23.167 -3.33301 33.5 -10s19.333 -15.167 27 -25.5s13.5 -21.833 17.5 -34.5s6 -25 6 -37
c0 -6.66699 -0.166992 -11.5 -0.5 -14.5s-0.5 -5.83301 -0.5 -8.5s-0.166992 -5.5 -0.5 -8.5s-0.5 -7.5 -0.5 -13.5l5 12l18 50c6 16 13.333 32.667 22 50c6.66699 14 14.834 26.667 24.501 38s20 21.333 31 30s22.333 15.334 34 20.001s22.834 7 33.501 7
c20.667 0 38.334 -9.16699 53.001 -27.5s22 -48.5 22 -90.5c0 -16 -1.16699 -33.5 -3.5 -52.5s-4.83301 -36.167 -7.5 -51.5c0 -2 -0.333008 -4.33301 -1 -7s-1 -5 -1 -7v-1c-1.33301 -7.33301 -3.66602 -24.833 -6.99902 -52.5s-6.66602 -60.667 -9.99902 -99
s-6.5 -80 -9.5 -125s-4.5 -88.833 -4.5 -131.5c0 -28.667 0.833008 -55.834 2.5 -81.501s4.5 -48.5 8.5 -68.5s9.33301 -36.5 16 -49.5s15 -21.167 25 -24.5c-34.667 -14 -62.834 -16.667 -84.501 -8s-38.5 24.667 -50.5 48s-20.167 52.5 -24.5 87.5s-6.5 72.167 -6.5 111.5
c0 38 1.5 76.833 4.5 116.5s6.5 78 10.5 115s8.33301 71.833 13 104.5l12 85l7 57c2 12.667 3 24.334 3 35.001c0 34 -6 51 -18 51c-10 0 -20.5 -9.16699 -31.5 -27.5s-22 -41 -33 -68s-21.667 -56 -32 -87l-27.5 -84.5l-8 -25.5l-7 -22.5
c-2.66699 -7.33301 -5 -14.666 -7 -21.999c-5.33301 -7.33301 -12.333 -14.333 -21 -21s-18 -10 -28 -10c-3.33301 0 -7.16602 0.666992 -11.499 2s-8.5 3.66602 -12.5 6.99902c-1.33301 1.33301 -2 2.66602 -2 3.99902c0 4.66699 0.166992 9.33398 0.5 14.001
s0.5 10 0.5 16c0.666992 18.667 1.33398 39.834 2.00098 63.501s1 47.5 1 71.5c0 16.667 -0.333008 33.167 -1 49.5s-1.5 31.333 -2.5 45s-2.5 25.667 -4.5 36s-4.33301 17.833 -7 22.5c-6 -5.33301 -13 -16.166 -21 -32.499s-15.667 -33.166 -23 -50.499
s-13.666 -33 -18.999 -47s-8 -21.667 -8 -23c-2 -24 -4 -52 -6 -84s-5.16699 -65.833 -9.5 -101.5s-10 -71.334 -17 -107.001s-16 -69.334 -27 -101.001s-24.5 -59.5 -40.5 -83.5s-35 -42 -57 -54c-11.333 -6 -20.666 -9 -27.999 -9c-13.333 0 -24.666 5 -33.999 15
s-15 22.667 -17 38c-0.666992 2 -1 4.33301 -1 7v9c0 14.667 2.66699 31.667 8 51s12 39 20 59s16.667 39.667 26 59s18.166 36.5 26.499 51.5s15.333 27.167 21 36.5s8.83398 14 9.50098 14l-5 -4c2 16 4.16699 35.5 6.5 58.5s4.5 46.333 6.5 70l5.5 67
c1.66699 21 2.5 37.5 2.5 49.5c-1.33301 18.667 -3.16602 36.334 -5.49902 53.001s-5.16602 31.334 -8.49902 44.001s-7.66602 22.834 -12.999 30.501s-11.333 11.5 -18 11.5c-6 0 -10.667 -2.33301 -14 -7s-5.66602 -10.334 -6.99902 -17.001
s-1.83301 -13.334 -1.5 -20.001s0.833008 -12 1.5 -16zM99.9863 105.998c-1.33301 -4.66699 -2.33203 -9.66895 -2.99902 -15.002s-1 -10.666 -1 -15.999c0 -8 0.333008 -12 1 -12c4 0 9.16699 7 15.5 21s12.666 31 18.999 51s12.333 41.333 18 64l14.5 60
c-14 -24 -26.5 -48.667 -37.5 -74s-19.833 -51.666 -26.5 -78.999z" />
    <glyph glyph-name="N" unicode="N" horiz-adv-x="733" 
d="M155 668c-9.33301 12.667 -14.166 24.3291 -14.499 34.9961s2.5 19.667 8.5 27s14 13 24 17s21 6 33 6c23.333 0 43 -5.66699 59 -17s28.833 -26.833 38.5 -46.5s16.667 -42.167 21 -67.5s6.83301 -52 7.5 -80c8.66699 16.667 19.5 36.334 32.5 59.001l40 66.5
c13.667 21.667 27 41.334 40 59.001s23.833 30.167 32.5 37.5c24 20 48 30 72 30c20.667 0 38.334 -9 53.001 -27s22 -48.333 22 -91c0 -12 -1.33301 -30 -4 -54s-6 -52.167 -10 -84.5l-12.5 -105.5c-4.33301 -38 -8 -77 -11 -117s-4.83301 -79.5 -5.5 -118.5
s0.333008 -75.833 3 -110.5s7.83398 -65.667 15.501 -93s18.5 -49 32.5 -65c-30.667 -9.33301 -56.167 -10.666 -76.5 -3.99902s-36.5 18.667 -48.5 36s-20.833 38.5 -26.5 63.5s-9.33398 50.667 -11.001 77s-2.33398 52 -2.00098 77s0.5 46.167 0.5 63.5
c1.33301 34.667 3.66602 69.167 6.99902 103.5s7 67 11 98l11.5 87c3.66699 27 7.16699 50.167 10.5 69.5l3.5 24c1 6.66699 1.83301 12.667 2.5 18c2 12.667 3 24.334 3 35.001c0 35.333 -6.66699 53 -20 53c-4 0 -10 -5.16699 -18 -15.5s-17.333 -24 -28 -41
s-22 -36.167 -34 -57.5l-35.5 -64.5l-32.5 -62.5c-10 -20 -18 -37.333 -24 -52v1c-4 -34 -9.16699 -70 -15.5 -108s-13.333 -74.5 -21 -109.5s-15.834 -66.333 -24.501 -94s-17 -48.167 -25 -61.5c-12 -16.667 -26.167 -31.667 -42.5 -45s-31.5 -20 -45.5 -20
c-13.333 0 -24.666 5 -33.999 15s-15 22.333 -17 37c-0.666992 2 -1 4.33301 -1 7v8c0 14 2.33301 30 7 48s10.667 36.5 18 55.5s15.5 37.833 24.5 56.5l25.5 51l21 39c6 10.667 10 17.334 12 20.001l-3 -3c0 3.33301 0.166992 6.66602 0.5 9.99902
s0.833008 6.66602 1.5 9.99902c1.33301 10.667 2.83301 24 4.5 40s3.16699 33 4.5 51s2.5 36.833 3.5 56.5s1.5 39.167 1.5 58.5c0 20.667 -0.666992 40.667 -2 60s-3.66602 36.333 -6.99902 51s-7.83301 26.334 -13.5 35.001s-12.834 13 -21.501 13
c-6 0 -10.5 -1.66699 -13.5 -5s-5.16699 -7.5 -6.5 -12.5s-2 -10.5 -2 -16.5s0.333008 -11.333 1 -16zM132 103.995c-1.33301 -5.33301 -2.33301 -10.8311 -3 -16.498s-1 -11.167 -1 -16.5v-11c4 0 9.16699 6.83301 15.5 20.5s12.666 30.5 18.999 50.5
s12.333 41.167 18 63.5s10.5 42.166 14.5 59.499c-13.333 -24.667 -25.666 -48.834 -36.999 -72.501s-20 -49.5 -26 -77.5z" />
    <glyph glyph-name="O" unicode="O" horiz-adv-x="769" 
d="M344 -110c-36 0 -66.998 9.83203 -92.998 29.499s-47.333 46.167 -64 79.5s-29 71.833 -37 115.5s-12 89.834 -12 138.501c0 42 2.83301 84.667 8.5 128s14 85.333 25 126s24.167 78.667 39.5 114s33 66.166 53 92.499s42 47.166 66 62.499s49.667 23 77 23
c17.333 0 32 -2.33301 44 -7c9.33301 5.33301 19.166 9.5 29.499 12.5s21.166 4.5 32.499 4.5c26.667 0 49.167 -6.83301 67.5 -20.5s33 -32.167 44 -55.5s19 -51 24 -83s7.5 -66 7.5 -102c0 -41.333 -2.66699 -84 -8 -128s-12.5 -87.167 -21.5 -129.5
s-19 -82.166 -30 -119.499s-22.5 -69.666 -34.5 -96.999c-11.333 -25.333 -24.333 -48.833 -39 -70.5s-31 -40.667 -49 -57s-38 -29.5 -60 -39.5s-45.333 -15.667 -70 -17zM427.002 582.999c24 -3.33301 41.666 2.99805 52.999 18.998s17 34.667 17 56
c0 15.333 -3 29.333 -9 42s-14.667 19 -26 19c-35.333 0 -66.5 -15 -93.5 -45s-49.667 -68.5 -68 -115.5s-32.166 -99.5 -41.499 -157.5s-14 -115 -14 -171c0 -40 2.5 -77.833 7.5 -113.5s12.667 -67.334 23 -95.001s23.166 -49.667 38.499 -66s33.333 -24.833 54 -25.5
c18 2.66699 35.333 9 52 19s32 22.667 46 38s27 32.5 39 51.5s22.667 38.5 32 58.5c10.667 24 21.334 53.833 32.001 89.5s20.334 73.834 29.001 114.501s15.834 82.334 21.501 125.001s8.5 83.334 8.5 122.001c0 32 -2.16699 62 -6.5 90s-11.5 52.333 -21.5 73
s-22.667 37 -38 49s-34 18.333 -56 19l-24 -6c14.667 -13.333 25.667 -30 33 -50s11 -40.667 11 -62c0 -20 -3.16699 -37.667 -9.5 -53s-14.333 -27 -24 -35s-20.334 -11.5 -32.001 -10.5s-22.834 7.83301 -33.501 20.5z" />
    <glyph glyph-name="P" unicode="P" horiz-adv-x="689" 
d="M118 704c-9.33301 10 -14.999 20.333 -16.999 31s-1 20.167 3 28.5s10.833 15.333 20.5 21s21.5 8.5 35.5 8.5c18.667 0 35 -4.33301 49 -13s26 -20.5 36 -35.5s17.833 -32.833 23.5 -53.5s10.167 -42.667 13.5 -66c12.667 16.667 28.667 35 48 55s40.333 38.5 63 55.5
s45.834 31.333 69.501 43s46.167 17.5 67.5 17.5c35.333 0 64.666 -12.167 87.999 -36.5s35 -58.5 35 -102.5c0 -21.333 -3.16699 -45.5 -9.5 -72.5s-15.333 -54.667 -27 -83s-25.834 -56 -42.501 -83s-35 -51.167 -55 -72.5s-41.5 -38.5 -64.5 -51.5
s-47.167 -19.5 -72.5 -19.5c-20.667 0 -36.334 2.83301 -47.001 8.5s-16 16.167 -16 31.5c0 14 4.83301 26.667 14.5 38s21.334 21.333 35.001 30s28.334 15.334 44.001 20.001s29.5 7.33398 41.5 8.00098c6.66699 7.33301 15.834 21.333 27.501 42
s22.834 44.167 33.501 70.5s20 53.666 28 81.999s12 53.5 12 75.5s-6.5 38.167 -19.5 48.5s-28.167 15.5 -45.5 15.5c-18 0 -37.333 -6 -58 -18s-40.5 -26.333 -59.5 -43s-36.167 -34.334 -51.5 -53.001s-27 -34.334 -35 -47.001c1.33301 -7.33301 2.33301 -16.833 3 -28.5
s1 -25.167 1 -40.5c0 -29.333 -1.66699 -64.5 -5 -105.5s-8.33301 -83.667 -15 -128s-15.334 -88.166 -26.001 -131.499s-23.334 -82.333 -38.001 -117s-31.334 -62.667 -50.001 -84s-39.334 -32 -62.001 -32c-14 0 -25.5 4.16699 -34.5 12.5s-16.333 18.666 -22 30.999
s-9.5 25.333 -11.5 39s-3 25.834 -3 36.501c0 12.667 2.5 31.5 7.5 56.5s11.667 53.167 20 84.5s17.833 64.5 28.5 99.5s21.834 68.833 33.501 101.5s23.5 62.834 35.5 90.501s23.333 50.167 34 67.5v5.5c0 2.33301 0.333008 4.16602 1 5.49902
c0 24.667 -0.666992 49.5 -2 74.5s-3.5 47.667 -6.5 68s-7.33301 36.833 -13 49.5s-13.167 19 -22.5 19c-6 0 -10.5 -2.16699 -13.5 -6.5s-5.16699 -9.33301 -6.5 -15s-2 -11.5 -2 -17.5s0.333008 -11 1 -15zM53.001 36c0 -12 1.50195 -24.1641 4.50195 -36.4971
s9.83301 -19.5 20.5 -21.5c10.667 2.66699 20.667 14.5 30 35.5s17.666 47.167 24.999 78.5s14 66 20 104s11.167 75.667 15.5 113s8 72.333 11 105l7.5 80c-8.66699 -17.333 -17.667 -38.5 -27 -63.5s-18.833 -51.833 -28.5 -80.5s-18.834 -57.834 -27.501 -87.501
s-16.5 -57.834 -23.5 -84.501s-12.833 -50.834 -17.5 -72.501s-7.66699 -38.5 -9 -50.5c-0.666992 -3.33301 -1 -6.5 -1 -9.5v-9.5zM349.003 313.003c6 0 13.166 2.33301 21.499 7s16.666 10.5 24.999 17.5s16.333 14.5 24 22.5s13.834 15.667 18.501 23
c-9.33301 -0.666992 -19.333 -2.66699 -30 -6s-20.667 -7.66602 -30 -12.999s-17.166 -12 -23.499 -20s-9.5 -16.667 -9.5 -26c0 -2.66699 1.33301 -4.33398 4 -5.00098z" />
    <glyph glyph-name="Q" unicode="Q" horiz-adv-x="756" 
d="M747 -16c-13.333 -2.66699 -25.5 -2.16992 -36.5 1.49707s-21 9.5 -30 17.5s-17.5 17.333 -25.5 28l-23 32c-9.33301 14.667 -18.166 27.834 -26.499 39.501s-17.166 21.167 -26.499 28.5c-10.667 -22.667 -22.834 -44.834 -36.501 -66.501s-29.334 -41 -47.001 -58
s-37.667 -31 -60 -42s-47.5 -17.167 -75.5 -18.5h-1c-38 4.66699 -70.5 18 -97.5 40s-49 49.5 -66 82.5s-29.5 70.5 -37.5 112.5s-12 86 -12 132c0 42 3.16699 84.5 9.5 127.5s15.333 84.667 27 125s25.834 78 42.501 113s35.167 65.667 55.5 92s42.5 47 66.5 62
s49 22.5 75 22.5c17.333 0 32.666 -2.33301 45.999 -7c20 12 41.333 18 64 18c26 0 48.167 -7.16699 66.5 -21.5s33.166 -33.666 44.499 -57.999s19.5 -52.5 24.5 -84.5s7.5 -66 7.5 -102c0 -38 -2.33301 -77.5 -7 -118.5s-10.667 -80.333 -18 -118
s-15.666 -72.667 -24.999 -105s-18.333 -59.166 -27 -80.499c15.333 -11.333 29.333 -26.5 42 -45.5l37 -57.5c10.667 -19.333 21.5 -37.166 32.5 -53.499s23.5 -28.833 37.5 -37.5zM485 132.997c-1.33301 22.667 3.66602 38.833 14.999 48.5s25.666 14.5 42.999 14.5
c10 0 19.333 -1.33301 28 -4c8 18.667 16.5 43.334 25.5 74.001s17 64.5 24 101.5s12.833 75.5 17.5 115.5s7 79 7 117c0 32 -2 62.167 -6 90.5s-10.5 53.166 -19.5 74.499s-21 38.333 -36 51s-33.167 19 -54.5 19c-6 0 -11.5 -0.166992 -16.5 -0.5
s-10.167 -1.83301 -15.5 -4.5c14 -12.667 25.167 -29.334 33.5 -50.001s12.5 -41.667 12.5 -63c0 -20.667 -3.5 -39 -10.5 -55s-15.833 -28 -26.5 -36s-22.167 -11.167 -34.5 -9.5s-23.833 9.83398 -34.5 24.501c12.667 -2.66699 23.834 -2.66699 33.501 0
s17.667 7.5 24 14.5s11 15.5 14 25.5s4.5 21 4.5 33c0 15.333 -2.83301 29.333 -8.5 42s-14.167 19 -25.5 19c-35.333 0 -66.5 -15 -93.5 -45s-49.667 -68.667 -68 -116s-32.166 -99.833 -41.499 -157.5s-14 -114.5 -14 -170.5c0 -40 2.5 -77.833 7.5 -113.5
s12.5 -67.334 22.5 -95.001s22.667 -49.667 38 -66s33.333 -24.833 54 -25.5c18.667 2.66699 36.167 8.83398 52.5 18.501s31.5 22 45.5 37s26.833 31.833 38.5 50.5s22.167 38 31.5 58c-8 6 -16.333 9 -25 9c-8 0 -15.5 -2.5 -22.5 -7.5s-13.5 -11.167 -19.5 -18.5z" />
    <glyph glyph-name="R" unicode="R" horiz-adv-x="745" 
d="M179 739c-9.33301 9.33301 -14.834 18.9971 -16.501 28.9971s-0.5 19 3.5 27s11 14.667 21 20s22 8 36 8c21.333 0 39.5 -4 54.5 -12s27.5 -18.833 37.5 -32.5s17.833 -29.334 23.5 -47.001s9.83398 -36.167 12.501 -55.5c10.667 18 22.334 36.167 35.001 54.5
s26.667 34.833 42 49.5s32.166 26.667 50.499 36s38.5 14 60.5 14c18.667 0 35.667 -3.5 51 -10.5s28.5 -16.167 39.5 -27.5s19.667 -24.833 26 -40.5s9.5 -31.834 9.5 -48.501c0 -30 -8.16699 -60.833 -24.5 -92.5s-37 -61.167 -62 -88.5s-52.833 -51.166 -83.5 -71.499
s-60.334 -34.5 -89.001 -42.5c32.667 -12.667 59.334 -31.334 80.001 -56.001s37.834 -52.667 51.501 -84s24.667 -64.166 33 -98.499s16.833 -67.333 25.5 -99s18.5 -60 29.5 -85s25.5 -44.167 43.5 -57.5c-37.333 -14 -67 -18.667 -89 -14s-39 15.334 -51 32.001
s-20.5 38.167 -25.5 64.5s-9.16699 54.333 -12.5 84s-7 59.667 -11 90s-11.167 58 -21.5 83s-25 45.833 -44 62.5s-45.167 26 -78.5 28c-3.33301 -26 -7.83301 -54.833 -13.5 -86.5s-12.834 -63.334 -21.501 -95.001s-19 -62.5 -31 -92.5s-26.333 -56.667 -43 -80
s-35.667 -42 -57 -56s-45.333 -21 -72 -21c-12.667 0 -23.334 2.5 -32.001 7.5s-15.667 11.333 -21 19s-9.16602 16.334 -11.499 26.001s-3.5 19.5 -3.5 29.5c0 24.667 5.83301 50.334 17.5 77.001s26.834 52.5 45.501 77.5s39.167 48.5 61.5 70.5s44.5 41 66.5 57
c3.33301 12.667 7 30.667 11 54s7.66699 49.333 11 78s6.16602 58.834 8.49902 90.501s3.5 62.5 3.5 92.5c0 24.667 -1 48.167 -3 70.5s-5 41.833 -9 58.5s-9.5 29.834 -16.5 39.501s-15.5 14.5 -25.5 14.5c-14.667 0 -22 -16.667 -22 -50zM344.999 442.997
c18.667 8 39.499 21.833 62.499 41.5s44.5 42 64.5 67s36.667 51.167 50 78.5s20 53 20 77c0 17.333 -3 30 -9 38s-13.667 12 -23 12c-12.667 0 -27.167 -4.83301 -43.5 -14.5s-32.166 -21.667 -47.499 -36s-29 -29.833 -41 -46.5s-20 -32 -24 -46v-14
c0 -13.333 -0.666992 -30.833 -2 -52.5l-4 -64.5zM76.998 -27.0029c12.667 0 25.833 11.167 39.5 33.5s26.667 48.666 39 78.999s23.333 60.833 33 91.5l22.5 72c-18.667 -14.667 -37 -31.167 -55 -49.5s-34.167 -37.833 -48.5 -58.5s-25.833 -42 -34.5 -64
s-13 -43.667 -13 -65c0 -7.33301 1 -15.666 3 -24.999s6.66699 -14 14 -14z" />
    <glyph glyph-name="S" unicode="S" horiz-adv-x="636" 
d="M460 621c10.667 0.666992 21.333 8.33008 32 22.9971c4.66699 7.33301 8.5 16.333 11.5 27s4.5 21.667 4.5 33c0 15.333 -4 29.5 -12 42.5s-21.333 19.5 -40 19.5c-14 0 -28.5 -3.33301 -43.5 -10s-28.5 -15.834 -40.5 -27.501s-22 -25.167 -30 -40.5
s-12 -31.666 -12 -48.999c0 -28 6.66699 -56.667 20 -86s28.333 -59.666 45 -90.999c10 -18.667 20 -38.334 30 -59.001s19.167 -42 27.5 -64s15.166 -44.667 20.499 -68s8 -47 8 -71c0 -39.333 -6 -75.666 -18 -108.999s-28.667 -62.166 -50 -86.499
s-46.333 -43.333 -75 -57s-59.334 -20.5 -92.001 -20.5c-22.667 0 -44.5 3.66699 -65.5 11s-39.667 18.333 -56 33s-29.333 33.167 -39 55.5s-14.5 48.833 -14.5 79.5c0 18 2.66699 36 8 54s13.333 33.833 24 47.5s23.5 23.667 38.5 30s32.5 6.5 52.5 0.5
c-15.333 -0.666992 -28.666 -5 -39.999 -13s-20.833 -18.167 -28.5 -30.5s-13.5 -26 -17.5 -41s-6 -29.5 -6 -43.5c0 -18.667 2.5 -36.167 7.5 -52.5s12.167 -30.666 21.5 -42.999s20.333 -22 33 -29s26.667 -10.5 42 -10.5c29.333 0 54 8.83301 74 26.5s36 38.667 48 63
s20.5 49.5 25.5 75.5s7.5 47.333 7.5 64c0 39.333 -6.5 76.5 -19.5 111.5s-29.167 69.167 -48.5 102.5c-25.333 44 -43.666 84.167 -54.999 120.5s-17 69.833 -17 100.5c0 32 5.5 60 16.5 84s25 44.167 42 60.5s36.167 28.5 57.5 36.5s42.666 12 63.999 12
c18.667 0 36.167 -3 52.5 -9s30.666 -14.667 42.999 -26s22.166 -24.833 29.499 -40.5s11 -33.5 11 -53.5c0 -15.333 -2.16699 -29.5 -6.5 -42.5s-10.166 -23.667 -17.499 -32s-15.666 -13.5 -24.999 -15.5s-18.666 0.666992 -27.999 8z" />
    <glyph glyph-name="T" unicode="T" horiz-adv-x="536" 
d="M89 636c-12.667 -12.667 -25.168 -20.5049 -37.501 -23.5049s-23.166 -2 -32.499 3s-17 13.667 -23 26s-9 27.5 -9 45.5c0 14 2.5 27.5 7.5 40.5s12.833 24.5 23.5 34.5s24.167 18 40.5 24s35.5 9 57.5 9c31.333 0 62.5 -3.33301 93.5 -10s61.833 -13.667 92.5 -21
c11.333 -3.33301 22.166 -6.16602 32.499 -8.49902l32.5 -7.5c16.667 28.667 36.334 52.334 59.001 71.001s51 28 85 28c12.667 0 23.167 -3.66699 31.5 -11s12.5 -17.666 12.5 -30.999c0 -10.667 -4.33301 -21.5 -13 -32.5s-19.167 -21 -31.5 -30
s-25.166 -16.667 -38.499 -23s-25 -9.83301 -35 -10.5c-9.33301 -37.333 -16.333 -74.833 -21 -112.5s-9.66699 -75.167 -15 -112.5l-14.5 -105.5c-5 -35.667 -10.833 -70.5 -17.5 -104.5s-14 -66.833 -22 -98.5s-17.333 -60.5 -28 -86.5
c-6.66699 -16 -15.5 -32.667 -26.5 -50s-23.667 -33.5 -38 -48.5s-30 -27.667 -47 -38s-35.167 -16.166 -54.5 -17.499c12.667 18 25.334 45.167 38.001 81.5s24.667 77 36 122s22 92.167 32 141.5s19 96.666 27 141.999c4 25.333 8.66699 51.833 14 79.5
s10.833 54.834 16.5 81.501s11.5 52 17.5 76s12.333 44.667 19 62c-17.333 3.33301 -34 6.83301 -50 10.5l-45 10.5c-30.667 7.33301 -58.167 13.333 -82.5 18s-48.833 7 -73.5 7c-14.667 -0.666992 -27.334 -3.5 -38.001 -8.5s-19.334 -11.333 -26.001 -19
s-11.667 -16 -15 -25s-5 -18.167 -5 -27.5c0 -22 7.16699 -37.667 21.5 -47s30.833 -10.666 49.5 -3.99902zM513.999 818.995c-8 -0.666992 -15.499 -4.00098 -22.499 -10.001s-13.333 -13.167 -19 -21.5s-10.667 -16.833 -15 -25.5s-7.83301 -16 -10.5 -22
c7.33301 2 15.666 5 24.999 9s18 8.83301 26 14.5s14.833 11.834 20.5 18.501s8.5 13.667 8.5 21c0 10.667 -4.33301 16 -13 16z" />
    <glyph glyph-name="U" unicode="U" horiz-adv-x="749" 
d="M127 641c-9.33301 8.66699 -14.8311 18 -16.498 28s-0.333984 19.167 3.99902 27.5s11.333 15.166 21 20.499s21.5 8 35.5 8c24 0 44.333 -4.16699 61 -12.5s30 -20.333 40 -36s17.167 -34.334 21.5 -56.001s6.5 -45.5 6.5 -71.5c0 -33.333 -2.33301 -68.5 -7 -105.5
s-9.66699 -73.833 -15 -110.5c-5.33301 -32.667 -9.83301 -63.5 -13.5 -92.5s-5.5 -54.833 -5.5 -77.5c0 -23.333 2.66699 -42 8 -56s15.333 -21 30 -21s28.667 8.16699 42 24.5s26.166 38.333 38.499 66s24 59.334 35 95.001s21.333 72.834 31 111.501
s18.667 77.5 27 116.5l22.5 108.5l23.5 110c6.33301 29.333 11.833 46.666 16.5 51.999c5.33301 4.66699 14.333 9.83398 27 15.501s25 8.5 37 8.5c10 0 18.5 -3 25.5 -9s10.5 -17 10.5 -33c-8.66699 -111.333 -15.334 -207.5 -20.001 -288.5s-7.66699 -150.167 -9 -207.5
s-1.33301 -104.666 0 -141.999s3.83301 -67.833 7.5 -91.5s8.16699 -42.667 13.5 -57s11.333 -26.833 18 -37.5c-16 1.33301 -33.333 5.16602 -52 11.499s-36 17.5 -52 33.5s-29.333 38.167 -40 66.5s-16 64.833 -16 109.5c0 48 2.16699 99.333 6.5 154
s9.5 106.334 15.5 155.001l-20 -88c-7.33301 -31.333 -15.833 -62.666 -25.5 -93.999s-20.667 -61.666 -33 -90.999s-26.166 -55.333 -41.499 -78s-32.333 -40.667 -51 -54s-39.667 -20 -63 -20c-22 0 -40.333 4.16699 -55 12.5s-26.334 19.666 -35.001 33.999
s-14.667 31 -18 50s-5 39.5 -5 61.5c0 30 2.16699 60.167 6.5 90.5s8.5 56.833 12.5 79.5c0.666992 6.66699 1.5 12.667 2.5 18s1.83301 10.333 2.5 15c3.33301 26 6.16602 52.5 8.49902 79.5s3.5 52.833 3.5 77.5c0 19.333 -0.833008 37.5 -2.5 54.5
s-4.16699 31.667 -7.5 44s-7.83301 22.166 -13.5 29.499s-12.5 11 -20.5 11c-5.33301 0 -9.66602 -1.66699 -12.999 -5s-5.83301 -7.5 -7.5 -12.5s-2.66699 -10.333 -3 -16s-0.166016 -10.834 0.500977 -15.501z" />
    <glyph glyph-name="V" unicode="V" horiz-adv-x="769" 
d="M118 707c-9.33301 9.33301 -14.8301 19.3301 -16.4971 29.9971s-0.333984 20.334 3.99902 29.001s11.333 15.834 21 21.501s21.5 8.5 35.5 8.5c30.667 0 55.167 -11.167 73.5 -33.5s32 -52 41 -89s14.833 -79.167 17.5 -126.5s4 -96 4 -146
c0 -12.667 -0.166992 -25.5 -0.5 -38.5s-0.5 -26.167 -0.5 -39.5v-74c0 -36 0.666992 -70 2 -102s4.33301 -60 9 -84s11.334 -43 20.001 -57s20.334 -21 35.001 -21c5.33301 0 12.5 3.66699 21.5 11s18.5 18.333 28.5 33c6 6.66699 13.5 17 22.5 31l28.5 46.5l30.5 54
l29 54.5l23.5 46l15 30c-4.66699 10 -10.334 24.667 -17.001 44s-13.167 41.166 -19.5 65.499s-11.666 49.833 -15.999 76.5s-6.5 52.334 -6.5 77.001c0 18 1.5 34.833 4.5 50.5s7.83301 29.167 14.5 40.5s15.5 20.333 26.5 27s24.833 10 41.5 10
c31.333 0 53.166 -10.667 65.499 -32s18.5 -48 18.5 -80c0 -26 -3.16699 -54 -9.5 -84s-13.833 -59.167 -22.5 -87.5s-17.667 -54.166 -27 -77.499s-17.333 -41 -24 -53l-21 -40l-34 -64l-41 -72c-14.667 -24.667 -29.834 -48.5 -45.501 -71.5s-31.334 -43.667 -47.001 -62
s-31.167 -33 -46.5 -44s-29.666 -16.5 -42.999 -16.5c-15.333 0 -29.333 3.5 -42 10.5s-24 16.833 -34 29.5c-14.667 18 -26.334 42.333 -35.001 73s-15.334 65 -20.001 103s-7.66699 78.667 -9 122s-2 87 -2 131c0 16.667 0.166992 33.167 0.5 49.5s0.5 32.166 0.5 47.499
v86c0 30 -0.333008 58 -1 84s-2.16699 48.333 -4.5 67s-5.5 33.334 -9.5 44.001s-9.33301 16 -16 16c-6 0 -10.667 -2 -14 -6s-5.83301 -8.83301 -7.5 -14.5s-2.5 -11.667 -2.5 -18s0.333008 -11.5 1 -15.5zM589.003 651.997c-20 0 -34.001 -9.33105 -42.001 -27.998
s-12 -41.667 -12 -69c0 -20 1.66699 -41 5 -63s7.33301 -43.333 12 -64s9.83398 -39.667 15.501 -57s11.167 -31.333 16.5 -42c4.66699 12 10.334 27.833 17.001 47.5s13.167 40.667 19.5 63s11.666 45.166 15.999 68.499s6.5 44.666 6.5 63.999c0 22.667 -4 41.667 -12 57
s-22 23 -42 23z" />
    <glyph glyph-name="W" unicode="W" horiz-adv-x="1042" 
d="M88 716c-8 8.66699 -12.668 17.6602 -14.001 26.9932s0 17.833 4 25.5s10.5 13.834 19.5 18.501s19.5 7 31.5 7c26 0 47.167 -8 63.5 -24s28.833 -37.167 37.5 -63.5s14.5 -56.833 17.5 -91.5s4.5 -70.334 4.5 -107.001v-69c0 -13.333 -0.166992 -26.666 -0.5 -39.999
s-0.5 -26.666 -0.5 -39.999c0 -38.667 0.666992 -76.667 2 -114s4 -70.833 8 -100.5s10 -53.5 18 -71.5s18.667 -27 32 -27c5.33301 0 12.166 4.66699 20.499 14s17.333 21.5 27 36.5s19.834 32.167 30.501 51.5s21 39 31 59l28.5 59l24.5 51l15 33
c0.666992 32.667 2.83398 62.834 6.50098 90.501l11.5 85.5l5 4c1.33301 0 2.33301 0.333008 3 1c2.66699 0.666992 6.33398 1 11.001 1c19.333 0 34.5 -5.33301 45.5 -16s19.333 -24.667 25 -42s9.33398 -36.833 11.001 -58.5s2.5 -43.167 2.5 -64.5v-145
c0 -30.667 0.5 -59.667 1.5 -87s3.5 -51.5 7.5 -72.5s10 -37.667 18 -50s18.667 -18.5 32 -18.5c9.33301 0 21.166 8.83301 35.499 26.5s29.166 39.167 44.499 64.5s30.5 52 45.5 80l39.5 74l19 39c-5.33301 6.66699 -11.333 18.167 -18 34.5s-12.834 35.333 -18.501 57
s-10.334 44.834 -14.001 69.501s-5.5 48.667 -5.5 72c0 18 1.5 35 4.5 51s7.66699 29.833 14 41.5s14.833 21 25.5 28s24 10.5 40 10.5c15.333 0 28 -2.66699 38 -8s18 -12.5 24 -21.5s10.333 -19.667 13 -32s4 -25.5 4 -39.5c0 -15.333 -1.16699 -31.166 -3.5 -47.499
s-5.33301 -32 -9 -47s-7.33398 -28.833 -11.001 -41.5l-9.5 -32c-5.33301 -16.667 -10.666 -32.167 -15.999 -46.5s-11.333 -28.5 -18 -42.5l-21 -43l-24 -47l-50.5 -90c-18.333 -32.667 -37.5 -63.167 -57.5 -91.5s-40 -52 -60 -71s-39 -28.5 -57 -28.5
c-27.333 0 -49.666 11.167 -66.999 33.5s-30.833 51 -40.5 86s-16.5 74.167 -20.5 117.5s-6.33301 86.333 -7 129l-9 -18l-45.5 -88c-17 -32.667 -35 -63.667 -54 -93s-38.167 -54 -57.5 -74s-37.333 -30 -54 -30c-28 0 -50.833 12 -68.5 36s-31.167 55 -40.5 93
s-15.666 80 -18.999 126s-5 91 -5 135c0 31.333 0.166992 59.333 0.5 84s1.16602 48.334 2.49902 71.001l2 54c0.666992 18.667 1 36.667 1 54c0 19.333 -0.333008 37.833 -1 55.5s-2 33.334 -4 47.001s-5.16699 24.667 -9.5 33s-9.83301 12.5 -16.5 12.5
c-7.33301 0 -12.666 -4 -15.999 -12s-5 -19 -5 -33zM878.999 592.993c-18.667 0 -31.833 -9.16699 -39.5 -27.5s-11.5 -40.166 -11.5 -65.499c0 -18.667 1.33301 -38 4 -58s6.16699 -39.333 10.5 -58s9 -35.834 14 -51.501s9.83301 -28.167 14.5 -37.5l15.5 43
c6.33301 18 12.5 37.5 18.5 58.5s11.167 42.5 15.5 64.5s6.5 42.333 6.5 61c0 20 -3.5 36.833 -10.5 50.5s-19.5 20.5 -37.5 20.5z" />
    <glyph glyph-name="X" unicode="X" horiz-adv-x="1008" 
d="M913 765c-25.333 6 -50.165 3.15625 -74.498 -8.51074s-48 -28.667 -71 -51s-44.833 -48.166 -65.5 -77.499s-39.834 -59 -57.501 -89s-33.5 -58.333 -47.5 -85l-35 -66c1.33301 -4.66699 3 -9.66699 5 -15s3.66699 -10.333 5 -15v1l23 -66.5
c8.66699 -25 18.5 -50.667 29.5 -77s23 -52.333 36 -78s27.167 -48.667 42.5 -69s31.666 -36.666 48.999 -48.999s35.666 -18.5 54.999 -18.5c11.333 0 21.333 6.66699 30 20s15.834 29 21.501 47s10 36.333 13 55s4.83301 33.667 5.5 45c0 4.66699 1.5 8.33398 4.5 11.001
s6.5 4 10.5 4c8.66699 0 13 -5 13 -15c-1.33301 -22.667 -4.5 -48.834 -9.5 -78.501s-13 -57.667 -24 -84s-25.667 -48.666 -44 -66.999s-41.5 -27.5 -69.5 -27.5c-36 0 -67.833 10.667 -95.5 32s-52.167 48.166 -73.5 80.499s-40.166 67.333 -56.499 105l-44.5 106.5l-4 10
l-9 -17c-18 -39.333 -37.5 -79.833 -58.5 -121.5s-44.167 -79.5 -69.5 -113.5s-53.333 -62 -84 -84s-64.667 -33 -102 -33c-18 0 -33.833 4.16699 -47.5 12.5s-25 19.5 -34 33.5s-15.833 30 -20.5 48s-7 36.667 -7 56c0 17.333 2 34.666 6 51.999s10 33 18 47
s18.333 25.5 31 34.5s27.667 13.833 45 14.5c-10 -5.33301 -19.167 -13.166 -27.5 -23.499s-15.166 -22.333 -20.499 -36s-9.5 -28.334 -12.5 -44.001s-4.5 -31.5 -4.5 -47.5c0 -14.667 1.33301 -28.834 4 -42.501s7 -25.667 13 -36s13.5 -18.666 22.5 -24.999
s19.5 -9.5 31.5 -9.5c33.333 0 63.333 9.83301 90 29.5s50.834 44.834 72.501 75.501s41.5 64.5 59.5 101.5s34.667 72.833 50 107.5c4.66699 10 9 19.833 13 29.5s7.66699 18.167 11 25.5c3.33301 8.66699 7 16.667 11 24c0 10 -3.66699 27.333 -11 52
s-16.833 52.5 -28.5 83.5s-25.334 63.333 -41.001 97s-31.834 64.5 -48.501 92.5s-33.5 51 -50.5 69s-32.5 27 -46.5 27c-9.33301 0 -15.666 -3 -18.999 -9s-4.5 -12.667 -3.5 -20s3.5 -14.666 7.5 -21.999s8.66699 -12 14 -14
c-18.667 2.66699 -32.334 7.83398 -41.001 15.501s-13.334 16.167 -14.001 25.5s1.83301 19.166 7.5 29.499s13.5 19.833 23.5 28.5s21.333 15.834 34 21.501s25.334 8.5 38.001 8.5c20 0 41 -5.66699 63 -17s42.333 -30.666 61 -57.999c14.667 -22 28.667 -45.667 42 -71
s25.833 -50.666 37.5 -75.999s22.167 -49.5 31.5 -72.5l24 -60.5c1.33301 2.66699 2.83301 5.33398 4.5 8.00098s3.16699 5.33398 4.5 8.00098l43.5 79.5c16.333 29.667 34 59.334 53 89.001s39.167 57.334 60.5 83.001s43.166 46.334 65.499 62.001s45 24.5 68 26.5
s45.833 -6 68.5 -24z" />
    <glyph glyph-name="Y" unicode="Y" horiz-adv-x="666" 
d="M62 697c-10 12 -15.999 23.832 -17.999 35.499s-1 22.167 3 31.5s10.833 16.833 20.5 22.5s21.834 8.5 36.501 8.5c36 0 65 -10.667 87 -32s33 -53.666 33 -96.999c0 -20.667 -1.66699 -42.667 -5 -66s-7 -47 -11 -71c-4 -22.667 -7.5 -44.834 -10.5 -66.501
s-4.5 -41.167 -4.5 -58.5c0 -21.333 3.33301 -38.833 10 -52.5s19 -20.5 37 -20.5c11.333 0 23.666 7 36.999 21s26.666 32.333 39.999 55s26.5 48.334 39.5 77.001s25.167 58 36.5 88s21.5 58.833 30.5 86.5s16.167 52.167 21.5 73.5
c5.33301 17.333 13.833 32.666 25.5 45.999s24.834 20 39.501 20c4.66699 0 9.33398 -0.333008 14.001 -1s9 -2.83398 13 -6.50098s7.33301 -9.16699 10 -16.5s4 -17.666 4 -30.999c0 -17.333 -1.33301 -39.5 -4 -66.5s-6 -57.167 -10 -90.5s-8.5 -68.833 -13.5 -106.5
l-15.5 -112.5c-6.66699 -44.667 -14.667 -90.167 -24 -136.5s-20.333 -91.333 -33 -135s-27 -85 -43 -124s-34 -73 -54 -102s-42.333 -52 -67 -69s-52 -25.5 -82 -25.5c-15.333 0 -28 2.5 -38 7.5s-18 11.833 -24 20.5s-10.167 18.334 -12.5 29.001s-3.5 21.667 -3.5 33
c0 36 6.33301 69.833 19 101.5s29 62 49 91s42.5 56.667 67.5 83s50.167 51.5 75.5 75.5h-1l43 40l10 55c2.66699 21.333 5.33398 41.166 8.00098 59.499s5.16699 36.5 7.5 54.5l7 55c2.33301 18.667 4.5 39 6.5 61c-9.33301 -26.667 -20.833 -55.5 -34.5 -86.5
s-29.5 -59.667 -47.5 -86s-38.5 -48.333 -61.5 -66s-48.833 -26.5 -77.5 -26.5c-22.667 0 -41.334 4.16699 -56.001 12.5s-26.334 19.5 -35.001 33.5s-14.667 30.5 -18 49.5s-5 39.5 -5 61.5c0 27.333 1.83301 55.333 5.5 84s7.5 56.334 11.5 83.001
c2 10.667 4.33301 25 7 43s4.16699 35.667 4.5 53s-1.5 32.333 -5.5 45s-12.333 19 -25 19c-6.66699 0 -11.667 -2.5 -15 -7.5s-5.5 -10.833 -6.5 -17.5s-1.33301 -13.5 -1 -20.5s1.16602 -12.833 2.49902 -17.5zM185.001 -156.001c15.333 0 29.999 6.33105 43.999 18.998
s27.167 29.334 39.5 50.001s23.833 44 34.5 70s20.334 52.5 29.001 79.5s16.167 53 22.5 78s11.5 46.833 15.5 65.5c-35.333 -32 -68 -64.167 -98 -96.5s-55 -67.166 -75 -104.499c-3.33301 -5.33301 -7 -12.833 -11 -22.5s-8 -20.5 -12 -32.5s-7.33301 -24.167 -10 -36.5
s-4 -23.5 -4 -33.5s1.83301 -18.5 5.5 -25.5s10.167 -10.5 19.5 -10.5z" />
    <glyph glyph-name="Z" unicode="Z" horiz-adv-x="833" 
d="M238 393c2 12 5.66113 21.5059 10.9941 28.5059s11.5 12.333 18.5 16s14.5 6.16699 22.5 7.5s16 2 24 2h15.5c5 0 9.83301 -0.333008 14.5 -1l49 137l49 138l-31.5 6c-10.333 2 -21.166 4.66699 -32.499 8c-24 5.33301 -49.333 10.5 -76 15.5s-51.667 7.5 -75 7.5
c-22 0 -41.167 -2.66699 -57.5 -8s-29.666 -12.333 -39.999 -21s-18.166 -18.334 -23.499 -29.001s-8 -21.334 -8 -32.001c0 -10 2.5 -19.333 7.5 -28s12.833 -15.334 23.5 -20.001c-10.667 -3.33301 -19.667 -4.33301 -27 -3s-13.333 4.33301 -18 9s-8 10.667 -10 18
s-3 15 -3 23c0 14 3.16699 28.167 9.5 42.5s16 27.166 29 38.499s29.333 20.666 49 27.999s43.167 11 70.5 11c26 0 52.333 -2.5 79 -7.5s52.667 -10.167 78 -15.5c13.333 -3.33301 25.5 -6.16602 36.5 -8.49902s22.167 -4.5 33.5 -6.5c16 30 35.667 55.167 59 75.5
s52.333 30.5 87 30.5c16.667 0 28.5 -3.5 35.5 -10.5s10.5 -15.833 10.5 -26.5c0 -10 -3.33301 -21 -10 -33s-15.5 -23.333 -26.5 -34s-23.833 -19.667 -38.5 -27s-30 -11.333 -46 -12c-5.33301 -13.333 -10 -28.5 -14 -45.5s-8.66699 -35.167 -14 -54.5
c-7.33301 -28 -16 -58.833 -26 -92.5s-20.667 -66.167 -32 -97.5c4 -1.33301 7.83301 -2 11.5 -2h11.5c19.333 0 38.5 4.16699 57.5 12.5s35.5 20.166 49.5 35.499c-11.333 -29.333 -26.5 -49 -45.5 -59s-40.5 -15 -64.5 -15c-5.33301 0 -10.166 -0.166992 -14.499 -0.5
s-9.16602 0.166992 -14.499 1.5c-8.66699 -26 -18.667 -54.167 -30 -84.5l-34.5 -90.5l-35 -86.5c-11.667 -27.667 -22.5 -51.834 -32.5 -72.501c36 -20 72.833 -38.5 110.5 -55.5s75.834 -25.5 114.501 -25.5c28 0 55.167 7.16699 81.5 21.5s50.833 37.166 73.5 68.499
c3.33301 4.66699 7.66602 7 12.999 7c3.33301 0 6.5 -1.33301 9.5 -4s4.83301 -6.66699 5.5 -12c-28 -41.333 -57.667 -70.166 -89 -86.499s-64 -24.5 -98 -24.5c-40 0 -80 8.5 -120 25.5s-78.667 36.167 -116 57.5c-13.333 -21.333 -28.333 -37.833 -45 -49.5
s-33 -17.5 -49 -17.5c-14.667 0 -28.5 4.83301 -41.5 14.5s-19.5 23.5 -19.5 41.5c0 8.66699 1.83301 18 5.5 28s8.66699 19 15 27s14 14.667 23 20s18.5 8 28.5 8c0.666992 0 1.16699 -0.166992 1.5 -0.5s1.16602 -0.5 2.49902 -0.5h1c24.667 54 47.834 107.5 69.501 160.5
s40.5 103.5 56.5 151.5c-3.33301 0.666992 -7 1.16699 -11 1.5s-7.66699 0.5 -11 0.5c-12.667 0 -25.667 -1.83301 -39 -5.5s-24.666 -10.167 -33.999 -19.5zM602.994 829.006c-6 0 -11.833 -2.5 -17.5 -7.5s-11.334 -11.5 -17.001 -19.5s-11.167 -17.167 -16.5 -27.5
l-16 -31.5c8.66699 1.33301 17.667 4 27 8s17.833 9 25.5 15s14 13 19 21s7.5 17 7.5 27c0 4 -1.16699 7.5 -3.5 10.5s-5.16602 4.5 -8.49902 4.5zM159.994 15.0059c3.33301 0 8.66699 4.83301 16 14.5s14.666 25.167 21.999 46.5h-4c-5.33301 0 -10.166 -2 -14.499 -6
s-8.33301 -8.66699 -12 -14s-6.5 -11 -8.5 -17s-3 -11.333 -3 -16c0 -5.33301 1.33301 -8 4 -8z" />
    <glyph glyph-name="bracketleft" unicode="[" horiz-adv-x="833" 
d="M297 774c0 3.33301 1.66699 5 5 5h119c3.33301 0 5 -1.66699 5 -5l-2 -29c0 -3.33301 -1.66699 -5 -5 -5h-51l-57 -830h55c3.33301 0 5 -1.66699 5 -5v-21c0 -3.33301 -1.66699 -5 -5 -5h-128c-3.33301 0 -5 1.66699 -5 5z" />
    <glyph glyph-name="backslash" unicode="\" horiz-adv-x="441" 
d="M313 -160l-0.000976562 -5.99902c0 -9.33301 -3.33301 -17.333 -10 -24s-14.667 -10 -24 -10s-17 3 -23 9s-9.66699 12.667 -11 20l-68.5 452.5l-68.5 452.5c0 0.666992 -0.166992 1.16699 -0.5 1.5s-0.5 1.5 -0.5 3.5c0 8.66699 3.33301 16.667 10 24s14.667 11 24 11
c8.66699 0 16.334 -2.83301 23.001 -8.5s10.667 -12.834 12 -21.501z" />
    <glyph glyph-name="bracketright" unicode="]" horiz-adv-x="833" 
d="M385 -195c0 -3.33301 -1.66699 -5 -5 -5h-120c-3.33301 0 -5 1.66699 -5 5l2 28c0 3.33301 1.66699 5 5 5h52l57 830h-55c-3.33301 0 -5 1.66699 -5 5v22c0 3.33301 1.66699 5 5 5h128c3.33301 0 5 -1.66699 5 -5z" />
    <glyph glyph-name="asciicircum" unicode="^" horiz-adv-x="585" 
d="M299 671c3.33301 3.33301 5.99902 3.33301 7.99902 0l159 -214c0 -4 -1.33301 -8.33301 -4 -13s-6 -9 -10 -13s-8.33301 -7.33301 -13 -10s-9 -4 -13 -4c-2 0 -3.5 -0.166992 -4.5 -0.5s-1.16699 -0.5 -0.5 -0.5l-30.5 40.5l-29.5 41.5l-37.5 51
c-12.333 16.667 -25.5 32.667 -39.5 48l-134 -138c-2.66699 -2 -5.66699 -4 -9 -6s-6.66602 -3 -9.99902 -3c-5.33301 0 -10 1.83301 -14 5.5s-6 8.16699 -6 13.5c0 6 2.33301 11.333 7 16v-1z" />
    <glyph glyph-name="underscore" unicode="_" horiz-adv-x="833" 
d="M498 -142c8.66699 0 16 -2.83301 22 -8.5s9 -13.167 9 -22.5c0 -8 -3 -15 -9 -21s-13.333 -9 -22 -9h-309c-9.33301 0 -17 3 -23 9s-9 13 -9 21c0 9.33301 3 17 9 23s13.667 9 23 9z" />
    <glyph glyph-name="grave" unicode="`" horiz-adv-x="426" 
d="M267 454c-6 -4 -11.665 -5.99805 -16.998 -5.99805c-7.33301 0 -12.5 3.16699 -15.5 9.5s-6.16699 13.5 -9.5 21.5c-1.33301 4.66699 -2.83301 9.16699 -4.5 13.5s-3.5 8.16602 -5.5 11.499c-7.33301 12.667 -15.833 25.667 -25.5 39s-19.834 26.666 -30.501 39.999
c-14.667 18.667 -27.667 36.167 -39 52.5s-17 29.5 -17 39.5c0 8.66699 3.66699 15.167 11 19.5s14.666 6.5 21.999 6.5c14 0 30.333 -6.16699 49 -18.5s36.5 -27.833 53.5 -46.5s31.5 -39 43.5 -61s18 -42.667 18 -62c0 -12 -2.66699 -23.167 -8 -33.5
s-14 -18.833 -26 -25.5h1z" />
    <glyph glyph-name="a" unicode="a" horiz-adv-x="485" 
d="M356 10c-18.667 -3.33301 -34.3291 -1.00293 -46.9961 6.99707s-23 19.333 -31 34s-13.833 31.834 -17.5 51.501s-6.16699 39.834 -7.5 60.501s-1.66602 40.334 -0.999023 59.001s1.66699 34.667 3 48v6l-37.5 -69.5c-15 -27 -31.167 -52.833 -48.5 -77.5
s-35.833 -45.667 -55.5 -63s-38.834 -26 -57.501 -26c-28 0 -48.5 11 -61.5 33s-19.5 50.667 -19.5 86c0 34.667 5.5 70.834 16.5 108.501s26.5 72.167 46.5 103.5s43.833 57 71.5 77s58.167 30 91.5 30c19.333 0 37 -5 53 -15s29.333 -24.667 40 -44l5 10h-1
c4 9.33301 8.83301 15.833 14.5 19.5s11.5 5.5 17.5 5.5s11.667 -2 17 -6s10 -9 14 -15s7.16699 -12.667 9.5 -20s3.5 -14 3.5 -20s-0.333008 -9.66699 -1 -11v1c-1.33301 -6 -3.33301 -17.167 -6 -33.5s-5.33398 -36 -8.00098 -59s-5.33398 -47.833 -8.00098 -74.5
s-4.33398 -52.834 -5.00098 -78.501s-0.333984 -49.667 0.999023 -72s4.33301 -40.833 9 -55.5zM98.0049 102.997c12.667 0 27.001 10.1689 43.001 30.502s32.333 45.166 49 74.499s32.667 60.333 48 93l40 86c-9.33301 20.667 -18.166 35.167 -26.499 43.5
s-16.833 12.5 -25.5 12.5c-9.33301 0 -19.5 -4.83301 -30.5 -14.5s-21.833 -22.5 -32.5 -38.5s-20.834 -34.5 -30.501 -55.5s-18.334 -42.667 -26.001 -65s-13.667 -44.833 -18 -67.5s-6.5 -43.334 -6.5 -62.001c0 -10.667 1.33301 -19.5 4 -26.5s6.66699 -10.5 12 -10.5z
M279.006 388.999l-1 -2c0 -1.33301 0.333008 -2 1 -2v4z" />
    <glyph glyph-name="b" unicode="b" horiz-adv-x="484" 
d="M167 -1c-16.667 0 -32.3311 5.16992 -46.998 15.5029s-22 24.5 -22 42.5c0 20 5.16699 38.5 15.5 55.5s23.166 32.167 38.499 45.5s32.166 24.833 50.499 34.5s35.5 17.5 51.5 23.5c3.33301 7.33301 7 17.833 11 31.5s7.5 28.5 10.5 44.5s5 32.5 6 49.5
s0.333008 32.333 -2 46s-7.16602 24.834 -14.499 33.501s-17.666 13 -30.999 13c-12 0 -24 -3.66699 -36 -11s-23.5 -16.166 -34.5 -26.499s-21.167 -21.333 -30.5 -33l-24 -30.5c-6.66699 -33.333 -11.334 -64.5 -14.001 -93.5s-4 -54.167 -4 -75.5
c0 -25.333 0.833008 -45.833 2.5 -61.5s2.5 -26.167 2.5 -31.5c0 -4.66699 -2.5 -8.33398 -7.5 -11.001s-10.667 -4.83398 -17 -6.50098s-12.666 -2.83398 -18.999 -3.50098s-10.833 -1 -13.5 -1c-18 1.33301 -30.167 14.666 -36.5 39.999s-9.5 56.666 -9.5 93.999
c0 23.333 1 47.833 3 73.5s4.16699 50.5 6.5 74.5s5 46.167 8 66.5l7.5 50.5c2.66699 19.333 7.33398 45.166 14.001 77.499s14.834 67.166 24.501 104.499s21.167 75.166 34.5 113.499s28.333 72.833 45 103.5s35 55.834 55 75.501s41.667 29.5 65 29.5
c12.667 0 23.167 -3 31.5 -9s14.833 -13.833 19.5 -23.5s8 -20.5 10 -32.5s3 -24.333 3 -37c0 -37.333 -5 -74.166 -15 -110.499s-23.833 -71.5 -41.5 -105.5s-38.334 -66.5 -62.001 -97.5s-49.167 -59.5 -76.5 -85.5l-12 -67l32.5 35c11 11.333 22.5 21.333 34.5 30
s25 15.5 39 20.5s29 7.5 45 7.5c29.333 0 52.666 -6.66699 69.999 -20s29.666 -31 36.999 -53s10.166 -47 8.49902 -75s-6.66699 -56.667 -15 -86s-19.5 -58.166 -33.5 -86.499s-29.833 -54 -47.5 -77s-36.5 -41.667 -56.5 -56s-40 -22.5 -60 -24.5zM273.003 905.003
c-8 0 -16.668 -8 -26.001 -24s-18.666 -36.5 -27.999 -61.5s-18.666 -53 -27.999 -84s-17.833 -61.5 -25.5 -91.5s-14.5 -58 -20.5 -84s-10.333 -46.333 -13 -61c0.666992 1.33301 1.16699 2 1.5 2s1.16602 0.666992 2.49902 2c22.667 24 43.5 49.667 62.5 77
s35.5 56 49.5 86s24.833 60.667 32.5 92s11.5 63 11.5 95c0 13.333 -1.33301 25.333 -4 36s-7.66699 16 -15 16zM129.002 58.0029c0 -4.66699 0.666992 -7.00098 2 -7.00098c4 0 9.33301 2.83301 16 8.5s13.5 12.334 20.5 20.001s13.667 15.5 20 23.5s10.833 14 13.5 18
l39 57c-12.667 -6 -25.5 -13 -38.5 -21s-24.833 -17 -35.5 -27s-19.5 -21 -26.5 -33s-10.5 -25 -10.5 -39z" />
    <glyph glyph-name="c" unicode="c" horiz-adv-x="384" 
d="M231 382c0.666992 2.66699 1.16992 6.50195 1.50293 11.502s0 9.83301 -1 14.5s-2.83301 8.66699 -5.5 12s-6.33398 5 -11.001 5c-13.333 0 -25.833 -4.83301 -37.5 -14.5s-22.167 -21.667 -31.5 -36s-17.5 -29.5 -24.5 -45.5s-12.5 -30 -16.5 -42
c-6 -18.667 -11.167 -39.334 -15.5 -62.001s-6.5 -44.667 -6.5 -66c0 -13.333 1.16699 -26.333 3.5 -39s6.16602 -23.834 11.499 -33.501s12.333 -17.5 21 -23.5s19.334 -9 32.001 -9c21.333 0 43.166 9.33301 65.499 28s43.833 40.667 64.5 66s39.167 51 55.5 77l38.5 61
c2.66699 6 6.66699 9 12 9c3.33301 0 6.33301 -0.833008 9 -2.5s4 -4.83398 4 -9.50098c0 -2 -0.666992 -5 -2 -9l-3 -7c-14 -24 -31 -51.333 -51 -82s-42.5 -59.834 -67.5 -87.501s-52.5 -50.834 -82.5 -69.501s-62.333 -28 -97 -28c-12.667 0 -23.334 1.33301 -32.001 4
c-32 7.33301 -55.333 24.833 -70 52.5s-22 60.5 -22 98.5c0 34.667 5.66699 71 17 109s26.666 72.833 45.999 104.5s42.333 57.834 69 78.501s55.667 31 87 31c16 0 29 -2.83301 39 -8.5s16.833 -13.167 20.5 -22.5s3.83398 -19.666 0.500977 -30.999
s-10.333 -22.666 -21 -33.999z" />
    <glyph glyph-name="d" unicode="d" horiz-adv-x="508" 
d="M522 275c0.666992 2.66699 0.666992 4 0 4v-4zM283 476c4.66699 18.667 11.0039 40.499 19.0039 65.499s17.5 50.833 28.5 77.5s23.333 53 37 79s28.667 49.167 45 69.5s33.5 36.833 51.5 49.5s36.667 19 56 19c21.333 0 35.666 -6.33301 42.999 -19s11 -27.667 11 -45
c0 -6.66699 -0.333008 -14.167 -1 -22.5s-1.66699 -15.166 -3 -20.499c-8 -30.667 -18.833 -62.667 -32.5 -96s-29.5 -66 -47.5 -98s-38.167 -62.167 -60.5 -90.5s-45.833 -52.5 -70.5 -72.5l-3 -11c-2.66699 -16 -5.83398 -36.667 -9.50098 -62l-11 -79
c-3.66699 -27.333 -6.66699 -54.666 -9 -81.999s-3.5 -51 -3.5 -71c0 -18 0.833008 -32.333 2.5 -43s4.5 -16 8.5 -16c2.66699 0 7.5 4.66699 14.5 14s15 21.333 24 36s18.667 31.334 29 50.001l31 56.5l29 54l22.5 43.5l15 26c1.33301 2 2.83301 3.66699 4.5 5
s4.16699 2 7.5 2c7.33301 0 11.333 -3.66699 12 -11c0 -2.66699 -0.333008 -4.33398 -1 -5.00098l-10 -22l-38 -73l-47 -87.5c-16 -29 -31.333 -55 -46 -78s-26.334 -37.833 -35.001 -44.5c-14.667 -11.333 -29.667 -17 -45 -17c-14 0 -25.667 4.33301 -35 13
s-16.833 20.5 -22.5 35.5s-9.5 32.167 -11.5 51.5s-3 40 -3 62s0.833008 43.333 2.5 64s3.5 38.667 5.5 54c-11.333 -20.667 -24 -42.5 -38 -65.5s-28.833 -44.167 -44.5 -63.5s-32 -35.333 -49 -48s-33.5 -19 -49.5 -19c-28 0 -48.333 11.333 -61 34s-19 51 -19 85
s5.33301 69.833 16 107.5s26 72.167 46 103.5s43.833 57.166 71.5 77.499s58.5 30.5 92.5 30.5c14 0 27.667 -2.83301 41 -8.5s24.666 -14.167 33.999 -25.5zM269.004 409.999c-7.33301 12 -14.334 20.499 -21.001 25.499s-13.667 7.5 -21 7.5c-12.667 0 -25 -5.5 -37 -16.5
s-23.333 -25.5 -34 -43.5s-20.5 -38 -29.5 -60s-16.667 -44.167 -23 -66.5s-11.333 -43.333 -15 -63s-5.5 -36.167 -5.5 -49.5c0 -12 1.33301 -21.667 4 -29s7.33398 -11 14.001 -11c10 0 21.333 7.33301 34 22s26 33.334 40 56.001s27.833 47.5 41.5 74.5l38.5 77.5v-1z
M541.003 729.998c0 0.666992 0.166016 1.49902 0.499023 2.49902s0.5 2.16699 0.5 3.5c1.33301 4.66699 2.66602 11 3.99902 19s2 15.333 2 22c0 7.33301 -0.666992 11 -2 11c-5.33301 0 -12.666 -5.33301 -21.999 -16s-18.833 -22.834 -28.5 -36.501
s-18.334 -27.167 -26.001 -40.5s-12.5 -22.333 -14.5 -27c-19.333 -36 -35.666 -75.5 -48.999 -118.5s-25.666 -85.167 -36.999 -126.5c0 -2.66699 0 -3.66699 0 -3s-0.333008 -0.666016 -1 -3.99902c18 18 36.167 40.333 54.5 67s35.333 54.5 51 83.5
s29.5 57.833 41.5 86.5s20.667 54.334 26 77.001z" />
    <glyph glyph-name="e" unicode="e" horiz-adv-x="378" 
d="M68 4c-30.667 7.33301 -53.1631 26.166 -67.4961 56.499s-21.5 65.833 -21.5 106.5c0 36.667 5 73.334 15 110.001s24.167 69.834 42.5 99.501s40.166 53.667 65.499 72s53.333 27.5 84 27.5c29.333 0 50 -5.66699 62 -17s18 -25.333 18 -42c0 -18 -6 -38.333 -18 -61
s-26.833 -45 -44.5 -67s-36.834 -42.167 -57.501 -60.5s-40 -32.5 -58 -42.5c-0.666992 -3.33301 -1 -6.33301 -1 -9v-9c0 -14 1.16699 -27.833 3.5 -41.5s6.16602 -25.834 11.499 -36.501s12.333 -19.334 21 -26.001s19.334 -10 32.001 -10
c13.333 0 27.333 4.16699 42 12.5s29.167 19.333 43.5 33s28.333 29.167 42 46.5s26.5 34.5 38.5 51.5s22.833 33.333 32.5 49l24.5 39.5c2.66699 6 7 9 13 9c3.33301 0 6.16602 -0.833008 8.49902 -2.5s3.83301 -4.5 4.5 -8.5c0 -1.33301 -0.333008 -3.16602 -1 -5.49902
s-1.33398 -4.5 -2.00098 -6.5l-3 -5l1 4c0 -0.666992 -0.333008 -1.33398 -1 -2.00098c-1.33301 -1.33301 -2 -3 -2 -5l-50 -80.5c-19.333 -30.333 -41.333 -59.166 -66 -86.499s-52 -50.333 -82 -69s-62.333 -28 -97 -28c-13.333 -0 -24.333 1.33301 -33 4zM221.004 434
c-8.66699 0 -19.333 -4.66602 -32 -13.999s-25.167 -22.833 -37.5 -40.5s-24 -39.334 -35 -65.001s-18.833 -55.167 -23.5 -88.5c22.667 16 42.667 33.167 60 51.5s32 36.333 44 54s21 34 27 49s9 27.167 9 36.5c0 11.333 -4 17 -12 17z" />
    <glyph glyph-name="f" unicode="f" horiz-adv-x="345" 
d="M96 271c-6.66699 -18 -11.668 -34.1641 -15.001 -48.4971s-6.66602 -29.5 -9.99902 -45.5c18.667 4 41.167 9.33301 67.5 16s52.5 14.5 78.5 23.5s50 19.333 72 31s37.667 24.167 47 37.5c4 7.33301 8.33301 11 13 11c8 0 12 -4.66699 12 -14
c0 -0.666992 -0.333008 -1.66699 -1 -3l-2 -4c-9.33301 -16.667 -23.5 -31.334 -42.5 -44.001s-40 -23.667 -63 -33s-47 -17.5 -72 -24.5s-48.167 -12.833 -69.5 -17.5l-31 -8c20.667 -22 38.834 -46.5 54.501 -73.5s28.667 -55.333 39 -85s18 -60.5 23 -92.5
s7.5 -64 7.5 -96c0 -40.667 -3.33301 -75 -10 -103s-15.834 -50.833 -27.501 -68.5s-25.5 -30.334 -41.5 -38.001s-33 -11.5 -51 -11.5c-24.667 0 -45.5 7 -62.5 21s-30.833 33.167 -41.5 57.5s-18.334 53.5 -23.001 87.5s-7 71 -7 111c0 54 3.5 112 10.5 174s17 124 30 186
s29 121.333 48 178s40.167 107 63.5 151s48.666 79 75.999 105s56.333 39 87 39c12.667 0 23 -2 31 -6s14.333 -9.33301 19 -16s7.83398 -14.334 9.50098 -23.001s2.5 -17.667 2.5 -27c0 -15.333 -2.83301 -33.5 -8.5 -54.5s-13.334 -43 -23.001 -66
s-21.5 -46.333 -35.5 -70s-29.167 -45.667 -45.5 -66s-33.666 -38.5 -51.999 -54.5s-37.166 -28 -56.499 -36zM163.999 -294.997c5.33301 30.667 7.99902 61.002 7.99902 91.002s-2.16699 60.167 -6.5 90.5s-11 59.666 -20 87.999s-21 55 -36 80s-32.833 47.5 -53.5 67.5
c-2 -12.667 -4.33301 -29.334 -7 -50.001s-5.16699 -43.5 -7.5 -68.5s-4.16602 -51.667 -5.49902 -80s-2 -56.166 -2 -83.499c0 -30 1 -58.333 3 -85s5.33301 -50.334 10 -71.001s11.167 -37 19.5 -49s18.5 -18 30.5 -18c10 0 18.833 3 26.5 9s14.334 13.5 20.001 22.5
s10.167 18.667 13.5 29s5.66602 19.5 6.99902 27.5zM288.998 619.005c0 7.33301 -0.832031 14 -2.49902 20s-4.83398 9.66699 -9.50098 11c-9.33301 0 -19.333 -6.5 -30 -19.5s-21.5 -29.833 -32.5 -50.5s-22 -43.667 -33 -69s-21.333 -50.5 -31 -75.5
s-18.167 -48.333 -25.5 -70l-18 -52.5c24 12.667 47 32 69 58s41.333 54.167 58 84.5s30 60.333 40 90s15 54.167 15 73.5z" />
    <glyph glyph-name="g" unicode="g" horiz-adv-x="502" 
d="M315 109c14.667 10 30.3301 22.1719 46.9971 36.5049s32.834 29.333 48.501 45s30.5 31.667 44.5 48s26 32.166 36 47.499c1.33301 2.66699 3.16602 5 5.49902 7s5.16602 3 8.49902 3c2.66699 0 5.33398 -0.833008 8.00098 -2.5s4 -4.83398 4 -9.50098v-4
c-12 -23.333 -26.833 -45.333 -44.5 -66s-36 -39.834 -55 -57.501s-37.833 -33.667 -56.5 -48l-50 -37.5c-2 -24 -5.66699 -55 -11 -93s-12.5 -78.5 -21.5 -121.5s-20.167 -86.5 -33.5 -130.5s-28.833 -83.667 -46.5 -119s-37.667 -64.166 -60 -86.499
s-47.166 -33.5 -74.499 -33.5c-26.667 0 -48.167 13.333 -64.5 40s-24.5 62 -24.5 106c0 28.667 4.16699 60.334 12.5 95.001s21.833 70.5 40.5 107.5s42.834 74.167 72.501 111.5s65.834 73.666 108.501 108.999c2.66699 15.333 4.83398 32.833 6.50098 52.5
s3.16699 39.167 4.5 58.5c1.33301 11.333 2 20.666 2 27.999s0.666992 17.666 2 30.999c-11.333 -20.667 -23.833 -42 -37.5 -64s-28.167 -42 -43.5 -60s-30.833 -32.833 -46.5 -44.5s-31.167 -17.5 -46.5 -17.5c-23.333 0 -41.166 12.333 -53.499 37s-18.5 55 -18.5 91
c0 33.333 5.16699 68.333 15.5 105s25 70.167 44 100.5s41.833 55.333 68.5 75s56.667 29.5 90 29.5c14.667 0 28.667 -3.5 42 -10.5s25.333 -16.833 36 -29.5c4.66699 4 10.167 7.66699 16.5 11s12.166 5 17.499 5c8.66699 -0.666992 16.667 -3 24 -7
s13.666 -8.33301 18.999 -13c0.666992 -0.666992 1 -2.33398 1 -5.00098zM39.9961 -458.995c13.333 0 26.334 9.16699 39.001 27.5s24.5 42.166 35.5 71.499s21.333 62 31 98s18.167 71.5 25.5 106.5s13.666 67.5 18.999 97.5l13 71
c-33.333 -30.667 -62.333 -63.167 -87 -97.5s-45.167 -68.5 -61.5 -102.5s-28.5 -67 -36.5 -99s-12 -60.667 -12 -86s3.33301 -46.166 10 -62.499s14.667 -24.5 24 -24.5zM258.997 414.005c-6 10 -12.498 17.333 -19.498 22s-13.5 7 -19.5 7c-12.667 0 -25 -5.5 -37 -16.5
s-23.167 -25.333 -33.5 -43s-20 -37.667 -29 -60s-16.667 -44.5 -23 -66.5s-11.333 -43 -15 -63s-5.5 -36.667 -5.5 -50c0 -12 1.33301 -21.833 4 -29.5s7.33398 -11.5 14.001 -11.5c8.66699 0 18.667 6 30 18s23.166 27.5 35.499 46.5s24.666 40.333 36.999 64l35.5 70.5
l-1 -1c3.33301 20 6.66602 38.833 9.99902 56.5s7 32.167 11 43.5z" />
    <glyph glyph-name="h" unicode="h" horiz-adv-x="432" 
d="M422 286c2 3.33301 3.83496 5.83203 5.50195 7.49902s4.5 2.5 8.5 2.5c3.33301 0 6.16602 -0.833008 8.49902 -2.5s3.5 -4.83398 3.5 -9.50098c0 -2 -0.666992 -5 -2 -9l-34.5 -75.5c-12.333 -26.333 -24.833 -51.5 -37.5 -75.5s-25.5 -46 -38.5 -66
s-25.5 -35.667 -37.5 -47h1c-6.66699 -6.66699 -14.5 -11.334 -23.5 -14.001s-16.167 -4 -21.5 -4c-23.333 0 -39.5 10.667 -48.5 32s-13.5 48.333 -13.5 81c0 34 3.16699 70 9.5 108s12.5 72.667 18.5 104c3.33301 14.667 5.83301 28 7.5 40s3.16699 21.667 4.5 29
c0.666992 4 1 8.33301 1 13v12c0 14 -4.66699 21.333 -14 22c-12 -4 -24.167 -14.667 -36.5 -32s-23.833 -36.833 -34.5 -58.5s-20.167 -43.167 -28.5 -64.5s-14.166 -37.666 -17.499 -48.999l-3 -29c0 -3.33301 -0.333008 -6.66602 -1 -9.99902s-1 -6.33301 -1 -9v-8
c0 -22 0.5 -40.667 1.5 -56s1.83301 -27.666 2.5 -36.999c0.666992 -2.66699 1 -5.33398 1 -8.00098v-6c0 -3.33301 -1.83301 -6.33301 -5.5 -9s-8.16699 -5 -13.5 -7s-10.833 -3.5 -16.5 -4.5s-10.5 -1.5 -14.5 -1.5c-18 0 -31.833 16.167 -41.5 48.5
s-14.5 82.166 -14.5 149.499c0 43.333 2.33301 90.166 7 140.499s12 100.833 22 151.5s22.5 99.667 37.5 147s32.667 89.166 53 125.499s43.5 65.333 69.5 87s54.667 32.5 86 32.5c39.333 0 66.5 -6.83301 81.5 -20.5s22.5 -34.834 22.5 -63.501c0 -22.667 -4 -46 -12 -70
s-18.667 -48.333 -32 -73s-28.333 -48.834 -45 -72.501s-33.5 -46.167 -50.5 -67.5l-49 -59l-40.5 -46c-6 -7.33301 -11.333 -13.166 -16 -17.499s-8 -8.16602 -10 -11.499l-3 -16c-2.66699 -13.333 -5.33398 -28.166 -8.00098 -44.499s-4.66699 -31.166 -6 -44.499
c8 18 17.5 36.667 28.5 56s23.167 37 36.5 53s28.166 29.167 44.499 39.5s33.833 15.5 52.5 15.5c10.667 -0.666992 20 -3.83398 28 -9.50098s14.667 -13 20 -22s9.33301 -18.833 12 -29.5s4 -21 4 -31c0 -1.33301 -0.166992 -2.66602 -0.5 -3.99902
s-0.5 -2.66602 -0.5 -3.99902v-5c-2 -21.333 -4.83301 -42 -8.5 -62s-7.5 -39.667 -11.5 -59c-6 -30 -11.167 -60 -15.5 -90s-6.5 -60 -6.5 -90c0 -16 1.33301 -24 4 -24c4.66699 0 11.167 6 19.5 18s17.5 26.833 27.5 44.5s20.167 36.834 30.5 57.501l27.5 57l27 53v1z
M230.002 809.999c-14 -23.333 -26.6689 -50.165 -38.002 -80.498s-21.333 -61 -30 -92s-16 -60.667 -22 -89s-10.667 -52.5 -14 -72.5l67 77.5c25.333 30.333 49.166 62.166 71.499 95.499s41.166 66.666 56.499 99.999s23 63.666 23 90.999c0 16.667 -2 28.5 -6 35.5
s-9.66699 10.5 -17 10.5s-15.166 -2.16699 -23.499 -6.5s-16.666 -10.166 -24.999 -17.499s-16.166 -15.5 -23.499 -24.5s-13.666 -18.167 -18.999 -27.5z" />
    <glyph glyph-name="i" unicode="i" horiz-adv-x="239" 
d="M232 286c3.33301 6 7.33301 8.99707 12 8.99707c8 0 12 -4.33301 12 -13c0 -0.666992 -0.166992 -1.66699 -0.5 -3s-1.16602 -3.66602 -2.49902 -6.99902l-13 -25l-33.5 -62c-13 -23.333 -27.167 -45.333 -42.5 -66s-31.833 -38.167 -49.5 -52.5
s-35.834 -21.5 -54.501 -21.5c-14 0 -25.667 3.83301 -35 11.5s-16.833 17.834 -22.5 30.501s-9.5 27 -11.5 43s-3 32.333 -3 49c0 12.667 0.666992 28.167 2 46.5s3.5 37.666 6.5 57.999s7 40.333 12 60s11.167 37.5 18.5 53.5s16.166 29 26.499 39s22.166 15 35.499 15
c10.667 0 19.834 -2.83301 27.501 -8.5s11.5 -14.167 11.5 -25.5v-9c-2 -6 -5.5 -17.833 -10.5 -35.5s-10 -37.667 -15 -60s-9.5 -45.666 -13.5 -69.999s-6 -46.166 -6 -65.499c0 -17.333 1.83301 -32 5.5 -44s10.167 -18 19.5 -18c6.66699 0 14.334 4.33301 23.001 13
s17.5 19.5 26.5 32.5s17.833 27 26.5 42l24 42.5c11.333 21.333 19.333 35 24 41zM91 456.997c-13.333 4 -22.999 10.498 -28.999 19.498s-9 19.167 -9 30.5c0 15.333 5.5 29.5 16.5 42.5s25.167 19.5 42.5 19.5s30 -5.16699 38 -15.5s12 -22.166 12 -35.499
c0 -15.333 -4.83301 -29.666 -14.5 -42.999s-23.167 -20 -40.5 -20h-8c-2.66699 0 -5.33398 0.666992 -8.00098 2z" />
    <glyph glyph-name="j" unicode="j" horiz-adv-x="259" 
d="M68 452c-14.667 4.66699 -24.999 11.667 -30.999 21s-9 19.333 -9 30c0 15.333 5.16699 29.333 15.5 42s24.166 19 41.499 19s30.166 -5.16699 38.499 -15.5s12.5 -22.166 12.5 -35.499c0 -14.667 -4.83301 -28.834 -14.5 -42.501s-23.167 -20.5 -40.5 -20.5
c-3.33301 0 -7.66602 0.666992 -12.999 2zM86.001 109c14.667 10.667 29.499 23.0029 44.499 37.0029s29.667 28.833 44 44.5s28 31.667 41 48s24.5 32.166 34.5 47.499l-1 -1c3.33301 7.33301 8.33301 11 15 11c8 0 12 -4.66699 12 -14c0 -2 -0.666992 -4.33301 -2 -7
c-10.667 -21.333 -24 -41.833 -40 -61.5s-32.833 -38.334 -50.5 -56.001s-35.334 -33.834 -53.001 -48.501l-47.5 -38c-2 -24 -5.83301 -57.333 -11.5 -100s-13.834 -88.5 -24.501 -137.5s-24.167 -97.333 -40.5 -145s-36.5 -88.5 -60.5 -122.5
c-19.333 -25.333 -39.166 -44.833 -59.499 -58.5s-39.166 -20.5 -56.499 -20.5c-26.667 0 -48.167 13.333 -64.5 40s-24.5 62 -24.5 106c0 28.667 4.16699 60.334 12.5 95.001s21.833 70.5 40.5 107.5s43 74.167 73 111.5s66.333 73.666 109 108.999l6 70
c2 22.667 3.66699 44.667 5 66c2.66699 35.333 5.5 68.5 8.5 99.5s7.83301 57.833 14.5 80.5s15.834 40.5 27.501 53.5s27.167 19.5 46.5 19.5c9.33301 0 17 -1.83301 23 -5.5s9 -10.167 9 -19.5v-4zM-194 -458.997c13.333 0 26.333 9.16699 39 27.5
s24.5 42.166 35.5 71.499s21.333 62 31 98s18.334 71.5 26.001 106.5s14.167 67.5 19.5 97.5l13 71c-34 -30.667 -63.333 -63.167 -88 -97.5s-45 -68.5 -61 -102.5s-28 -67 -36 -99s-12 -60.667 -12 -86s3.16699 -46.166 9.5 -62.499s14.166 -24.5 23.499 -24.5z" />
    <glyph glyph-name="k" unicode="k" horiz-adv-x="431" 
d="M421 286c2 3.33301 3.83496 5.83594 5.50195 7.50293s4.5 2.5 8.5 2.5c3.33301 0 6.16602 -0.833008 8.49902 -2.5s3.5 -4.83398 3.5 -9.50098v-3l-19.5 -39.5c-8.33301 -17 -18 -35.333 -29 -55l-35 -60.5c-12.333 -20.667 -25 -39.167 -38 -55.5
s-25.833 -29.833 -38.5 -40.5s-24.334 -16 -35.001 -16c-16.667 0 -29.667 7.16699 -39 21.5s-16.5 32.333 -21.5 54s-8.66699 45.334 -11 71.001s-5.33301 50 -9 73s-8.83398 43.167 -15.501 60.5s-16.334 28 -29.001 32l-10 -17l-11 -19.5
c-3.33301 -5.66699 -6.16602 -11.667 -8.49902 -18s-4.16602 -13.833 -5.49902 -22.5s-2 -19 -2 -31c0 -18 0.333008 -37.5 1 -58.5s1 -40.167 1 -57.5c0 -11.333 -0.333008 -21 -1 -29s-2 -12.667 -4 -14c-5.33301 -2.66699 -12.5 -5.66699 -21.5 -9s-16.833 -5 -23.5 -5
c-13.333 0 -25 5.33301 -35 16s-15 28.667 -15 54c0 54.667 2.16699 115.334 6.5 182.001s12.5 133.5 24.5 200.5s28.5 131.167 49.5 192.5s48.167 114.666 81.5 159.999c18 24.667 38.833 44.167 62.5 58.5s48.5 21.5 74.5 21.5c23.333 0 41.5 -8.83301 54.5 -26.5
s19.5 -37.834 19.5 -60.501c0 -33.333 -8.16699 -68.666 -24.5 -105.999s-36 -73.833 -59 -109.5s-46.833 -68.834 -71.5 -99.501l-61 -76l-44 -53c-3.33301 -8.66699 -5 -17.334 -5 -26.001s-0.666992 -17.667 -2 -27l-2 -18l45.5 70.5
c16.333 24.333 33.666 46.333 51.999 66s37.5 35.834 57.5 48.501s41 19 63 19c19.333 0 34.333 -7.83301 45 -23.5s16 -32.5 16 -50.5c0 -14.667 -4.16699 -29.834 -12.5 -45.501s-19.5 -30.334 -33.5 -44.001s-30.167 -25.5 -48.5 -35.5s-37.5 -16.667 -57.5 -20
c10 -10 18.167 -22.333 24.5 -37s11.333 -30.167 15 -46.5s6.5 -32.833 8.5 -49.5l5.5 -44.5c1.66699 -13 3.33398 -23.667 5.00098 -32s4.5 -12.5 8.5 -12.5c8 0 17.333 6.5 28 19.5s21.667 28.667 33 47s22.333 37.5 33 57.5l27 51l10 19v1zM336.002 834.003
c0 10 -2.00098 21.3359 -6.00098 34.0029s-12 20.667 -24 24c-18 -2.66699 -34.667 -12.5 -50 -29.5s-29.333 -38 -42 -63s-24.167 -53 -34.5 -84s-19.666 -62 -27.999 -93s-15.333 -60.833 -21 -89.5s-10.167 -53 -13.5 -73c48 55.333 86.333 104.166 115 146.499
s50.5 78.666 65.5 108.999s24.833 55.166 29.5 74.499s7.66699 34 9 44zM273.001 489.006c-8 0 -17.335 -4.33301 -28.002 -13s-22 -19.667 -34 -33s-24.167 -28.666 -36.5 -45.999s-23.833 -34.333 -34.5 -51c22.667 1.33301 43.334 5.66602 62.001 12.999
s34.334 16.333 47.001 27s22.5 22.5 29.5 35.5s10.5 26.167 10.5 39.5c0 8 -1.33301 14.667 -4 20s-6.66699 8 -12 8z" />
    <glyph glyph-name="l" unicode="l" horiz-adv-x="320" 
d="M314 847c0 -37.333 -4.99902 -74.3301 -14.999 -110.997s-23.833 -72 -41.5 -106s-38.5 -66.5 -62.5 -97.5s-49.667 -59.5 -77 -85.5c-1.33301 -8.66699 -3 -21.334 -5 -38.001s-4 -36 -6 -58s-3.66699 -45.5 -5 -70.5s-2 -49.833 -2 -74.5
c0 -25.333 0.833008 -49.5 2.5 -72.5s4.83398 -43.5 9.50098 -61.5s10.667 -32.333 18 -43s17 -16 29 -16c11.333 0 23.166 7.5 35.499 22.5s24.333 33.667 36 56s22.667 46.333 33 72l27.5 70.5l10 28.5c3.33301 9.66699 6.66602 17.167 9.99902 22.5
c3.33301 7.33301 7.66602 11 12.999 11c3.33301 0 6.33301 -1.33301 9 -4s4 -5.66699 4 -9c0 -1.33301 -0.666992 -4 -2 -8c-4 -8.66699 -8 -18.334 -12 -29.001s-8.33301 -21.667 -13 -33c-10 -26 -21.5 -53.833 -34.5 -83.5s-27.167 -57.167 -42.5 -82.5
s-32.5 -46.5 -51.5 -63.5s-39.5 -25.5 -61.5 -25.5c-25.333 0 -46 8.16699 -62 24.5s-28.5 37.5 -37.5 63.5s-15.333 55.333 -19 88s-5.5 65.667 -5.5 99c0 22 0.666992 43.667 2 65s2.83301 41.166 4.5 59.499s3.33398 35 5.00098 50s3.16699 27.5 4.5 37.5
c3.33301 20 8.16602 46.333 14.499 79s14.5 67.667 24.5 105s21.667 75 35 113s28.333 72.333 45 103s35 55.667 55 75s41.667 29 65 29c12.667 0 23.167 -3 31.5 -9s14.833 -13.833 19.5 -23.5s7.83398 -20.5 9.50098 -32.5s2.5 -24.333 2.5 -37zM267.001 902.003
c-8.66699 0 -17.6641 -8.16602 -26.9971 -24.499s-18.833 -37.333 -28.5 -63s-19 -54.334 -28 -86.001s-17.333 -62.667 -25 -93s-14.334 -58.166 -20.001 -83.499s-9.83398 -45 -12.501 -59l8 9c21.333 23.333 41.166 48.666 59.499 75.999s34.333 55.833 48 85.5
s24.5 60.167 32.5 91.5s12 63 12 95c0 13.333 -1.33301 25.333 -4 36s-7.66699 16 -15 16z" />
    <glyph glyph-name="m" unicode="m" horiz-adv-x="630" 
d="M421 -42c-25.333 3.33301 -42.6748 16.1641 -52.0078 38.4971s-14 49.166 -14 80.499c0 20 1.33301 40.5 4 61.5s6 41.167 10 60.5s8 37.166 12 53.499s7.33301 29.5 10 39.5c16 56.667 24 97.334 24 122.001c0 13.333 -1.66699 20 -5 20
c-7.33301 0 -18.166 -9.5 -32.499 -28.5s-32.5 -48.833 -54.5 -89.5l-29.5 -51c-10.333 -17.333 -20.666 -33 -30.999 -47s-20.333 -25.333 -30 -34s-17.834 -13 -24.501 -13c-11.333 0 -19.333 5.83301 -24 17.5s-7 26.167 -7 43.5c0 20.667 1.66699 43.667 5 69
s7 49 11 71c2.66699 13.333 4.66699 22.833 6 28.5s2 11.834 2 18.501l-44.5 -86.5l-31.5 -63.5l-22 -45.5l-15 -31.5c-3.33301 -9.33301 -5.5 -20.5 -6.5 -33.5s-2.16699 -26.167 -3.5 -39.5c-1.33301 -11.333 -2.33301 -22 -3 -32s-2 -18 -4 -24
c-7.33301 -6 -16.666 -10.167 -27.999 -12.5s-21.666 -3.5 -30.999 -3.5c-7.33301 0 -13.333 3 -18 9s-8.16699 13.333 -10.5 22s-4 18 -5 28s-1.5 18.667 -1.5 26c0 22.667 1.83301 46.167 5.5 70.5s8.16699 48.833 13.5 73.5c5.33301 24 9.83301 47.333 13.5 70
s5.5 43.667 5.5 63c0 12.667 -1.16699 24.167 -3.5 34.5s-6.16602 19.166 -11.499 26.499c-2 2.66699 -1.33301 5 2 7c11.333 6 23.833 11.167 37.5 15.5s26.167 6.5 37.5 6.5c12.667 0 23.167 -3 31.5 -9s12.5 -17.667 12.5 -35c0 -9.33301 -0.666992 -20.666 -2 -33.999
s-2.83301 -27.166 -4.5 -41.499s-3.66699 -28.5 -6 -42.5s-4.5 -26.333 -6.5 -37l109 206c10 15.333 25 23 45 23c11.333 0 21.333 -4.16699 30 -12.5s13 -22.833 13 -43.5c0 -9.33301 -0.666992 -20 -2 -32s-2.83301 -24.5 -4.5 -37.5s-3.5 -26 -5.5 -39
s-3.66699 -24.833 -5 -35.5c-2 -11.333 -3.33301 -17.666 -4 -18.999s-0.666992 -3.33301 0 -6l18 30.5l17 28.5l39.5 67c13.667 22.667 29.167 45.667 46.5 69c6 8 14.5 15.5 25.5 22.5s22.167 10.5 33.5 10.5c8.66699 0 16.834 -2.83301 24.501 -8.5
s14.167 -13.167 19.5 -22.5s9.5 -20.166 12.5 -32.499s4.5 -25.5 4.5 -39.5c0 -17.333 -2 -37.333 -6 -60s-10 -50 -18 -82l-2 -7v1c-2 -10 -5.33301 -24.667 -10 -44s-9.33398 -40.166 -14.001 -62.499s-8.66699 -44.833 -12 -67.5s-5 -42.334 -5 -59.001
c0 -11.333 1 -20.833 3 -28.5s5.33301 -11.5 10 -11.5c2.66699 0 7.33398 4.66699 14.001 14s14.667 21.833 24 37.5l30.5 53l33 60.5l33 61l30.5 54c1.33301 2 2.83301 3.66699 4.5 5s4.16699 2 7.5 2c2.66699 0 5.16699 -0.833008 7.5 -2.5s3.83301 -4.5 4.5 -8.5
c-11.333 -26.667 -25.166 -56.5 -41.499 -89.5s-33.166 -64.833 -50.499 -95.5s-33.666 -57.5 -48.999 -80.5s-27.333 -37.833 -36 -44.5c-14.667 -11.333 -29.667 -17 -45 -17c-6 0 -10 0.333008 -12 1h1z" />
    <glyph glyph-name="n" unicode="n" horiz-adv-x="478" 
d="M259 -41c-24 4 -40.6709 15.3311 -50.0039 33.998s-14 42 -14 70c0 24.667 3 53.5 9 86.5s12.333 64.5 19 94.5c6.66699 29.333 12.334 58.333 17.001 87s7 53.334 7 74.001c0 15.333 -1.5 28.333 -4.5 39s-7.83301 16 -14.5 16c-9.33301 0 -19.5 -8.83301 -30.5 -26.5
s-22.5 -43.167 -34.5 -76.5v1c-1.33301 -3.33301 -2.66602 -7 -3.99902 -11s-2.66602 -7.66699 -3.99902 -11c-4 -12.667 -9 -27.334 -15 -44.001l-19 -50.5l-20.5 -50c-7 -16.333 -13.833 -30.5 -20.5 -42.5l1 1l-4.5 -26
c-1.66699 -9.33301 -3.33398 -18.166 -5.00098 -26.499s-3.33398 -15.5 -5.00098 -21.5s-2.83398 -10 -3.50098 -12l2 2c-1.33301 -3.33301 -5 -6.33301 -11 -9s-12.833 -4.66699 -20.5 -6s-15 -2.33301 -22 -3s-11.5 -1 -13.5 -1
c-7.33301 0.666992 -12.666 5.66699 -15.999 15s-5 21.666 -5 36.999c0 19.333 1.66699 41.833 5 67.5l10 80.5l11.5 88c3.66699 28.667 5.5 53.667 5.5 75c0 16 -1.16699 29.167 -3.5 39.5s-6.5 16.833 -12.5 19.5c-1.33301 1.33301 -2 2.83301 -2 4.5
s0.666992 3.16699 2 4.5c11.333 5.33301 23.833 10.166 37.5 14.499s26.167 6.5 37.5 6.5c6.66699 0 12.667 -0.5 18 -1.5s9.83301 -3.5 13.5 -7.5s6.5 -10.167 8.5 -18.5s3 -19.833 3 -34.5c0 -21.333 -1.66699 -46.166 -5 -74.499s-6.66602 -54.5 -9.99902 -78.5
c-0.666992 -6.66699 -1.16699 -11.167 -1.5 -13.5s-0.666016 -3.66602 -0.999023 -3.99902s-0.5 -0.666016 -0.5 -0.999023v-5.5l43.5 113.5c11 27.667 20.833 49.334 29.5 65.001s16.667 27.167 24 34.5s16 14.666 26 21.999c17.333 12 35.333 18 54 18
c28 0 48.833 -9.16699 62.5 -27.5s20.5 -44.833 20.5 -79.5c0 -32 -4 -66.833 -12 -104.5s-16.667 -74.834 -26 -111.501c-7.33301 -30 -13.833 -57.667 -19.5 -83s-8.5 -46.666 -8.5 -63.999c0 -10 1.33301 -18.167 4 -24.5s7 -9.5 13 -9.5c4 0 11.833 9 23.5 27
s24.667 39.833 39 65.5l44.5 80l39 71.5l17 32h-1c2.66699 6.66699 7.66699 10 15 10c8 0 12 -4 12 -12c0 -1.33301 -0.166992 -3 -0.5 -5s-1.16602 -3.66699 -2.49902 -5v2l-21 -40l-29 -55l-34 -62l-34.5 -60.5c-11 -19 -21.5 -36 -31.5 -51s-18.333 -25.833 -25 -32.5
c-6.66699 -4.66699 -13.834 -8.5 -21.501 -11.5s-15.5 -4.5 -23.5 -4.5h-6.5c-2.33301 0 -4.16602 0.333008 -5.49902 1h1z" />
    <glyph glyph-name="o" unicode="o" horiz-adv-x="450" 
d="M451 294c3.33301 0 6.50293 -1.16797 9.50293 -3.50098s4.5 -5.5 4.5 -9.5c0 -0.666992 -0.5 -2.33398 -1.5 -5.00098s-2.5 -4.66699 -4.5 -6c-6 -7.33301 -13.167 -15.166 -21.5 -23.499s-17.833 -16 -28.5 -23s-22.5 -12.833 -35.5 -17.5s-27.5 -7 -43.5 -7h-10
c-2.66699 0 -6 0.333008 -10 1c-3.33301 -10 -7.83301 -22.833 -13.5 -38.5s-12.667 -32.667 -21 -51s-18.166 -36.666 -29.499 -54.999s-24.333 -34.833 -39 -49.5s-31.167 -26.667 -49.5 -36s-38.5 -14 -60.5 -14c-21.333 0 -39.333 5.16699 -54 15.5
s-26.5 24.166 -35.5 41.499s-15.5 37.5 -19.5 60.5s-6 47.5 -6 73.5c0 38 3.83301 76.667 11.5 116s17.5 75 29.5 107s25.5 58 40.5 78s29.833 30 44.5 30c9.33301 0 17.666 -4.83301 24.999 -14.5s13.333 -19.834 18 -30.501c3.33301 30.667 11.5 53.167 24.5 67.5
s27.167 21.5 42.5 21.5c12.667 0 25.667 -4.5 39 -13.5s25.5 -21.667 36.5 -38s20 -36.333 27 -60s10.5 -50.167 10.5 -79.5c0 -16.667 -0.833008 -33 -2.5 -49s-5.16699 -33.333 -10.5 -52c2 0 4.16699 -0.166992 6.5 -0.5s4.16602 -0.5 5.49902 -0.5
c21.333 0 41.166 5.33301 59.499 16s35.166 24.334 50.499 41.001l4.5 4.5c1.66699 1.66699 3.16699 2.83398 4.5 3.50098h2zM173.003 28.999c17.333 12 34.998 31.833 52.998 59.5s35.667 68.167 53 121.5c-38 19.333 -67.167 43.333 -87.5 72s-33.833 64 -40.5 106
c-0.666992 0 -1 0.333008 -1 1l-1 1c-6 0 -12.667 -7.83301 -20 -23.5s-14.166 -35.834 -20.499 -60.501s-11.666 -51.667 -15.999 -81s-6.5 -57.666 -6.5 -84.999c0 -32.667 4 -60.5 12 -83.5s22 -34.5 42 -34.5c5.33301 0 10.5 0.666992 15.5 2s11.167 3.33301 18.5 6z
M286.001 234.999c0 0.666992 0.167969 1.33203 0.500977 1.99902s0.5 1.33398 0.5 2.00098c1.33301 0 2.16602 -0.166992 2.49902 -0.5s0.833008 -0.5 1.5 -0.5zM181.002 410.997c0 -18.667 2.5 -37.167 7.5 -55.5s12 -35.333 21 -51s20.167 -29.167 33.5 -40.5
s28 -19.666 44 -24.999c10 32.667 15 63.667 15 93c0 23.333 -2.5 44.833 -7.5 64.5s-11.5 36.5 -19.5 50.5s-16.833 25 -26.5 33s-19.167 12 -28.5 12c-10 0 -19 -6.33301 -27 -19s-12 -33.334 -12 -62.001z" />
    <glyph glyph-name="p" unicode="p" 
d="M515 285c3.33301 7.33301 8.33008 10.9941 14.9971 10.9941c3.33301 0 6.33301 -1.16699 9 -3.5s4 -5.16602 4 -8.49902c0 -1.33301 -0.333008 -3.16602 -1 -5.49902s-1.33398 -4.5 -2.00098 -6.5l-3 -5v2c-22 -41.333 -49 -71.166 -81 -89.499s-69.333 -27.5 -112 -27.5
h-10c-3.33301 0 -6.66602 0.333008 -9.99902 1c-8 -14.667 -17.5 -29.5 -28.5 -44.5s-23.5 -28.667 -37.5 -41s-29.333 -22.5 -46 -30.5s-35 -12 -55 -12c-26 0 -44.667 5 -56 15s-17 22.333 -17 37c0 12 3.5 24.333 10.5 37s17 24.334 30 35.001s28.667 19.5 47 26.5
s38.5 10.833 60.5 11.5c2.66699 6 6.33398 15.333 11.001 28s9 27.167 13 43.5s7.5 33.333 10.5 51s4.5 34.167 4.5 49.5c0 16.667 -2.5 30.667 -7.5 42s-13.5 17 -25.5 17c-15.333 0 -29.833 -7.66699 -43.5 -23s-29.5 -35.333 -47.5 -60l-18.5 -26.5
c-7 -9.66699 -14.5 -19.167 -22.5 -28.5c-2.66699 -2 -4.16699 -5.16699 -4.5 -9.5s-0.833008 -9.83301 -1.5 -16.5c0 -3.33301 -0.166992 -6.66602 -0.5 -9.99902s-0.833008 -6.66602 -1.5 -9.99902c-1.33301 -10 -2.66602 -21.5 -3.99902 -34.5
s-2.66602 -27.167 -3.99902 -42.5l-15.5 -129c-5.66699 -48 -13.167 -96.667 -22.5 -146s-20.5 -97.833 -33.5 -145.5s-28.5 -89.834 -46.5 -126.501s-39.167 -66.334 -63.5 -89.001s-52.5 -34 -84.5 -34c-26 0 -47 13.333 -63 40s-24 61.334 -24 104.001
c0 29.333 4.16699 61.333 12.5 96s21.833 70.5 40.5 107.5s42.834 74.167 72.501 111.5s66.167 73.666 109.5 108.999l13 120l8 81.5c2.66699 28.333 5.5 55.5 8.5 81.5s6 49.667 9 71s5.83301 38.666 8.5 51.999c0.666992 2 2.66699 4.66699 6 8s7.5 6.83301 12.5 10.5
s10.667 6.66699 17 9s12.5 3.5 18.5 3.5c11.333 0 20.5 -4.66699 27.5 -14s10.5 -27.666 10.5 -54.999c0 -12 -0.333008 -24.333 -1 -37s-1.33398 -24.667 -2.00098 -36c-0.666992 -6 -1.16699 -9 -1.5 -9s-0.5 -2.33301 -0.5 -7l13 17l32.5 44
c11.667 15.333 24.167 29.5 37.5 42.5s27.833 23.667 43.5 32s32.167 12.5 49.5 12.5c18.667 0 34.5 -3.33301 47.5 -10s23.5 -15.667 31.5 -27s13.667 -24.5 17 -39.5s5 -30.5 5 -46.5c0 -15.333 -1.33301 -31.166 -4 -47.499s-6 -32.166 -10 -47.499s-8.66699 -30 -14 -44
s-10.333 -26.333 -15 -37c3.33301 -0.666992 6.16602 -1 8.49902 -1h7.5c12.667 0 26.334 1.66699 41.001 5s29.167 9 43.5 17s28 18.5 41 31.5s24.167 29.5 33.5 49.5zM-58.0029 -146.006l11 70l9 59l5 29c-34 -30 -63.333 -62.167 -88 -96.5s-45.167 -68.5 -61.5 -102.5
s-28.5 -67 -36.5 -99s-12 -60.667 -12 -86c0 -26.667 3.33301 -47.834 10 -63.501s15.667 -23.5 27 -23.5c12 0 23.333 6 34 18s20.5 27.333 29.5 46s17.5 39.834 25.5 63.501s15 47 21 70s11.167 44.833 15.5 65.5zM219.997 155.994h-2l3 7l5 -7h-6zM124.997 66.9941
c6.66699 0 14.5 3.33301 23.5 10s18 14.667 27 24s17.333 19 25 29s13.5 18.667 17.5 26c-15.333 0 -29.333 -3 -42 -9s-23.5 -13.167 -32.5 -21.5s-16 -17 -21 -26s-7.5 -16.5 -7.5 -22.5c0 -6.66699 3.33301 -10 10 -10z" />
    <glyph glyph-name="q" unicode="q" horiz-adv-x="540" 
d="M376 420c-10 -18.667 -18.5039 -43.002 -25.5039 -73.002s-12.833 -61.833 -17.5 -95.5s-8 -66.667 -10 -99s-3 -60.166 -3 -83.499c21.333 9.33301 42.333 22.333 63 39s40 35 58 55s34.5 40.667 49.5 62s27.5 41.333 37.5 60h-1c3.33301 7.33301 8 11 14 11
c8 0 12 -4.66699 12 -14c0 -5.33301 -1.66699 -10 -5 -14v1c-11.333 -21.333 -25 -43 -41 -65s-33.5 -43.167 -52.5 -63.5s-38.833 -39.166 -59.5 -56.499s-41.334 -32 -62.001 -44c26.667 -24 49.334 -51.5 68.001 -82.5s33.834 -63.833 45.501 -98.5
s20.167 -70.5 25.5 -107.5s8 -73.833 8 -110.5c0 -20.667 -1.33301 -42.167 -4 -64.5s-8 -43 -16 -62s-19.333 -34.667 -34 -47s-34 -18.5 -58 -18.5c-32.667 0 -59.334 13.333 -80.001 40s-37 61.667 -49 105s-20.333 92.166 -25 146.499s-7 109.5 -7 165.5
c0 62 1.83301 121.333 5.5 178s7.5 104 11.5 142c-12 -21.333 -25 -43 -39 -65s-28.5 -42 -43.5 -60s-30.5 -32.667 -46.5 -44s-31.333 -17 -46 -17c-27.333 0 -46.833 10.667 -58.5 32s-17.5 48.333 -17.5 81c0 34 5.16699 70 15.5 108s25 73 44 105s42.333 58.667 70 80
s58.834 32 93.501 32c14.667 0 28.834 -3.33301 42.501 -10s25.834 -16.667 36.501 -30c4 4.66699 9.16699 8.33398 15.5 11.001s12.5 4 18.5 4c3.33301 0 8.33301 -1 15 -3s13.334 -4.33301 20.001 -7s13 -5.66699 19 -9s10.333 -6 13 -8
c1.33301 -1.33301 1.33301 -3.33301 0 -6zM260.996 410.998l-1 2v3zM232.996 299.998c2 16 5.33105 34.8301 9.99805 56.4971s10.334 40.5 17.001 56.5c-7.33301 8 -14.333 13.5 -21 16.5s-13.667 4.5 -21 4.5c-12.667 0 -24.667 -5 -36 -15s-22.166 -23.167 -32.499 -39.5
s-19.833 -34.666 -28.5 -54.999s-16.167 -41.166 -22.5 -62.499s-11.166 -42.166 -14.499 -62.499s-5 -38.166 -5 -53.499c0 -12.667 1.33301 -23 4 -31s6.66699 -12 12 -12c8.66699 0 18.667 6 30 18s23.166 27.5 35.499 46.5s24.833 40.167 37.5 63.5
s24.667 46.666 36 69.999zM447.994 -365.005c0 74 -9.83203 143.166 -29.499 207.499s-53.834 120.5 -102.501 168.5c-0.666992 -10 -1.16699 -22.667 -1.5 -38s-0.5 -32.666 -0.5 -51.999c0 -26.667 0.5 -55.667 1.5 -87s2.5 -62.833 4.5 -94.5s5 -62.334 9 -92.001
s9 -56 15 -79s13 -41.333 21 -55s17.667 -20.5 29 -20.5s20.5 4.33301 27.5 13s12.5 19.834 16.5 33.501s6.66699 29 8 46s2 33.5 2 49.5z" />
    <glyph glyph-name="r" unicode="r" horiz-adv-x="304" 
d="M-62 533c0 15.333 2.5 29.002 7.5 41.002s11.167 22.167 18.5 30.5s15.666 14.666 24.999 18.999s18.666 6.5 27.999 6.5c15.333 0 28.5 -5.83301 39.5 -17.5s16.5 -29.5 16.5 -53.5c0 -13.333 -2.16699 -29 -6.5 -47s-12.166 -38.667 -23.499 -62l34.5 -6
c11 -2 20.5 -4.83301 28.5 -8.5s14.5 -8.66699 19.5 -15s7.5 -14.5 7.5 -24.5c0 -6.66699 -3.16699 -20.834 -9.5 -42.501s-13.166 -47.167 -20.499 -76.5s-14.166 -60.5 -20.499 -93.5s-9.5 -64.167 -9.5 -93.5c0 -19.333 2.33301 -35.166 7 -47.499s12.667 -18.5 24 -18.5
c14 0 30.667 10 50 30s38.666 43.833 57.999 71.5s37.333 56.334 54 86.001s29.334 54.5 38.001 74.5c1.33301 2.66699 3.16602 5.16699 5.49902 7.5s5.16602 3.5 8.49902 3.5c6.66699 0 10.834 -2.33301 12.501 -7s1.5 -9.33398 -0.5 -14.001l-25 -53
c-10 -20.667 -21.5 -42.334 -34.5 -65.001s-27.333 -45.334 -43 -68.001s-32 -43 -49 -61s-34.667 -32.5 -53 -43.5s-36.833 -16.5 -55.5 -16.5c-18 0 -33.333 3.5 -46 10.5s-22.667 16.667 -30 29s-12.666 26.833 -15.999 43.5s-5 34.667 -5 54
c0 26.667 2.66699 55.334 8 86.001s11.666 62 18.999 94c5.33301 22.667 11 45 17 67l17 65c-15.333 4 -29 10 -41 18s-22 17.167 -30 27.5s-14.167 21.5 -18.5 33.5s-6.5 24 -6.5 36zM-5 523.002c0.666992 -13.333 3.33203 -25.8311 7.99902 -37.498
s9.33398 -20.167 14.001 -25.5c10.667 23.333 17.667 43.166 21 59.499s5 30.166 5 41.499c0 14 -2.5 22.333 -7.5 25s-10.5 1.5 -16.5 -3.5s-11.5 -13 -16.5 -24s-7.5 -22.833 -7.5 -35.5z" />
    <glyph glyph-name="s" unicode="s" horiz-adv-x="288" 
d="M135 170c25.333 1.33301 50.998 11.001 76.998 29.001s48.667 46.667 68 86c3.33301 7.33301 7.66602 11 12.999 11c2.66699 0 5.33398 -1.16699 8.00098 -3.5s4 -5.16602 4 -8.49902c0 -1.33301 -0.166992 -3 -0.5 -5s-2.16602 -5.66699 -5.49902 -11v1
c-19.333 -36.667 -41.333 -66.667 -66 -90s-55 -37.333 -91 -42c1.33301 -8 2.33301 -15.833 3 -23.5s1 -15.5 1 -23.5c0 -22 -3.16699 -41.167 -9.5 -57.5s-14.666 -29.833 -24.999 -40.5s-22 -18.5 -35 -23.5s-25.833 -7.5 -38.5 -7.5c-24.667 0 -46 7.83301 -64 23.5
s-27 37.834 -27 66.501c0 19.333 5.83301 39.166 17.5 59.499s32.5 36.833 62.5 49.5c-1.33301 7.33301 -3.33301 16 -6 26s-5.66699 20.667 -9 32c-8 30 -16 63.333 -24 100s-12 72 -12 106c0 17.333 1.66699 34 5 50s9 30.333 17 43s18.833 22.667 32.5 30
s30.5 11 50.5 11c8 0 16.5 -1 25.5 -3s17.333 -5.33301 25 -10s14 -11 19 -19s7.5 -17.667 7.5 -29c0 -12 -2.33301 -23.667 -7 -35s-10.667 -22 -18 -32s-15.333 -19 -24 -27s-17 -14.333 -25 -19c2.66699 -22 6.33398 -44.333 11.001 -67s9.66699 -43.834 15 -63.501
s10.166 -36.334 14.499 -50.001l8.5 -26.5zM78.998 424.001c4.66699 2 9.5 6 14.5 12s9.66699 12.5 14 19.5s8 14.167 11 21.5s4.5 14 4.5 20c0 11.333 -4.33301 17 -13 17c-10.667 0 -18.5 -7.66699 -23.5 -23s-7.5 -34 -7.5 -56v-8v-3zM39.998 127.001
c-1.33301 -0.666992 -2.66699 -0.999023 -4 -0.999023c0 0.666992 -0.166992 1.16699 -0.5 1.5s-0.5 1.16602 -0.5 2.49902zM40.9971 91.002c0 8.66699 -1.66699 20.333 -5 35c-18.667 -5.33301 -32.5 -16 -41.5 -32s-13.5 -31 -13.5 -45c0 -9.33301 1.66699 -17.333 5 -24
s9 -10 17 -10s14.5 3.5 19.5 10.5s8.83301 14.833 11.5 23.5s4.5 17.167 5.5 25.5s1.5 13.833 1.5 16.5z" />
    <glyph glyph-name="t" unicode="t" horiz-adv-x="336" 
d="M-136 637c-10 -6 -17.5 -5.67188 -22.5 0.995117s-4.83301 13.667 0.5 21c18.667 18.667 40 31.667 64 39s50 11 78 11c13.333 0 26.5 -0.666992 39.5 -2s26.167 -3 39.5 -5c7.33301 28.667 13.833 50.834 19.5 66.501s10.834 26.834 15.501 33.501s8.66699 10.5 12 11.5
s6.66602 1.5 9.99902 1.5c15.333 0 29.5 -5 42.5 -15s19.5 -23.333 19.5 -40c0 -0.666992 -0.166992 -1.5 -0.5 -2.5s-1 -3.66699 -2 -8s-2.83301 -11.666 -5.5 -21.999s-6.33398 -25.5 -11.001 -45.5h1c30.667 -6.66699 61 -12.667 91 -18s58 -8 84 -8
c34.667 0 66.334 7 95.001 21s51.334 40.667 68.001 80c2.66699 3.33301 6 5.66602 10 6.99902s7.66699 1.5 11 0.5s5.83301 -3.16699 7.5 -6.5s1.5 -7.66602 -0.5 -12.999c-10 -23.333 -21.667 -42.5 -35 -57.5s-28.166 -27.167 -44.499 -36.5s-33.833 -15.833 -52.5 -19.5
s-38.334 -5.5 -59.001 -5.5c-29.333 0 -59.166 2.66699 -89.499 8s-60.833 11.333 -91.5 18h-3c-16.667 -70 -30.334 -140.667 -41.001 -212s-16 -148 -16 -230c0 -24.667 0.833008 -48.5 2.5 -71.5s4.83398 -43.333 9.50098 -61s10.834 -31.834 18.501 -42.501
s17.167 -16 28.5 -16c12 0 24.667 7.83301 38 23.5s26.833 35 40.5 58s26.667 47.667 39 74l32.5 70.5l19 40l4 6c1.33301 2.66699 2.5 5.16699 3.5 7.5s4.16699 3.5 9.5 3.5c3.33301 0 6.33301 -1.16699 9 -3.5s4 -5.16602 4 -8.49902c0 -1.33301 -0.166992 -2.5 -0.5 -3.5
s-1.16602 -2.83301 -2.49902 -5.5h1l-16 -38l-39.5 -86.5c-15 -32.333 -31.833 -62.833 -50.5 -91.5s-38.834 -52.667 -60.501 -72s-44.834 -29 -69.501 -29c-23.333 0 -42.833 6.5 -58.5 19.5s-28.334 30.667 -38.001 53s-16.667 49 -21 80s-6.5 64.5 -6.5 100.5
c0 34.667 1.5 71.5 4.5 110.5s7.33301 78.333 13 118s12.167 78.834 19.5 117.501s15.333 75 24 109c-12.667 2 -24.834 3.66699 -36.501 5s-23.167 2 -34.5 2c-23.333 0 -45.333 -3.16699 -66 -9.5s-38.667 -17.166 -54 -32.499z" />
    <glyph glyph-name="u" unicode="u" horiz-adv-x="538" 
d="M66 0c-14.667 0 -27.002 4.33496 -37.002 13.002s-18 20.5 -24 35.5s-10.167 32.5 -12.5 52.5s-3.5 41 -3.5 63c0 55.333 3.16699 103.166 9.5 143.499s14 73.666 23 99.999s18.833 45.833 29.5 58.5s20.334 19 29.001 19c16.667 0 39 -7.66699 67 -23
c2 -1.33301 3 -2.83301 3 -4.5s-1 -3.16699 -3 -4.5c-7.33301 -3.33301 -14.333 -14.333 -21 -33s-12.667 -41.5 -18 -68.5s-9.5 -55.833 -12.5 -86.5s-4.5 -59.334 -4.5 -86.001c0 -30 2 -54.667 6 -74s10.667 -29 20 -29c2 0 5.66699 5.16699 11 15.5
s11.666 24.166 18.999 41.499l24.5 59.5l27.5 69.5l30.5 78c10.333 26 20.333 49.5 30 70.5s18.334 38.667 26.001 53s14.167 22.833 19.5 25.5c8.66699 5.33301 19 8 31 8s24.167 -2.16699 36.5 -6.5s23.5 -9.16602 33.5 -14.499c2 -1.33301 2.83301 -2.83301 2.5 -4.5
s-1.5 -3.16699 -3.5 -4.5c-10 -4 -19 -16.5 -27 -37.5s-14.5 -46.833 -19.5 -77.5s-8.83301 -63.667 -11.5 -99s-4 -69.333 -4 -102c0 -19.333 0.5 -37.666 1.5 -54.999s2.33301 -32.5 4 -45.5s3.83398 -23.333 6.50098 -31s5.66699 -11.5 9 -11.5
c2 0 6.16699 4.16699 12.5 12.5s13.666 19.5 21.999 33.5l27.5 47l30 53l29 52.5l24 44.5c4.66699 8 8.33398 15 11.001 21s4.66699 10.333 6 13c4 7.33301 8 11 12 11c7.33301 0 12.333 -3.66699 15 -11c0 -5.33301 -1.33301 -9.33301 -4 -12v2l-21 -42l-29 -57l-34 -64
l-34.5 -61c-11 -18.667 -21.5 -35 -31.5 -49s-18 -23.333 -24 -28c-14.667 -10.667 -30.334 -16 -47.001 -16c-17.333 0 -31.5 5.66699 -42.5 17s-19.667 26.333 -26 45s-10.666 40.334 -12.999 65.001s-3.5 50.667 -3.5 78c0 23.333 0.333008 45.5 1 66.5
s1.66699 40.167 3 57.5l-2 -6l-37 -95.5c-13.333 -33 -27.5 -63.333 -42.5 -91s-30.833 -50.334 -47.5 -68.001s-34 -26.5 -52 -26.5z" />
    <glyph glyph-name="v" unicode="v" horiz-adv-x="452" 
d="M212 394c3.33301 38 12.1729 67.002 26.5059 87.002s29.5 30 45.5 30c11.333 0 22.5 -6.66699 33.5 -20s16.5 -35.333 16.5 -66c0 -17.333 -1.66699 -35.5 -5 -54.5s-7.33301 -37 -12 -54s-9.33398 -32.333 -14.001 -46s-8 -23.834 -10 -30.501
c7.33301 -5.33301 15.166 -9.16602 23.499 -11.499s17.166 -3.5 26.499 -3.5c19.333 0 37.666 5.16699 54.999 15.5s31.333 25.166 42 44.499h-1c3.33301 7.33301 8 11 14 11c3.33301 0 6.33301 -1.16699 9 -3.5s4 -5.16602 4 -8.49902
c0 -1.33301 -0.333008 -3.16602 -1 -5.49902s-1.33398 -4.5 -2.00098 -6.5l-3 -5v1c-13.333 -22 -30.5 -39.833 -51.5 -53.5s-43.5 -20.5 -67.5 -20.5c-10 0 -20.167 1.5 -30.5 4.5s-20.166 7.5 -29.499 13.5l-7 -21l-23.5 -67.5c-9 -25 -19.5 -48.5 -31.5 -70.5
s-25.333 -40.667 -40 -56s-31 -23 -49 -23c-20 0 -38.167 11.667 -54.5 35s-30.333 52.166 -42 86.499s-20.834 71 -27.501 110s-10 74.5 -10 106.5c0 42.667 5.33301 77.167 16 103.5s29 39.5 55 39.5c12.667 0 30 -3 52 -9c2 -0.666992 3.33301 -2 4 -4s0 -3.66699 -2 -5
c-7.33301 -4.66699 -12.5 -16.834 -15.5 -36.501s-4.5 -43.167 -4.5 -70.5c0 -30 1.66699 -62.333 5 -97s7.66602 -66.834 12.999 -96.501s11.5 -54.167 18.5 -73.5s14.167 -29 21.5 -29c5.33301 0 11.333 4.16699 18 12.5s13.334 19 20.001 32s13.167 27.333 19.5 43
s12.166 31 17.499 46s9.83301 28.5 13.5 40.5s6.16699 20.667 7.5 26c-14.667 19.333 -25.667 41 -33 65s-11 48.667 -11 74v10.5c0 3.66699 0.333008 7.5 1 11.5v-1zM243.007 370.002c0 -18.667 1.83203 -36.833 5.49902 -54.5s10.167 -34.167 19.5 -49.5
c13.333 34 22.333 63.5 27 88.5s7 47.167 7 66.5c0 20.667 -1.66699 35.667 -5 45s-7.66602 14 -12.999 14c-10 0 -19.333 -10.333 -28 -31s-13 -47 -13 -79z" />
    <glyph glyph-name="w" unicode="w" horiz-adv-x="691" 
d="M253 158c-0.666992 -0.666992 -0.666992 -1 0 -1v1zM450 394c3.33301 38 12.1602 66.998 26.4932 86.998s29.166 30 44.499 30c12 0 23.5 -6.83301 34.5 -20.5s16.5 -36.167 16.5 -67.5c0 -17.333 -1.66699 -35.333 -5 -54s-7.33301 -36.5 -12 -53.5
s-9.33398 -32.167 -14.001 -45.5s-8.33398 -23.333 -11.001 -30c14.667 -10 31.334 -15 50.001 -15c19.333 0 37.833 5.16699 55.5 15.5s31.5 25.166 41.5 44.499h-1c3.33301 7.33301 8.33301 11 15 11c3.33301 0 6.33301 -1.16699 9 -3.5s4 -5.16602 4 -8.49902
c0 -1.33301 -0.333008 -3.16602 -1 -5.49902s-1.33398 -4.5 -2.00098 -6.5l-3 -5v1c-13.333 -22 -30.666 -39.833 -51.999 -53.5s-44 -20.5 -68 -20.5c-9.33301 0 -19.333 1.5 -30 4.5s-20.667 7.5 -30 13.5c-5.33301 -16.667 -13.333 -38.5 -24 -65.5
s-23.167 -53.5 -37.5 -79.5s-30.666 -48.333 -48.999 -67s-38.166 -28 -59.499 -28c-15.333 0 -28.5 6.5 -39.5 19.5s-20.333 28.833 -28 47.5s-13.667 38.667 -18 60s-7.5 40.666 -9.5 57.999l-24.5 -55c-9.66699 -21.333 -20.667 -41.5 -33 -60.5
s-25.5 -35.167 -39.5 -48.5s-29 -20 -45 -20c-12 0 -23.167 5.16699 -33.5 15.5s-19.666 24.333 -27.999 42s-15.666 37.834 -21.999 60.501s-11.666 46.167 -15.999 70.5s-7.66602 49 -9.99902 74s-3.5 48.167 -3.5 69.5s0.833008 41.333 2.5 60s4.66699 34.834 9 48.501
s10.166 24.334 17.499 32.001s16.666 11.5 27.999 11.5c7.33301 0 15.666 -1 24.999 -3s19.333 -4.66699 30 -8c2 -0.666992 3.33301 -2 4 -4s0 -3.66699 -2 -5c-7.33301 -4.66699 -12.333 -17.334 -15 -38.001s-4 -45 -4 -73c0 -30.667 1.5 -63.167 4.5 -97.5s7 -66 12 -95
s10.833 -53 17.5 -72s13.667 -28.5 21 -28.5c6 0 13.333 7.16699 22 21.5s17.834 31.666 27.501 51.999s18.834 41.333 27.501 63l21 53.5c-1.33301 10 -2.66602 24.333 -3.99902 43s-2 38.334 -2 59.001c0 18.667 0.833008 36 2.5 52s4.83398 29.667 9.50098 41
s11.167 20.333 19.5 27s19.5 10 33.5 10c14.667 0 31.667 -3 51 -9c2 -0.666992 3.33301 -2 4 -4s0 -3.66699 -2 -5c-7.33301 -4.66699 -12.333 -17.5 -15 -38.5s-4 -45.833 -4 -74.5c0 -30 1.5 -62.167 4.5 -96.5s7 -65.833 12 -94.5s10.833 -52.5 17.5 -71.5
s13.667 -28.5 21 -28.5c5.33301 0 11.333 4.16699 18 12.5s13.5 19 20.5 32s13.833 27.5 20.5 43.5s12.834 31.5 18.501 46.5s10.334 28.5 14.001 40.5s6.16699 20.667 7.5 26c-15.333 19.333 -26.5 41 -33.5 65s-10.5 48.667 -10.5 74v10.5c0 3.66699 0.333008 7.5 1 11.5
v-1zM479.994 373.998c0 -19.333 2 -38.333 6 -57s10.667 -35.667 20 -51c12.667 34 21.5 63.5 26.5 88.5s7.5 47.167 7.5 66.5c0 20.667 -1.83301 35.667 -5.5 45s-8.16699 14 -13.5 14c-8.66699 0 -17.667 -9.83301 -27 -29.5s-14 -45.167 -14 -76.5z" />
    <glyph glyph-name="x" unicode="x" horiz-adv-x="469" 
d="M457 285c3.33301 7.33301 7.67773 11.0029 13.0107 11.0029c3.33301 0 6.33301 -1.33301 9 -4s4 -6.33398 4 -11.001v-2l-2 -4c-4.66699 -9.33301 -11.834 -22.666 -21.501 -39.999s-20.834 -36.166 -33.501 -56.499s-26.334 -41 -41.001 -62s-29.334 -40 -44.001 -57
s-28.667 -31 -42 -42s-25.333 -16.5 -36 -16.5c-11.333 0 -20.833 3.33301 -28.5 10s-14.334 15 -20.001 25s-10.334 21.167 -14.001 33.5s-6.83398 24.5 -9.50098 36.5c-2.66699 9.33301 -4.33398 16 -5.00098 20s-2.33398 8.66699 -5.00098 14
c-7.33301 -14 -17.333 -31.833 -30 -53.5s-26.334 -42.834 -41.001 -63.501s-29.667 -38.5 -45 -53.5s-29 -22.5 -41 -22.5c-10 0 -17.667 3.66699 -23 11s-8 17.666 -8 30.999c0 11.333 4.66699 17 14 17c4.66699 0 7.83398 -1.83301 9.50098 -5.5
s3.16699 -7.83398 4.5 -12.501c0 -3.33301 0.333008 -6.16602 1 -8.49902s2 -3.5 4 -3.5c6 0 13.833 4.66699 23.5 14s19.667 21.166 30 35.499s20.666 30.166 30.999 47.499s19.666 33.666 27.999 48.999s15.166 28.833 20.499 40.5s8 19.167 8 22.5
c0 6 -0.833008 15.5 -2.5 28.5s-4 27.167 -7 42.5s-6.33301 31.166 -10 47.499s-7.66699 31.166 -12 44.499s-8.83301 24.333 -13.5 33s-9 13 -13 13c-5.33301 0 -10.833 -2.5 -16.5 -7.5s-11 -11.167 -16 -18.5s-10 -15.833 -15 -25.5l-14.5 -27.5
c-7.33301 -14.667 -14 -27 -20 -37s-12 -15 -18 -15c-9.33301 0 -14 4 -14 12c0 2.66699 0.166992 4.66699 0.5 6s0.833008 2.66602 1.5 3.99902l10 21l25.5 54c9.66699 20 20.5 38.833 32.5 56.5s25.167 32.5 39.5 44.5s29.5 18 45.5 18c12.667 0 23.834 -5 33.501 -15
s17.834 -22.667 24.501 -38s12.167 -32 16.5 -50s8.16602 -34.667 11.499 -50l4.5 -22.5c1 -5 2.5 -10.167 4.5 -15.5c1.33301 3.33301 3 6.33301 5 9s3.66699 5.66699 5 9l18 29l29.5 47.5c10.333 16.333 20.833 31.333 31.5 45s21.167 25 31.5 34s19.833 13.5 28.5 13.5
c13.333 0 22.666 -3.16699 27.999 -9.5s8 -14.833 8 -25.5c0 -12 -1.33301 -23.667 -4 -35c0 -2.66699 -1.66699 -4 -5 -4h-17c-2.66699 0 -4 1.66699 -4 5l1 13c0.666992 2.66699 1.16699 5.83398 1.5 9.50098s0.833008 5.5 1.5 5.5c0 2 -0.333008 5 -1 9s-1.66699 6 -3 6
c-5.33301 0 -12.166 -4 -20.499 -12s-17.333 -18.5 -27 -31.5s-19.667 -27.333 -30 -43l-29 -45.5l-24 -40.5c-7 -12.333 -12.167 -21.833 -15.5 -28.5c0 -5.33301 1.66699 -16.666 5 -33.999s7.83301 -35.166 13.5 -53.499s12 -34.666 19 -48.999s14.167 -21.5 21.5 -21.5
c9.33301 0 20.166 6.66699 32.499 20s24.833 29.333 37.5 48s24.834 38 36.501 58l28.5 50l8.5 15.5c3 5.66699 3.5 7.16699 1.5 4.5z" />
    <glyph glyph-name="y" unicode="y" horiz-adv-x="493" 
d="M328 109c14.667 10 29.666 21.8379 44.999 35.5049s30.166 28.5 44.499 44.5s28 32.333 41 49s24.5 32.667 34.5 48c2 4.66699 5 7.66699 9 9s7.5 1.16602 10.5 -0.500977s5 -4.33398 6 -8.00098s-0.166992 -7.83398 -3.5 -12.501c-12.667 -19.333 -27 -38.833 -43 -58.5
s-32.5 -38.5 -49.5 -56.5s-33.833 -34.5 -50.5 -49.5s-32.334 -27.833 -47.001 -38.5c-1.33301 -16 -3.5 -36.5 -6.5 -61.5s-6.83301 -52.5 -11.5 -82.5s-10.5 -61.5 -17.5 -94.5s-15.333 -65.5 -25 -97.5s-20.834 -62.667 -33.501 -92s-27 -55 -43 -77
c-20.667 -26.667 -41.167 -46.5 -61.5 -59.5s-38.5 -19.5 -54.5 -19.5c-26.667 0 -48.167 13.333 -64.5 40s-24.5 61.667 -24.5 105c0 29.333 4.16699 61.333 12.5 96s21.833 70.334 40.5 107.001s43 73.667 73 111s66.333 73.666 109 108.999
c4.66699 38.667 7.83398 75.667 9.50098 111s4.16699 70.333 7.5 105v-2l-36 -95c-12.667 -32 -26.167 -60.833 -40.5 -86.5s-29.666 -46.667 -45.999 -63s-33.5 -24.5 -51.5 -24.5c-13.333 0 -24.666 4.5 -33.999 13.5s-17 21 -23 36s-10.333 32.5 -13 52.5s-4 41 -4 63
c0 34.667 2.5 68.667 7.5 102s11.833 63.166 20.5 89.499s18.667 47.666 30 63.999s23.666 24.5 36.999 24.5c15.333 0 37.666 -7.33301 66.999 -22c-3.33301 2 -7 -1.33301 -11 -10s-8.16699 -20.5 -12.5 -35.5s-8.66602 -32.333 -12.999 -52s-8.16602 -39.667 -11.499 -60
s-6 -40 -8 -59s-3 -35.167 -3 -48.5c0 -23.333 1.83301 -42.833 5.5 -58.5s9.16699 -23.5 16.5 -23.5s15.833 9.66699 25.5 29s20 43.333 31 72l34.5 94c12 34 24.5 65.333 37.5 94s25.833 52.667 38.5 72s25.334 29 38.001 29c11.333 0 22 -3 32 -9s14.333 -15 13 -27z
M48.999 -458.995c13.333 0 26.332 9.16797 38.999 27.501s24.5 42.166 35.5 71.499s21.333 62 31 98s18.334 71.333 26.001 106s14.167 67 19.5 97s9.33301 53.667 12 71c-34 -30 -63.333 -62.167 -88 -96.5s-45.167 -68.5 -61.5 -102.5s-28.333 -66.833 -36 -98.5
s-11.5 -60.5 -11.5 -86.5s3.33301 -47 10 -63s14.667 -24 24 -24z" />
    <glyph glyph-name="z" unicode="z" 
d="M361 392c0 -15.333 -2.66895 -31.8389 -8.00195 -49.5059s-12.833 -35.167 -22.5 -52.5s-21 -34.166 -34 -50.499s-27.167 -30.5 -42.5 -42.5c13.333 -5.33301 24.833 -10.666 34.5 -15.999s18 -11.5 25 -18.5s13 -15.333 18 -25s9.5 -21.5 13.5 -35.5
c15.333 10 31 22.333 47 37s31.5 30.334 46.5 47.001s29.333 33.667 43 51s25.834 33.666 36.501 48.999v-1c1.33301 3.33301 3 5.5 5 6.5s4 1.5 6 1.5c3.33301 0 6.33301 -1.33301 9 -4s4 -5.66699 4 -9c0 -0.666992 -0.166992 -1.16699 -0.5 -1.5
s-0.5 -1.16602 -0.5 -2.49902c-11.333 -21.333 -25 -42.166 -41 -62.499s-32.667 -39.166 -50 -56.499s-34.833 -33.333 -52.5 -48l-47.5 -38c-1.33301 -16 -3.5 -36.5 -6.5 -61.5s-6.83301 -52.5 -11.5 -82.5s-10.334 -61.5 -17.001 -94.5s-14.834 -65.667 -24.501 -98
s-21 -63 -34 -92s-27.833 -54.5 -44.5 -76.5c-21.333 -28 -41.666 -48.167 -60.999 -60.5s-37.333 -18.5 -54 -18.5c-26.667 0 -48.167 13.333 -64.5 40s-24.5 62 -24.5 106c0 28.667 4.16699 60.334 12.5 95.001s21.833 70.5 40.5 107.5s43 74.167 73 111.5
s66.333 73.666 109 108.999c0 1.33301 0.166992 2.33301 0.5 3s0.5 1.33398 0.5 2.00098c1.33301 7.33301 2.33301 15 3 23s1 16 1 24c0 11.333 -1.5 22.333 -4.5 33s-9.83301 18.667 -20.5 24l-1 -1c-7.33301 -8 -17.5 -16 -30.5 -24s-24.833 -12 -35.5 -12
c-11.333 0 -20.5 3.83301 -27.5 11.5s-10.5 16.167 -10.5 25.5c0 13.333 7 24.5 21 33.5s31 13.5 51 13.5c5.33301 0 10.333 -0.166992 15 -0.5s9.66699 -1.16602 15 -2.49902c8 10 15.167 22.167 21.5 36.5s11.5 29.5 15.5 45.5s7.16699 32.333 9.5 49
s3.5 32.334 3.5 47.001c0 23.333 -3.5 42.666 -10.5 57.999s-18.167 23 -33.5 23c-20 0 -40 -7.16699 -60 -21.5s-39 -31.833 -57 -52.5s-34.667 -42.5 -50 -65.5l-40 -60.5v1c-2.66699 -5.33301 -6.33398 -8 -11.001 -8c-3.33301 0 -6.16602 1.33301 -8.49902 4
s-3.5 6.33398 -3.5 11.001c0 1.33301 0.666992 4 2 8c15.333 25.333 32.333 51.5 51 78.5s38.667 51.667 60 74s43.833 40.666 67.5 54.999s48.167 21.5 73.5 21.5c16 0 30.833 -3 44.5 -9s25.334 -14.333 35.001 -25s17.334 -23.334 23.001 -38.001s8.5 -31 8.5 -49z
M71.998 -459.006c13.333 0 26.334 9.16797 39.001 27.501s24.667 42.166 36 71.499s21.666 62 30.999 98s17.833 71.333 25.5 106s14.167 67 19.5 97l13 71c-24.667 -22 -46.5 -44 -65.5 -66s-37.5 -47.667 -55.5 -77c-28 -46 -47.5 -90 -58.5 -132
s-16.5 -78.667 -16.5 -110c0 -25.333 3 -46 9 -62s13.667 -24 23 -24zM148.999 159.995c0.666992 -3.33301 3.33398 -5 8.00098 -5c7.33301 0 15.833 3.66699 25.5 11s16.5 13 20.5 17c-2.66699 0.666992 -7.33398 1 -14.001 1c-10 0 -19.5 -1.5 -28.5 -4.5
s-13.5 -7.83301 -13.5 -14.5c0 -2 0.333008 -3.33301 1 -4z" />
    <glyph glyph-name="braceleft" unicode="{" horiz-adv-x="384" 
d="M113 -46c0 10 0.500977 22.001 1.50098 36.001s2.16699 28.333 3.5 43c1.33301 17.333 2.83301 35.833 4.5 55.5s2.5 38.834 2.5 57.501c0 27.333 -2.5 52.5 -7.5 75.5s-14.5 40.833 -28.5 53.5c-4.66699 4 -8.5 8.66699 -11.5 14s-4.5 10.666 -4.5 15.999
s1.5 9.33301 4.5 12s6.83301 5.66699 11.5 9h-1c1.33301 1.33301 2.16602 1.83301 2.49902 1.5s1.16602 0.166992 2.49902 1.5c13.333 10 23.833 23.667 31.5 41s13.834 36.333 18.501 57s8 42.5 10 65.5s3.66699 45.167 5 66.5c1.33301 18 2.83301 35.833 4.5 53.5
s3.83398 32.5 6.50098 44.5c4 16 11.167 29.167 21.5 39.5s22.166 18.333 35.499 24s27.5 9.66699 42.5 12s29.833 3.5 44.5 3.5h5c8.66699 0 17 -0.5 25 -1.5s12 -5.5 12 -13.5c0 -3.33301 -1 -6.5 -3 -9.5s-4.66699 -4.5 -8 -4.5h-9
c-1.33301 0 -2.83301 0.166992 -4.5 0.5s-3.16699 0.5 -4.5 0.5c-22 0 -39.5 -3.83301 -52.5 -11.5s-22.833 -18 -29.5 -31s-11 -28.167 -13 -45.5s-3 -35.666 -3 -54.999v-36c0 -5.33301 0.166992 -11 0.5 -17s0.5 -12 0.5 -18c0 -22 -1.16699 -43.5 -3.5 -64.5
s-7.33301 -40.167 -15 -57.5s-18.834 -32.333 -33.501 -45s-34.667 -21.667 -60 -27c33.333 -20 56 -43.167 68 -69.5s18 -53.833 18 -82.5c0 -18.667 -1.33301 -36.834 -4 -54.501s-5.66699 -35.167 -9 -52.5c-3.33301 -15.333 -6 -30.333 -8 -45s-3 -28.334 -3 -41.001
c0 -25.333 6.83301 -46 20.5 -62s40.5 -25.667 80.5 -29c4 -1.33301 6 -6 6 -14s-3.66699 -13 -11 -15c-16 1.33301 -33 3.83301 -51 7.5s-35 9.5 -51 17.5s-29.667 18.5 -41 31.5s-17.666 29.5 -18.999 49.5v13z" />
    <glyph glyph-name="bar" unicode="|" horiz-adv-x="303" 
d="M110 787c0.666992 9.33301 4.33398 17.333 11.001 24s14.667 10 24 10c10 0 18.167 -3.5 24.5 -10.5s9.83301 -15.167 10.5 -24.5l-5 -914c-0.666992 -9.33301 -4.33398 -17.5 -11.001 -24.5s-15 -10.5 -25 -10.5c-9.33301 0 -17.333 3.5 -24 10.5s-10 15.167 -10 24.5z
" />
    <glyph glyph-name="braceright" unicode="}" horiz-adv-x="430" 
d="M308 619c0 -11.333 -0.668945 -23.6709 -2.00195 -37.0039s-2.66602 -27.666 -3.99902 -42.999c-2 -18 -3.66699 -36.667 -5 -56s-2 -38 -2 -56c0 -27.333 2.66699 -52.5 8 -75.5s15.333 -40.833 30 -53.5c3.33301 -4.66699 6.5 -9.5 9.5 -14.5s4.5 -10.167 4.5 -15.5
c0 -7.33301 -0.333008 -11.333 -1 -12l-22 -15c-12 -9.33301 -21.667 -22.666 -29 -39.999s-13.166 -36.5 -17.499 -57.5s-7.66602 -43 -9.99902 -66s-4.16602 -44.833 -5.49902 -65.5c-1.33301 -18.667 -2.66602 -36.334 -3.99902 -53.001s-3.33301 -30.667 -6 -42
c-4 -16.667 -10.833 -30.167 -20.5 -40.5s-21.167 -18.5 -34.5 -24.5s-27.833 -10.167 -43.5 -12.5s-31.167 -3.5 -46.5 -3.5c-9.33301 0 -18.5 0.666992 -27.5 2s-13.5 6 -13.5 14c0 9.33301 3.66699 14 11 14c3.33301 -0.666992 6.16602 -1 8.49902 -1h7.5
c22.667 0 40.5 3.83301 53.5 11.5s23 18.167 30 31.5s11.5 28.833 13.5 46.5s3 36.167 3 55.5c0 5.33301 -0.166992 10.833 -0.5 16.5s-0.5 11.167 -0.5 16.5v35c0 22 1 43.5 3 64.5s6.83301 40.167 14.5 57.5s19 32.333 34 45s35.5 22 61.5 28
c-34.667 19.333 -58 42.333 -70 69s-18 54.667 -18 84c0 17.333 1.33301 34.833 4 52.5s5.66699 35.167 9 52.5c3.33301 16 6 31.333 8 46s3 28.334 3 41.001c0 24.667 -7.16699 45.334 -21.5 62.001s-39.833 26.667 -76.5 30c-6 1.33301 -9 5.66602 -9 12.999
c0 3.33301 1 6.33301 3 9s5 4.33398 9 5.00098c15.333 -1.33301 32.166 -3.66602 50.499 -6.99902s35.5 -9 51.5 -17s29.667 -18.5 41 -31.5s17.666 -29.5 18.999 -49.5v-13z" />
    <glyph glyph-name="asciitilde" unicode="~" horiz-adv-x="669" 
d="M518 395c13.333 -7.33301 22.667 -18.667 28 -34s8 -30.666 8 -45.999c0 -35.333 -8.33301 -59.666 -25 -72.999s-36 -20 -58 -20c-19.333 0 -40.166 3.16699 -62.499 9.5s-44.833 13.166 -67.5 20.499c-22 7.33301 -43 14 -63 20s-37.667 9 -53 9
c-12.667 0 -23.5 -2.66699 -32.5 -8s-15.167 -14.666 -18.5 -27.999c-6.66699 -22.667 -14 -34 -22 -34c-3.33301 0 -6.33301 2.16699 -9 6.5s-5 10 -7 17s-3.5 14.667 -4.5 23s-1.5 16.833 -1.5 25.5c0 35.333 6.83301 59.666 20.5 72.999s31.5 20 53.5 20
c20.667 0 43.167 -4.33301 67.5 -13l73.5 -27c21.333 -9.33301 42 -17.166 62 -23.499s36.667 -9.5 50 -9.5c11.333 0 20 3 26 9s9 16.333 9 31c0 1.33301 -0.166992 3.16602 -0.5 5.49902s-0.833008 5.16602 -1.5 8.49902s-1.33398 6 -2.00098 8s-1 7 -1 15
c0 12.667 6.33301 19 19 19c3.33301 0 7.33301 -1.33301 12 -4z" />
    <glyph glyph-name="circumflex" unicode="&#x2c6;" horiz-adv-x="585" 
d="M299 671c3.33301 3.33301 5.99902 3.33301 7.99902 0l159 -214c0 -4 -1.33301 -8.33301 -4 -13s-6 -9 -10 -13s-8.33301 -7.33301 -13 -10s-9 -4 -13 -4c-2 0 -3.5 -0.166992 -4.5 -0.5s-1.16699 -0.5 -0.5 -0.5l-30.5 40.5l-29.5 41.5l-37.5 51
c-12.333 16.667 -25.5 32.667 -39.5 48l-134 -138c-2.66699 -2 -5.66699 -4 -9 -6s-6.66602 -3 -9.99902 -3c-5.33301 0 -10 1.83301 -14 5.5s-6 8.16699 -6 13.5c0 6 2.33301 11.333 7 16v-1z" />
    <glyph glyph-name="quoteleft" unicode="&#x2018;" horiz-adv-x="297" 
d="M184 520c-8.66699 -10.667 -20 -15.9971 -34 -15.9971c-15.333 0 -27 4.83301 -35 14.5s-12 22.167 -12 37.5c0 12 2.16699 24.833 6.5 38.5s10.166 27 17.499 40s15.833 25 25.5 36s19.834 19.833 30.501 26.5c2.66699 1.33301 5.33398 2 8.00098 2
c5.33301 0 9.66602 -1.5 12.999 -4.5s5 -6.83301 5 -11.5c0 -2.66699 -2 -6 -6 -10c-6 -5.33301 -13.667 -14 -23 -26s-14 -25 -14 -39c0 -2.66699 1.5 -5.83398 4.5 -9.50098s5.5 -6.83398 7.5 -9.50098c3.33301 -4.66699 7 -10.334 11 -17.001s6 -13.667 6 -21
c0 -12 -3.66699 -22.333 -11 -31z" />
    <glyph glyph-name="quoteright" unicode="&#x2019;" horiz-adv-x="287" 
d="M118 685c4 5.33301 9.16895 9.16406 15.502 11.4971s12.833 3.5 19.5 3.5c15.333 0 27 -4.66699 35 -14s12 -21.666 12 -36.999c0 -12 -2.33301 -25 -7 -39s-10.834 -27.5 -18.501 -40.5s-16.334 -25 -26.001 -36s-19.834 -19.5 -30.501 -25.5c-3.33301 -2 -6 -3 -8 -3
c-4 0 -7.66699 1.66699 -11 5s-5 7.33301 -5 12c0 2 0.333008 3 1 3l4 4l10.5 10.5c4.33301 4.33301 8.5 9.5 12.5 15.5s7.5 12.333 10.5 19s4.5 13.667 4.5 21c0 3.33301 -1.16699 6.83301 -3.5 10.5s-5.16602 7.16699 -8.49902 10.5
c-4.66699 4.66699 -8.66699 9.83398 -12 15.501s-5 12.834 -5 21.501c0 6 0.666992 11.667 2 17s4 10.333 8 15z" />
    <glyph glyph-name="quotesinglbase" unicode="&#x201a;" horiz-adv-x="321" 
d="M128 179c8.66699 10 20.666 14.9961 35.999 14.9961c14.667 0 26 -4.66699 34 -14s12 -21.666 12 -36.999c0 -12 -2.33301 -25 -7 -39s-10.667 -27.5 -18 -40.5s-16 -25.167 -26 -36.5s-20.333 -20 -31 -26h1c-1.33301 -1.33301 -2.66602 -2 -3.99902 -2h-4
c-3.33301 0 -7 1.66699 -11 5s-6 7.33301 -6 12c0 2 0.333008 3.33301 1 4l4 4l10.5 11c4.33301 4.66699 8.5 9.83398 12.5 15.501s7.5 11.834 10.5 18.501s4.5 13.667 4.5 21c0 3.33301 -1.16699 6.5 -3.5 9.5s-5.16602 6.16699 -8.49902 9.5
c-4.66699 5.33301 -8.83398 10.833 -12.501 16.5s-5.5 12.834 -5.5 21.501c0 6 0.833008 11.833 2.5 17.5s4.5 10.5 8.5 14.5z" />
    <glyph glyph-name="quotedblleft" unicode="&#x201c;" horiz-adv-x="457" 
d="M325 519c-9.33301 -10 -21.334 -14.998 -36.001 -14.998s-26 4.66699 -34 14s-12 21.666 -12 36.999c0 12 2.33301 25 7 39s10.667 27.5 18 40.5s16 25 26 36s20.333 19.5 31 25.5h-2c1.33301 1.33301 4.33301 2 9 2c4 0 8 -1.5 12 -4.5s6 -6.83301 6 -11.5
c0 -2 -0.333008 -3.33301 -1 -4l-4 -4l-10.5 -10.5c-4.33301 -4.33301 -8.66602 -9.5 -12.999 -15.5s-8 -12.333 -11 -19s-4.5 -13.667 -4.5 -21c0 -3.33301 1.16699 -6.66602 3.5 -9.99902s5.16602 -6.66602 8.49902 -9.99902
c4.66699 -4.66699 8.83398 -9.83398 12.501 -15.501s5.5 -12.834 5.5 -21.501c0 -12.667 -3.66699 -23.334 -11 -32.001zM179.999 519.002c-9.33301 -10 -21 -15.002 -35 -15.002c-15.333 0 -27 4.66699 -35 14s-12 21.333 -12 36c0 12 2.33301 24.833 7 38.5
s10.834 27.167 18.501 40.5s16.5 25.666 26.5 36.999s20.333 20 31 26h-2c1.33301 1.33301 4.33301 2 9 2c4 0 7.83301 -1.5 11.5 -4.5s5.5 -6.83301 5.5 -11.5c0 -2 -0.333008 -3.33301 -1 -4c-0.666992 0 -1.33398 -0.333008 -2.00098 -1l-3 -3
c-2.66699 -2 -6.16699 -5.16699 -10.5 -9.5s-8.5 -9.5 -12.5 -15.5s-7.5 -12.5 -10.5 -19.5s-4.5 -14.167 -4.5 -21.5c0 -3.33301 1.16699 -6.66602 3.5 -9.99902s5.16602 -6.66602 8.49902 -9.99902c4.66699 -5.33301 8.83398 -11 12.501 -17s5.5 -13 5.5 -21
c0 -13.333 -3.66699 -23.666 -11 -30.999z" />
    <glyph glyph-name="quotedblright" unicode="&#x201d;" horiz-adv-x="444" 
d="M117 684c8.66699 10 20.3359 15.001 35.0029 15.001c15.333 0 27 -4.83301 35 -14.5s12 -21.834 12 -36.501c0 -12 -2.33301 -25.167 -7 -39.5s-10.834 -28 -18.501 -41s-16.334 -25 -26.001 -36s-19.834 -19.5 -30.501 -25.5h1
c-1.33301 -1.33301 -2.66602 -2 -3.99902 -2h-4c-4 0 -8 1.66699 -12 5s-6 7.33301 -6 12c0 2 0.333008 3.33301 1 4l4 3l10.5 11c4.33301 4.66699 8.66602 10 12.999 16s8 12.333 11 19s4.5 13.667 4.5 21c0 2.66699 -1.16699 5.66699 -3.5 9
s-5.16602 6.66602 -8.49902 9.99902c-4.66699 5.33301 -8.83398 10.833 -12.501 16.5s-5.5 12.834 -5.5 21.501c0 13.333 3.66699 24 11 32zM262.002 684.001c8.66699 10 20.333 15 35 15c15.333 0 27 -4.66699 35 -14s12 -21.666 12 -36.999c0 -12 -2.33301 -25 -7 -39
s-10.834 -27.667 -18.501 -41s-16.5 -25.5 -26.5 -36.5s-20.333 -19.5 -31 -25.5h1c-1.33301 -1.33301 -2.66602 -2 -3.99902 -2h-4c-4 0 -8 1.83301 -12 5.5s-6 7.16699 -6 10.5c0 2 0.5 3.5 1.5 4.5l4.5 4.5c6 6 14 15 24 27s15 25 15 39
c0 3.33301 -1.16699 6.66602 -3.5 9.99902s-5.16602 6.66602 -8.49902 9.99902c-4.66699 5.33301 -8.83398 10.833 -12.501 16.5s-5.5 12.834 -5.5 21.501c0 12.667 3.66699 23 11 31z" />
    <glyph glyph-name="quotedblbase" unicode="&#x201e;" horiz-adv-x="438" 
d="M107 181c4 5.33301 9.16895 9 15.502 11s12.166 3 17.499 3c15.333 0 27.333 -4.5 36 -13.5s13 -21.167 13 -36.5c0 -12 -2.33301 -25 -7 -39s-10.834 -27.667 -18.501 -41s-16.5 -25.5 -26.5 -36.5s-20.333 -19.833 -31 -26.5h1
c-1.33301 -1.33301 -2.66602 -2 -3.99902 -2h-4c-4.66699 0 -8.66699 1.66699 -12 5s-5 7.33301 -5 12c0 2 0.333008 3.33301 1 4l4 4l10.5 10.5c4.33301 4.33301 8.66602 9.33301 12.999 15s8 12 11 19s4.5 14.167 4.5 21.5c0 3.33301 -1.16699 6.66602 -3.5 9.99902
s-5.16602 6.66602 -8.49902 9.99902c-4.66699 4.66699 -8.83398 9.83398 -12.501 15.501s-5.5 12.834 -5.5 21.501c0 14.667 3.66699 25.667 11 33zM252.002 181c4 5.33301 9.00293 8.99609 15.0029 10.9961s12 3 18 3c15.333 0 27.166 -4.5 35.499 -13.5
s12.5 -21.167 12.5 -36.5c0 -11.333 -2.33301 -24 -7 -38s-10.834 -27.833 -18.501 -41.5s-16.334 -26.167 -26.001 -37.5s-19.834 -20 -30.501 -26h1c-1.33301 -1.33301 -2.66602 -2 -3.99902 -2h-4c-4 0 -8 1.83301 -12 5.5s-6 7.16699 -6 10.5c0 2.66699 2 6 6 10l11 11
c4.66699 4.66699 9 9.83398 13 15.501s7.5 11.834 10.5 18.501s4.5 13.667 4.5 21c0 2.66699 -1.5 5.83398 -4.5 9.50098s-5.5 6.83398 -7.5 9.50098c-4 4 -8.16699 9.33301 -12.5 16s-6.5 13.667 -6.5 21c0 12.667 4 23.667 12 33z" />
    <glyph glyph-name="a.001" horiz-adv-x="485" 
d="M334 9c-22.667 2.66699 -39.8311 14.333 -51.498 35s-19.834 44.667 -24.501 72s-6.83398 55.166 -6.50098 83.499s1.5 51.833 3.5 70.5v6l-37.5 -69.5c-15 -27 -31.167 -52.833 -48.5 -77.5s-35.833 -45.667 -55.5 -63s-38.834 -26 -57.501 -26c-28 0 -48.5 11 -61.5 33
s-19.5 50.667 -19.5 86c0 34.667 5.5 70.834 16.5 108.501s26.5 72.167 46.5 103.5s43.833 57 71.5 77s58.167 30 91.5 30c19.333 0 37 -5 53 -15s29.333 -24.667 40 -44l5 10h-1c4 9.33301 8.83301 15.833 14.5 19.5s11.5 5.5 17.5 5.5s11.667 -2 17 -6s10 -9 14 -15
s7.16699 -12.667 9.5 -20s3.5 -14 3.5 -20s-0.333008 -9.66699 -1 -11v1c-2 -8 -5 -26 -9 -54s-7.83301 -59.667 -11.5 -95s-6 -71.333 -7 -108s0.5 -67.667 4.5 -93c32.667 0 66.167 7.83301 100.5 23.5s67.5 37.5 99.5 65.5s62.167 61.5 90.5 100.5s53 81.667 74 128
s37.667 95.666 50 147.999s18.5 106.166 18.5 161.499c0 62 -8.66699 123 -26 183l-122 -81c-41.333 -27.333 -84.166 -52.166 -128.499 -74.499s-90.5 -40.5 -138.5 -54.5s-98.667 -21 -152 -21c-52.667 0 -101.834 8.16699 -147.501 24.5s-85.5 39.333 -119.5 69
s-60.833 65 -80.5 106s-29.5 86.167 -29.5 135.5c0 42 9 82.333 27 121s43.5 72.834 76.5 102.501s72.833 53.5 119.5 71.5s98.667 27 156 27c68.667 0 132.5 -8.66699 191.5 -26s112.333 -41.666 160 -72.999s89 -68.833 124 -112.5s63.167 -91.834 84.5 -144.501
c51.333 32.667 102.666 60.334 153.999 83.001s104.666 34 159.999 34c32 0 64.167 -5.5 96.5 -16.5s61.333 -27.333 87 -49s46.5 -48 62.5 -79s24 -66.5 24 -106.5c0 -31.333 -5.66699 -60.833 -17 -88.5s-27 -51.667 -47 -72s-43.833 -36.5 -71.5 -48.5
s-57.834 -18 -90.501 -18c-34.667 0 -65 6.5 -91 19.5s-46.667 27.833 -62 44.5l70 -17.5c24.667 -6.33301 52.334 -9.5 83.001 -9.5c26.667 0 52.334 4.16699 77.001 12.5s46.5 20.5 65.5 36.5s34.167 35.5 45.5 58.5s17 49.167 17 78.5c0 32 -5.66699 61.167 -17 87.5
s-27.166 49.166 -47.499 68.499s-45 34.333 -74 45s-61.167 16 -96.5 16c-26.667 0 -53 -3.33301 -79 -10s-52 -15.5 -78 -26.5s-51.833 -24.167 -77.5 -39.5l-77.5 -48c20 -63.333 30 -130.666 30 -201.999c0 -54 -6.5 -108.5 -19.5 -163.5s-31 -107.5 -54 -157.5
s-50.167 -96.5 -81.5 -139.5s-65.166 -79.833 -101.499 -110.5s-74.333 -53.834 -114 -69.501s-79.5 -21.167 -119.5 -16.5zM216.003 644.999c48.667 0 95.6709 7.5 141.004 22.5s89.666 34.333 132.999 58s85.666 49.834 126.999 78.501l124 84
c-19.333 48.667 -44.833 94.167 -76.5 136.5s-69.667 79.166 -114 110.499s-95 55.833 -152 73.5s-120.167 26.5 -189.5 26.5c-52 0 -99.5 -8 -142.5 -24s-79.833 -37 -110.5 -63s-54.5 -55.5 -71.5 -88.5s-25.5 -66.5 -25.5 -100.5c0 -40 7.83301 -79 23.5 -117
s38.667 -71.5 69 -100.5s67.666 -52.333 111.999 -70s95.166 -26.5 152.499 -26.5zM98.0068 102.999c12.667 0 27.001 10.166 43.001 30.499s32.333 45.166 49 74.499s32.667 60.333 48 93l40 86c-9.33301 20.667 -18.166 35.167 -26.499 43.5s-16.833 12.5 -25.5 12.5
c-9.33301 0 -19.5 -4.83301 -30.5 -14.5s-21.833 -22.5 -32.5 -38.5s-20.834 -34.5 -30.501 -55.5s-18.334 -42.667 -26.001 -65s-13.667 -44.666 -18 -66.999s-6.5 -43.166 -6.5 -62.499c0 -10.667 1.33301 -19.5 4 -26.5s6.66699 -10.5 12 -10.5zM279.008 388.998l-1 -2
c0 -1.33301 0.333008 -2 1 -2v4z" />
    <glyph glyph-name="b.001" horiz-adv-x="484" 
d="M167 -1c-16.667 0 -32.332 5.16992 -46.999 15.5029s-22 24.5 -22 42.5c0 20 5.16699 38.5 15.5 55.5s23.166 32.167 38.499 45.5s32.166 24.833 50.499 34.5s35.5 17.5 51.5 23.5c3.33301 7.33301 7 17.833 11 31.5s7.5 28.5 10.5 44.5s5 32.5 6 49.5
s0.333008 32.333 -2 46s-7.16602 24.834 -14.499 33.501s-17.666 13 -30.999 13c-12 0 -24 -3.66699 -36 -11s-23.5 -16.166 -34.5 -26.499s-21.167 -21.333 -30.5 -33l-24 -30.5c-6.66699 -33.333 -11.334 -64.5 -14.001 -93.5s-4 -54.167 -4 -75.5
c0 -25.333 0.833008 -45.833 2.5 -61.5s2.5 -26.167 2.5 -31.5c0 -4.66699 -2.5 -8.33398 -7.5 -11.001s-10.667 -4.83398 -17 -6.50098s-12.666 -2.83398 -18.999 -3.50098s-10.833 -1 -13.5 -1c-18 1.33301 -30.167 14.666 -36.5 39.999s-9.5 56.666 -9.5 93.999
c0 23.333 1 47.833 3 73.5s4.16699 50.5 6.5 74.5s5 46.167 8 66.5l7.5 50.5c2.66699 18.667 7.16699 44 13.5 76s14.166 66.167 23.499 102.5s20.5 73.333 33.5 111s27.5 72.167 43.5 103.5c-37.333 20.667 -70 45.834 -98 75.501s-49.667 62.167 -65 97.5
s-24.166 72.666 -26.499 111.999s3.16699 79.333 16.5 120c13.333 39.333 34.666 74.5 63.999 105.5s64.5 55.333 105.5 73s86.5 27.5 136.5 29.5s102 -6.33301 156 -25c65.333 -22 123.166 -50.667 173.499 -86s93 -75.5 128 -120.5s62.167 -93.667 81.5 -146
s30.666 -106.833 33.999 -163.5c58.667 14.667 116.167 24.5 172.5 29.5s110.5 -1.16699 162.5 -18.5c30.667 -10 59.334 -25.5 86.001 -46.5s48.834 -45.833 66.501 -74.5s29 -60.167 34 -94.5s1.16699 -70.5 -11.5 -108.5c-10 -29.333 -24.667 -55.333 -44 -78
s-41.666 -40.5 -66.999 -53.5s-53 -20.833 -83 -23.5s-60.667 1.33301 -92 12c-32.667 11.333 -59.334 27.333 -80.001 48s-35.667 41.334 -45 62.001l61 -39c21.333 -14 46.666 -26 75.999 -36c25.333 -8.66699 51 -12.834 77 -12.501s50.5 5.16602 73.5 14.499
s43.667 23 62 41s32.166 40.667 41.499 68c10 30 13.833 59.5 11.5 88.5s-10.166 55.833 -23.499 80.5s-32 46.667 -56 66s-52.667 34.666 -86 45.999c-25.333 8.66699 -51.333 14 -78 16s-54.167 1.66699 -82.5 -1s-57.166 -7 -86.499 -13s-59 -13 -89 -21
c0 -65.333 -11.667 -132 -35 -200c-19.333 -57.333 -45.333 -111.166 -78 -161.499s-69.167 -95.833 -109.5 -136.5s-83.333 -75.5 -129 -104.5s-91.5 -50.5 -137.5 -64.5c-10 -25.333 -21.667 -49.666 -35 -72.999s-28 -44 -44 -62s-32.833 -32.833 -50.5 -44.5
s-35.167 -18.167 -52.5 -19.5zM256.002 952.003c12.667 0 23.1689 -3.00293 31.502 -9.00293s14.833 -13.833 19.5 -23.5s8 -20.5 10 -32.5s3 -24.333 3 -37c0 -5.33301 -0.166992 -10.666 -0.5 -15.999s-0.833008 -10.666 -1.5 -15.999
c39.333 -4 78.833 -3.83301 118.5 0.5s79.5 10.833 119.5 19.5s80 18.667 120 30l119 33c-2 52.667 -11.333 104.167 -28 154.5s-41 97.333 -73 141s-72.167 83 -120.5 118s-105.5 63.5 -171.5 85.5c-50 16.667 -97.833 24.334 -143.5 23.001s-87.334 -9.33301 -125.001 -24
s-69.834 -35 -96.501 -61s-45.334 -55 -56.001 -87c-11.333 -34 -16.5 -68.833 -15.5 -104.5s8.33301 -70.5 22 -104.5s33.834 -66 60.501 -96s60 -55.667 100 -77c15.333 25.333 32 45.5 50 60.5s37.333 22.5 58 22.5zM125.004 451l-12.0029 -66.9971l32.5 35
c11 11.333 22.5 21.333 34.5 30s25 15.5 39 20.5s29 7.5 45 7.5c30 0 53.667 -7.16699 71 -21.5s29.5 -33 36.5 -56s9.33301 -49.167 7 -78.5s-8.16602 -59 -17.499 -89c40 15.333 79.833 36.833 119.5 64.5s77.334 60.5 113.001 98.5s68.167 80.333 97.5 127s53 97 71 151
c20 59.333 31 119.666 33 180.999l-116 -32c-39.333 -10.667 -79.166 -19.834 -119.499 -27.501s-81 -12.834 -122 -15.501s-82.167 -1.33398 -123.5 3.99902c-5.33301 -31.333 -13.833 -62.166 -25.5 -92.499s-25.667 -59.5 -42 -87.5s-35 -54.833 -56 -80.5
s-42.833 -49.5 -65.5 -71.5zM132.001 499.003c0.666992 1.33301 1.16797 2 1.50098 2s1.16602 0.666992 2.49902 2c37.333 39.333 69.333 83.5 96 132.5s44.667 99.833 54 152.5c-24 4 -48 10 -72 18c-9.33301 -25.333 -18.166 -52.833 -26.499 -82.5l-23.5 -87.5
c-7.33301 -28.667 -13.833 -55.167 -19.5 -79.5s-9.83398 -43.5 -12.501 -57.5zM129.002 58.0029c0 -4.66699 0.666992 -7.00098 2 -7.00098c4 0 9.33301 2.83301 16 8.5s13.5 12.334 20.5 20.001s13.667 15.5 20 23.5s10.833 14 13.5 18l39 57
c-12.667 -6 -25.5 -13 -38.5 -21s-24.833 -17 -35.5 -27s-19.5 -21 -26.5 -33s-10.5 -25 -10.5 -39zM273.002 905.002c-7.33301 0 -15.001 -6.33301 -23.001 -19s-16.333 -29 -25 -49c22.667 -7.33301 44.334 -12.333 65.001 -15c0.666992 5.33301 1.16699 10.5 1.5 15.5
s0.5 10.167 0.5 15.5c0 13.333 -1.33301 25.333 -4 36s-7.66699 16 -15 16z" />
    <glyph glyph-name="c.001" horiz-adv-x="384" 
d="M232 383c6 10.667 6.1709 20.334 0.503906 29.001s-11.5 13 -17.5 13c-13.333 0 -25.833 -4.83301 -37.5 -14.5s-22.167 -21.667 -31.5 -36s-17.5 -29.5 -24.5 -45.5s-12.5 -30 -16.5 -42c-6 -18.667 -11.167 -39.334 -15.5 -62.001s-6.5 -44.667 -6.5 -66
c0 -13.333 1.16699 -26.333 3.5 -39s6.16602 -23.834 11.499 -33.501s12.333 -17.5 21 -23.5s19.334 -9 32.001 -9c21.333 0 43.166 9.33301 65.499 28s43.833 40.667 64.5 66s39.167 51 55.5 77l38.5 61c2.66699 6 6.66699 9 12 9h2h2c32 0 64.833 7.83301 98.5 23.5
s66.5 37.5 98.5 65.5s62 61.5 90 100.5s52.5 81.667 73.5 128s37.667 95.666 50 147.999s18.5 106.166 18.5 161.499c0 62 -8.66699 123 -26 183l-122 -81c-41.333 -27.333 -84.166 -52.166 -128.499 -74.499s-90.5 -40.5 -138.5 -54.5s-98.667 -21 -152 -21
c-52.667 0 -101.834 8.16699 -147.501 24.5s-85.5 39.333 -119.5 69s-60.833 65 -80.5 106s-29.5 86.167 -29.5 135.5c0 42 9 82.333 27 121s43.5 72.834 76.5 102.501s72.833 53.5 119.5 71.5s98.667 27 156 27c68.667 0 132.5 -8.66699 191.5 -26
s112.333 -41.666 160 -72.999s89 -68.833 124 -112.5s63.167 -91.834 84.5 -144.501c51.333 32.667 102.666 60.334 153.999 83.001s104.666 34 159.999 34c32 0 64.167 -5.5 96.5 -16.5s61.333 -27.333 87 -49s46.5 -48 62.5 -79s24 -66.5 24 -106.5
c0 -31.333 -5.66699 -60.833 -17 -88.5s-27 -51.667 -47 -72s-43.833 -36.5 -71.5 -48.5s-57.834 -18 -90.501 -18c-34.667 0 -65 6.5 -91 19.5s-46.667 27.833 -62 44.5l70 -17.5c24.667 -6.33301 52.334 -9.5 83.001 -9.5c26.667 0 52.334 4.16699 77.001 12.5
s46.5 20.5 65.5 36.5s34.167 35.5 45.5 58.5s17 49.167 17 78.5c0 32 -5.66699 61.167 -17 87.5s-27.166 49.166 -47.499 68.499s-45 34.333 -74 45s-61.167 16 -96.5 16c-26.667 0 -53 -3.33301 -79 -10s-52 -15.5 -78 -26.5s-51.833 -24.167 -77.5 -39.5l-77.5 -48
c20 -63.333 30 -130.666 30 -201.999c0 -55.333 -6.16699 -109.833 -18.5 -163.5s-29.5 -104.5 -51.5 -152.5s-47.833 -92.5 -77.5 -133.5s-61.667 -76.5 -96 -106.5s-70.333 -53.833 -108 -71.5s-75.167 -27.167 -112.5 -28.5l-2 -5c-14 -24 -31 -51.333 -51 -82
s-42.5 -59.834 -67.5 -87.501s-52.5 -50.834 -82.5 -69.501s-62.333 -28 -97 -28c-12.667 0 -23.334 1.33301 -32.001 4c-32 7.33301 -55.333 24.833 -70 52.5s-22 60.5 -22 98.5c0 34.667 5.66699 71 17 109s26.666 72.833 45.999 104.5s42.333 57.834 69 78.501
s55.667 31 87 31c17.333 0 32.333 -4.33301 45 -13s21.5 -18.667 26.5 -30s5.16699 -22.166 0.5 -32.499s-15.334 -16.833 -32.001 -19.5zM253.004 907c48.667 0 95.6709 7.5 141.004 22.5s89.666 34.333 132.999 58s85.666 49.834 126.999 78.501l124 84
c-19.333 48.667 -44.833 94.167 -76.5 136.5s-69.667 79.166 -114 110.499s-95 55.833 -152 73.5s-120.167 26.5 -189.5 26.5c-52 0 -99.5 -8 -142.5 -24s-79.833 -37 -110.5 -63s-54.5 -55.5 -71.5 -88.5s-25.5 -66.5 -25.5 -100.5c0 -40 7.83301 -79 23.5 -117
s38.667 -71.5 69 -100.5s67.666 -52.333 111.999 -70s95.166 -26.5 152.499 -26.5z" />
    <glyph glyph-name="d.001" horiz-adv-x="508" 
d="M229 119c0 22 0.834961 43.3311 2.50195 63.998s3.5 38.667 5.5 54c-11.333 -20.667 -24 -42.5 -38 -65.5s-28.833 -44.167 -44.5 -63.5s-32 -35.333 -49 -48s-33.5 -19 -49.5 -19c-28 0 -48.333 11.333 -61 34s-19 51 -19 85s5.33301 69.833 16 107.5
s26 72.167 46 103.5s43.833 57.166 71.5 77.499s58.5 30.5 92.5 30.5c14 0 27.667 -2.83301 41 -8.5s24.666 -14.167 33.999 -25.5l6 31c6 28 16.333 61.667 31 101c-45.333 -11.333 -91.333 -17 -138 -17c-52.667 0 -101.834 8.16699 -147.501 24.5s-85.5 39.333 -119.5 69
s-60.833 65 -80.5 106s-29.5 86.167 -29.5 135.5c0 42 9 82.333 27 121s43.5 72.834 76.5 102.501s72.833 53.5 119.5 71.5s98.667 27 156 27c68.667 0 132.5 -8.66699 191.5 -26s112.333 -41.666 160 -72.999s89 -68.833 124 -112.5s63.167 -91.834 84.5 -144.501
c51.333 32.667 102.666 60.334 153.999 83.001s104.666 34 159.999 34c32 0 64.167 -5.5 96.5 -16.5s61.333 -27.333 87 -49s46.5 -48 62.5 -79s24 -66.5 24 -106.5c0 -31.333 -5.66699 -60.833 -17 -88.5s-27 -51.667 -47 -72s-43.833 -36.5 -71.5 -48.5
s-57.834 -18 -90.501 -18c-34.667 0 -65 6.5 -91 19.5s-46.667 27.833 -62 44.5l70 -17.5c24.667 -6.33301 52.334 -9.5 83.001 -9.5c26.667 0 52.334 4.16699 77.001 12.5s46.5 20.5 65.5 36.5s34.167 35.5 45.5 58.5s17 49.167 17 78.5c0 32 -5.66699 61.167 -17 87.5
s-27.166 49.166 -47.499 68.499s-45 34.333 -74 45s-61.167 16 -96.5 16c-26.667 0 -53 -3.33301 -79 -10s-52 -15.5 -78 -26.5s-51.833 -24.167 -77.5 -39.5l-77.5 -48c20 -63.333 30 -130.666 30 -201.999c0 -47.333 -5.83301 -96.833 -17.5 -148.5
s-28.167 -102.667 -49.5 -153s-47.166 -98 -77.499 -143s-64.5 -83.833 -102.5 -116.5c-20.667 -18 -42.5 -34.333 -65.5 -49s-46 -26.167 -69 -34.5s-45 -12.5 -66 -12.5s-39.333 5.33301 -55 16s-28.334 27.834 -38.001 51.501s-14.5 55.167 -14.5 94.5zM520.002 835.998
c21.333 0 35.668 -6.33398 43.001 -19.001s11 -27.667 11 -45v-11c0 -4 -0.333008 -8 -1 -12l64 44l64 43c-19.333 48.667 -44.833 94.167 -76.5 136.5s-69.667 79.166 -114 110.499s-95 55.833 -152 73.5s-120.167 26.5 -189.5 26.5c-52 0 -99.5 -8 -142.5 -24
s-79.833 -37 -110.5 -63s-54.5 -55.5 -71.5 -88.5s-25.5 -66.5 -25.5 -100.5c0 -40 7.83301 -79 23.5 -117s38.667 -71.5 69 -100.5s67.666 -52.333 111.999 -70s95.166 -26.5 152.499 -26.5c26.667 0 52.834 2.33301 78.501 7s51.167 11.334 76.5 20.001
c10.667 26.667 23 52.834 37 78.501s29 48.667 45 69s33 36.833 51 49.5s36.667 19 56 19zM359.004 371.997l-3.00098 -10.998c-2.66699 -16 -5.83398 -36.667 -9.50098 -62l-11 -79c-3.66699 -27.333 -6.66699 -54.666 -9 -81.999s-3.5 -51 -3.5 -71
c0 -26.667 9.83301 -42.5 29.5 -47.5s44.334 -0.5 74.001 13.5s62 37.5 97 70.5s68 73.833 99 122.5s57.833 105.167 80.5 169.5s36 135.166 40 212.499c2 32 0.333008 63 -5 93s-12.333 60 -21 90l-78.5 -53c-26.333 -18 -53.5 -35.333 -81.5 -52
c-9.33301 -28.667 -20.666 -57.834 -33.999 -87.501s-28.5 -58.334 -45.5 -86.001s-35.5 -53.5 -55.5 -77.5s-41 -45 -63 -63zM269.003 409.999c-7.33301 12 -14.334 20.499 -21.001 25.499s-13.667 7.5 -21 7.5c-12.667 0 -25 -5.5 -37 -16.5s-23.333 -25.5 -34 -43.5
s-20.5 -38 -29.5 -60s-16.667 -44.167 -23 -66.5s-11.333 -43.333 -15 -63s-5.5 -36.167 -5.5 -49.5c0 -12 1.33301 -21.667 4 -29s7.33398 -11 14.001 -11c10 0 21.333 7.33301 34 22s26 33.334 40 56.001s27.833 47.5 41.5 74.5l38.5 77.5v-1zM369.002 422.998
c0 -2.66699 -0.000976562 -3.66602 -0.000976562 -2.99902s-0.333008 -0.666016 -1 -3.99902c14 14 28.167 30.833 42.5 50.5s28.166 40.5 41.499 62.5s25.833 44.667 37.5 68s21.834 45.666 30.501 66.999l-43.5 -23.5c-14.333 -7.66699 -29.166 -14.834 -44.499 -21.501
c-13.333 -31.333 -25 -63.833 -35 -97.5zM541.001 729.999c0 0.666992 0.168945 1.49902 0.501953 2.49902s0.5 2.16699 0.5 3.5c1.33301 4.66699 2.66602 11 3.99902 19s2 15.333 2 22c0 7.33301 -0.666992 11 -2 11c-4.66699 0 -11 -4.16699 -19 -12.5
s-16.167 -18.166 -24.5 -29.499s-16.333 -23.333 -24 -36l-18.5 -31c13.333 7.33301 26.666 15.166 39.999 23.499l40 25.5c0.666992 0.666992 1 1.33398 1 2.00098z" />
    <glyph glyph-name="e.001" horiz-adv-x="378" 
d="M488 678c0 62 -8.66309 122.999 -25.9961 182.999l-122 -81c-41.333 -27.333 -84.166 -52.166 -128.499 -74.499s-90.5 -40.5 -138.5 -54.5s-98.667 -21 -152 -21c-52.667 0 -101.834 8.16699 -147.501 24.5s-85.5 39.333 -119.5 69s-60.833 65 -80.5 106
s-29.5 86.167 -29.5 135.5c0 42 9 82.333 27 121s43.5 72.834 76.5 102.501s72.833 53.5 119.5 71.5s98.667 27 156 27c68.667 0 132.5 -8.66699 191.5 -26s112.333 -41.666 160 -72.999s89 -68.833 124 -112.5s63.167 -91.834 84.5 -144.501
c51.333 32.667 102.666 60.334 153.999 83.001s104.666 34 159.999 34c32 0 64.167 -5.5 96.5 -16.5s61.333 -27.333 87 -49s46.5 -48 62.5 -79s24 -66.5 24 -106.5c0 -31.333 -5.66699 -60.833 -17 -88.5s-27 -51.667 -47 -72s-43.833 -36.5 -71.5 -48.5
s-57.834 -18 -90.501 -18c-34.667 0 -65 6.5 -91 19.5s-46.667 27.833 -62 44.5l70 -17.5c24.667 -6.33301 52.334 -9.5 83.001 -9.5c26.667 0 52.334 4.16699 77.001 12.5s46.5 20.5 65.5 36.5s34.167 35.5 45.5 58.5s17 49.167 17 78.5c0 32 -5.66699 61.167 -17 87.5
s-27.166 49.166 -47.499 68.499s-45 34.333 -74 45s-61.167 16 -96.5 16c-26.667 0 -53 -3.33301 -79 -10s-52 -15.5 -78 -26.5s-51.833 -24.167 -77.5 -39.5l-77.5 -48c20 -63.333 30 -130.666 30 -201.999c0 -24.667 -2.33301 -53.834 -7 -87.501
s-11.667 -69.5 -21 -107.5s-20.833 -77 -34.5 -117s-29.5 -78.667 -47.5 -116s-38.167 -72.333 -60.5 -105s-46.833 -60.834 -73.5 -84.501s-55.334 -41.667 -86.001 -54s-63.334 -16.5 -98.001 -12.5c-13.333 -0 -24.333 1.33301 -33 4
c-30.667 7.33301 -53.167 26.166 -67.5 56.499s-21.5 65.833 -21.5 106.5c0 36.667 5 73.334 15 110.001s24.167 69.834 42.5 99.501s40.166 53.667 65.499 72s53.333 27.5 84 27.5c29.333 0 50 -5.66699 62 -17s18 -25.333 18 -42c0 -18 -6 -38.333 -18 -61
s-26.833 -45 -44.5 -67s-36.834 -42.167 -57.501 -60.5s-40 -32.5 -58 -42.5c-0.666992 -3.33301 -1 -6.33301 -1 -9v-9c0 -14 1.16699 -27.833 3.5 -41.5s6.16602 -25.834 11.499 -36.501s12.333 -19.334 21 -26.001s19.334 -10 32.001 -10
c35.333 0 68.166 11.833 98.499 35.5s57.833 54.334 82.5 92.001s46.5 80 65.5 127s34.833 93.667 47.5 140s22.334 89.833 29.001 130.5s10 73.667 10 99zM-78.9961 662.999c48.667 0 95.6709 7.5 141.004 22.5s89.666 34.333 132.999 58s85.666 49.834 126.999 78.501
l124 84c-19.333 48.667 -44.833 94.167 -76.5 136.5s-69.667 79.166 -114 110.499s-95 55.833 -152 73.5s-120.167 26.5 -189.5 26.5c-52 0 -99.5 -8 -142.5 -24s-79.833 -37 -110.5 -63s-54.5 -55.5 -71.5 -88.5s-25.5 -66.5 -25.5 -100.5c0 -40 7.83301 -79 23.5 -117
s38.667 -71.5 69 -100.5s67.666 -52.333 111.999 -70s95.166 -26.5 152.499 -26.5zM221.008 433.999c-8.66699 0 -19.333 -4.66602 -32 -13.999s-25.167 -22.833 -37.5 -40.5s-24 -39.334 -35 -65.001s-18.833 -55.167 -23.5 -88.5c22.667 16 42.667 33.167 60 51.5
s32 36.333 44 54s21 34 27 49s9 27.167 9 36.5c0 11.333 -4 17 -12 17z" />
    <glyph glyph-name="f.001" horiz-adv-x="345" 
d="M204 -199c0 -40.667 -3.3291 -75.002 -9.99609 -103.002s-15.834 -50.833 -27.501 -68.5s-25.5 -30.334 -41.5 -38.001s-33 -11.5 -51 -11.5c-24.667 0 -45.5 7 -62.5 21s-30.833 33.167 -41.5 57.5s-18.334 53.5 -23.001 87.5s-7 71 -7 111c0 54 3.5 112 10.5 174
s17 124 30 186s29 121.333 48 178s40.167 107 63.5 151s48.666 79 75.999 105s56.333 39 87 39c12.667 0 23 -2 31 -6s14.333 -9.33301 19 -16s7.83398 -14.334 9.50098 -23.001s2.5 -17.667 2.5 -27c0 -15.333 -2.83301 -33.5 -8.5 -54.5s-13.334 -43 -23.001 -66
s-21.5 -46.333 -35.5 -70s-29.167 -45.667 -45.5 -66s-33.666 -38.5 -51.999 -54.5s-37.166 -28 -56.499 -36c-6.66699 -18 -11.667 -34.167 -15 -48.5s-6.66602 -29.5 -9.99902 -45.5l9 2v-1c30 6.66699 60.5 19.667 91.5 39s60.667 43.666 89 72.999
s54.833 62.833 79.5 100.5s46.167 78.334 64.5 122.001s32.666 89.834 42.999 138.501s15.5 98.334 15.5 149.001c0 62 -8.66699 123 -26 183l-122 -81c-41.333 -27.333 -84.166 -52.166 -128.499 -74.499s-90.5 -40.5 -138.5 -54.5s-98.667 -21 -152 -21
c-52.667 0 -101.834 8.16699 -147.501 24.5s-85.5 39.333 -119.5 69s-60.833 65 -80.5 106s-29.5 86.167 -29.5 135.5c0 42 9 82.333 27 121s43.5 72.834 76.5 102.501s72.833 53.5 119.5 71.5s98.667 27 156 27c68.667 0 132.5 -8.66699 191.5 -26
s112.333 -41.666 160 -72.999s89 -68.833 124 -112.5s63.167 -91.834 84.5 -144.501c51.333 32.667 102.666 60.334 153.999 83.001s104.666 34 159.999 34c32 0 64.167 -5.5 96.5 -16.5s61.333 -27.333 87 -49s46.5 -48 62.5 -79s24 -66.5 24 -106.5
c0 -31.333 -5.66699 -60.833 -17 -88.5s-27 -51.667 -47 -72s-43.833 -36.5 -71.5 -48.5s-57.834 -18 -90.501 -18c-34.667 0 -64.334 7 -89.001 21s-40.667 32.667 -48 56c14 -11.333 32.667 -20.833 56 -28.5s50.333 -11.5 81 -11.5c26.667 0 52.334 4.16699 77.001 12.5
s46.5 20.5 65.5 36.5s34.167 35.5 45.5 58.5s17 49.167 17 78.5c0 32 -5.66699 61.167 -17 87.5s-27.166 49.166 -47.499 68.499s-45 34.333 -74 45s-61.167 16 -96.5 16c-26.667 0 -53 -3.33301 -79 -10s-52 -15.5 -78 -26.5s-51.833 -24.167 -77.5 -39.5l-77.5 -48
c20 -63.333 30 -130.666 30 -201.999c0 -52.667 -5.5 -104.5 -16.5 -155.5s-26.333 -99.667 -46 -146s-42.834 -89.833 -69.501 -130.5s-55.667 -76.667 -87 -108s-64.5 -57.333 -99.5 -78s-70.167 -34.334 -105.5 -41.001c42 -44 73.167 -96.667 93.5 -158
s30.5 -124 30.5 -188zM-103.996 784.998c48.667 0 95.6709 7.5 141.004 22.5s89.666 34.333 132.999 58s85.666 49.834 126.999 78.501l124 84c-19.333 48.667 -44.833 94.167 -76.5 136.5s-69.667 79.166 -114 110.499s-95 55.833 -152 73.5s-120.167 26.5 -189.5 26.5
c-52 0 -99.5 -8 -142.5 -24s-79.833 -37 -110.5 -63s-54.5 -55.5 -71.5 -88.5s-25.5 -66.5 -25.5 -100.5c0 -40 7.83301 -79 23.5 -117s38.667 -71.5 69 -100.5s67.666 -52.333 111.999 -70s95.166 -26.5 152.499 -26.5zM164.008 -295.002
c5.33301 30.667 7.99902 61.002 7.99902 91.002s-2.16699 60.167 -6.5 90.5s-11 59.666 -20 87.999s-21 55 -36 80s-32.833 47.5 -53.5 67.5c-2 -12.667 -4.33301 -29.334 -7 -50.001s-5.16699 -43.5 -7.5 -68.5s-4.16602 -51.667 -5.49902 -80s-2 -56.166 -2 -83.499
c0 -30 1 -58.333 3 -85s5.33301 -50.334 10 -71.001s11.167 -37 19.5 -49s18.5 -18 30.5 -18c10 0 18.833 3 26.5 9s14.334 13.5 20.001 22.5s10.167 18.667 13.5 29s5.66602 19.5 6.99902 27.5zM289.007 619c0 7.33301 -0.832031 14 -2.49902 20
s-4.83398 9.66699 -9.50098 11c-9.33301 0 -19.333 -6.5 -30 -19.5s-21.5 -29.833 -32.5 -50.5s-22 -43.667 -33 -69s-21.333 -50.5 -31 -75.5s-18.167 -48.333 -25.5 -70l-18 -52.5c24 12.667 47 32 69 58s41.333 54.167 58 84.5s30 60.333 40 90s15 54.167 15 73.5z" />
    <glyph glyph-name="g.001" horiz-adv-x="502" 
d="M352 429c-5.33301 -52 -11.001 -102.67 -17.001 -152.003s-12.333 -97.666 -19 -144.999c26.667 29.333 51.5 62.5 74.5 99.5s42.833 76.667 59.5 119s29.834 86.833 39.501 133.5s14.5 94.334 14.5 143.001c0 62 -8.66699 123 -26 183l-122 -81
c-41.333 -27.333 -84.166 -52.166 -128.499 -74.499s-90.5 -40.5 -138.5 -54.5s-98.667 -21 -152 -21c-52.667 0 -101.834 8.16699 -147.501 24.5s-85.5 39.333 -119.5 69s-60.833 65 -80.5 106s-29.5 86.167 -29.5 135.5c0 42 9 82.333 27 121s43.5 72.834 76.5 102.501
s72.833 53.5 119.5 71.5s98.667 27 156 27c68.667 0 132.5 -8.66699 191.5 -26s112.333 -41.666 160 -72.999s89 -68.833 124 -112.5s63.167 -91.834 84.5 -144.501c51.333 32.667 102.666 60.334 153.999 83.001s104.666 34 159.999 34c32 0 64.167 -5.5 96.5 -16.5
s61.333 -27.333 87 -49s46.5 -48 62.5 -79s24 -66.5 24 -106.5c0 -31.333 -5.66699 -60.833 -17 -88.5s-27 -51.667 -47 -72s-43.833 -36.5 -71.5 -48.5s-57.834 -18 -90.501 -18c-34.667 0 -64.334 7 -89.001 21s-40.667 32.667 -48 56c14 -11.333 32.667 -20.833 56 -28.5
s50.333 -11.5 81 -11.5c26.667 0 52.334 4.16699 77.001 12.5s46.5 20.5 65.5 36.5s34.167 35.5 45.5 58.5s17 49.167 17 78.5c0 32 -5.66699 61.167 -17 87.5s-27.166 49.166 -47.499 68.499s-45 34.333 -74 45s-61.167 16 -96.5 16c-26.667 0 -53 -3.33301 -79 -10
s-52 -15.5 -78 -26.5s-51.833 -24.167 -77.5 -39.5l-77.5 -48c20 -63.333 30 -130.666 30 -201.999c0 -54.667 -6 -108.167 -18 -160.5s-28.5 -102.333 -49.5 -150s-45.833 -91.667 -74.5 -132s-59.667 -75.833 -93 -106.5c-12.667 -85.333 -26.667 -164.333 -42 -237
s-33 -135.667 -53 -189s-42.333 -95.166 -67 -125.499s-52.667 -45.5 -84 -45.5c-26.667 0 -48.167 13.333 -64.5 40s-24.5 62 -24.5 106c0 28.667 4.16699 60.334 12.5 95.001s21.833 70.5 40.5 107.5s42.834 74.167 72.501 111.5s65.834 73.666 108.501 108.999
c2.66699 15.333 4.83398 32.833 6.50098 52.5s3.16699 39.167 4.5 58.5c1.33301 11.333 2 20.666 2 27.999s0.666992 17.666 2 30.999c-11.333 -20.667 -23.833 -42 -37.5 -64s-28.167 -42 -43.5 -60s-30.833 -32.833 -46.5 -44.5s-31.167 -17.5 -46.5 -17.5
c-23.333 0 -41.166 12.333 -53.499 37s-18.5 55 -18.5 91c0 33.333 5.16699 68.333 15.5 105s25 70.167 44 100.5s41.833 55.333 68.5 75s56.667 29.5 90 29.5c14.667 0 28.667 -3.5 42 -10.5s25.333 -16.833 36 -29.5c4.66699 4 10.167 7.66699 16.5 11s12.166 5 17.499 5
c8.66699 -0.666992 16.667 -3 24 -7s13.666 -8.33301 18.999 -13c0.666992 -0.666992 1 -2.33398 1 -5.00098zM-63.001 611.997c48.667 0 95.6709 7.5 141.004 22.5s89.666 34.333 132.999 58s85.666 49.834 126.999 78.501l124 84
c-19.333 48.667 -44.833 94.167 -76.5 136.5s-69.667 79.166 -114 110.499s-95 55.833 -152 73.5s-120.167 26.5 -189.5 26.5c-52 0 -99.5 -8 -142.5 -24s-79.833 -37 -110.5 -63s-54.5 -55.5 -71.5 -88.5s-25.5 -66.5 -25.5 -100.5c0 -40 7.83301 -79 23.5 -117
s38.667 -71.5 69 -100.5s67.666 -52.333 111.999 -70s95.166 -26.5 152.499 -26.5zM40.0029 -459.003c13.333 0 26.334 9.16699 39.001 27.5s24.5 42.166 35.5 71.499s21.333 62 31 98s18.167 71.5 25.5 106.5s13.666 67.5 18.999 97.5l13 71
c-33.333 -30.667 -62.333 -63.167 -87 -97.5s-45.167 -68.5 -61.5 -102.5s-28.5 -67 -36.5 -99s-12 -60.667 -12 -86s3.33301 -46.166 10 -62.499s14.667 -24.5 24 -24.5zM259.004 413.997c-6 10 -12.498 17.333 -19.498 22s-13.5 7 -19.5 7c-12.667 0 -25 -5.5 -37 -16.5
s-23.167 -25.333 -33.5 -43s-20 -37.667 -29 -60s-16.667 -44.5 -23 -66.5s-11.333 -43 -15 -63s-5.5 -36.667 -5.5 -50c0 -12 1.33301 -21.833 4 -29.5s7.33398 -11.5 14.001 -11.5c8.66699 0 18.667 6 30 18s23.166 27.5 35.499 46.5s24.666 40.333 36.999 64l35.5 70.5
l-1 -1c3.33301 20 6.66602 38.833 9.99902 56.5s7 32.167 11 43.5z" />
    <glyph glyph-name="h.001" horiz-adv-x="432" 
d="M254 -7c-23.333 0 -39.499 10.6621 -48.499 31.9951s-13.5 48.333 -13.5 81c0 34 3.16699 70 9.5 108s12.5 72.667 18.5 104c3.33301 14.667 5.83301 28 7.5 40s3.16699 21.667 4.5 29c0.666992 4 1 8.33301 1 13v12c0 14 -4.66699 21.333 -14 22
c-12 -4 -24.167 -14.667 -36.5 -32s-23.833 -36.833 -34.5 -58.5s-20.167 -43.167 -28.5 -64.5s-14.166 -37.666 -17.499 -48.999l-3 -29c0 -3.33301 -0.333008 -6.66602 -1 -9.99902s-1 -6.33301 -1 -9v-8c0 -22 0.5 -40.667 1.5 -56s1.83301 -27.666 2.5 -36.999
c0.666992 -2.66699 1 -5.33398 1 -8.00098v-6c0 -3.33301 -1.83301 -6.33301 -5.5 -9s-8.16699 -5 -13.5 -7s-10.833 -3.5 -16.5 -4.5s-10.5 -1.5 -14.5 -1.5c-18 0 -31.833 16.167 -41.5 48.5s-14.5 82.166 -14.5 149.499c0 52 3.33301 108.5 10 169.5s17 121.167 31 180.5
h-16c-52.667 0 -101.834 8.16699 -147.501 24.5s-85.5 39.333 -119.5 69s-60.833 65 -80.5 106s-29.5 86.167 -29.5 135.5c0 42 9 82.333 27 121s43.5 72.834 76.5 102.501s72.833 53.5 119.5 71.5s98.667 27 156 27c68.667 0 132.5 -8.66699 191.5 -26
s112.333 -41.666 160 -72.999s89 -68.833 124 -112.5s63.167 -91.834 84.5 -144.501c51.333 32.667 102.666 60.334 153.999 83.001s104.666 34 159.999 34c32 0 64.167 -5.5 96.5 -16.5s61.333 -27.333 87 -49s46.5 -48 62.5 -79s24 -66.5 24 -106.5
c0 -31.333 -5.66699 -60.833 -17 -88.5s-27 -51.667 -47 -72s-43.833 -36.5 -71.5 -48.5s-57.834 -18 -90.501 -18c-34.667 0 -64.334 7 -89.001 21s-40.667 32.667 -48 56c14 -11.333 32.667 -20.833 56 -28.5s50.333 -11.5 81 -11.5c26.667 0 52.334 4.16699 77.001 12.5
s46.5 20.5 65.5 36.5s34.167 35.5 45.5 58.5s17 49.167 17 78.5c0 32 -5.66699 61.167 -17 87.5s-27.166 49.166 -47.499 68.499s-45 34.333 -74 45s-61.167 16 -96.5 16c-26.667 0 -53 -3.33301 -79 -10s-52 -15.5 -78 -26.5s-51.833 -24.167 -77.5 -39.5l-77.5 -48
c20 -63.333 30 -130.666 30 -201.999c0 -66.667 -9.33301 -133.167 -28 -199.5s-43.5 -128.333 -74.5 -186s-67 -109 -108 -154s-83.5 -79.5 -127.5 -103.5l-1 -1c-2 -1.33301 -4 -2.16602 -6 -2.49902s-3.66699 -1.16602 -5 -2.49902
c-11.333 -3.33301 -19.666 -5 -24.999 -5zM21.001 625.995l25.0029 0.00390625c10.667 41.333 23.5 80.166 38.5 116.499s31.667 68.166 50 95.499s38.833 49 61.5 65s47.667 24 75 24c39.333 0 66.5 -6.83301 81.5 -20.5s22.5 -34.834 22.5 -63.501
c0 -16.667 -2.33301 -33.834 -7 -51.501s-10.667 -35.5 -18 -53.5c33.333 20.667 66.166 42.334 98.499 65.001l97.5 66c-19.333 48.667 -44.833 94.167 -76.5 136.5s-69.667 79.166 -114 110.499s-95 55.833 -152 73.5s-120.167 26.5 -189.5 26.5
c-52 0 -99.5 -8 -142.5 -24s-79.833 -37 -110.5 -63s-54.5 -55.5 -71.5 -88.5s-25.5 -66.5 -25.5 -100.5c0 -40 7.83301 -79 23.5 -117s38.667 -71.5 69 -100.5s67.666 -52.333 111.999 -70s95.166 -26.5 152.499 -26.5zM146.004 454.999
c-6 -7.33301 -11.3311 -13.1709 -15.998 -17.5039s-8 -8.16602 -10 -11.499l-3 -16c-2.66699 -13.333 -5.33398 -28.166 -8.00098 -44.499s-4.66699 -31.166 -6 -44.499c8 18 17.5 36.667 28.5 56s23.167 37 36.5 53s28.166 29.167 44.499 39.5s33.833 15.5 52.5 15.5
c10.667 -0.666992 20 -3.83398 28 -9.50098s14.667 -13 20 -22s9.33301 -18.833 12 -29.5s4 -21 4 -31c0 -1.33301 -0.166992 -2.66602 -0.5 -3.99902s-0.5 -2.66602 -0.5 -3.99902v-5c-2 -21.333 -4.83301 -42 -8.5 -62s-7.5 -39.667 -11.5 -59
c-6 -30 -11.167 -60 -15.5 -90s-6.5 -60 -6.5 -90c0 -16 1.33301 -24 4 -24h3c38 23.333 74.833 55 110.5 95s67.167 85.833 94.5 137.5s49.166 107.5 65.499 167.5s24.5 122 24.5 186c0 62 -8.66699 123 -26 183l-121.5 -80.5c-41 -27 -83.5 -51.833 -127.5 -74.5
c-13.333 -22 -27.666 -43.333 -42.999 -64l-45.5 -59c-15 -18.667 -29.333 -35.667 -43 -51zM230.006 809.994c-13.333 -22 -25.3359 -47 -36.0029 -75s-20.334 -56.667 -29.001 -86c23.333 7.33301 46.333 16.166 69 26.499s45 21.833 67 34.5
c13.333 23.333 23.833 46 31.5 68s11.5 42.667 11.5 62c0 16.667 -2 28.5 -6 35.5s-9.66699 10.5 -17 10.5s-15.166 -2.16699 -23.499 -6.5s-16.666 -10.166 -24.999 -17.499s-16.166 -15.5 -23.499 -24.5s-13.666 -18.167 -18.999 -27.5zM126.003 475.994l66.002 76
c24.667 29.333 48 60.666 70 93.999c-17.333 -7.33301 -34.833 -14.166 -52.5 -20.499s-36.167 -11.833 -55.5 -16.5c-6.66699 -25.333 -12.334 -49.5 -17.001 -72.5s-8.33398 -43.167 -11.001 -60.5z" />
    <glyph glyph-name="i.001" horiz-adv-x="239" 
d="M307 842l-121.997 -81.0039c-41.333 -27.333 -84.166 -52.166 -128.499 -74.499s-90.5 -40.5 -138.5 -54.5s-98.667 -21 -152 -21c-52.667 0 -101.834 8.16699 -147.501 24.5s-85.5 39.333 -119.5 69s-60.833 65 -80.5 106s-29.5 86.167 -29.5 135.5
c0 42 9 82.333 27 121s43.5 72.834 76.5 102.501s72.833 53.5 119.5 71.5s98.667 27 156 27c68.667 0 132.5 -8.66699 191.5 -26s112.333 -41.666 160 -72.999s89 -68.833 124 -112.5s63.167 -91.834 84.5 -144.501c51.333 32.667 102.666 60.334 153.999 83.001
s104.666 34 159.999 34c32 0 64.167 -5.5 96.5 -16.5s61.333 -27.333 87 -49s46.5 -48 62.5 -79s24 -66.5 24 -106.5c0 -31.333 -5.66699 -60.833 -17 -88.5s-27 -51.667 -47 -72s-43.833 -36.5 -71.5 -48.5s-57.834 -18 -90.501 -18c-34.667 0 -65 6.5 -91 19.5
s-46.667 27.833 -62 44.5l70 -17.5c24.667 -6.33301 52.334 -9.5 83.001 -9.5c26.667 0 52.334 4.16699 77.001 12.5s46.5 20.5 65.5 36.5s34.167 35.5 45.5 58.5s17 49.167 17 78.5c0 32 -5.66699 61.167 -17 87.5s-27.166 49.166 -47.499 68.499s-45 34.333 -74 45
s-61.167 16 -96.5 16c-26.667 0 -53 -3.33301 -79 -10s-52 -15.5 -78 -26.5s-51.833 -24.167 -77.5 -39.5l-77.5 -48c15.333 -44 26.166 -94.667 32.499 -152s7.66602 -116.5 3.99902 -177.5s-12.667 -121 -27 -180s-34.5 -111.667 -60.5 -158s-58.333 -83.666 -97 -111.999
s-84 -42.5 -136 -42.5c-14 0 -25.667 3.83301 -35 11.5s-16.833 17.834 -22.5 30.501s-9.5 27 -11.5 43s-3 32.333 -3 49c0 12.667 0.666992 28.167 2 46.5s3.5 37.666 6.5 57.999s7 40.333 12 60s11.167 37.5 18.5 53.5s16.166 29 26.499 39s22.166 15 35.499 15
c10.667 0 19.834 -2.83301 27.501 -8.5s11.5 -14.167 11.5 -25.5v-9c-2 -6 -5.5 -17.833 -10.5 -35.5s-10 -37.667 -15 -60s-9.5 -45.666 -13.5 -69.999s-6 -46.166 -6 -65.499c0 -17.333 1.83301 -32 5.5 -44s10.167 -18 19.5 -18c42 12.667 77.667 34.667 107 66
s53 68.5 71 111.5s31 89.5 39 139.5s12.333 99.833 13 149.5s-1.83301 97.167 -7.5 142.5s-13.5 84.666 -23.5 117.999zM-233.997 643.996c48.667 0 95.6709 7.5 141.004 22.5s89.666 34.333 132.999 58s85.666 49.834 126.999 78.501l124 84
c-19.333 48.667 -44.833 94.167 -76.5 136.5s-69.667 79.166 -114 110.499s-95 55.833 -152 73.5s-120.167 26.5 -189.5 26.5c-52 0 -99.5 -8 -142.5 -24s-79.833 -37 -110.5 -63s-54.5 -55.5 -71.5 -88.5s-25.5 -66.5 -25.5 -100.5c0 -40 7.83301 -79 23.5 -117
s38.667 -71.5 69 -100.5s67.666 -52.333 111.999 -70s95.166 -26.5 152.499 -26.5zM91.0068 456.996c-13.333 4 -22.999 10.498 -28.999 19.498s-9 19.167 -9 30.5c0 15.333 5.5 29.5 16.5 42.5s25.167 19.5 42.5 19.5s30 -5.16699 38 -15.5s12 -22.166 12 -35.499
c0 -15.333 -4.83301 -29.666 -14.5 -42.999s-23.167 -20 -40.5 -20h-8c-2.66699 0 -5.33398 0.666992 -8.00098 2z" />
    <glyph glyph-name="j.001" horiz-adv-x="259" 
d="M86 109c29.333 21.333 58.9951 48.001 88.9951 80.001s54.667 64 74 96l3 5c32 54 57.667 113.5 77 178.5s29 132.833 29 203.5c0 62 -8.66699 123 -26 183l-122 -81c-41.333 -27.333 -84.166 -52.166 -128.499 -74.499s-90.5 -40.5 -138.5 -54.5s-98.667 -21 -152 -21
c-52.667 0 -101.834 8.16699 -147.501 24.5s-85.5 39.333 -119.5 69s-60.833 65 -80.5 106s-29.5 86.167 -29.5 135.5c0 42 9 82.333 27 121s43.5 72.834 76.5 102.501s72.833 53.5 119.5 71.5s98.667 27 156 27c68.667 0 132.5 -8.66699 191.5 -26
s112.333 -41.666 160 -72.999s89 -68.833 124 -112.5s63.167 -91.834 84.5 -144.501c51.333 32.667 102.666 60.334 153.999 83.001s104.666 34 159.999 34c32 0 64.167 -5.5 96.5 -16.5s61.333 -27.333 87 -49s46.5 -48 62.5 -79s24 -66.5 24 -106.5
c0 -31.333 -5.66699 -60.833 -17 -88.5s-27 -51.667 -47 -72s-43.833 -36.5 -71.5 -48.5s-57.834 -18 -90.501 -18c-34.667 0 -65 6.5 -91 19.5s-46.667 27.833 -62 44.5l70 -17.5c24.667 -6.33301 52.334 -9.5 83.001 -9.5c26.667 0 52.334 4.16699 77.001 12.5
s46.5 20.5 65.5 36.5s34.167 35.5 45.5 58.5s17 49.167 17 78.5c0 32 -5.66699 61.167 -17 87.5s-27.166 49.166 -47.499 68.499s-45 34.333 -74 45s-61.167 16 -96.5 16c-26.667 0 -53 -3.33301 -79 -10s-52 -15.5 -78 -26.5s-51.833 -24.167 -77.5 -39.5l-77.5 -48
c20 -63.333 30 -130.666 30 -201.999c0 -36.667 -3.5 -72.834 -10.5 -108.501s-16.167 -70.334 -27.5 -104.001s-24.5 -66.5 -39.5 -98.5s-30.833 -62.667 -47.5 -92c-11.333 -20.667 -25.166 -40.834 -41.499 -60.501s-33.166 -38.5 -50.499 -56.5
s-34.666 -34.333 -51.999 -49s-33 -27.334 -47 -38.001c-2 -24 -5.83301 -57.333 -11.5 -100s-13.834 -88.5 -24.501 -137.5s-24.167 -97.333 -40.5 -145s-36.5 -88.5 -60.5 -122.5c-19.333 -25.333 -39.166 -44.833 -59.499 -58.5s-39.166 -20.5 -56.499 -20.5
c-26.667 0 -48.167 13.333 -64.5 40s-24.5 62 -24.5 106c0 28.667 4.16699 60.334 12.5 95.001s21.833 70.5 40.5 107.5s43 74.167 73 111.5s66.333 73.666 109 108.999l11 136c2.66699 35.333 5.5 68.5 8.5 99.5s7.83301 57.833 14.5 80.5s15.834 40.5 27.501 53.5
s27.167 19.5 46.5 19.5c9.33301 0 17 -1.83301 23 -5.5s9 -10.167 9 -19.5v-4zM-209.005 657.001c48.667 0 95.6709 7.5 141.004 22.5s89.666 34.333 132.999 58s85.666 49.834 126.999 78.501l124 84c-19.333 48.667 -44.833 94.167 -76.5 136.5
s-69.667 79.166 -114 110.499s-95 55.833 -152 73.5s-120.167 26.5 -189.5 26.5c-52 0 -99.5 -8 -142.5 -24s-79.833 -37 -110.5 -63s-54.5 -55.5 -71.5 -88.5s-25.5 -66.5 -25.5 -100.5c0 -40 7.83301 -79 23.5 -117s38.667 -71.5 69 -100.5s67.666 -52.333 111.999 -70
s95.166 -26.5 152.499 -26.5zM-194.001 -458.999c13.333 0 26.333 9.16699 39 27.5s24.5 42.166 35.5 71.499s21.333 62 31 98s18.334 71.5 26.001 106.5s14.167 67.5 19.5 97.5l13 71c-34 -30.667 -63.333 -63.167 -88 -97.5s-45 -68.5 -61 -102.5s-28 -67 -36 -99
s-12 -60.667 -12 -86s3.16699 -46.166 9.5 -62.499s14.166 -24.5 23.499 -24.5zM67.999 452.001c-14.667 4.66699 -24.999 11.667 -30.999 21s-9 19.333 -9 30c0 15.333 5.16699 29.333 15.5 42s24.166 19 41.499 19s30.166 -5.16699 38.499 -15.5
s12.5 -22.166 12.5 -35.499c0 -14.667 -4.83301 -28.834 -14.5 -42.501s-23.167 -20.5 -40.5 -20.5c-3.33301 0 -7.66602 0.666992 -12.999 2z" />
    <glyph glyph-name="k.001" horiz-adv-x="431" 
d="M252 14c-16.667 0 -29.6641 7.16504 -38.9971 21.498s-16.5 32.333 -21.5 54s-8.66699 45.334 -11 71.001s-5.33301 50 -9 73s-8.83398 43.167 -15.501 60.5s-16.334 28 -29.001 32l-10 -17l-11 -19.5c-3.33301 -5.66699 -6.16602 -11.667 -8.49902 -18
s-4.16602 -13.833 -5.49902 -22.5s-2 -19 -2 -31c0 -18 0.333008 -37.5 1 -58.5s1 -40.167 1 -57.5c0 -11.333 -0.333008 -21 -1 -29s-2 -12.667 -4 -14c-5.33301 -2.66699 -12.5 -5.66699 -21.5 -9s-16.833 -5 -23.5 -5c-13.333 0 -25 5.33301 -35 16s-15 28.667 -15 54
c0 34.667 0.833008 72 2.5 112s4.66699 81.333 9 124s10 85.5 17 128.5s15.833 85.167 26.5 126.5c-32 -6 -65.333 -9 -100 -9c-52.667 0 -101.834 8.16699 -147.501 24.5s-85.5 39.333 -119.5 69s-60.833 65 -80.5 106s-29.5 86.167 -29.5 135.5c0 42 9 82.333 27 121
s43.5 72.834 76.5 102.501s72.833 53.5 119.5 71.5s98.667 27 156 27c68.667 0 132.5 -8.66699 191.5 -26s112.333 -41.666 160 -72.999s89 -68.833 124 -112.5s63.167 -91.834 84.5 -144.501c51.333 32.667 102.666 60.334 153.999 83.001s104.666 34 159.999 34
c32 0 64.167 -5.5 96.5 -16.5s61.333 -27.333 87 -49s46.5 -48 62.5 -79s24 -66.5 24 -106.5c0 -31.333 -5.66699 -60.833 -17 -88.5s-27 -51.667 -47 -72s-43.833 -36.5 -71.5 -48.5s-57.834 -18 -90.501 -18c-34.667 0 -65 6.5 -91 19.5s-46.667 27.833 -62 44.5l70 -17.5
c24.667 -6.33301 52.334 -9.5 83.001 -9.5c26.667 0 52.334 4.16699 77.001 12.5s46.5 20.5 65.5 36.5s34.167 35.5 45.5 58.5s17 49.167 17 78.5c0 32 -5.66699 61.167 -17 87.5s-27.166 49.166 -47.499 68.499s-45 34.333 -74 45s-61.167 16 -96.5 16
c-26.667 0 -53 -3.33301 -79 -10s-52 -15.5 -78 -26.5s-51.833 -24.167 -77.5 -39.5l-77.5 -48c20 -63.333 30 -130.666 30 -201.999c0 -67.333 -10.667 -131.833 -32 -193.5s-46.666 -120.5 -75.999 -176.5c-5.33301 -9.33301 -12.166 -22.333 -20.499 -39l-28.5 -55
c-10.667 -20 -22.334 -40.167 -35.001 -60.5s-25.334 -38.833 -38.001 -55.5s-25.334 -30.334 -38.001 -41.001s-24.334 -16 -35.001 -16zM-52.9971 629.998c36.667 0 73.6689 4.66895 111.002 14.002c11.333 39.333 25 76.5 41 111.5s34.333 66.5 55 94.5
c18 24.667 38.833 44.167 62.5 58.5s48.5 21.5 74.5 21.5c23.333 0 41.5 -8.83301 54.5 -26.5s19.5 -37.834 19.5 -60.501c0 -15.333 -2 -31 -6 -47l56.5 39l56.5 38c-19.333 48.667 -44.833 94.167 -76.5 136.5s-69.667 79.166 -114 110.499s-95 55.833 -152 73.5
s-120.167 26.5 -189.5 26.5c-52 0 -99.5 -8 -142.5 -24s-79.833 -37 -110.5 -63s-54.5 -55.5 -71.5 -88.5s-25.5 -66.5 -25.5 -100.5c0 -40 7.83301 -79 23.5 -117s38.667 -71.5 69 -100.5s67.666 -52.333 111.999 -70s95.166 -26.5 152.499 -26.5zM411.005 266
c32 63.333 57.167 125.836 75.5 187.503s27.5 125.5 27.5 191.5c0 62 -8.66699 123 -26 183l-75.5 -50.5c-25 -17 -50.5 -33.5 -76.5 -49.5c-12 -26.667 -26.167 -53.334 -42.5 -80.001s-33.333 -52.167 -51 -76.5l-51 -67.5l-42.5 -52l-44 -53
c-3.33301 -8.66699 -5 -17.334 -5 -26.001s-0.666992 -17.667 -2 -27l-2 -18l45.5 70.5c16.333 24.333 33.666 46.333 51.999 66s37.5 35.834 57.5 48.501s41 19 63 19c19.333 0 34.333 -7.83301 45 -23.5s16 -32.5 16 -50.5c0 -14.667 -4.16699 -29.834 -12.5 -45.501
s-19.5 -30.334 -33.5 -44.001s-30.167 -25.5 -48.5 -35.5s-37.5 -16.667 -57.5 -20c10 -10 18.167 -22.333 24.5 -37s11.333 -30.167 15 -46.5s6.5 -32.833 8.5 -49.5l5.5 -44.5c1.66699 -13 3.33398 -23.667 5.00098 -32s4.5 -12.5 8.5 -12.5c8 0 17.333 6.5 28 19.5
s21.667 28.667 33 47s22.333 37.5 33 57.5zM336.005 834.003c0 10 -2 21.332 -6 33.999s-12 20.667 -24 24c-15.333 -2.66699 -29.5 -10.167 -42.5 -22.5s-25.167 -28 -36.5 -47s-21.833 -40.333 -31.5 -64s-18.5 -48.5 -26.5 -74.5c26 12 51.5 25.333 76.5 40
s50.167 30.334 75.5 47.001c5.33301 14.667 8.83301 27.167 10.5 37.5s3.16699 18.833 4.5 25.5zM117.005 460.002c44.667 51.333 80.6641 96.834 107.997 136.501s49 74.5 65 104.5c-22 -12.667 -44.167 -24.334 -66.5 -35.001s-45.166 -20.667 -68.499 -30
c-9.33301 -34 -17.166 -66.5 -23.499 -97.5s-11.166 -57.167 -14.499 -78.5zM273.002 489.003c-8 0 -17.335 -4.33301 -28.002 -13s-22 -19.667 -34 -33s-24.167 -28.666 -36.5 -45.999s-23.833 -34.333 -34.5 -51c22.667 1.33301 43.334 5.66602 62.001 12.999
s34.334 16.333 47.001 27s22.5 22.5 29.5 35.5s10.5 26.167 10.5 39.5c0 8 -1.33301 14.667 -4 20s-6.66699 8 -12 8z" />
    <glyph glyph-name="l.001" horiz-adv-x="320" 
d="M314 847c0 -30 -3.33398 -59.6729 -10.001 -89.0059s-16 -58.333 -28 -87c22 -57.333 38.167 -114.666 48.5 -171.999s15.5 -112.333 15.5 -165s-5 -101.834 -15 -147.501s-24.5 -85.5 -43.5 -119.5s-42.167 -60.667 -69.5 -80s-58 -29 -92 -29
c-25.333 0 -46 8.16699 -62 24.5s-28.5 37.5 -37.5 63.5s-15.333 55.333 -19 88s-5.5 65.667 -5.5 99c0 22 0.666992 43.667 2 65s2.83301 41.166 4.5 59.499s3.33398 35 5.00098 50s3.16699 27.5 4.5 37.5c2.66699 19.333 7.16699 44.333 13.5 75s14 63.834 23 99.501
s19.667 71.834 32 108.501s26.166 70.334 41.499 101.001c-15.333 16 -31.333 31.667 -48 47s-34.334 29.666 -53.001 42.999c-50 36.667 -104.333 65.667 -163 87c-2 -48 -4.16699 -96.833 -6.5 -146.5s-7.66602 -99 -15.999 -148s-21 -97 -38 -144
s-41.167 -91.833 -72.5 -134.5s-67 -77.667 -107 -105s-82 -46 -126 -56s-88.167 -10.833 -132.5 -2.5s-86.5 27.166 -126.5 56.499c-34 24.667 -61.333 55.667 -82 93s-33.334 78.166 -38.001 122.499s-0.5 90.5 12.5 138.5s36.5 95 70.5 141
c40.667 56 85.5 102.833 134.5 140.5s100 66.334 153 86.001s107.5 30.834 163.5 33.501s111.333 -3 166 -17c2 30 4.83301 59.667 8.5 89s9 57.5 16 84.5s15.833 53.167 26.5 78.5s24.334 49 41.001 71c18.667 26 42 48.667 70 68s58.167 33 90.5 41
s65.833 9.33301 100.5 4s68 -19.666 100 -42.999c25.333 -18.667 45.833 -40.667 61.5 -66s26 -52.166 31 -80.499s4.16699 -57.166 -2.5 -86.499s-19.667 -57 -39 -83c-20.667 -28.667 -44.167 -48.667 -70.5 -60s-50.833 -13.333 -73.5 -6
c17.333 4.66699 36 14.167 56 28.5s39.333 33.833 58 58.5c15.333 21.333 26.833 44.5 34.5 69.5s10.667 49.833 9 74.5s-8.5 48.334 -20.5 71.001s-29.667 42.667 -53 60c-25.333 18.667 -52 31.334 -80 38.001s-55.833 7.33398 -83.5 2.00098s-54.5 -16.5 -80.5 -33.5
s-49.333 -39.5 -70 -67.5c-31.333 -43.333 -52.5 -93 -63.5 -149s-17.833 -115 -20.5 -177c32 -10 63 -23 93 -39s59.333 -34.333 88 -55c38 -28.667 72 -59 102 -91c15.333 25.333 32 45.666 50 60.999s37.667 23 59 23c12.667 0 23.167 -3 31.5 -9
s14.833 -13.833 19.5 -23.5s7.83398 -20.5 9.50098 -32.5s2.5 -24.333 2.5 -37zM-301.001 451.994c28.667 39.333 50.167 81.6699 64.5 127.003s24.833 92.5 31.5 141.5s10.667 98.667 12 149s3 100.166 5 149.499c-50.667 14 -102.5 20.667 -155.5 20
s-105.167 -9.83398 -156.5 -27.501s-101 -44.334 -149 -80.001s-92.333 -81.5 -133 -137.5c-30.667 -42 -52.167 -85.167 -64.5 -129.5s-17 -86.5 -14 -126.5s12.833 -76.5 29.5 -109.5s38.667 -59.5 66 -79.5c32.667 -24 68.834 -40.667 108.501 -50
s80.167 -10.5 121.5 -3.5s82.166 23.333 122.499 49s77.5 61.5 111.5 107.5zM256.999 628.998c-17.333 -34 -37.834 -66.333 -61.501 -97s-49.5 -59 -77.5 -85c-1.33301 -8.66699 -3 -21.334 -5 -38.001s-4 -36 -6 -58s-3.66699 -45.5 -5 -70.5s-2 -49.833 -2 -74.5
c0 -25.333 0.833008 -49.5 2.5 -72.5s4.83398 -43.5 9.50098 -61.5s10.667 -32.333 18 -43s17 -16 29 -16c32 0 58.167 12.5 78.5 37.5s36 57 47 96s17.833 82.333 20.5 130s2.16699 94.334 -1.5 140.001s-9.66699 87.5 -18 125.5s-17.833 67 -28.5 87zM125.998 492.998
l7.99902 9.00098c43.333 47.333 79 100.666 107 159.999c-15.333 28 -32.666 56 -51.999 84c-7.33301 -24 -14.5 -48.667 -21.5 -74s-13.167 -49.333 -18.5 -72s-10 -43.5 -14 -62.5s-7 -33.833 -9 -44.5zM266.997 901.999c-9.33301 0 -19.501 -10.499 -30.501 -31.499
s-22.167 -47.5 -33.5 -79.5c10.667 -14 20.5 -28.167 29.5 -42.5l26.5 -43.5c8.66699 23.333 15.334 47.166 20.001 71.499s7 48.833 7 73.5c0 13.333 -1.33301 25.333 -4 36s-7.66699 16 -15 16z" />
    <glyph glyph-name="m.001" horiz-adv-x="630" 
d="M421 -42c-25.333 3.33301 -42.668 16.1621 -52.001 38.4951s-14 49.166 -14 80.499c0 20 1.33301 40.5 4 61.5s6 41.167 10 60.5s8 37.166 12 53.499s7.33301 29.5 10 39.5c16 56.667 24 97.334 24 122.001c0 13.333 -1.66699 20 -5 20
c-7.33301 0 -18.166 -9.5 -32.499 -28.5s-32.5 -48.833 -54.5 -89.5l-29.5 -51c-10.333 -17.333 -20.666 -33 -30.999 -47s-20.333 -25.333 -30 -34s-17.834 -13 -24.501 -13c-11.333 0 -19.333 5.83301 -24 17.5s-7 26.167 -7 43.5c0 20.667 1.66699 43.667 5 69
s7 49 11 71c2.66699 13.333 4.66699 22.833 6 28.5s2 11.834 2 18.501l-44.5 -86.5l-31.5 -63.5l-22 -45.5l-15 -31.5c-3.33301 -9.33301 -5.5 -20.5 -6.5 -33.5s-2.16699 -26.167 -3.5 -39.5c-1.33301 -11.333 -2.33301 -22 -3 -32s-2 -18 -4 -24
c-7.33301 -6 -16.666 -10.167 -27.999 -12.5s-21.666 -3.5 -30.999 -3.5c-7.33301 0 -13.333 3 -18 9s-8.16699 13.333 -10.5 22s-4 18 -5 28s-1.5 18.667 -1.5 26c0 22.667 1.83301 46.167 5.5 70.5s8.16699 48.833 13.5 73.5c5.33301 24 9.83301 47.333 13.5 70
s5.5 43.667 5.5 63c0 12.667 -1.16699 24.167 -3.5 34.5s-6.16602 19.166 -11.499 26.499c-2 2.66699 -1.33301 5 2 7c11.333 6 23.833 11.167 37.5 15.5s26.167 6.5 37.5 6.5c12.667 0 23.167 -3 31.5 -9s12.5 -17.667 12.5 -35c0 -9.33301 -0.666992 -20.666 -2 -33.999
s-2.83301 -27.166 -4.5 -41.499s-3.66699 -28.5 -6 -42.5s-4.5 -26.333 -6.5 -37l109 206c10 15.333 25 23 45 23c11.333 0 21.333 -4.16699 30 -12.5s13 -22.833 13 -43.5c0 -9.33301 -0.666992 -20 -2 -32s-2.83301 -24.5 -4.5 -37.5s-3.5 -26 -5.5 -39
s-3.66699 -24.833 -5 -35.5c-2 -11.333 -3.33301 -17.666 -4 -18.999s-0.666992 -3.33301 0 -6l18 30.5l17 28.5l39.5 67c13.667 22.667 29.167 45.667 46.5 69c6 8 14.5 15.5 25.5 22.5s22.167 10.5 33.5 10.5c8.66699 0 16.834 -2.83301 24.501 -8.5
s14.167 -13.167 19.5 -22.5s9.5 -20.166 12.5 -32.499s4.5 -25.5 4.5 -39.5c0 -17.333 -2 -37.333 -6 -60s-10 -50 -18 -82l-2 -7v1c-2 -10 -5.33301 -24.667 -10 -44s-9.33398 -40.166 -14.001 -62.499s-8.66699 -44.833 -12 -67.5s-5 -42.334 -5 -59.001
c0 -11.333 1 -20.833 3 -28.5s5.33301 -11.5 10 -11.5c17.333 0 35.166 9.66699 53.499 29s36.166 45 53.499 77s33.666 68.833 48.999 110.5s28.833 84.5 40.5 128.5s21 87.667 28 131s10.833 83 11.5 119c0.666992 32 -1.33301 63 -6 93s-11.334 60 -20.001 90l-122 -81
c-41.333 -27.333 -84.166 -52.166 -128.499 -74.499s-90.5 -40.5 -138.5 -54.5s-98.667 -21 -152 -21c-52.667 0 -101.834 8.16699 -147.501 24.5s-85.5 39.333 -119.5 69s-60.833 65 -80.5 106s-29.5 86.167 -29.5 135.5c0 42 9 82.333 27 121s43.5 72.834 76.5 102.501
s72.833 53.5 119.5 71.5s98.667 27 156 27c68.667 0 132.5 -8.66699 191.5 -26s112.333 -41.666 160 -72.999s89 -68.833 124 -112.5s63.167 -91.834 84.5 -144.501c51.333 32.667 102.666 60.334 153.999 83.001s104.666 34 159.999 34c32 0 64.167 -5.5 96.5 -16.5
s61.333 -27.333 87 -49s46.5 -48 62.5 -79s24 -66.5 24 -106.5c0 -31.333 -5.66699 -60.833 -17 -88.5s-27 -51.667 -47 -72s-43.833 -36.5 -71.5 -48.5s-57.834 -18 -90.501 -18c-34.667 0 -65 6.5 -91 19.5s-46.667 27.833 -62 44.5l70 -17.5
c24.667 -6.33301 52.334 -9.5 83.001 -9.5c26.667 0 52.334 4.16699 77.001 12.5s46.5 20.5 65.5 36.5s34.167 35.5 45.5 58.5s17 49.167 17 78.5c0 32 -5.66699 61.167 -17 87.5s-27.166 49.166 -47.499 68.499s-45 34.333 -74 45s-61.167 16 -96.5 16
c-26.667 0 -53 -3.33301 -79 -10s-52 -15.5 -78 -26.5s-51.833 -24.167 -77.5 -39.5l-77.5 -48c20 -63.333 30 -130.666 30 -201.999c0 -23.333 -3.16699 -55.5 -9.5 -96.5s-15.666 -85.667 -27.999 -134s-27.333 -97.5 -45 -147.5s-38 -95.333 -61 -136
s-48.5 -73.834 -76.5 -99.501s-58 -38.5 -90 -38.5c-6 0 -10 0.333008 -12 1h1zM133.998 587.996c48.667 0 95.6709 7.5 141.004 22.5s89.666 34.333 132.999 58s85.666 49.834 126.999 78.501l124 84c-19.333 48.667 -44.833 94.167 -76.5 136.5
s-69.667 79.166 -114 110.499s-95 55.833 -152 73.5s-120.167 26.5 -189.5 26.5c-52 0 -99.5 -8 -142.5 -24s-79.833 -37 -110.5 -63s-54.5 -55.5 -71.5 -88.5s-25.5 -66.5 -25.5 -100.5c0 -40 7.83301 -79 23.5 -117s38.667 -71.5 69 -100.5s67.666 -52.333 111.999 -70
s95.166 -26.5 152.499 -26.5z" />
    <glyph glyph-name="n.001" horiz-adv-x="478" 
d="M195 63c0 24.667 2.99707 53.4961 8.99707 86.4961s12.333 64.5 19 94.5c6.66699 29.333 12.334 58.333 17.001 87s7 53.334 7 74.001c0 15.333 -1.5 28.333 -4.5 39s-7.83301 16 -14.5 16c-9.33301 0 -19.5 -8.83301 -30.5 -26.5s-22.5 -43.167 -34.5 -76.5v1
c-1.33301 -3.33301 -2.66602 -7 -3.99902 -11s-2.66602 -7.66699 -3.99902 -11c-4 -12.667 -9 -27.334 -15 -44.001l-19 -50.5l-20.5 -50c-7 -16.333 -13.833 -30.5 -20.5 -42.5l1 1c-1.33301 -8 -2.83301 -16.5 -4.5 -25.5s-3.33398 -17.5 -5.00098 -25.5
s-3.33398 -15.167 -5.00098 -21.5l-3.5 -13.5l2 2c-1.33301 -3.33301 -5 -6.33301 -11 -9s-12.833 -4.66699 -20.5 -6s-15 -2.33301 -22 -3s-11.5 -1 -13.5 -1c-7.33301 0.666992 -12.666 5.66699 -15.999 15s-5 21.666 -5 36.999c0 19.333 1.66699 41.833 5 67.5l10 80.5
l11.5 88c3.66699 28.667 5.5 53.667 5.5 75c0 16 -1.16699 29.167 -3.5 39.5s-6.5 16.833 -12.5 19.5c-1.33301 1.33301 -2 2.83301 -2 4.5s0.666992 3.16699 2 4.5c11.333 5.33301 23.833 10.166 37.5 14.499s26.167 6.5 37.5 6.5c6.66699 0 12.667 -0.5 18 -1.5
s9.83301 -3.5 13.5 -7.5s6.5 -10.167 8.5 -18.5s3 -19.833 3 -34.5c0 -21.333 -1.66699 -46.166 -5 -74.499s-6.66602 -54.5 -9.99902 -78.5c-0.666992 -6.66699 -1.16699 -11.167 -1.5 -13.5s-0.666016 -3.66602 -0.999023 -3.99902s-0.5 -0.666016 -0.5 -0.999023v-5.5
l43.5 113.5c11 27.667 20.833 49.334 29.5 65.001s16.667 27.167 24 34.5s16 14.666 26 21.999c17.333 12 35.333 18 54 18c28 0 48.833 -9.16699 62.5 -27.5s20.5 -44.833 20.5 -79.5c0 -32 -4 -66.833 -12 -104.5s-16.667 -74.834 -26 -111.501
c-7.33301 -30 -13.833 -57.667 -19.5 -83s-8.5 -46.666 -8.5 -63.999c0 -10 1.33301 -18.167 4 -24.5s7 -9.5 13 -9.5c14.667 0 30 7.5 46 22.5s32 35.167 48 60.5s31.5 54.666 46.5 87.999s29.167 68.333 42.5 105c16.667 47.333 31.167 94 43.5 140
s21.333 91.833 27 137.5s7.16699 91.334 4.5 137.001s-10.334 91.834 -23.001 138.501l-122 -81c-41.333 -27.333 -84.166 -52.166 -128.499 -74.499s-90.5 -40.5 -138.5 -54.5s-98.667 -21 -152 -21c-52.667 0 -101.834 8.16699 -147.501 24.5s-85.5 39.333 -119.5 69
s-60.833 65 -80.5 106s-29.5 86.167 -29.5 135.5c0 42 9 82.333 27 121s43.5 72.834 76.5 102.501s72.833 53.5 119.5 71.5s98.667 27 156 27c68.667 0 132.5 -8.66699 191.5 -26s112.333 -41.666 160 -72.999s89 -68.833 124 -112.5s63.167 -91.834 84.5 -144.501
c51.333 32.667 102.666 60.334 153.999 83.001s104.666 34 159.999 34c32 0 64.167 -5.5 96.5 -16.5s61.333 -27.333 87 -49s46.5 -48 62.5 -79s24 -66.5 24 -106.5c0 -31.333 -5.66699 -60.833 -17 -88.5s-27 -51.667 -47 -72s-43.833 -36.5 -71.5 -48.5
s-57.834 -18 -90.501 -18c-34.667 0 -65 6.5 -91 19.5s-46.667 27.833 -62 44.5l70 -17.5c24.667 -6.33301 52.334 -9.5 83.001 -9.5c26.667 0 52.334 4.16699 77.001 12.5s46.5 20.5 65.5 36.5s34.167 35.5 45.5 58.5s17 49.167 17 78.5c0 32 -5.66699 61.167 -17 87.5
s-27.166 49.166 -47.499 68.499s-45 34.333 -74 45s-61.167 16 -96.5 16c-26.667 0 -53 -3.33301 -79 -10s-52 -15.5 -78 -26.5s-51.833 -24.167 -77.5 -39.5l-77.5 -48c20 -63.333 30 -130.666 30 -201.999c0 -24.667 -3 -59.334 -9 -104.001s-15.167 -93 -27.5 -145
s-27.833 -105 -46.5 -159s-40.334 -102.833 -65.001 -146.5s-52.667 -79.5 -84 -107.5s-66 -41.667 -104 -41c-15.333 0 -27.833 3.5 -37.5 10.5s-17.167 15.667 -22.5 26s-9.16602 21.5 -11.499 33.5s-3.5 23.667 -3.5 35zM-2.00293 639.996
c48.667 0 95.6709 7.5 141.004 22.5s89.666 34.333 132.999 58s85.666 49.834 126.999 78.501l124 84c-19.333 48.667 -44.833 94.167 -76.5 136.5s-69.667 79.166 -114 110.499s-95 55.833 -152 73.5s-120.167 26.5 -189.5 26.5c-52 0 -99.5 -8 -142.5 -24
s-79.833 -37 -110.5 -63s-54.5 -55.5 -71.5 -88.5s-25.5 -66.5 -25.5 -100.5c0 -40 7.83301 -79 23.5 -117s38.667 -71.5 69 -100.5s67.666 -52.333 111.999 -70s95.166 -26.5 152.499 -26.5z" />
    </font>
</defs>
</svg>
