<?xml version="1.0" standalone="no"?>
<!DOCTYPE svg PUBLIC "-//W3C//DTD SVG 1.1//EN" "http://www.w3.org/Graphics/SVG/1.1/DTD/svg11.dtd" >
<svg>
<metadata>
Created by FontForge 20090914 at Sat Apr 13 19:41:06 2019
 By www-data
Copyright (c) 2019 by Creative LAB. All rights reserved.
</metadata>
<defs>
<font id="feeling" horiz-adv-x="256" >
  <font-face 
    font-family="feeling"
    font-weight="400"
    font-stretch="normal"
    units-per-em="1000"
    panose-1="2 0 5 3 0 0 0 2 0 4"
    ascent="750"
    descent="-250"
    x-height="195.001"
    cap-height="602.006"
    bbox="-577.004 -373 978.005 657.001"
    underline-thickness="50"
    underline-position="-50"
    unicode-range="U+000D-U+E19F"
  />
<missing-glyph horiz-adv-x="162" 
 />
    <glyph glyph-name=".notdef" horiz-adv-x="162" 
 />
    <glyph glyph-name="NULL" horiz-adv-x="0" 
 />
    <glyph glyph-name="NULL" horiz-adv-x="0" 
 />
    <glyph glyph-name="nonmarkingreturn" unicode="&#xd;" horiz-adv-x="162" 
 />
    <glyph glyph-name="space" unicode=" " horiz-adv-x="162" 
 />
    <glyph glyph-name="exclam" unicode="!" horiz-adv-x="203" 
d="M72 48c8 0 14 -2.66699 18 -8s6 -11 6 -17c0 -6.66699 -2 -12.5 -6 -17.5s-10 -7.5 -18 -7.5c-8.66699 0 -15 2.5 -19 7.5s-6 10.833 -6 17.5c0 6 2 11.667 6 17s10.333 8 19 8zM150 407c-6 -30.667 -11.4971 -63.332 -16.4971 -97.999l-14 -100.5
c-4.33301 -32.333 -8.5 -61.833 -12.5 -88.5s-7.66699 -47.667 -11 -63c-2.66699 -2.66699 -6.33398 -4 -11.001 -4s-9 1.66699 -13 5s-6 8.33301 -6 15c0 1.33301 0.166992 2.33301 0.5 3s0.5 1.66699 0.5 3l9.5 69.5c3.66699 26.333 7.33398 54.166 11.001 83.499l11 89
l10.5 87c1.33301 5.33301 4.16602 9.5 8.49902 12.5s9.16602 4.5 14.499 4.5s9.66602 -1.16699 12.999 -3.5s5 -5.83301 5 -10.5v-4z" />
    <glyph glyph-name="quotedbl" unicode="&#x22;" horiz-adv-x="257" 
d="M90 605c7.33301 0 13.335 -2.66699 18.002 -8s7 -12 7 -20c0 -6.66699 -2 -14.167 -6 -22.5s-9 -16 -15 -23s-12.333 -13 -19 -18s-13 -7.5 -19 -7.5c-3.33301 0 -5 1.33301 -5 4l4 5.5l9 12.5c3.33301 4.66699 6.66602 9.66699 9.99902 15s5.66602 10 6.99902 14
c-5.33301 2 -9.33301 5.16699 -12 9.5s-4 8.83301 -4 13.5c0 6 2.16699 11.667 6.5 17s10.5 8 18.5 8zM181.002 605c9.33301 0 15.833 -2.99902 19.5 -8.99902s5.5 -13.667 5.5 -23c-0.666992 -7.33301 -3.16699 -14.833 -7.5 -22.5s-9.5 -14.834 -15.5 -21.501
s-12.333 -12.167 -19 -16.5s-12.667 -6.5 -18 -6.5c-2.66699 0 -4 1.33301 -4 4c0 0.666992 1.33301 2.66699 4 6s5.66699 7.33301 9 12s6.5 9.66699 9.5 15s5.16699 10 6.5 14c-10.667 4 -16 11.333 -16 22c0 6.66699 2.33301 12.667 7 18s11 8 19 8z" />
    <glyph glyph-name="numbersign" unicode="#" horiz-adv-x="435" 
d="M141 13c-2.66699 -8.66699 -7.66699 -13 -15 -13c-4.66699 0 -8.33398 1.66699 -11.001 5s-4 7 -4 11v2l27 132h-60c-4 0 -7.33301 1.5 -10 4.5s-4 6.5 -4 10.5s1.33301 7.5 4 10.5s6 4.5 10 4.5l66 -1l14 74h-64c-4 0 -7.5 1.5 -10.5 4.5s-4.5 6.5 -4.5 10.5
c0 4.66699 1.5 8.33398 4.5 11.001s6.5 4 10.5 4h70l27 136c2 8 7.33301 12 16 12c4 0 7.16699 -1.66699 9.5 -5s3.5 -6.66602 3.5 -9.99902v-3l-26 -131h75l28 137c1.33301 8 6.33301 12 15 12c4 0 7.33301 -1.83301 10 -5.5s4 -7.16699 4 -10.5v-2l-26 -131l51 -1
c4 0 7.5 -1.33301 10.5 -4s4.5 -6.33398 4.5 -11.001c0 -4 -1.5 -7.33301 -4.5 -10s-6.5 -4 -10.5 -4h-57l-15 -73l66 -1c4.66699 0 8.33398 -1.5 11.001 -4.5s4 -6.5 4 -10.5s-1.5 -7.5 -4.5 -10.5s-6.5 -4.5 -10.5 -4.5l-72 1l-27 -136
c-2.66699 -8.66699 -7.66699 -13 -15 -13c-4 0 -7.5 1.5 -10.5 4.5s-4.5 6.16699 -4.5 9.5c0 1.33301 0.166992 2.16602 0.5 2.49902s0.5 0.833008 0.5 1.5l26 131h-75zM249 179l14 73h-75l-14 -73h75z" />
    <glyph glyph-name="dollar" unicode="$" horiz-adv-x="336" 
d="M262 277c-1.33301 -1.33301 -2.66992 -2.00391 -4.00293 -2.00391c-2.66699 0 -4 1.33301 -4 4c0 1.33301 0.333008 2.33301 1 3c5.33301 8 9.16602 15.667 11.499 23s3.5 14 3.5 20c0 11.333 -3.16699 21 -9.5 29s-15.166 14 -26.499 18l-26 -132l22 -35.5
c7.33301 -12.333 14 -25 20 -38s10.833 -26.167 14.5 -39.5s5.5 -26.333 5.5 -39c0 -25.333 -7.83301 -46.5 -23.5 -63.5s-40.167 -25.5 -73.5 -25.5c-2 0 -4 0.166992 -6 0.5s-4.33301 0.5 -7 0.5l-7 -32c0 -2.66699 -1.66699 -4 -5 -4c-2.66699 1.33301 -4 3.33301 -4 6
l6 29c-17.333 2 -31.833 6.66699 -43.5 14s-21.167 16.333 -28.5 27s-12.666 22.334 -15.999 35.001s-5 25.334 -5 38.001c0 21.333 4.33301 40.333 13 57s19.667 25 33 25c12.667 0 21.667 -4.5 27 -13.5s8 -18.5 8 -28.5c0 -14.667 -3.66699 -30.167 -11 -46.5
s-16.666 -29.5 -27.999 -39.5c4.66699 -12.667 11.5 -23.667 20.5 -33s20.167 -16.333 33.5 -21l36 178c-17.333 26.667 -29.666 50.334 -36.999 71.001s-11 38.667 -11 54c0 24 6.83301 41.5 20.5 52.5s29.167 16.5 46.5 16.5c3.33301 0 6.5 -0.166992 9.5 -0.5
s6.16699 -0.833008 9.5 -1.5l5 24c0.666992 2 2 3 4 3c3.33301 0 5 -1.66699 5 -5l-5 -24c13.333 -4.66699 23.833 -11.667 31.5 -21s11.5 -20.666 11.5 -33.999c0 -16 -5.66699 -32.333 -17 -49zM225.996 372.996c-16.667 -1.33301 -28.167 -6.49902 -34.5 -15.499
s-9.5 -20.167 -9.5 -33.5c0 -11.333 1.83301 -23.333 5.5 -36s8.16699 -24.334 13.5 -35.001zM161.996 10.9971c2 -0.666992 4.16699 -1 6.5 -1h6.5c20 0 34.667 6.33301 44 19s14 28.667 14 48c0 16.667 -3.16699 34 -9.5 52s-15.5 35.667 -27.5 53zM95.9961 76.9971
c8 8 15.667 19.1689 23 33.502s11 28.166 11 41.499c0 14 -3 21 -9 21c-5.33301 0 -11.5 -6.33301 -18.5 -19s-10.5 -28.667 -10.5 -48c0 -10.667 1.33301 -20.334 4 -29.001z" />
    <glyph glyph-name="percent" unicode="%" horiz-adv-x="388" 
d="M172 12c-2.66699 -8.66699 -7.66699 -12.999 -15 -12.999c-4 0 -7.5 1.5 -10.5 4.5s-4.5 6.16699 -4.5 9.5c0 1.33301 0.166992 2.16602 0.5 2.49902s0.5 0.833008 0.5 1.5l80 401c1.33301 8 6.33301 12 15 12c4 0 7.33301 -1.83301 10 -5.5s4 -7.16699 4 -10.5v-2z
M314 167.001c-3.33301 4 -6.66699 6.00195 -10 6.00195c-7.33301 0 -13.833 -3.5 -19.5 -10.5s-10.5 -15.5 -14.5 -25.5s-7 -20.167 -9 -30.5s-3 -18.5 -3 -24.5c0 -18 4.33301 -27 13 -27c4 0 8.83301 3 14.5 9s11 13.667 16 23s9.16699 19.166 12.5 29.499
s5 20.166 5 29.499c0 8.66699 -1.66699 15.667 -5 21zM320.999 172.003c4.66699 -8 7.00098 -17.334 7.00098 -28.001c0 -16 -2.66699 -30.167 -8 -42.5s-11.833 -23 -19.5 -32s-15.167 -15.833 -22.5 -20.5s-13 -7 -17 -7c-8.66699 0 -15.667 3.33301 -21 10
s-8 17.334 -8 32.001c0 17.333 2.33301 32.333 7 45s10.5 23.167 17.5 31.5s14.167 14.5 21.5 18.5s13.666 6 18.999 6c9.33301 0 17.333 -4.33301 24 -13zM135 348.002h-3.99902c-5.33301 0 -10.666 -2.83301 -15.999 -8.5s-10 -12.5 -14 -20.5s-7.33301 -16.333 -10 -25
s-4 -16.334 -4 -23.001c0 -13.333 4.66699 -20 14 -20c2.66699 0 6.66699 1.66699 12 5s10.666 8 15.999 14s10.166 13.333 14.499 22s6.5 18.334 6.5 29.001c0 14.667 -5 23.667 -15 27zM152.001 345.002c3.33301 -5.33301 5.00098 -12.333 5.00098 -21
c0 -9.33301 -2 -19 -6 -29s-9.16699 -19.167 -15.5 -27.5s-13.5 -15.333 -21.5 -21s-16.333 -8.5 -25 -8.5c-9.33301 0 -16.166 3.5 -20.499 10.5s-6.5 15.833 -6.5 26.5c0 8 1.5 16.833 4.5 26.5s7.16699 18.667 12.5 27s12 15.333 20 21s17 8.5 27 8.5
c5.33301 0 10.166 -0.833008 14.499 -2.5s8.16602 -5.16699 11.499 -10.5z" />
    <glyph glyph-name="ampersand" unicode="&#x26;" horiz-adv-x="463" 
d="M342 267c-1.33301 0 -2 0.666016 -2 1.99902c0 3.33301 1.66699 5 5 5c1.33301 0 2.33301 -0.333008 3 -1c17.333 -16 29.833 -32.833 37.5 -50.5s11.5 -35.167 11.5 -52.5c0 -21.333 -5 -42 -15 -62s-24.667 -38 -44 -54c-1.33301 -18 -4.83301 -37.5 -10.5 -58.5
s-14.834 -44.167 -27.501 -69.5c-1.33301 -2 -2.66602 -3 -3.99902 -3c-3.33301 0 -5 1.66699 -5 5c0 0.666992 0.166992 1 0.5 1s0.5 0.333008 0.5 1c11.333 22.667 19.833 43.5 25.5 62.5s9.16699 36.833 10.5 53.5c-19.333 -14 -39.333 -25 -60 -33s-42.667 -12 -66 -12
c-18 0 -35.5 2.33301 -52.5 7s-32.167 12 -45.5 22s-24.166 22.333 -32.499 37s-12.5 32 -12.5 52c0 21.333 4.5 39.5 13.5 54.5s20.333 28 34 39s29 20.833 46 29.5s33.5 17.667 49.5 27c-16 16 -29.667 32.333 -41 49s-17 35.334 -17 56.001
c0 12.667 2.66699 24.167 8 34.5s12.166 18.833 20.499 25.5s18 11.834 29 15.501s22.167 5.5 33.5 5.5c22 0 41.167 -6.33301 57.5 -19s24.5 -33 24.5 -61c0 -31.333 -7.66699 -56 -23 -74s-36 -33.667 -62 -47c12.667 -12 25.167 -24.5 37.5 -37.5s23.5 -27 33.5 -42
s18.333 -31.5 25 -49.5s10 -37.667 10 -59c33.333 31.333 50 66 50 104c0 16.667 -3.66699 33.167 -11 49.5s-19 32.166 -35 47.499zM210 273.999c22 12 40.333 26 55 42s22 37.333 22 64c-1.33301 21.333 -8.66602 37 -21.999 47s-27 15 -41 15
c-18.667 0 -35.167 -6.5 -49.5 -19.5s-21.5 -29.167 -21.5 -48.5s5.66699 -37 17 -53s24.666 -31.667 39.999 -47zM329 57.999c0 22.667 -3.16406 42.999 -9.49707 60.999s-14.5 34.667 -24.5 50s-21.333 29.5 -34 42.5l-38 37.5l-43 -24c-14 -8 -26.333 -17 -37 -27
s-19.334 -21.5 -26.001 -34.5s-10 -28.167 -10 -45.5s2.83301 -32.333 8.5 -45s13.5 -23.167 23.5 -31.5s21.667 -14.666 35 -18.999s27.333 -6.5 42 -6.5c19.333 0 38.666 3.5 57.999 10.5s37.666 17.5 54.999 31.5z" />
    <glyph glyph-name="quotesingle" unicode="'" horiz-adv-x="142" 
d="M76 605c8 0 14.1689 -2.83301 18.502 -8.5s6.5 -12.5 6.5 -20.5c0 -6.66699 -2 -14 -6 -22s-9 -15.5 -15 -22.5s-12.333 -13 -19 -18s-13 -7.5 -19 -7.5c-3.33301 0 -5 1.33301 -5 4l4 5.5l9 12.5c3.33301 4.66699 6.66602 9.66699 9.99902 15s5.66602 10 6.99902 14
c-5.33301 2 -9.33301 5.16699 -12 9.5s-4 8.83301 -4 13.5c0 6 2.16699 11.667 6.5 17s10.5 8 18.5 8z" />
    <glyph glyph-name="parenleft" unicode="(" horiz-adv-x="244" 
d="M182 -17c0.666992 -0.666992 0.999023 -1.66699 0.999023 -3c0 -3.33301 -1.66699 -5 -5 -5h-1c-17.333 8 -32.166 20.833 -44.499 38.5s-22.5 38.5 -30.5 62.5s-14 50.5 -18 79.5s-6 59.167 -6 90.5c0 42.667 3.5 85.5 10.5 128.5s17.167 82.333 30.5 118
s29.5 65.667 48.5 90s40.833 39.5 65.5 45.5h2c2.66699 0 4 -1.33301 4 -4c0 -1.33301 -0.333008 -2.33301 -1 -3c-19.333 -19.333 -36.5 -43.333 -51.5 -72s-27.5 -60 -37.5 -94s-17.667 -69.5 -23 -106.5s-8 -73.833 -8 -110.5c0 -51.333 5.16699 -99.333 15.5 -144
s26.5 -81.667 48.5 -111z" />
    <glyph glyph-name="parenright" unicode=")" horiz-adv-x="229" 
d="M58 620c-0.666992 0.666992 -1.00195 1.6709 -1.00195 3.00391c0 2.66699 1.66699 4 5 4h2c16.667 -8 31.334 -20.833 44.001 -38.5s23 -38.5 31 -62.5s14 -50.5 18 -79.5s6 -58.833 6 -89.5c0 -42.667 -3.5 -85.5 -10.5 -128.5s-17.167 -82.333 -30.5 -118
s-29.666 -65.834 -48.999 -90.501s-41.333 -40 -66 -46c-4 0 -6 1.33301 -6 4c0 1.33301 0.666992 2.66602 2 3.99902c19.333 18.667 36.5 42.167 51.5 70.5s27.5 59.333 37.5 93s17.667 69.167 23 106.5s8 74.333 8 111c0 51.333 -5.33301 99.666 -16 144.999
s-27 82.666 -49 111.999z" />
    <glyph glyph-name="asterisk" unicode="*" horiz-adv-x="315" 
d="M153 457c-2.66699 -4.66699 -6.00195 -6.99902 -10.002 -6.99902c-6 0 -9 3 -9 9v2l8 44l-34 -28c-2.66699 -1.33301 -5 -2 -7 -2c-1.33301 0 -3.16602 0.666992 -5.49902 2s-3.5 3.66602 -3.5 6.99902s1.33301 6 4 8l35 28l-45 1c-6 0 -9 3.33301 -9 10
c0 6 3.33301 9 10 9l49 -2l-32 37c-2 2 -3 4 -3 6c0 6.66699 3.33301 10 10 10c2.66699 0 5 -1 7 -3l33 -39l10 50c1.33301 4.66699 4 7 8 7c7.33301 0 11 -3.33301 11 -10v-1l-9 -44l35 28c2.66699 1.33301 4.66699 2 6 2c6 0 9 -3.33301 9 -10c0 -2.66699 -1 -5 -3 -7
l-35 -27l44 -2c6.66699 0 10 -3.33301 10 -10c-1.33301 -6 -4.66602 -9 -9.99902 -9l-49 2l32 -37c1.33301 -2.66699 2 -4.66699 2 -6c0 -2.66699 -1 -5 -3 -7s-4 -3 -6 -3s-4.33301 1.33301 -7 4l-34 38z" />
    <glyph glyph-name="plus" unicode="+" horiz-adv-x="367" 
d="M165 250c0 6 1.5 10.667 4.5 14s6.16699 5 9.5 5c4 0 7.5 -1.66699 10.5 -5s4.5 -8 4.5 -14v-72h73c6 0 10.667 -1.5 14 -4.5s5 -6.5 5 -10.5c0 -3.33301 -1.66699 -6.5 -5 -9.5s-8 -4.5 -14 -4.5h-73v-74c0 -6.66699 -1.5 -11.5 -4.5 -14.5s-6.5 -4.5 -10.5 -4.5
c-3.33301 0 -6.5 1.5 -9.5 4.5s-4.5 7.83301 -4.5 14.5v74h-73c-6.66699 0 -11.5 1.5 -14.5 4.5s-4.5 6.16699 -4.5 9.5c0 4 1.5 7.5 4.5 10.5s7.83301 4.5 14.5 4.5h73v72z" />
    <glyph glyph-name="comma" unicode="," horiz-adv-x="150" 
d="M76 100c9.33301 0 15.833 -2.99902 19.5 -8.99902s5.5 -13.667 5.5 -23c-0.666992 -7.33301 -3.16699 -14.833 -7.5 -22.5s-9.5 -14.834 -15.5 -21.501s-12.333 -12.167 -19 -16.5s-12.667 -6.5 -18 -6.5c-2.66699 0 -4 1.33301 -4 4l4 5
c2.66699 3.33301 5.66699 7.5 9 12.5s6.5 10.167 9.5 15.5s5.16699 10 6.5 14c-10.667 4 -16 11.333 -16 22c0 6.66699 2.33301 12.667 7 18s11 8 19 8z" />
    <glyph glyph-name="hyphen" unicode="-" horiz-adv-x="359" 
d="M91 69c-6.66699 0 -11.5 1.5 -14.5 4.5s-4.5 6.16699 -4.5 9.5c0 4 1.5 7.5 4.5 10.5s7.83301 4.5 14.5 4.5h175c6 0 10.667 -1.5 14 -4.5s5 -6.5 5 -10.5c0 -3.33301 -1.66699 -6.5 -5 -9.5s-8 -4.5 -14 -4.5h-175z" />
    <glyph glyph-name="period" unicode="." horiz-adv-x="174" 
d="M87 49c8 0 14.167 -2.66699 18.5 -8s6.5 -11 6.5 -17c0 -6.66699 -2.16699 -12.5 -6.5 -17.5s-10.5 -7.5 -18.5 -7.5c-8.66699 0 -15 2.5 -19 7.5s-6 10.833 -6 17.5c0 6 2 11.667 6 17s10.333 8 19 8z" />
    <glyph glyph-name="slash" unicode="/" horiz-adv-x="228" 
d="M174 637c2 8 6.66699 12.001 14 12.001c10 0 15 -4.66699 15 -14v-3l-129 -661c-2 -8 -7.33301 -12 -16 -12c-4 0 -7.33301 1.5 -10 4.5s-4 6.16699 -4 9.5c0 1.33301 0.166992 2.16602 0.5 2.49902s0.5 0.833008 0.5 1.5z" />
    <glyph glyph-name="zero" unicode="0" horiz-adv-x="328" 
d="M214 50c16.667 23.333 28.835 52.168 36.502 86.501s11.5 67.833 11.5 100.5c0 14 -0.833008 29 -2.5 45s-4.83398 31 -9.50098 45s-10.834 25.5 -18.501 34.5s-17.5 13.5 -29.5 13.5c-14.667 0 -28.167 -8.33301 -40.5 -25s-23 -37.5 -32 -62.5s-16 -51.833 -21 -80.5
s-7.5 -55.334 -7.5 -80.001c0 -32 4.33301 -59 13 -81s23 -33 43 -33c9.33301 0 19 2.83301 29 8.5s19.333 15.167 28 28.5zM89.001 306.002c11.333 25.333 25 46.1641 41 62.4971s33.667 24.5 53 24.5c16 0 29.5 -4.33301 40.5 -13s20 -20.167 27 -34.5
s12.167 -30.666 15.5 -48.999s5 -37.166 5 -56.499c0 -33.333 -3.16699 -64.666 -9.5 -93.999s-15.166 -55 -26.499 -77s-24.833 -39.333 -40.5 -52s-32.834 -19 -51.501 -19c-23.333 0 -43.833 11.333 -61.5 34s-26.5 59 -26.5 109c0 26.667 3 54.667 9 84
s14.333 56.333 25 81z" />
    <glyph glyph-name="one" unicode="1" horiz-adv-x="191" 
d="M63 320c-1.33301 -1.33301 -2.33301 -1.99805 -3 -1.99805c-3.33301 0 -5 1.66699 -5 5c0 0.666992 3 4.16699 9 10.5s13 13.166 21 20.499s15.833 14.166 23.5 20.499s13.167 9.83301 16.5 10.5h5c6.66699 0 12 -2 16 -6s6 -7.33301 6 -10l-35 -360h21
c2.66699 0 4 -1.33301 4 -4c0 -3.33301 -1.33301 -5 -4 -5h-93c-3.33301 0 -5 1.66699 -5 5c0 2.66699 1.66699 4 5 4h23l35 349z" />
    <glyph glyph-name="two" unicode="2" horiz-adv-x="389" 
d="M141 283c0 -2.66699 -1.33496 -3.99707 -4.00195 -3.99707c-3.33301 0 -5 1.33301 -5 4c0.666992 16 4.33398 30.667 11.001 44s14.834 24.666 24.501 33.999s20.5 16.5 32.5 21.5s23.667 7.5 35 7.5c16.667 0 31.167 -5.83301 43.5 -17.5s18.5 -30.167 18.5 -55.5
c0 -19.333 -3.5 -40.833 -10.5 -64.5s-16.167 -47.834 -27.5 -72.501s-24.5 -48.334 -39.5 -71.001s-30.5 -42.667 -46.5 -60l51 -19c16.667 -6 32.667 -9 48 -9c13.333 0 25.333 3.16699 36 9.5s20.334 17.5 29.001 33.5c1.33301 1.33301 2.66602 2 3.99902 2
c2 0 3.16699 -0.666992 3.5 -2s0.5 -2.66602 0.5 -3.99902c-9.33301 -18 -20 -30.5 -32 -37.5s-25.333 -10.5 -40 -10.5c-16.667 0 -34.167 3.33301 -52.5 10l-54.5 20c-13.333 -14 -26.833 -25 -40.5 -33s-26.167 -12 -37.5 -12c-15.333 0 -26.833 3.33301 -34.5 10
s-11.5 14.334 -11.5 23.001c0 9.33301 4.5 17.833 13.5 25.5s22.833 11.5 41.5 11.5c8.66699 0 20.667 -1.66699 36 -5c12 14 24.833 31.5 38.5 52.5s26.334 43.167 38.001 66.5s21.167 46.666 28.5 69.999s11 44.666 11 63.999s-3.66699 33.833 -11 43.5s-16 14.5 -26 14.5
c-8 0 -16.167 -2.5 -24.5 -7.5s-15.833 -11.667 -22.5 -20s-12.334 -18 -17.001 -29s-7 -22.167 -7 -33.5zM125.998 54.0029c-9.33301 2 -18.668 3.00195 -28.001 3.00195c-11.333 0 -21.833 -1.83301 -31.5 -5.5s-14.5 -10.5 -14.5 -20.5
c0 -3.33301 1.16699 -6.83301 3.5 -10.5s5.83301 -5.5 10.5 -5.5s10.167 1.66699 16.5 5s12.333 7.16602 18 11.499s10.834 8.66602 15.501 12.999s8 7.5 10 9.5z" />
    <glyph glyph-name="three" unicode="3" horiz-adv-x="310" 
d="M97 286c0 -3.33301 -1.33105 -4.99707 -3.99805 -4.99707s-4.16699 1.16699 -4.5 3.5s-0.5 4.83301 -0.5 7.5c0 17.333 2.5 32.333 7.5 45s11.833 23.167 20.5 31.5s18.334 14.5 29.001 18.5s21.667 6 33 6c22.667 0 42.334 -7.5 59.001 -22.5s25 -37.167 25 -66.5
c-1.33301 -25.333 -11.5 -46.333 -30.5 -63s-41.167 -28 -66.5 -34c32.667 -6.66699 56.5 -19.834 71.5 -39.501s22.5 -40.834 22.5 -63.501c0 -13.333 -2.5 -26.333 -7.5 -39s-12.333 -24 -22 -34s-21.334 -18 -35.001 -24s-29.5 -9 -47.5 -9c-31.333 0 -57 9.33301 -77 28
s-30 42 -30 70c0 2.66699 0.5 7.16699 1.5 13.5s2.33301 13 4 20s3.66699 13.167 6 18.5s5.16602 8 8.49902 8c2.66699 0 4 -1.33301 4 -4v-2c-10 -15.333 -15 -32 -15 -50c0 -10.667 1.66699 -21.334 5 -32.001s8.33301 -20.167 15 -28.5s15 -15 25 -20
s21.333 -7.5 34 -7.5c11.333 0 22 2.66699 32 8s18.667 12.333 26 21s13.166 18.667 17.499 30s6.5 22.666 6.5 33.999c0 30.667 -12.5 54.5 -37.5 71.5s-56.833 25.5 -95.5 25.5c-8.66699 0 -13 1.66699 -13 5c0 2.66699 2.66699 4 8 4h13c20.667 0 39.167 3 55.5 9
s30 13.667 41 23s19.333 20 25 32s8.5 24.333 8.5 37c0 18.667 -5.33301 34.834 -16 48.501s-23.667 20.5 -39 20.5c-14.667 0 -28.834 -8 -42.501 -24s-20.5 -39.667 -20.5 -71z" />
    <glyph glyph-name="four" unicode="4" horiz-adv-x="348" 
d="M194 425c0 2.66699 1.33301 4 4 4s4 -1.66699 4 -5v-3l-18 -51c-6.66699 -18.667 -14 -37.5 -22 -56.5s-16.5 -37.167 -25.5 -54.5s-17.833 -32.333 -26.5 -45h118l28 178c4 5.33301 9.33301 9.83301 16 13.5s12.334 5.5 17.001 5.5c3.33301 0 5 -1.33301 5 -4l-36 -398
c-0.666992 -3.33301 -3.5 -5.83301 -8.5 -7.5s-10.5 -2.5 -16.5 -2.5c-6.66699 0 -12.334 1 -17.001 3s-7 4.66699 -7 8l18 196h-185l17 8c10 4.66699 21.833 15.667 35.5 33s27.167 37 40.5 59s25.5 44 36.5 66s18.5 39.667 22.5 53z" />
    <glyph glyph-name="five" unicode="5" horiz-adv-x="346" 
d="M249 392c0 1.33301 0.999023 2.00195 2.99902 2.00195c3.33301 0 5 -1.66699 5 -5v-2c-8 -13.333 -20.833 -22.833 -38.5 -28.5s-35.5 -8.5 -53.5 -8.5c-7.33301 0 -14.333 0.333008 -21 1s-12.667 1.66699 -18 3l-10 -119c30.667 -0.666992 57 -4.5 79 -11.5
s40.167 -16.333 54.5 -28s24.833 -24.667 31.5 -39s10 -28.833 10 -43.5c0 -14 -2.83301 -27.833 -8.5 -41.5s-14 -25.834 -25 -36.501s-24.333 -19.167 -40 -25.5s-33.5 -9.5 -53.5 -9.5c-36.667 0 -65.167 8.83301 -85.5 26.5s-30.5 40.167 -30.5 67.5
c0 2 0.5 6.5 1.5 13.5s2.33301 14.167 4 21.5s3.83398 13.833 6.50098 19.5s5.66699 8.5 9 8.5c2.66699 0 4 -1.33301 4 -4v-2c-10.667 -20 -16 -39 -16 -57c0 -20.667 7.83301 -39.667 23.5 -57s37.167 -26 64.5 -26c13.333 0 26 3 38 9s22.333 13.833 31 23.5
s15.5 20.667 20.5 33s7.5 25.166 7.5 38.499s-3 26.5 -9 39.5s-15.667 24.833 -29 35.5s-30.833 19.167 -52.5 25.5s-48.167 9.83301 -79.5 10.5l-5 5l13 151c0 0.666992 0.333008 1 1 1c2 0 6.16699 -1.16699 12.5 -3.5s14 -4.83301 23 -7.5s18.833 -5.16699 29.5 -7.5
s21.667 -3.5 33 -3.5c13.333 0 26 2.16699 38 6.5s22.667 12.5 32 24.5z" />
    <glyph glyph-name="six" unicode="6" horiz-adv-x="308" 
d="M261 394c2.66699 -1.33301 4.00195 -3.00195 4.00195 -5.00195c0 -2.66699 -1.33301 -4 -4 -4c-16 -2 -31.167 -7.66699 -45.5 -17s-27.5 -21.166 -39.5 -35.499s-22.833 -30.333 -32.5 -48s-18.167 -36.167 -25.5 -55.5c8 2 16 3.66699 24 5s15.667 2 23 2
c12.667 0 24.5 -1.83301 35.5 -5.5s20.667 -9.16699 29 -16.5s15 -17 20 -29s7.5 -26.333 7.5 -43s-2.83301 -33.5 -8.5 -50.5s-13.834 -32.167 -24.501 -45.5s-23.334 -24.333 -38.001 -33s-31 -13 -49 -13c-16 0 -29.5 3 -40.5 9s-19.667 14.333 -26 25
s-11 22.834 -14 36.501s-4.5 28.167 -4.5 43.5c0 36.667 4.83301 72 14.5 106s23 64 40 90s36.833 46.833 59.5 62.5s47 23.5 73 23.5c3.33301 0 6.83301 -0.166992 10.5 -0.5s7.5 -0.833008 11.5 -1.5zM114.002 217.998c-3.33301 -12 -6.83398 -27.501 -10.501 -46.501
s-5.5 -38.167 -5.5 -57.5c0 -11.333 1 -22.833 3 -34.5s5.33301 -22.167 10 -31.5s10.834 -17 18.501 -23s17.5 -9 29.5 -9c11.333 0 22.5 3.83301 33.5 11.5s20.667 17.667 29 30s15 26 20 41s7.5 29.833 7.5 44.5c0 22.667 -6.5 42.334 -19.5 59.001s-34.5 25 -64.5 25
c-17.333 0 -34.333 -3 -51 -9z" />
    <glyph glyph-name="seven" unicode="7" horiz-adv-x="292" 
d="M65 225c-3.33301 0 -5.00195 1.32812 -5.00195 3.99512c0 3.33301 1.66699 5 5 5h55l25.5 32l25 30.5c8.33301 10.333 16.333 21.333 24 33s15.5 24.834 23.5 39.501c-16 0 -31.667 1.33301 -47 4s-29.333 4 -42 4c-13.333 0 -24 -3 -32 -9s-12 -18.333 -12 -37
c-1.33301 -2.66699 -3 -4 -5 -4c-2.66699 0 -4 1.33301 -4 4c0 22 4.83301 36.5 14.5 43.5s21.834 10.5 36.501 10.5c13.333 0 27.833 -1.33301 43.5 -4s31.167 -4 46.5 -4c9.33301 0 18.5 0.833008 27.5 2.5s17.5 5.16699 25.5 10.5c0.666992 0.666992 1.33398 1 2.00098 1
c2.66699 0 4 -1.66699 4 -5v-1c-8 -17.333 -16.333 -32.666 -25 -45.999s-17.334 -25.666 -26.001 -36.999l-26.5 -33.5l-28.5 -34.5h66c2.66699 0 4 -1.66699 4 -5c0 -2.66699 -1.33301 -4 -4 -4h-73c-18 -23.333 -31.667 -45.333 -41 -66s-16.166 -39.5 -20.499 -56.5
s-7 -32.167 -8 -45.5s-2 -24.666 -3 -33.999s-3 -16.333 -6 -21s-8.83301 -7 -17.5 -7c-6 0 -11.333 1 -16 3s-7 4.66699 -7 8c2 28 4.83301 52.833 8.5 74.5s8.5 41.167 14.5 58.5s12.833 32.833 20.5 46.5s16.167 26.834 25.5 39.501h-48z" />
    <glyph glyph-name="eight" unicode="8" horiz-adv-x="313" 
d="M149 186c-8 -8 -15.6689 -15.1689 -23.002 -21.502s-13.666 -13.166 -18.999 -20.499s-9.66602 -15.5 -12.999 -24.5s-5 -19.833 -5 -32.5c0 -23.333 6.5 -40.166 19.5 -50.499s27.833 -15.5 44.5 -15.5c18.667 0 36 5.5 52 16.5s24 26.167 24 45.5
c0 14 -6 29.833 -18 47.5s-32.667 36.167 -62 55.5zM131.998 358.998c-13.333 -15.333 -20 -32.668 -20 -52.001c0 -16 4 -31.5 12 -46.5s18 -27.833 30 -38.5c28.667 18.667 48.834 37.667 60.501 57s17.5 37 17.5 53s-4.83301 29 -14.5 39s-21.167 15 -34.5 15
c-8 0 -16.333 -2.16699 -25 -6.5s-17.334 -11.166 -26.001 -20.499zM173.998 206.996c26.667 -17.333 48.333 -35.5 65 -54.5s25 -41.167 25 -66.5c0 -22 -9 -41.833 -27 -59.5s-46.333 -26.5 -85 -26.5c-34 0 -59.5 8.33301 -76.5 25s-25.5 36.667 -25.5 60
c0 20 6.16699 40.667 18.5 62s30.833 40 55.5 56c-16.667 12 -29.167 26.167 -37.5 42.5s-12.5 36.833 -12.5 61.5c0 14 2.5 26.667 7.5 38s11.667 21 20 29s18 14.167 29 18.5s22.5 6.5 34.5 6.5c22.667 0 42.167 -7 58.5 -21s24.5 -32.667 24.5 -56
c0 -20 -6.33301 -40.667 -19 -62s-31 -39 -55 -53z" />
    <glyph glyph-name="nine" unicode="9" horiz-adv-x="323" 
d="M10 0c-2.66699 0 -4.00098 1.33398 -4.00098 4.00098c0 3.33301 1.66699 5 5 5c20 0 39.333 4.83301 58 14.5s35.834 22 51.501 37s29.5 31.667 41.5 50s22 36.833 30 55.5c-8.66699 -2.66699 -18.667 -4 -30 -4c-26.667 0 -49 8.66699 -67 26s-27 41 -27 71
c0 20.667 3.33301 39 10 55s15.334 29.333 26.001 40s22.167 18.667 34.5 24s24.5 8 36.5 8c11.333 0 22.5 -2.33301 33.5 -7s20.667 -11.834 29 -21.501s15 -21.667 20 -36s7.5 -31.5 7.5 -51.5c0 -31.333 -5.83301 -63 -17.5 -95s-28.334 -61 -50.001 -87
s-47.5 -47.167 -77.5 -63.5s-63.333 -24.5 -100 -24.5h-10zM196.999 177.001c5.33301 14 9.83203 29.166 13.499 45.499s5.5 32.833 5.5 49.5c0 10 -1.16699 20.833 -3.5 32.5s-6 22.5 -11 32.5s-11.333 18.167 -19 24.5s-16.834 9.5 -27.501 9.5
c-10 0 -19.833 -3.5 -29.5 -10.5s-18 -16 -25 -27s-12.667 -23.167 -17 -36.5s-6.5 -26.333 -6.5 -39c0 -10.667 1.66699 -21.167 5 -31.5s8.33301 -19.666 15 -27.999s15.334 -15 26.001 -20s23.334 -7.5 38.001 -7.5c12 0 24 2 36 6z" />
    <glyph glyph-name="colon" unicode=":" horiz-adv-x="187" 
d="M93 208c8 0 14.167 -2.66699 18.5 -8s6.5 -11 6.5 -17c0 -6.66699 -2.16699 -12.5 -6.5 -17.5s-10.5 -7.5 -18.5 -7.5c-8.66699 0 -15 2.5 -19 7.5s-6 10.833 -6 17.5c0 6 2 11.667 6 17s10.333 8 19 8zM93 85c8 0 14.167 -2.66699 18.5 -8s6.5 -11 6.5 -17
c0 -6.66699 -2.16699 -12.5 -6.5 -17.5s-10.5 -7.5 -18.5 -7.5c-8.66699 0 -15 2.5 -19 7.5s-6 10.833 -6 17.5c0 6 2 11.667 6 17s10.333 8 19 8z" />
    <glyph glyph-name="semicolon" unicode=";" horiz-adv-x="193" 
d="M101 74c7.33301 0 13.334 -2.66699 18.001 -8s7 -12 7 -20c0 -6.66699 -2 -14.167 -6 -22.5s-9 -16 -15 -23s-12.333 -13 -19 -18s-13 -7.5 -19 -7.5c-3.33301 0 -5 1.33301 -5 4c4.66699 5.33301 9 11 13 17l10 15.5c3.33301 5 5.66602 9.83301 6.99902 14.5
c-5.33301 2 -9.33301 5.16699 -12 9.5s-4 8.83301 -4 13.5c0 6.66699 2.16699 12.5 6.5 17.5s10.5 7.5 18.5 7.5zM100.001 208c8 0 14.167 -2.66699 18.5 -8s6.5 -11 6.5 -17c0 -6.66699 -2.16699 -12.5 -6.5 -17.5s-10.5 -7.5 -18.5 -7.5c-8.66699 0 -15 2.5 -19 7.5
s-6 10.833 -6 17.5c0 6 2 11.667 6 17s10.333 8 19 8z" />
    <glyph glyph-name="less" unicode="&#x3c;" horiz-adv-x="246" 
d="M67 67l-5 2.99902l103 68c0.666992 0 1.33398 0.333008 2.00098 1c3.33301 0 5 -1.66699 5 -5c0 -1.33301 -0.666992 -2.66602 -2 -3.99902l-67 -59l67 -49c1.33301 -1.33301 2 -2.33301 2 -3c0 -3.33301 -1.66699 -5 -5 -5c-0.666992 0 -1.33398 0.333008 -2.00098 1z
" />
    <glyph glyph-name="equal" unicode="=" horiz-adv-x="305" 
d="M79 113c-5.33301 0 -9 1.5 -11 4.5s-3 6.5 -3 10.5c0 3.33301 1 6.66602 3 9.99902s5.66699 5 11 5h142c5.33301 0 9.16602 -1.66699 11.499 -5s3.5 -6.66602 3.5 -9.99902c0 -4 -1.16699 -7.5 -3.5 -10.5s-6.16602 -4.5 -11.499 -4.5h-142zM79 21
c-5.33301 0 -9 1.5 -11 4.5s-3 6.16699 -3 9.5c0 4 1 7.5 3 10.5s5.66699 4.5 11 4.5h142c5.33301 0 9.16602 -1.5 11.499 -4.5s3.5 -6.5 3.5 -10.5c0 -3.33301 -1.16699 -6.5 -3.5 -9.5s-6.16602 -4.5 -11.499 -4.5h-142z" />
    <glyph glyph-name="greater" unicode="&#x3e;" 
d="M80 20c-0.666992 -0.666992 -1.66699 -0.998047 -3 -0.998047c-2.66699 0 -4 1.33301 -4 4c0 1.33301 0.666992 2.66602 2 3.99902l67 49l-67 59c-1.33301 1.33301 -2 2.66602 -2 3.99902c0 3.33301 1.33301 5 4 5c0.666992 0 1.16699 -0.166992 1.5 -0.5
s0.833008 -0.5 1.5 -0.5l103 -68l-6 -3z" />
    <glyph glyph-name="question" unicode="?" horiz-adv-x="359" 
d="M85 356c0 -3.33301 -1.33203 -5.33203 -3.99902 -5.99902c-2 0 -3.66699 1.5 -5 4.5s-2.33301 6.66699 -3 11s-1 8.66602 -1 12.999v10.5c0 19.333 3.66699 37.166 11 53.499s17.166 30.5 29.499 42.5s26.666 21.333 42.999 28s33.5 10 51.5 10c20 0 37 -3 51 -9
s25.5 -14 34.5 -24s15.5 -21.5 19.5 -34.5s6 -26.5 6 -40.5c0 -34 -6 -63.167 -18 -87.5s-27 -46.166 -45 -65.499s-37.333 -37.5 -58 -54.5s-40 -34.833 -58 -53.5s-33 -39.667 -45 -63s-18 -51 -18 -83c0 -2.66699 -1.33301 -4.5 -4 -5.5s-5.66699 -1.5 -9 -1.5
c-9.33301 0 -13.833 2.33301 -13.5 7s0.5 8.66699 0.5 12c0 32 4.66699 59.5 14 82.5s21.5 43.5 36.5 61.5s31.333 34.5 49 49.5s34.834 30.667 51.501 47s31.667 34.5 45 54.5s23 43.667 29 71c1.33301 6 2.33301 11.833 3 17.5s1 11.167 1 16.5
c0 29.333 -8.33301 50.833 -25 64.5s-36 20.5 -58 20.5c-13.333 0 -27 -2.5 -41 -7.5s-26.5 -12.333 -37.5 -22s-20 -21.5 -27 -35.5s-10.5 -30 -10.5 -48c0 -9.33301 1.66699 -21.333 5 -36zM67.001 -10.999c8 0 14.167 -2.66699 18.5 -8s6.5 -11 6.5 -17
c0 -6.66699 -2.16699 -12.5 -6.5 -17.5s-10.5 -7.5 -18.5 -7.5c-8.66699 0 -15 2.5 -19 7.5s-6 10.833 -6 17.5c0 6 2 11.667 6 17s10.333 8 19 8z" />
    <glyph glyph-name="at" unicode="@" horiz-adv-x="490" 
d="M440 147c1.33301 1.33301 2.66504 2.00488 3.99805 2.00488c2.66699 0 4 -1.33301 4 -4v-2c-23.333 -48 -54 -83.5 -92 -106.5s-82.667 -34.5 -134 -34.5c-26.667 0 -49.667 4.16699 -69 12.5s-35.333 19.333 -48 33s-22.167 29.667 -28.5 48s-9.5 37.5 -9.5 57.5
c0 23.333 4.5 47.5 13.5 72.5s22 48 39 69s38.167 38.333 63.5 52s54 20.5 86 20.5c36.667 0 67.334 -12.5 92.001 -37.5s37 -60.5 37 -106.5c0 -12.667 -1.33301 -26.334 -4 -41.001s-6.83398 -28.334 -12.501 -41.001s-13 -23.167 -22 -31.5s-19.833 -12.5 -32.5 -12.5
c-13.333 0 -22.333 4.16699 -27 12.5s-7 19.166 -7 32.499c0 8 0.5 16 1.5 24s2.16699 15 3.5 21c-6.66699 -10 -15 -20.667 -25 -32s-20.667 -22 -32 -32s-23.166 -18.167 -35.499 -24.5s-23.833 -9.5 -34.5 -9.5c-12 0 -21 5.16699 -27 15.5s-9 22.833 -9 37.5
c0 15.333 3 32.166 9 50.499s14.5 35.5 25.5 51.5s24.333 29.333 40 40s33.167 16 52.5 16c13.333 0 24.5 -4.66699 33.5 -14s16.167 -20.333 21.5 -33c0.666992 2 1.33398 4.16699 2.00098 6.5s2 4.5 4 6.5s5.33301 3.66699 10 5s11 2 19 2c10 0 16 -2.66699 18 -8
c-2.66699 -3.33301 -5.83398 -10.333 -9.50098 -21s-7.16699 -22.834 -10.5 -36.501s-6.16602 -27.667 -8.49902 -42s-3.5 -26.166 -3.5 -35.499c0 -12.667 2.33301 -19 7 -19c3.33301 0 7.5 3.16699 12.5 9.5s9.83301 14.833 14.5 25.5s8.66699 22.5 12 35.5s5 26.5 5 40.5
c0 18 -2.5 35.167 -7.5 51.5s-12.167 30.5 -21.5 42.5s-20.5 21.5 -33.5 28.5s-27.5 10.5 -43.5 10.5c-26.667 0 -50.167 -6.5 -70.5 -19.5s-37.5 -29.333 -51.5 -49s-24.667 -41.334 -32 -65.001s-11 -46.167 -11 -67.5c0 -18.667 2.5 -36.5 7.5 -53.5s12.5 -32 22.5 -45
s22.833 -23.333 38.5 -31s34.167 -11.5 55.5 -11.5c36.667 0 73.167 10.667 109.5 32s65.833 55.333 88.5 102zM219.999 118.005c9.33301 6.66699 18.501 14.332 27.501 22.999s17.5 17.5 25.5 26.5s14.833 18 20.5 27s9.83398 16.833 12.501 23.5l6 21
c-0.666992 1.33301 -2 4.5 -4 9.5s-4.5 10.333 -7.5 16s-6.5 10.667 -10.5 15s-8.33301 6.5 -13 6.5c-12.667 0 -24.834 -5.83301 -36.501 -17.5s-21.834 -25.667 -30.501 -42s-15.5 -33.166 -20.5 -50.499s-7.5 -31.333 -7.5 -42c0 -17.333 5 -26 15 -26
c6 0 13.667 3.33301 23 10z" />
    <glyph glyph-name="A" unicode="A" horiz-adv-x="561" 
d="M582 -61c1.33301 1.33301 2.6709 1.99902 4.00391 1.99902c2.66699 0 4 -1.33301 4 -4v-2l-21.5 -44.5c-8.33301 -17 -17.666 -33.333 -27.999 -49s-22 -28.834 -35 -39.501s-26.833 -16 -41.5 -16c-26 0 -44 8.83301 -54 26.5s-15 41.5 -15 71.5c0 10 1 26.5 3 49.5
s4.66699 49.333 8 79l11 93.5l11.5 93.5l10 80.5c3 24 5.5 42 7.5 54l-67.5 13c-20.333 4 -42.833 6 -67.5 6h-18c-2.66699 -22.667 -5.16699 -46.834 -7.5 -72.501s-5.16602 -51.167 -8.49902 -76.5s-7.5 -49.833 -12.5 -73.5s-11.5 -44.5 -19.5 -62.5
s-17.833 -32.333 -29.5 -43s-25.5 -16 -41.5 -16c-14 0 -26.667 3.16699 -38 9.5s-20.666 14.666 -27.999 24.999s-13 22.333 -17 36s-6 27.834 -6 42.501c0 15.333 2.16699 30.5 6.5 45.5s11.333 28.833 21 41.5s21.667 23.334 36 32.001s31.5 14.334 51.5 17.001
c3.33301 0 5 -1.66699 5 -5c0 -2.66699 -1 -4 -3 -4c-18.667 -2 -34.834 -7.33301 -48.501 -16s-24.834 -19 -33.501 -31s-15.167 -25.167 -19.5 -39.5s-6.5 -28.5 -6.5 -42.5c0 -10.667 1.33301 -21.334 4 -32.001s6.5 -20.334 11.5 -29.001s11 -15.667 18 -21
s15.167 -8 24.5 -8c12 0 22.167 5.16699 30.5 15.5s15.666 24.166 21.999 41.499s11.5 37 15.5 59s7.33301 44.667 10 68s5.16699 46.666 7.5 69.999l6.5 63c-18.667 -3.33301 -37.667 -9.83301 -57 -19.5s-31.333 -23.834 -36 -42.501
c-0.666992 -2.66699 -2.66699 -4 -6 -4c-2 0.666992 -3 2 -3 4c0 10.667 3.66699 20.167 11 28.5s16.333 15.333 27 21s21.834 10.334 33.501 14.001s22.167 6.5 31.5 8.5c4 29.333 8.5 57.833 13.5 85.5s11.5 53 19.5 76s17.833 42.833 29.5 59.5s26.167 28.667 43.5 36
c-5.33301 1.33301 -10.5 2 -15.5 2h-15.5c-30 0 -58 -6.66699 -84 -20s-45.333 -34.666 -58 -63.999c19.333 -11.333 33 -23.666 41 -36.999s12 -26.333 12 -39c0 -17.333 -5.66699 -32 -17 -44s-24 -18 -38 -18c-9.33301 0 -17.5 2.5 -24.5 7.5s-12.833 11.333 -17.5 19
s-8.33398 16.5 -11.001 26.5s-4 20 -4 30c0 11.333 1.33301 22.5 4 33.5s6.33398 21.5 11.001 31.5c-19.333 5.33301 -37 8 -53 8c-28 0 -52.5 -7.5 -73.5 -22.5s-35.167 -38.5 -42.5 -70.5c-1.33301 -2 -3 -3 -5 -3c-2.66699 0 -4 1.66699 -4 5
c7.33301 34.667 22.5 60 45.5 76s49.5 24 79.5 24c18.667 0 37.667 -3 57 -9c12.667 22.667 32 41.167 58 55.5s59.333 21.5 100 21.5c33.333 0 61 -3.83301 83 -11.5s39.5 -18.834 52.5 -33.501s22.167 -32.667 27.5 -54s8 -45.666 8 -72.999
c0 -17.333 -0.833008 -35.666 -2.5 -54.999s-4.16699 -38.666 -7.5 -57.999c5.33301 -1.33301 11.166 -2.33301 17.499 -3s12.166 -1 17.499 -1c13.333 0 24.666 2.83301 33.999 8.5s14.666 16.834 15.999 33.501c0 3.33301 1.66699 5 5 5c2.66699 0 4 -1.66699 4 -5
c-1.33301 -20.667 -7.83301 -34.167 -19.5 -40.5s-25.167 -9.5 -40.5 -9.5c-12 0 -24 1 -36 3c-2 -12 -4.5 -30 -7.5 -54l-10 -80.5l-11.5 -93.5l-11 -93c-3.33301 -29.333 -6 -55.5 -8 -78.5s-3 -39.5 -3 -49.5c0 -26.667 4.16699 -48.167 12.5 -64.5
s24.166 -24.5 47.499 -24.5c13.333 0 26 5.33301 38 16s23 23.5 33 38.5s19 30.667 27 47s14.667 30.5 20 42.5zM448.005 342.999c2.66699 19.333 5 38.5 7 57.5s3 37.5 3 55.5c0 42 -6.66699 75.833 -20 101.5s-28.333 38.5 -45 38.5c-14 0 -26.333 -6.83301 -37 -20.5
s-20 -31.5 -28 -53.5s-14.667 -47 -20 -75s-9.66602 -56.333 -12.999 -85h17c24.667 0 47.167 -2.16699 67.5 -6.5s43.166 -8.5 68.499 -12.5zM175.005 522.999c-1.33301 -4 -2.33301 -9.33301 -3 -16s-1 -13.667 -1 -21c0 -8 0.5 -16.5 1.5 -25.5s2.5 -17.167 4.5 -24.5
s4.5 -13.333 7.5 -18s6.83301 -7 11.5 -7c4 0 9.33301 3.66699 16 11s10 18 10 32c0 11.333 -3.5 23 -10.5 35s-19.167 23.333 -36.5 34z" />
    <glyph glyph-name="B" unicode="B" horiz-adv-x="582" 
d="M-51 448c0 -2 -1.3291 -3 -3.99609 -3c-3.33301 0 -5 1.66699 -5 5c7.33301 34.667 22.5 60 45.5 76s49.5 24 79.5 24c18.667 0 37.667 -3 57 -9c7.33301 12 17.666 22.833 30.999 32.5s28.5 17.834 45.5 24.501s35.167 11.834 54.5 15.501s39 5.5 59 5.5
c22.667 0 44.334 -2.33301 65.001 -7s38.834 -11.834 54.501 -21.501s28.167 -22.167 37.5 -37.5s14 -33.333 14 -54c0 -19.333 -4.16699 -38.666 -12.5 -57.999s-19.5 -37.333 -33.5 -54s-30.333 -30.834 -49 -42.501s-38.667 -19.5 -60 -23.5
c28.667 -6 53.167 -15 73.5 -27s37 -25.667 50 -41s22.5 -31.833 28.5 -49.5s9 -35.167 9 -52.5c0 -18.667 -3 -36.5 -9 -53.5s-14.5 -32 -25.5 -45s-24.333 -23.5 -40 -31.5s-32.834 -12 -51.501 -12c-22.667 0 -39.5 7 -50.5 21s-16.5 30.667 -16.5 50
c0 13.333 2.5 26.5 7.5 39.5s12.833 24.833 23.5 35.5c0 0.666992 0.666992 1 2 1c3.33301 0 5 -1.66699 5 -5c0 -1.33301 -0.333008 -2 -1 -2c-9.33301 -9.33301 -16.333 -20 -21 -32s-7 -24.333 -7 -37c0 -14 3.83301 -27.167 11.5 -39.5s18.167 -18.5 31.5 -18.5
c14 0 26.667 4.33301 38 13s21 19.5 29 32.5s14.167 27 18.5 42s6.5 29.167 6.5 42.5c0 22.667 -4.33301 43.167 -13 61.5s-20.5 34.166 -35.5 47.499s-32.167 24.5 -51.5 33.5s-39.333 15.5 -60 19.5l-16.5 -110c-5.66699 -37.333 -12.834 -71 -21.501 -101
s-19.334 -54.667 -32.001 -74s-29 -29 -49 -29c-14.667 0 -27.5 3.16699 -38.5 9.5s-20.333 14.666 -28 24.999s-13.5 22.333 -17.5 36s-6 27.834 -6 42.501c0 15.333 2.33301 30.5 7 45.5s11.667 28.833 21 41.5s21.333 23.334 36 32.001s32 14.334 52 17.001
c3.33301 0 5 -1.33301 5 -4c0 -3.33301 -1.33301 -5 -4 -5c-18.667 -2.66699 -34.834 -8.16699 -48.501 -16.5s-24.834 -18.333 -33.501 -30s-15.167 -24.667 -19.5 -39s-6.5 -28.5 -6.5 -42.5c0 -4 0.833008 -11.167 2.5 -21.5s4.66699 -21 9 -32s10.333 -20.667 18 -29
s17.5 -12.5 29.5 -12.5s22.333 7.66699 31 23s16.334 35.833 23.001 61.5s12.667 55 18 88l16 102.5c5.33301 35.333 11.166 70.166 17.499 104.499s13.5 65.833 21.5 94.5s17.667 52.834 29 72.501s24.666 32.5 39.999 38.5c-5.33301 0.666992 -10.5 1.16699 -15.5 1.5
s-10.167 0.5 -15.5 0.5c-29.333 0 -57.166 -6 -83.499 -18s-45.833 -33 -58.5 -63c19.333 -11.333 33.166 -23.833 41.499 -37.5s12.5 -26.834 12.5 -39.501c0 -16.667 -5.5 -30.834 -16.5 -42.501s-23.167 -17.5 -36.5 -17.5c-9.33301 0 -17.666 2.5 -24.999 7.5
s-13.5 11.5 -18.5 19.5s-8.83301 17 -11.5 27s-4 20.333 -4 31c0 21.333 4.66699 42 14 62c-19.333 5.33301 -37 8 -53 8c-28 0 -52.5 -7.5 -73.5 -22.5s-35.167 -38.5 -42.5 -70.5zM159.004 514c-2 -5.33301 -3.66797 -12.333 -5.00098 -21s-2 -17.667 -2 -27
c0 -15.333 2.33301 -29.5 7 -42.5s13 -19.5 25 -19.5c3.33301 0 8 3.66699 14 11s9 17.666 9 30.999c0 11.333 -3.66699 22.833 -11 34.5s-19.666 22.834 -36.999 33.501zM372.003 591c-12.667 -6.66699 -23.668 -18.3281 -33.001 -34.9951s-17.5 -36.834 -24.5 -60.501
s-13 -49.834 -18 -78.501s-9.5 -58 -13.5 -88c20.667 3.33301 40.334 10.666 59.001 21.999s34.667 25 48 41s24 33.333 32 52s12 37 12 55c0 19.333 -4.83301 37.166 -14.5 53.499s-25.5 29.166 -47.5 38.499z" />
    <glyph glyph-name="C" unicode="C" horiz-adv-x="430" 
d="M8 521c-0.666992 0.666992 -0.994141 1.33691 -0.994141 2.00391c0 2.66699 1.66699 4 5 4c1.33301 0 2.66602 -0.666992 3.99902 -2c16 -29.333 32.5 -53.166 49.5 -71.499s34.167 -32.5 51.5 -42.5c13.333 37.333 28 69 44 95s32.167 47.167 48.5 63.5
s32.666 28.166 48.999 35.499s31.166 11 44.499 11c18.667 0 33.667 -5.66699 45 -17s17 -26.666 17 -45.999c0 -18.667 -5.16699 -38 -15.5 -58s-24 -38.167 -41 -54.5s-36.167 -29.833 -57.5 -40.5s-43.333 -16 -66 -16c-9.33301 0 -18.333 1 -27 3
c-4.66699 -13.333 -9.33398 -29.833 -14.001 -49.5s-8.83398 -40.834 -12.501 -63.501s-6.66699 -46.334 -9 -71.001s-3.5 -49 -3.5 -73c0 -26 1.66699 -50.667 5 -74s9.16602 -44 17.499 -62s19.5 -32.333 33.5 -43s31.333 -16 52 -16c14 0 27.667 3.5 41 10.5
s25.333 16.5 36 28.5s19.167 26.167 25.5 42.5s9.5 33.5 9.5 51.5c0 10.667 -1.33301 21 -4 31s-7.16699 19 -13.5 27s-14.333 14.333 -24 19s-21.5 7 -35.5 7c-24 0 -43.333 -4.83301 -58 -14.5s-26 -20.334 -34 -32.001s-13.667 -22.334 -17 -32.001
s-5.33301 -14.5 -6 -14.5c-3.33301 0 -5 1.33301 -5 4v1c9.33301 33.333 25.5 57.833 48.5 73.5s46.5 23.5 70.5 23.5c24.667 0 45.667 -7.66699 63 -23s26 -38.333 26 -69c0 -17.333 -3.5 -35.166 -10.5 -53.499s-16.833 -35 -29.5 -50s-28 -27.333 -46 -37
s-38 -14.5 -60 -14.5c-26 0 -47.667 6 -65 18s-31.166 28.167 -41.499 48.5s-17.666 43.666 -21.999 69.999s-6.5 54.166 -6.5 83.499c0 25.333 1.33301 50.833 4 76.5s6.16699 50.5 10.5 74.5s9.16602 46.167 14.499 66.5s10.666 37.5 15.999 51.5
c-18 10 -36 24.5 -54 43.5s-35.333 43.833 -52 74.5zM284.006 587.003c-25.333 -17.333 -48.835 -43.167 -70.502 -77.5s-39.167 -72.5 -52.5 -114.5c4 -1.33301 8 -2 12 -2h12c23.333 0 45.333 5.33301 66 16s38.834 24.167 54.501 40.5s28 33.833 37 52.5s13.5 36 13.5 52
c0 14.667 -3.5 25.667 -10.5 33s-16.167 11 -27.5 11s-22.666 -3.66699 -33.999 -11z" />
    <glyph glyph-name="D" unicode="D" horiz-adv-x="636" 
d="M-28 448c0 -2 -1.33789 -2.99316 -4.00488 -2.99316s-4 1 -4 3v2c7.33301 34.667 22.5 60 45.5 76s49.167 24 78.5 24c22.667 0 46 -4.66699 70 -14c18 19.333 41.833 32.666 71.5 39.999s59.5 11 89.5 11c43.333 0 80 -7.16699 110 -21.5s54.5 -33.666 73.5 -57.999
s32.667 -52.833 41 -85.5s12.5 -67 12.5 -103c0 -41.333 -5 -80.833 -15 -118.5s-23.333 -70.834 -40 -99.501s-36.167 -51.334 -58.5 -68.001s-45.833 -25 -70.5 -25c-19.333 0 -35.833 6.16699 -49.5 18.5s-20.5 30.166 -20.5 53.499c0 13.333 2.66699 26.666 8 39.999
s13 25 23 35c0.666992 0.666992 1.66699 1 3 1c2.66699 0 4 -1.66699 4 -5c0 -1.33301 -0.333008 -2 -1 -2c-10 -10.667 -17.167 -21.834 -21.5 -33.501s-6.5 -23.167 -6.5 -34.5c0 -16.667 4.33301 -30.667 13 -42s20 -17 34 -17c16 0 32.667 8.16699 50 24.5
s33.5 38.166 48.5 65.499s27.333 58.833 37 94.5s14.5 73.167 14.5 112.5c0 26.667 -2.5 53 -7.5 79s-13 50 -24 72s-25.167 41.167 -42.5 57.5s-38.333 28.833 -63 37.5c-16 -28 -29.667 -65.333 -41 -112s-20.666 -96 -27.999 -148l-16 -111.5
c-5.33301 -36.333 -12.5 -68.833 -21.5 -97.5s-20 -51.834 -33 -69.501s-29.5 -26.5 -49.5 -26.5c-14 0 -26.5 3.16699 -37.5 9.5s-20.167 14.666 -27.5 24.999s-13 22.166 -17 35.499s-6 27.333 -6 42c0 15.333 2.33301 30.666 7 45.999s11.667 29.333 21 42
s21.333 23.334 36 32.001s32 14.334 52 17.001c3.33301 0 5 -1.66699 5 -5c0 -2.66699 -1 -4 -3 -4c-19.333 -2.66699 -35.666 -8.16699 -48.999 -16.5s-24.166 -18.333 -32.499 -30s-14.5 -24.667 -18.5 -39s-6 -28.5 -6 -42.5c0 -12 1.33301 -23.667 4 -35
s6.5 -21.166 11.5 -29.499s10.833 -15.166 17.5 -20.499s13.667 -8 21 -8c15.333 0 28.166 10.667 38.499 32s19.333 49 27 83s14.5 72 20.5 114s12.667 83.5 20 124.5s15.833 79.5 25.5 115.5s21.834 65 36.501 87h-11c-22 0 -44.833 -5 -68.5 -15s-42.167 -24 -55.5 -42
c16.667 -11.333 28.5 -23.333 35.5 -36s10.5 -24.667 10.5 -36c0 -17.333 -5.5 -31.833 -16.5 -43.5s-23.833 -17.5 -38.5 -17.5c-17.333 0 -31.166 7.66699 -41.499 23s-15.5 32.333 -15.5 51c0 12 2 24.167 6 36.5s10.333 23.5 19 33.5c-21.333 8 -43 12 -65 12
c-26.667 0 -50.667 -7.33301 -72 -22s-35.666 -38.334 -42.999 -71.001zM188.995 510.007c-5.33301 -5.33301 -9.16797 -12.833 -11.501 -22.5s-3.5 -19.5 -3.5 -29.5c0 -13.333 2.33301 -25.5 7 -36.5s12.334 -17.167 23.001 -18.5c3.33301 0 8.5 3.5 15.5 10.5
s10.5 17.833 10.5 32.5c0 10 -3 20.667 -9 32s-16.667 22 -32 32z" />
    <glyph glyph-name="E" unicode="E" horiz-adv-x="497" 
d="M162 140c-1.33301 -2 -3.33203 -3.00391 -5.99902 -3.00391c-2 0.666992 -3 2.66699 -3 6c5.33301 16 12.833 30 22.5 42s20.834 22.167 33.501 30.5s26 14.5 40 18.5s28 6 42 6c28 0 52.167 -8 72.5 -24s30.5 -40 30.5 -72c0 -19.333 -4.16699 -37.666 -12.5 -54.999
s-19.666 -32.666 -33.999 -45.999s-31.333 -23.833 -51 -31.5s-40.834 -11.5 -63.501 -11.5c-26 0 -48.333 3.66699 -67 11s-34 17.333 -46 30s-20.833 27.334 -26.5 44.001s-8.5 34 -8.5 52c0 22.667 4.16699 45.667 12.5 69s20.333 44.666 36 63.999s34.667 35.5 57 48.5
s47.5 20.5 75.5 22.5c-25.333 10.667 -45.666 25.667 -60.999 45s-25 41.333 -29 66c-28 9.33301 -58.167 25.666 -90.5 48.999s-67.5 56 -105.5 98c-1.33301 0 -2 0.666992 -2 2c0 3.33301 1.66699 5 5 5c1.33301 0 2.16602 -0.166992 2.49902 -0.5s0.833008 -0.5 1.5 -0.5
c36 -40 69.667 -71.333 101 -94s60.333 -39 87 -49c-0.666992 2.66699 -1 5.16699 -1 7.5v6.5c0 16.667 2.66699 32.834 8 48.501s13 29.5 23 41.5s22.167 21.667 36.5 29s30.5 11 48.5 11c23.333 0 40.5 -6.5 51.5 -19.5s16.5 -27.833 16.5 -44.5
c0 -12 -2.66699 -24 -8 -36s-13 -22.833 -23 -32.5s-22.333 -17.667 -37 -24s-31.334 -9.5 -50.001 -9.5h-9.5c-3 0 -6.16699 0.333008 -9.5 1c8.66699 -26.667 24.667 -49.5 48 -68.5s52.666 -32.833 87.999 -41.5c4.66699 -0.666992 7 -2 7 -4
c0 -3.33301 -1.83301 -5 -5.5 -5h-8.5c-24 0 -48.5 -3.33301 -73.5 -10s-48 -17.5 -69 -32.5s-38.167 -34.167 -51.5 -57.5s-20 -51.666 -20 -84.999c0 -17.333 2.66699 -33.666 8 -48.999s12.833 -28.833 22.5 -40.5s21.167 -20.834 34.5 -27.501s28.333 -10 45 -10
c20.667 0 39.667 4.33301 57 13s32 19.834 44 33.501s21.333 28.5 28 44.5s10 31 10 45c0 23.333 -7.66699 43.333 -23 60s-39 25 -71 25c-31.333 0 -58.333 -8 -81 -24s-38.667 -38.333 -48 -67zM267.001 580.996c-17.333 -10.667 -30.3311 -24.833 -38.998 -42.5
s-13 -36.167 -13 -55.5v-13c0 -4 0.666992 -7.66699 2 -11s3.66602 -6 6.99902 -8s8.66602 -3 15.999 -3c17.333 0 32.833 2.83301 46.5 8.5s25.167 13 34.5 22s16.333 19 21 30s7 21.833 7 32.5c0 14.667 -4.5 27.167 -13.5 37.5s-19.5 15.5 -31.5 15.5
c-10.667 0 -23 -4.33301 -37 -13z" />
    <glyph glyph-name="F" unicode="F" horiz-adv-x="503" 
d="M225 252c-1.33301 -2 -2.99512 -3.00293 -4.99512 -3.00293c-2.66699 0 -4 1.33301 -4 4v1c8.66699 37.333 23.667 63 45 77s47.666 21 78.999 21h16c4 28.667 8.83301 56.334 14.5 83.001s12.334 51.334 20.001 74.001s16.667 42.5 27 59.5s22.833 29.833 37.5 38.5
c-42 -0.666992 -78 -6.83398 -108 -18.501s-51.667 -33.5 -65 -65.5c16 -9.33301 28.5 -21.166 37.5 -35.499s13.5 -29.166 13.5 -44.499c0 -16 -4.83301 -29.667 -14.5 -41s-20.834 -17 -33.501 -17c-14.667 0 -28.5 7.33301 -41.5 22s-19.5 36.667 -19.5 66
c0 10 1 20.167 3 30.5s5.33301 20.166 10 29.499c-19.333 5.33301 -37 8 -53 8c-27.333 0 -51.5 -7.5 -72.5 -22.5s-35.167 -38.5 -42.5 -70.5c-1.33301 -2 -2.66602 -3 -3.99902 -3c-3.33301 0 -5 1.66699 -5 5c7.33301 34.667 22.5 60 45.5 76s49.5 24 79.5 24
c18.667 0 37.667 -3 57 -9c14.667 26 37.667 45.167 69 57.5s76.666 18.5 135.999 18.5h21.5h29c9.66699 0 18.167 -0.5 25.5 -1.5s11 -2.5 11 -4.5c0 -2.66699 -1.33301 -4 -4 -4h-13c-17.333 -4.66699 -32 -15 -44 -31s-22.333 -35.833 -31 -59.5s-16 -50 -22 -79
s-11.333 -59.167 -16 -90.5c11.333 -1.33301 23.666 -3 36.999 -5s26.333 -3 39 -3c18 0 33.667 3.33301 47 10s20.666 20.334 21.999 41.001c0 2.66699 1.66699 4 5 4c2.66699 0 4 -1.66699 4 -5c-1.33301 -23.333 -9.33301 -39 -24 -47s-32.334 -12 -53.001 -12
c-13.333 0 -26.666 1 -39.999 3s-26 3.66699 -38 5l-12 -81c-4.66699 -31.333 -10.167 -64.333 -16.5 -99s-13.5 -69 -21.5 -103s-17 -64.5 -27 -91.5s-21.167 -48.833 -33.5 -65.5s-25.833 -25 -40.5 -25s-27.5 3.16699 -38.5 9.5s-20.333 14.666 -28 24.999
s-13.5 22.333 -17.5 36s-6 27.834 -6 42.501c0 15.333 2.33301 30.5 7 45.5s11.667 28.833 21 41.5s21.333 23.334 36 32.001s32 14.334 52 17.001c3.33301 0 5 -1.33301 5 -4c0 -3.33301 -1.33301 -5 -4 -5c-18.667 -2 -34.834 -7.16699 -48.501 -15.5
s-24.834 -18.333 -33.501 -30s-15.167 -24.667 -19.5 -39s-6.5 -28.5 -6.5 -42.5c0 -12 1.66699 -23.833 5 -35.5s7.83301 -22.167 13.5 -31.5s11.834 -16.833 18.501 -22.5s13.667 -8.5 21 -8.5c9.33301 0 18.5 7.66699 27.5 23s17.5 35.666 25.5 60.999
s15.667 54.166 23 86.499s14 65.333 20 99s11.5 66.667 16.5 99l13.5 86.5h-13c-30 0 -54.833 -6.33301 -74.5 -19s-33.834 -36.667 -42.501 -72zM279.005 513.997c-4.66699 -12 -7.00098 -26 -7.00098 -42s2.66699 -30.667 8 -44s12.333 -20 21 -20
c6.66699 0 12.334 3.5 17.001 10.5s7 15.833 7 26.5s-3.33301 22.167 -10 34.5s-18.667 23.833 -36 34.5z" />
    <glyph glyph-name="G" unicode="G" horiz-adv-x="564" 
d="M591 -133c0 1.33301 0.999023 1.99902 2.99902 1.99902c2.66699 0 4 -1.33301 4 -4c0 -2 -0.333008 -3.33301 -1 -4c-17.333 -19.333 -38 -32.666 -62 -39.999s-49.667 -11 -77 -11c-24.667 0 -50 2 -76 6c-10.667 -39.333 -27 -71.166 -49 -95.499
s-51.333 -36.5 -88 -36.5c-15.333 0 -30 2 -44 6s-26.5 9.83301 -37.5 17.5s-19.833 17.167 -26.5 28.5s-10 24 -10 38s2.5 25.833 7.5 35.5s11.667 17.167 20 22.5s18 9.16602 29 11.499s22.5 3.5 34.5 3.5c18 0 37.167 -1.66699 57.5 -5l62.5 -10c6 25.333 12 53 18 83
l18 92.5c6 31.667 11.667 63 17 94s10.666 60.5 15.999 88.5c-10.667 -24.667 -23.334 -46.667 -38.001 -66s-30 -35.666 -46 -48.999s-32.5 -23.5 -49.5 -30.5s-33.5 -10.5 -49.5 -10.5c-34 0 -61.667 14.833 -83 44.5s-32 71.5 -32 125.5c0 36 4.66699 73 14 111
s21.666 73.667 36.999 107c-16.667 11.333 -33.167 25 -49.5 41s-32.5 35 -48.5 57c-0.666992 0.666992 -1 1.66699 -1 3c0 2.66699 1.33301 4 4 4c2 0 3.33301 -0.333008 4 -1c15.333 -22 31 -40.833 47 -56.5s32 -28.834 48 -39.501c12 25.333 25.667 49.166 41 71.499
s32 41.833 50 58.5s37.333 29.834 58 39.501s42.667 14.5 66 14.5c20.667 0 39.5 -6 56.5 -18s25.5 -30.667 25.5 -56c0 -17.333 -4.66699 -35.166 -14 -53.499s-22.166 -35 -38.499 -50s-35.666 -27.5 -57.999 -37.5s-46.5 -15 -72.5 -15c-26.667 0 -52.667 5.66699 -78 17
c-12.667 -30 -23 -62.333 -31 -97s-12 -68.334 -12 -101.001c0 -21.333 2 -41.333 6 -60s9.66699 -35 17 -49s16.333 -25 27 -33s23 -12 37 -12c18 0 36 5.83301 54 17.5s34.833 27 50.5 46s29.334 40.167 41.001 63.5s20.5 46.666 26.5 69.999
c0.666992 2 3.5 4.16699 8.5 6.5s10.5 3.5 16.5 3.5c3.33301 0 8 -1 14 -3s9 -4.33301 9 -7v-1l-17 -101.5c-6 -37 -12.5 -74.167 -19.5 -111.5l-21.5 -110c-7.33301 -36 -14.333 -68.333 -21 -97c24.667 -4 49.334 -6 74.001 -6c25.333 0 49.5 3.33301 72.5 10
s42.833 19.334 59.5 38.001zM334.999 -177.001l-60.498 9.99805c-19.667 3.33301 -38.167 5 -55.5 5c-22 0 -41.5 -4.5 -58.5 -13.5s-25.5 -25.833 -25.5 -50.5c0 -10.667 2.5 -20.667 7.5 -30s11.667 -17.666 20 -24.999s18.166 -13.166 29.499 -17.499
s23.666 -6.5 36.999 -6.5c16 0 29.833 4 41.5 12s21.667 18.167 30 30.5s15.333 26 21 41s10.167 29.833 13.5 44.5zM314.001 564.997c-22.667 -18 -43.334 -40.501 -62.001 -67.501s-35 -56.5 -49 -88.5c25.333 -10.667 50.333 -16 75 -16s47.667 4.83301 69 14.5
s39.833 21.834 55.5 36.501s27.834 30.667 36.501 48s13 34 13 50c0 20 -6.16699 35 -18.5 45s-24.833 15 -37.5 15c-14 0 -28.333 -3.83301 -43 -11.5s-27.667 -16.167 -39 -25.5z" />
    <glyph glyph-name="H" unicode="H" horiz-adv-x="679" 
d="M284 273c0 -2.66699 -1.3252 -3.99805 -3.99219 -3.99805c-3.33301 0 -5 1.66699 -5 5c1.33301 22.667 8.83301 38.5 22.5 47.5s31.167 14.5 52.5 16.5c4.66699 30 9.5 58.667 14.5 86s11.333 52.166 19 74.499s16.667 41.833 27 58.5s23.166 29.667 38.499 39
c-40.667 -0.666992 -76 -6.83398 -106 -18.501s-52 -33.5 -66 -65.5c19.333 -11.333 33.166 -23.833 41.499 -37.5s12.5 -26.834 12.5 -39.501c0 -16.667 -5.5 -30.834 -16.5 -42.501s-23.5 -17.5 -37.5 -17.5c-9.33301 0 -17.5 2.5 -24.5 7.5s-13 11.5 -18 19.5
s-8.83301 17.167 -11.5 27.5s-4 20.833 -4 31.5c0 22 4.66699 42.333 14 61c-19.333 5.33301 -37 8 -53 8c-28 0 -52.5 -7.5 -73.5 -22.5s-35.167 -38.5 -42.5 -70.5c-1.33301 -2 -2.66602 -3 -3.99902 -3c-3.33301 0 -5 1.66699 -5 5c7.33301 34.667 22.5 60 45.5 76
s49.5 24 79.5 24c18.667 0 37.667 -3 57 -9c14.667 25.333 37.334 44.333 68.001 57s75.334 19 134.001 19h25.5c10.333 0 20.166 -0.166992 29.499 -0.5s17.5 -0.833008 24.5 -1.5s10.5 -2 10.5 -4c0 -2.66699 -1.33301 -4 -4 -4h-13
c-17.333 -4.66699 -32.166 -14.667 -44.499 -30s-22.833 -34.333 -31.5 -57s-15.834 -48.5 -21.501 -77.5s-10.834 -59.5 -15.501 -91.5l41 -2c14 -0.666992 28 -1 42 -1c11.333 0 22.833 0.5 34.5 1.5s22.167 2.83301 31.5 5.5l56 251
c1.33301 3.33301 4.16602 5.66602 8.49902 6.99902s9.16602 2 14.499 2c6.66699 0 12.667 -0.833008 18 -2.5s8 -4.16699 8 -7.5c0 -2 -2.83301 -16.167 -8.5 -42.5l-21.5 -102c-8.66699 -41.667 -17.834 -88.334 -27.501 -140.001s-18.834 -103.5 -27.501 -155.5
s-15.834 -101.833 -21.501 -149.5s-8.5 -88.167 -8.5 -121.5c0 -25.333 1.83301 -45.166 5.5 -59.499s10.167 -21.5 19.5 -21.5c8.66699 0 17.5 5.16699 26.5 15.5s17.833 22.666 26.5 36.999s16.834 29.333 24.501 45s14.167 28.5 19.5 38.5
c1.33301 1.33301 2.66602 2 3.99902 2c2.66699 0 4 -1.33301 4 -4v-2l-21.5 -44.5c-8.33301 -17 -17.833 -33.333 -28.5 -49s-22.334 -28.834 -35.001 -39.501s-26.334 -16 -41.001 -16c-21.333 0 -36.833 9.16699 -46.5 27.5s-14.5 43.5 -14.5 75.5s2.66699 69.333 8 112
s11.5 85.167 18.5 127.5s14.167 82.166 21.5 119.499l17 88c-10 -2.66699 -20.667 -4.5 -32 -5.5s-23 -1.5 -35 -1.5c-13.333 0 -26.833 0.333008 -40.5 1l-40.5 2c-5.33301 -34 -10.5 -70.333 -15.5 -109s-11.667 -74.5 -20 -107.5s-19.166 -60.333 -32.499 -82
s-31 -32.5 -53 -32.5c-14.667 0 -27.5 3.16699 -38.5 9.5s-20.333 14.666 -28 24.999s-13.5 22.333 -17.5 36s-6 27.834 -6 42.501c0 15.333 2.33301 30.5 7 45.5s11.667 28.833 21 41.5s21.333 23.334 36 32.001s32 14.334 52 17.001c3.33301 0 5 -1.33301 5 -4
c0 -3.33301 -1.33301 -5 -4 -5c-18 -2 -33.667 -7.16699 -47 -15.5s-24.5 -18.333 -33.5 -30s-15.667 -24.5 -20 -38.5s-6.5 -28.333 -6.5 -43c0 -8 1.16699 -17.667 3.5 -29s6 -22.166 11 -32.499s11 -19.166 18 -26.499s15.167 -11 24.5 -11c14 0 26 10.667 36 32
s18.667 47.833 26 79.5s13.5 65.834 18.5 102.501s9.83301 70.334 14.5 101.001c-18.667 -2 -33.834 -7 -45.501 -15s-18.167 -21.667 -19.5 -41zM274.008 503.002c-3.33301 -8.66699 -5.00195 -21.667 -5.00195 -39c0 -8 0.5 -16.167 1.5 -24.5s2.66699 -15.833 5 -22.5
s5.33301 -12.167 9 -16.5s8.16699 -6.5 13.5 -6.5c2.66699 0 7.33398 2.66699 14.001 8s10 16 10 32c0 11.333 -3.66699 23 -11 35s-19.666 23.333 -36.999 34z" />
    <glyph glyph-name="I" unicode="I" horiz-adv-x="456" 
d="M45 434c-1.33301 -2 -3.00293 -2.99512 -5.00293 -2.99512c-2.66699 0 -4 1.66699 -4 5c7.33301 34.667 22.5 60 45.5 76s49.167 24 78.5 24c18.667 0 37.667 -3 57 -9c14.667 24.667 36.5 43.334 65.5 56.001s70.167 19 123.5 19h77h23c2.66699 0 4 -1.66699 4 -5
c0 -2.66699 -1.33301 -4 -4 -4h-13c-22 -6 -40.167 -19.5 -54.5 -40.5s-25.833 -46.833 -34.5 -77.5s-15.667 -64.334 -21 -101.001s-10 -73.334 -14 -110.001l-8 -76c-3.33301 -31.333 -8.66602 -62 -15.999 -92s-18 -55.833 -32 -77.5s-33 -32.5 -57 -32.5
c-14 0 -26.667 3.16699 -38 9.5s-20.666 14.666 -27.999 24.999s-13 22.333 -17 36s-6 27.834 -6 42.501c0 38 12.167 70 36.5 96s62.5 42 114.5 48c4 34.667 8.33301 70.167 13 106.5s10.834 70.666 18.501 102.999s17.834 61 30.501 86s29 43.167 49 54.5
c-40.667 0 -76 -6 -106 -18s-51.667 -34 -65 -66c19.333 -11.333 33.166 -23.833 41.499 -37.5s12.5 -26.834 12.5 -39.501c0 -16.667 -5.5 -30.834 -16.5 -42.501s-23.5 -17.5 -37.5 -17.5c-9.33301 0 -17.5 2.5 -24.5 7.5s-13.167 11.667 -18.5 20
s-9.33301 17.666 -12 27.999s-4 20.833 -4 31.5c0 21.333 4.66699 41.333 14 60c-19.333 5.33301 -37 8 -53 8c-27.333 0 -51.5 -7.5 -72.5 -22.5s-35.167 -38.5 -42.5 -70.5zM281.997 57.0049c8.66699 22 15.498 48.333 20.498 79s9.83301 63.334 14.5 98.001
c-50 -6.66699 -86 -22 -108 -46s-33 -54 -33 -90c0 -12.667 1.66699 -24.834 5 -36.501s7.83301 -22 13.5 -31s11.834 -16.167 18.501 -21.5s13.334 -8 20.001 -8c10 0 19.167 5.33301 27.5 16s15.5 24 21.5 40zM254.995 500.005c-2.66699 -6 -4.5 -12.5 -5.5 -19.5
s-1.5 -14.167 -1.5 -21.5c0 -23.333 3.5 -39.833 10.5 -49.5s13.5 -14.5 19.5 -14.5s11.5 3.5 16.5 10.5s7.5 15.5 7.5 25.5c0 11.333 -3.5 23 -10.5 35s-19.167 23.333 -36.5 34z" />
    <glyph glyph-name="J" unicode="J" horiz-adv-x="497" 
d="M499 -48l6.00195 -6.99902c0.666992 -0.666992 1 -1.66699 1 -3c0 -2.66699 -1.33301 -4 -4 -4c-2 0 -3 0.666992 -3 2l-7 6c-22 23.333 -43.833 41.166 -65.5 53.499s-42.167 21.166 -61.5 26.499c-4 -31.333 -8.5 -61.333 -13.5 -90s-11.5 -53.667 -19.5 -75
s-17.833 -38.333 -29.5 -51s-26.5 -19 -44.5 -19c-14 0 -26.5 3 -37.5 9s-20.5 14.167 -28.5 24.5s-14 22.166 -18 35.499s-6 27.333 -6 42c0 24.667 4.33301 45.667 13 63s20 31.5 34 42.5s30 19.167 48 24.5s36.333 8 55 8c2.66699 22.667 5.66699 51.167 9 85.5
s7.16602 71 11.499 110s9.5 78.333 15.5 118s13 76.334 21 110.001s17.333 62.5 28 86.5s23 40 37 48c-41.333 -0.666992 -77 -7 -107 -19s-51.667 -33.667 -65 -65c16 -9.33301 29 -20.666 39 -33.999s15 -27.666 15 -42.999s-5.33301 -29.166 -16 -41.499
s-22.667 -18.5 -36 -18.5c-14.667 0 -28.334 7.16699 -41.001 21.5s-19 36.166 -19 65.499c0 10 1 20.167 3 30.5s5.66699 20.166 11 29.499c-19.333 5.33301 -37 8 -53 8c-28 0 -52.5 -7.5 -73.5 -22.5s-35.167 -38.5 -42.5 -70.5c-1.33301 -2 -2.66602 -3 -3.99902 -3
c-3.33301 0 -5 1.66699 -5 5c7.33301 34.667 22.5 60 45.5 76s49.5 24 79.5 24c18.667 0 37.667 -3 57 -9c8 13.333 17.5 24.833 28.5 34.5s24.667 17.5 41 23.5s35.5 10.5 57.5 13.5s47.667 4.5 77 4.5h22.5h29c9.66699 0 18.167 -0.5 25.5 -1.5s11 -2.5 11 -4.5
c0 -2.66699 -1.33301 -4 -4 -4h-13c-18.667 -7.33301 -34.5 -24.166 -47.5 -50.499s-24 -57.833 -33 -94.5s-16.5 -76 -22.5 -118s-11 -82.667 -15 -122s-7.33301 -75 -10 -107s-5.66699 -55.667 -9 -71c20.667 -5.33301 42.167 -14.333 64.5 -27
s45.166 -31.334 68.499 -56.001zM273.002 -160.999c6.66699 12.667 12.5039 27.4951 17.5039 44.4951s9.16699 34.333 12.5 52s6.16602 34.834 8.49902 51.501s4.16602 31.334 5.49902 44.001c-18 0 -35.5 -2.33301 -52.5 -7s-32 -12.167 -45 -22.5
s-23.333 -23.666 -31 -39.999s-11.5 -35.833 -11.5 -58.5c0 -11.333 1.5 -22.666 4.5 -33.999s7.16699 -21.666 12.5 -30.999s11.5 -16.833 18.5 -22.5s14.5 -8.5 22.5 -8.5c7.33301 0 14.166 3 20.499 9s12.166 13.667 17.499 23zM265.006 504.996
c-4.66699 -12 -7 -26 -7 -42c0 -18.667 3.16699 -34 9.5 -46s13.5 -18 21.5 -18c6 0 11.5 3.5 16.5 10.5s7.5 15.833 7.5 26.5c0 11.333 -3.5 23 -10.5 35s-19.5 23.333 -37.5 34z" />
    <glyph glyph-name="K" unicode="K" horiz-adv-x="628" 
d="M382 285c-4 -36 -8.33594 -70.9971 -13.0029 -104.997s-11 -64.333 -19 -91s-18.333 -48.167 -31 -64.5s-29.334 -24.5 -50.001 -24.5c-14 0 -26.667 3.16699 -38 9.5s-20.666 14.666 -27.999 24.999s-13 22.166 -17 35.499s-6 27.333 -6 42
c0 15.333 2.33301 30.666 7 45.999s11.667 29.333 21 42s21.333 23.334 36 32.001s32 14.334 52 17.001c2.66699 0 4.33398 -1.33301 5.00098 -4c0 -3.33301 -1.33301 -5 -4 -5c-18.667 -2 -34.667 -7 -48 -15s-24.333 -18 -33 -30s-15 -25.167 -19 -39.5
s-6 -28.833 -6 -43.5c0 -10.667 1.33301 -21.667 4 -33s6.5 -21.833 11.5 -31.5s11.167 -17.5 18.5 -23.5s15.666 -9 24.999 -9c13.333 0 24.333 7.33301 33 22s15.834 34.334 21.501 59.001s10.667 53.167 15 85.5l13 100c4.33301 34.333 9.16602 68.833 14.499 103.5
s12.166 66.834 20.499 96.501s18.5 55.5 30.5 77.5s26.667 38 44 48c-40.667 -0.666992 -76 -6.83398 -106 -18.501s-51.667 -33.5 -65 -65.5c19.333 -11.333 33 -23.833 41 -37.5s12 -26.834 12 -39.501c0 -16.667 -5.33301 -30.834 -16 -42.501s-23 -17.5 -37 -17.5
c-9.33301 0 -17.5 2.5 -24.5 7.5s-13.167 11.667 -18.5 20s-9.33301 17.666 -12 27.999s-4 20.833 -4 31.5c0 21.333 4.66699 41.333 14 60c-19.333 5.33301 -37 8 -53 8c-28 0 -52.333 -7.5 -73 -22.5s-34.667 -38.5 -42 -70.5c-1.33301 -2 -3 -3 -5 -3
c-2.66699 0 -4 1.66699 -4 5c7.33301 34.667 22.5 60 45.5 76s49.5 24 79.5 24c18.667 0 37.667 -3 57 -9c14 25.333 35.833 44.333 65.5 57s72.834 19 129.501 19h25c10.667 0 21.334 -0.166992 32.001 -0.5s19.834 -0.833008 27.501 -1.5s11.5 -2 11.5 -4
c0 -2.66699 -1.33301 -4 -4 -4h-12c-20 -5.33301 -36.5 -16.833 -49.5 -34.5s-24 -39.167 -33 -64.5s-16.333 -53.833 -22 -85.5s-10.5 -63.834 -14.5 -96.501c10 13.333 23.833 24.166 41.5 32.499s37 16.333 58 24s42.333 16.334 64 26.001s41.834 22.834 60.501 39.501
s34.667 38 48 64s22 59.333 26 100c0 3.33301 1.66699 5 5 5c2 -1.33301 3 -2.66602 3 -3.99902v-1c-4 -44 -13.333 -79.833 -28 -107.5s-32 -50 -52 -67s-41.667 -30.5 -65 -40.5s-45.666 -18.833 -66.999 -26.5s-40.333 -16 -57 -25s-29 -21.5 -37 -37.5
c19.333 -9.33301 39.333 -28 60 -56s41.334 -60.5 62.001 -97.5l62 -116.5c20.667 -40.667 41 -78 61 -112s39.833 -62 59.5 -84s38.5 -33 56.5 -33c13.333 0 26 6.66699 38 20s23.667 36 35 68c0.666992 2 1.66699 3 3 3c3.33301 0 5 -1.33301 5 -4v-1
c-3.33301 -12 -8 -24.5 -14 -37.5s-12.833 -24.833 -20.5 -35.5s-16.334 -19.334 -26.001 -26.001s-19.834 -10 -30.501 -10c-22 0 -44 9.33301 -66 28s-43.667 42.834 -65 72.501s-42.333 63 -63 100l-59.5 111l-54.5 105.5c-17.333 33.333 -33.333 60.666 -48 81.999z
M267.997 514.003c-2.66699 -6 -4.5 -12.5 -5.5 -19.5s-1.5 -14.167 -1.5 -21.5c0 -20.667 3.33301 -36.667 10 -48s13.334 -17 20.001 -17c7.33301 0 13.166 3.83301 17.499 11.5s6.5 16.5 6.5 26.5c0 11.333 -3.5 23 -10.5 35s-19.167 23 -36.5 33z" />
    <glyph glyph-name="L" unicode="L" horiz-adv-x="492" 
d="M305 -16c-22.667 6.66699 -42.667 9.99902 -60 9.99902c-20.667 0 -36 -3.66699 -46 -11s-15 -15.666 -15 -24.999c0 -6.66699 3.83301 -14.167 11.5 -22.5s19.167 -12.5 34.5 -12.5s29.833 6.5 43.5 19.5s24.167 26.833 31.5 41.5zM641 -0.000976562
c1.33301 1.33301 2.66309 2.00098 3.99609 2.00098c2.66699 0 4 -1.66699 4 -5v-2c-18.667 -32 -38.167 -54.333 -58.5 -67s-41.5 -19 -63.5 -19c-14 0 -28.5 2 -43.5 6s-30 9 -45 15s-30.167 12.5 -45.5 19.5s-30.666 13.5 -45.999 19.5c-10.667 -18 -23.5 -32 -38.5 -42
s-33.833 -15 -56.5 -15c-26.667 0 -46.5 5 -59.5 15s-19.5 20.667 -19.5 32s6 21.333 18 30s30 13 54 13c18.667 0 40 -3.33301 64 -10c10.667 24 18.834 54.333 24.501 91s10.834 75.834 15.501 117.501l14 127.5c4.66699 43.333 11 83.833 19 121.5s18.5 70.5 31.5 98.5
s30.167 47.667 51.5 59c-41.333 -0.666992 -76.833 -7 -106.5 -19s-51.167 -33.667 -64.5 -65c19.333 -11.333 33 -23.833 41 -37.5s12 -26.834 12 -39.501c0 -16.667 -5.33301 -30.834 -16 -42.501s-23 -17.5 -37 -17.5c-9.33301 0 -17.5 2.5 -24.5 7.5s-13 11.5 -18 19.5
s-8.83301 17.167 -11.5 27.5s-4 20.833 -4 31.5c0 22 4.66699 42.333 14 61c-19.333 5.33301 -37 8 -53 8c-28 0 -52.5 -7.5 -73.5 -22.5s-35.167 -38.5 -42.5 -70.5c-1.33301 -2 -2.66602 -3 -3.99902 -3c-3.33301 0 -5 1.66699 -5 5c7.33301 34.667 22.5 60 45.5 76
s49.5 24 79.5 24c18.667 0 37.667 -3 57 -9c7.33301 12.667 16.5 23.834 27.5 33.501s24.5 17.667 40.5 24s35 11 57 14s47.667 4.5 77 4.5h24c10 0 19.833 -0.166992 29.5 -0.5s18.167 -0.833008 25.5 -1.5s11 -2 11 -4c0 -2.66699 -1.33301 -4 -4 -4h-13
c-22.667 -6 -41 -18.833 -55 -38.5s-25 -43.334 -33 -71.001s-14 -58.167 -18 -91.5s-7.66699 -67.333 -11 -102c-2 -22.667 -4.83301 -49.834 -8.5 -81.501s-8.16699 -63.167 -13.5 -94.5s-11.333 -60.666 -18 -87.999s-13.667 -48.333 -21 -63
c30 -12 59.5 -24.667 88.5 -38s57.167 -20 84.5 -20c21.333 0 41.833 6 61.5 18s38.167 33 55.5 63zM290.997 514c-2 -6 -3.66699 -12.501 -5 -19.501s-2 -14.167 -2 -21.5c0 -17.333 3.16699 -32.666 9.5 -45.999s13.166 -20 20.499 -20
c6.66699 0 12.334 4.33301 17.001 13s7 17.667 7 27c0 10.667 -3.5 22 -10.5 34s-19.167 23 -36.5 33z" />
    <glyph glyph-name="M" unicode="M" horiz-adv-x="990" 
d="M951 -68c0.666992 1.33301 1.67188 2.00488 3.00488 2.00488c3.33301 0 5 -1.33301 5 -4v-1l-16 -44.5c-6 -16.333 -13.167 -31.666 -21.5 -45.999s-18.5 -26.5 -30.5 -36.5s-26 -15 -42 -15c-21.333 0 -36.333 9.66699 -45 29s-13 45.666 -13 78.999
c0 27.333 2.33301 58 7 92s10.5 69.667 17.5 107l22.5 114.5l22.5 113.5c7 36.667 12.833 71.334 17.5 104.001s7 61.667 7 87c0 36 -5.66699 61.333 -17 76s-22.666 22 -33.999 22c-14.667 0 -29.334 -7 -44.001 -21s-28.834 -32.167 -42.501 -54.5
s-26.834 -48 -39.501 -77s-24.667 -58.5 -36 -88.5s-21.666 -59.333 -30.999 -88l-24 -76l-14 -45c-2.66699 -2 -6 -3.83301 -10 -5.5s-8.33301 -2.5 -13 -2.5c-5.33301 0 -10.166 1 -14.499 3s-7.5 5.66699 -9.5 11c3.33301 22 7.16602 45.167 11.499 69.5
s9.16602 48.5 14.499 72.5l8.5 40c3 14.667 5.83301 29.667 8.5 45s5 30.5 7 45.5s3 29.167 3 42.5c0 22.667 -3.5 42.667 -10.5 60s-18.167 26 -33.5 26c-7.33301 0 -15.5 -2.66699 -24.5 -8s-18.333 -12.5 -28 -21.5s-19.167 -19.5 -28.5 -31.5s-18.333 -24.333 -27 -37
c-3.33301 -4.66699 -9.83301 -15.5 -19.5 -32.5l-34.5 -63.5c-8.66699 -43.333 -16.334 -86.666 -23.001 -129.999s-14 -82.5 -22 -117.5s-17.667 -63.5 -29 -85.5s-26.333 -33 -45 -33c-9.33301 0 -15.833 3 -19.5 9s-5.5 14 -5.5 24c0 16 3.66699 35.667 11 59
s15.666 46.166 24.999 68.499s18 42 26 59s12.333 27.167 13 30.5l3 14l18.5 108c6.33301 36 14.166 69.667 23.499 101s20.333 58.833 33 82.5s28 40.834 46 51.501c-20 0 -39.5 -0.833008 -58.5 -2.5s-36.833 -5.33398 -53.5 -11.001s-31.5 -14 -44.5 -25
s-23.833 -26.167 -32.5 -45.5c19.333 -11.333 33.166 -23.833 41.499 -37.5s12.5 -26.834 12.5 -39.501c0 -16.667 -5.5 -30.834 -16.5 -42.501s-23.5 -17.5 -37.5 -17.5c-9.33301 0 -17.5 2.5 -24.5 7.5s-13 11.5 -18 19.5s-8.83301 17.167 -11.5 27.5s-4 20.833 -4 31.5
c0 22 4.66699 42.333 14 61c-19.333 5.33301 -37.333 8 -54 8c-28 0 -52.5 -7.33301 -73.5 -22s-34.833 -38.334 -41.5 -71.001c-1.33301 -2 -2.66602 -3 -3.99902 -3c-3.33301 0 -5 1.66699 -5 5c7.33301 34.667 22.5 60 45.5 76s49.5 24 79.5 24c18.667 0 37.667 -3 57 -9
c12 21.333 31.167 39.166 57.5 53.499s61.833 21.5 106.5 21.5h125c3.33301 -0.666992 5 -2.33398 5 -5.00098s-1 -4 -3 -4c-14.667 -4 -27.667 -12.167 -39 -24.5s-21.333 -28 -30 -47s-16.5 -40.333 -23.5 -64s-13.167 -48.834 -18.5 -75.501
c12 22.667 24.667 44.667 38 66s27.333 40.5 42 57.5s30.167 30.667 46.5 41s33.166 15.5 50.499 15.5c20 0 36.833 -8.33301 50.5 -25s20.5 -42 20.5 -76c0 -18 -1.66699 -38.333 -5 -61s-7.33301 -45.667 -12 -69s-9.5 -46.333 -14.5 -69s-8.83301 -42.334 -11.5 -59.001
c7.33301 24.667 15.833 51.834 25.5 81.501s20.334 59.167 32.001 88.5s24 57.833 37 85.5s26.833 52.167 41.5 73.5s30.167 38.333 46.5 51s33.166 19 50.499 19c29.333 0 49.833 -12.333 61.5 -37s17.5 -57.334 17.5 -98.001c0 -28.667 -2.16699 -60.167 -6.5 -94.5
s-10 -70 -17 -107l-22 -112l-22 -109.5c-7 -35.333 -12.667 -68.5 -17 -99.5s-6.5 -58.167 -6.5 -81.5c0 -22.667 2.83301 -41.667 8.5 -57s14.834 -23 27.501 -23c9.33301 0 18.5 5.83301 27.5 17.5s17.167 24.834 24.5 39.501s13.5 29 18.5 43s8.16699 23 9.5 27z
M269.005 29.0049c14.667 14.667 26.5 39.8311 35.5 75.498s17.167 75.834 24.5 120.501c-4.66699 -10 -10.5 -23.167 -17.5 -39.5s-13.667 -33.166 -20 -50.499s-11.833 -34.333 -16.5 -51s-7 -31 -7 -43c0 -6 0.333008 -10 1 -12zM266.005 523.002
c-4.66699 -11.333 -7.00098 -23.667 -7.00098 -37c0 -18 3.5 -34.167 10.5 -48.5s14.5 -21.5 22.5 -21.5c3.33301 0 7.83301 3 13.5 9s8.5 15.667 8.5 29c0 11.333 -3.66699 23 -11 35s-19.666 23.333 -36.999 34z" />
    <glyph glyph-name="N" unicode="N" horiz-adv-x="668" 
d="M640 -67c0.666992 1.33301 2.00684 2.00586 4.00684 2.00586c2.66699 0 4 -1.33301 4 -4v-1c-4 -12.667 -8.83301 -27.167 -14.5 -43.5s-12.5 -31.833 -20.5 -46.5s-17.667 -27.167 -29 -37.5s-24.333 -15.5 -39 -15.5c-24 0 -40.667 10.667 -50 32s-14 53 -14 95
c0 28 1.83301 58.667 5.5 92s8.16699 67.833 13.5 103.5s11 71.5 17 107.5l17 102c5.33301 32 9.83301 61.5 13.5 88.5s5.5 49.167 5.5 66.5c0 22.667 -3.5 42.667 -10.5 60s-18.167 26 -33.5 26c-16.667 0 -32.834 -7.33301 -48.501 -22s-30.5 -32.334 -44.5 -53.001
s-26.833 -42 -38.5 -64s-21.834 -40.333 -30.501 -55c-8.66699 -43.333 -16.334 -86.666 -23.001 -129.999s-14 -82.5 -22 -117.5s-17.833 -63.5 -29.5 -85.5s-26.834 -33 -45.501 -33c-9.33301 0 -15.833 3 -19.5 9s-5.5 14 -5.5 24c0 16 3.66699 35.667 11 59
s15.666 46.166 24.999 68.499s18 42 26 59s12.667 27.167 14 30.5l2 14c6 36 12.333 72 19 108s14.667 69.667 24 101s20.166 58.833 32.499 82.5s27.5 40.834 45.5 51.501c-40.667 0 -76.167 -5.83301 -106.5 -17.5s-52.166 -33.834 -65.499 -66.501
c19.333 -11.333 33.166 -23.833 41.499 -37.5s12.5 -27.167 12.5 -40.5c0 -16.667 -5.33301 -30.834 -16 -42.501s-23 -17.5 -37 -17.5c-9.33301 0 -17.666 2.5 -24.999 7.5s-13.666 11.667 -18.999 20s-9.33301 17.666 -12 27.999s-4 20.833 -4 31.5
c0 22 4.66699 42.333 14 61c-19.333 5.33301 -37.333 8 -54 8c-27.333 0 -51.5 -7.33301 -72.5 -22s-34.833 -38.334 -41.5 -71.001c-1.33301 -2 -3 -3 -5 -3c-2.66699 0 -4 1 -4 3v2c7.33301 34.667 22.333 60 45 76s49 24 79 24c18.667 0 37.667 -3 57 -9
c8 13.333 17.667 24.833 29 34.5s25 17.5 41 23.5s35 10.5 57 13.5s48 4.5 78 4.5h22.5h29c9.66699 0 18 -0.5 25 -1.5s10.5 -2.5 10.5 -4.5c0 -2.66699 -1.33301 -4 -4 -4h-13c-14.667 -4 -27.5 -12.333 -38.5 -25s-21 -28.334 -30 -47.001s-16.833 -39.834 -23.5 -63.501
s-12.667 -48.834 -18 -75.501c12 22.667 24.667 44.667 38 66s27.333 40.5 42 57.5s30 30.667 46 41s33 15.5 51 15.5c19.333 0 36.166 -7.83301 50.499 -23.5s21.5 -39.5 21.5 -71.5c0 -15.333 -1.83301 -36.666 -5.5 -63.999s-8.33398 -58 -14.001 -92l-18 -109
c-6.33301 -38.667 -12.333 -77.167 -18 -115.5s-10.334 -75 -14.001 -110s-5.5 -66.167 -5.5 -93.5c0 -28 2.5 -50.333 7.5 -67s13.5 -25 25.5 -25c9.33301 0 18.333 5.83301 27 17.5s16.667 25 24 40s13.5 29.5 18.5 43.5s8.5 23 10.5 27zM225.007 515.006
c-3.33301 -10 -5 -23.998 -5 -41.998c0 -16 2 -31.167 6 -45.5s11.667 -21.5 23 -21.5c5.33301 0 10.666 3.16699 15.999 9.5s8 16.166 8 29.499c0 11.333 -3.66699 23.166 -11 35.499s-19.666 23.833 -36.999 34.5zM213.007 21.0078c14 14.667 25.5 39.8311 34.5 75.498
s17.5 75.834 25.5 120.501c-4.66699 -10 -10.5 -23.167 -17.5 -39.5s-13.667 -33.166 -20 -50.499s-11.833 -34.333 -16.5 -51s-7 -31 -7 -43c0 -6 0.333008 -10 1 -12z" />
    <glyph glyph-name="O" unicode="O" horiz-adv-x="741" 
d="M585 392c0 2.66699 1.33398 4.00879 4.00098 4.00879c3.33301 0 5 -2.66699 5 -8c0 -30 -3.83301 -57.333 -11.5 -82s-17.334 -45.834 -29.001 -63.501s-24.667 -31.5 -39 -41.5s-27.833 -15 -40.5 -15c-17.333 0 -32 9.66699 -44 29s-18 50 -18 92
c0 31.333 3.83301 65 11.5 101s18.667 69.5 33 100.5s32 56.667 53 77s45.167 30.5 72.5 30.5c20.667 0 37.334 -7 50.001 -21s22.667 -31.5 30 -52.5s12.333 -43.667 15 -68s4 -46.833 4 -67.5c0 -27.333 -2.16699 -56 -6.5 -86s-10.833 -59.833 -19.5 -89.5
s-19.334 -57.834 -32.001 -84.501s-27.5 -50.334 -44.5 -71.001s-36 -37 -57 -49s-43.833 -18 -68.5 -18c-22.667 0 -42.5 7 -59.5 21s-31 33 -42 57s-19.333 51.833 -25 83.5s-8.5 64.834 -8.5 99.501c0 34 2.66699 68.5 8 103.5s13.333 67.667 24 98s24 57.5 40 81.5
s34.333 42 55 54c-18 0 -36 -0.5 -54 -1.5s-35.5 -3.83301 -52.5 -8.5s-32.5 -11.834 -46.5 -21.501s-26 -23.167 -36 -40.5l-6 -12c19.333 -11.333 33.166 -23.833 41.499 -37.5s12.5 -26.5 12.5 -38.5c0 -17.333 -5.66699 -31.833 -17 -43.5s-24 -17.5 -38 -17.5
c-12.667 0 -25.334 7.16699 -38.001 21.5s-19 36.166 -19 65.499c0 10 1 20.167 3 30.5s5.33301 20.166 10 29.499c-19.333 5.33301 -37.333 8 -54 8c-27.333 0 -51.5 -7.33301 -72.5 -22s-34.833 -38.334 -41.5 -71.001c-1.33301 -2 -2.66602 -3 -3.99902 -3
c-3.33301 0 -5 1.66699 -5 5c7.33301 34.667 22.5 60 45.5 76s49.5 24 79.5 24c18.667 0 37.667 -3 57 -9c10 16.667 22.333 30 37 40s30.834 17.667 48.501 23s36.334 8.83301 56.001 10.5s39.5 2.5 59.5 2.5h26c10.667 0 21.334 -0.166992 32.001 -0.5
s19.834 -0.833008 27.501 -1.5s11.5 -1.66699 11.5 -3c0 -2.66699 -1.33301 -4.33398 -4 -5.00098c-22 -9.33301 -41.5 -24.833 -58.5 -46.5s-31.167 -47.667 -42.5 -78s-20 -63.833 -26 -100.5s-9 -74.334 -9 -113.001c0 -25.333 1.83301 -52.5 5.5 -81.5
s9.5 -55.833 17.5 -80.5s18.833 -45 32.5 -61s30.5 -24 50.5 -24c21.333 0 41.166 6.5 59.499 19.5s34.833 30.167 49.5 51.5s27.5 45.666 38.5 72.999s20.333 55.5 28 84.5s13.334 57.667 17.001 86s5.5 54.166 5.5 77.499c0 32.667 -2.16699 60.5 -6.5 83.5
s-9.83301 41.833 -16.5 56.5s-14.334 25.334 -23.001 32.001s-17 10 -25 10c-10.667 0 -21.667 -4 -33 -12s-22.333 -18.5 -33 -31.5s-20.334 -28.167 -29.001 -45.5s-16 -35 -22 -53c-2 -6 -4.33301 -15 -7 -27s-5.33398 -25.5 -8.00098 -40.5
s-4.83398 -30.833 -6.50098 -47.5s-2.5 -32.667 -2.5 -48c0 -22.667 2.66699 -42.667 8 -60s15 -26 29 -26c10.667 0 21.334 5.83301 32.001 17.5s20.167 26.667 28.5 45s15 38.5 20 60.5s7.5 43.333 7.5 64zM247.001 515.009c-3.33301 -10 -4.99902 -24 -4.99902 -42
c0 -16.667 2.16699 -32 6.5 -46s12.166 -21 23.499 -21c3.33301 0 7.83301 3.33301 13.5 10s8.5 16.667 8.5 30c0 11.333 -3.5 23 -10.5 35s-19.167 23.333 -36.5 34z" />
    <glyph glyph-name="P" unicode="P" horiz-adv-x="492" 
d="M52 430c0 -2 -1.33203 -2.99707 -3.99902 -2.99707s-4 1 -4 3v2c7.33301 34.667 22.333 60 45 76s49 24 79 24c18.667 0 37.667 -3 57 -9c8 13.333 18.667 24.833 32 34.5s28.666 17.834 45.999 24.501s35.833 11.5 55.5 14.5s39.5 4.5 59.5 4.5
c60.667 0 109.5 -12.333 146.5 -37s55.5 -60.667 55.5 -108c0 -24 -6.16699 -48.667 -18.5 -74s-28.833 -48.5 -49.5 -69.5s-44.5 -38.167 -71.5 -51.5s-55.5 -20 -85.5 -20h-9c-2.66699 0 -5.66699 0.333008 -9 1c-4 -32.667 -8.16699 -63.667 -12.5 -93
s-10.333 -55 -18 -77s-17.667 -39.5 -30 -52.5s-27.833 -19.5 -46.5 -19.5c-14 0 -26.667 3.16699 -38 9.5s-20.666 14.666 -27.999 24.999s-13 22.333 -17 36s-6 27.834 -6 42.501c0 13.333 2.33301 28 7 44s11.667 30.833 21 44.5s21.333 25 36 34s32 13.5 52 13.5
c2.66699 0 4 -1.66699 4 -5c0 -2 -1 -3.33301 -3 -4c-18 -2 -33.833 -7.16699 -47.5 -15.5s-25 -18.333 -34 -30s-15.833 -24.5 -20.5 -38.5s-7 -28.333 -7 -43c0 -12 1.5 -23.667 4.5 -35s7.16699 -21.5 12.5 -30.5s11.5 -16.167 18.5 -21.5s14.5 -8 22.5 -8
c17.333 0 31.166 11.167 41.499 33.5s18.666 51 24.999 86s11.833 74.167 16.5 117.5s10.667 86.166 18 128.499s16.833 81.833 28.5 118.5s27.834 65.667 48.501 87c-38 0 -71 -6.83301 -99 -20.5s-48 -34.834 -60 -63.501c19.333 -11.333 33 -23.833 41 -37.5
s12 -26.834 12 -39.501c0 -16.667 -5.33301 -30.834 -16 -42.501s-23 -17.5 -37 -17.5c-9.33301 0 -17.5 2.5 -24.5 7.5s-13.167 11.5 -18.5 19.5s-9.33301 17.167 -12 27.5s-4 20.5 -4 30.5c0 21.333 4.66699 42 14 62c-19.333 5.33301 -37 8 -53 8
c-28 0 -52.5 -7.5 -73.5 -22.5s-35.167 -38.5 -42.5 -70.5zM262.001 496.003c-2 -6.66699 -3.66895 -13.335 -5.00195 -20.002s-2 -13.667 -2 -21c0 -8 0.833008 -16 2.5 -24s4 -15.167 7 -21.5s6.33301 -11.666 10 -15.999s7.83398 -6.5 12.501 -6.5
c3.33301 0 8 3.33301 14 10s9 17 9 31c0 11.333 -3.66699 22.833 -11 34.5s-19.666 22.834 -36.999 33.501zM471.999 583.002c-16 -16.667 -29.3301 -37.502 -39.9971 -62.502s-19.334 -52.333 -26.001 -82s-12.167 -60.667 -16.5 -93s-8.16602 -63.833 -11.499 -94.5
c23.333 3.33301 46.666 11.333 69.999 24s44.166 28.334 62.499 47.001s33.166 39.667 44.499 63s17 47.333 17 72c0 32 -9.5 58.833 -28.5 80.5s-42.833 36.834 -71.5 45.501z" />
    <glyph glyph-name="Q" unicode="Q" horiz-adv-x="510" 
d="M262 609c3.33301 0 5.00293 -1.33008 5.00293 -3.99707s-1.33301 -4.33398 -4 -5.00098c-22 -9.33301 -41.5 -24.833 -58.5 -46.5s-31.167 -47.667 -42.5 -78s-20 -63.833 -26 -100.5s-9 -74.334 -9 -113.001c0 -25.333 1.83301 -52.5 5.5 -81.5s9.5 -55.833 17.5 -80.5
s18.833 -45 32.5 -61s30.5 -24 50.5 -24c17.333 0 35.666 6.66699 54.999 20l3 2c-9.33301 3.33301 -18 6 -26 8s-15.333 3 -22 3c-9.33301 0 -16.666 -2.33301 -21.999 -7c5.33301 9.33301 11.5 15.666 18.5 18.999s15.167 5 24.5 5c7.33301 0 15 -0.833008 23 -2.5
s16.667 -4.16699 26 -7.5c18.667 18.667 35.334 41.167 50.001 67.5s27 55 37 86s17.667 63.5 23 97.5s8 67.667 8 101c0 32.667 -2.16699 60.5 -6.5 83.5s-9.83301 41.833 -16.5 56.5s-14.334 25.334 -23.001 32.001s-17 10 -25 10c-10.667 0 -21.667 -4 -33 -12
s-22.333 -18.5 -33 -31.5s-20.334 -28.167 -29.001 -45.5s-16 -35 -22 -53c-2 -6 -4.33301 -15 -7 -27s-5.33398 -25.5 -8.00098 -40.5s-4.83398 -30.833 -6.50098 -47.5s-2.5 -32.667 -2.5 -48c0 -22.667 2.66699 -42.667 8 -60s15 -26 29 -26
c10.667 0 21.334 5.83301 32.001 17.5s20.167 26.667 28.5 45s15 38.5 20 60.5s7.5 43.333 7.5 64c0 2.66699 1.33301 4 4 4c3.33301 0 5 -2.66699 5 -8c0 -30 -3.83301 -57.333 -11.5 -82s-17.334 -45.834 -29.001 -63.501s-24.667 -31.5 -39 -41.5s-27.833 -15 -40.5 -15
c-17.333 0 -32 9.66699 -44 29s-18 50 -18 92c0 31.333 3.83301 65 11.5 101s18.667 69.5 33 100.5s32 56.667 53 77s45.167 30.5 72.5 30.5c20.667 0 37.334 -7 50.001 -21s22.667 -31.5 30 -52.5s12.333 -43.667 15 -68s4 -46.833 4 -67.5
c0 -29.333 -2.5 -60.5 -7.5 -93.5s-12.5 -65.167 -22.5 -96.5s-22.333 -60.833 -37 -88.5s-31.667 -50.834 -51 -69.501c15.333 -5.33301 30.166 -11.5 44.499 -18.5s27.833 -12.5 40.5 -16.5c16 -5.33301 28.333 -7.16602 37 -5.49902s13 1.16699 13 -1.5
c0 -2 -1.5 -3.66699 -4.5 -5s-6.33301 -2.5 -10 -3.5s-7.5 -1.66699 -11.5 -2s-7 -0.5 -9 -0.5c-17.333 0 -36.333 4 -57 12s-42 15.667 -64 23c-10 -10 -23.667 -17.833 -41 -23.5s-33.333 -8.5 -48 -8.5c-21.333 0 -40.333 7 -57 21s-30.667 33 -42 57s-20 52.333 -26 85
s-9 68 -9 106c0 38.667 3.5 77.167 10.5 115.5s18 73.333 33 105s34.167 58.167 57.5 79.5s51 34 83 38z" />
    <glyph glyph-name="R" unicode="R" horiz-adv-x="703" 
d="M40 430c0 -2 -1.33301 -2.99609 -4 -2.99609s-4 1 -4 3v2c7.33301 34.667 22.333 60 45 76s49 24 79 24c18.667 0 37.667 -3 57 -9c8 13.333 18.667 24.833 32 34.5s28.666 17.834 45.999 24.501s35.833 11.5 55.5 14.5s39.5 4.5 59.5 4.5
c60 0 108.667 -12.167 146 -36.5s56 -60.166 56 -107.499c0 -25.333 -5.16699 -47.833 -15.5 -67.5s-24.166 -36.667 -41.499 -51s-37 -26.166 -59 -35.499s-44.333 -16 -67 -20c21.333 -6 42.5 -21.833 63.5 -47.5s41.833 -56 62.5 -91s41.167 -72.167 61.5 -111.5
s40.333 -75.5 60 -108.5s38.834 -60.333 57.501 -82s36.667 -32.5 54 -32.5c12.667 0 24.834 6.66699 36.501 20s23.167 35.666 34.5 66.999c0.666992 2 1.66699 3 3 3c3.33301 0 5 -1.33301 5 -4v-1c-3.33301 -12 -8 -24.5 -14 -37.5s-12.833 -24.833 -20.5 -35.5
s-16.334 -19.334 -26.001 -26.001s-19.834 -10 -30.501 -10c-18 0 -35.667 6.66699 -53 20s-34.666 31.166 -51.999 53.499s-34.5 47.666 -51.5 75.999l-51 87.5l-50 88.5c-16.333 29 -32.666 55.5 -48.999 79.5s-32.5 43.833 -48.5 59.5s-32 25.167 -48 28.5l-12 -100.5
c-4 -33 -9.83301 -62.833 -17.5 -89.5s-18 -48.167 -31 -64.5s-29.833 -24.5 -50.5 -24.5c-14 0 -26.667 3.16699 -38 9.5s-20.666 14.666 -27.999 24.999s-13 22.333 -17 36s-6 27.834 -6 42.501c0 13.333 2.33301 28 7 44s11.667 30.833 21 44.5s21.333 25 36 34
s32 13.5 52 13.5c2.66699 0 4 -1.66699 4 -5c0 -2 -1 -3.33301 -3 -4c-18.667 -2 -34.834 -7.33301 -48.501 -16s-24.834 -19 -33.501 -31s-15.167 -25.167 -19.5 -39.5s-6.5 -28.5 -6.5 -42.5c0 -12 1.66699 -23.833 5 -35.5s7.66602 -21.834 12.999 -30.501
s11.5 -15.667 18.5 -21s14.167 -8 21.5 -8c17.333 0 31 11.167 41 33.5s18 51 24 86s11.333 74.333 16 118s10.667 86.667 18 129s17 81.833 29 118.5s28.333 66 49 88c-38 0 -71 -7 -99 -21s-48 -35 -60 -63c19.333 -11.333 33 -23.833 41 -37.5s12 -26.834 12 -39.501
c0 -16.667 -5.33301 -30.834 -16 -42.501s-23 -17.5 -37 -17.5c-9.33301 0 -17.5 2.5 -24.5 7.5s-13.167 11.5 -18.5 19.5s-9.33301 17.167 -12 27.5s-4 20.833 -4 31.5c0 20.667 4.66699 41 14 61c-19.333 5.33301 -37 8 -53 8c-28 0 -52.5 -7.5 -73.5 -22.5
s-35.167 -38.5 -42.5 -70.5zM251 496.004c-4.66699 -12 -7.00098 -26.333 -7.00098 -43c0 -8 0.833008 -15.833 2.5 -23.5s3.83398 -14.667 6.50098 -21s6 -11.5 10 -15.5s8.33301 -6 13 -6c4 0 8.66699 3.16699 14 9.5s8 16.5 8 30.5c0 11.333 -3.5 23 -10.5 35
s-19.167 23.333 -36.5 34zM459.999 583.004c-14.667 -15.333 -26.834 -33.8311 -36.501 -55.498s-17.834 -45.334 -24.501 -71.001s-12.167 -52.667 -16.5 -81s-8.16602 -56.833 -11.499 -85.5c22.667 2.66699 45.334 8.16699 68.001 16.5s43 19.5 61 33.5
s32.5 30.667 43.5 50s16.5 41.333 16.5 66c0 31.333 -8.83301 58.166 -26.5 80.499s-42.167 37.833 -73.5 46.5z" />
    <glyph glyph-name="S" unicode="S" horiz-adv-x="703" 
d="M259 402c-2.66699 0 -3.99805 0.665039 -3.99805 1.99805v2v1c0 2.66699 2 4 6 4c9.33301 0 22.166 1.83301 38.499 5.5s34 8.16699 53 13.5s37.833 11.5 56.5 18.5s35.334 13.833 50.001 20.5l-4 26.5c-1.33301 9 -2 18.167 -2 27.5c0 10 1 20 3 30s5.5 19 10.5 27
s11.667 14.333 20 19s18.833 7 31.5 7c14.667 0 26.167 -4.33301 34.5 -13s12.5 -19.334 12.5 -32.001c0 -9.33301 -2.5 -19.166 -7.5 -29.499s-13.167 -20.166 -24.5 -29.499l-29 -19c4 -28 10.667 -56.5 20 -85.5l28 -86c9.33301 -28.333 17.666 -56.333 24.999 -84
s11 -53.834 11 -78.501c0 -25.333 -4.5 -47.166 -13.5 -65.499s-21.167 -33.5 -36.5 -45.5s-33 -21 -53 -27s-41 -9 -63 -9c-16.667 0 -33.334 1.83301 -50.001 5.5s-32.5 9 -47.5 16s-28.5 15.5 -40.5 25.5s-22 21.667 -30 35h-12c-20 0 -40 2.33301 -60 7
s-39.167 11.5 -57.5 20.5s-35 20.167 -50 33.5s-27.5 29 -37.5 47c-0.666992 0.666992 -1 1.33398 -1 2.00098c0 3.33301 1.33301 5 4 5c0.666992 0 2 -1 4 -3c10 -18 22.667 -33.333 38 -46s32 -23.334 50 -32.001s37 -15 57 -19s40 -6 60 -6
c-9.33301 15.333 -16.166 31.833 -20.499 49.5s-6.5 35.167 -6.5 52.5c0 19.333 2.66699 38.166 8 56.499s12.666 34.5 21.999 48.5s20.833 25.333 34.5 34s29.167 13 46.5 13c14.667 0 27.5 -2.83301 38.5 -8.5s20.167 -13.167 27.5 -22.5s13 -20.166 17 -32.499
s6 -25.5 6 -39.5c0 -15.333 -2.5 -31.166 -7.5 -47.499s-12.667 -31.5 -23 -45.5s-23.333 -26.5 -39 -37.5s-34.167 -18.833 -55.5 -23.5c13.333 -22 30.833 -38 52.5 -48s43.167 -15 64.5 -15c24 0 44 3.5 60 10.5s28.833 16.167 38.5 27.5s16.5 24.5 20.5 39.5
s6 30.5 6 46.5c0 24.667 -3.33301 51 -10 79s-14.334 55.833 -23.001 83.5l-26 80c-8.66699 25.667 -15 48.167 -19 67.5c-15.333 -7.33301 -32.833 -14.5 -52.5 -21.5s-39 -13.167 -58 -18.5s-36.667 -9.83301 -53 -13.5s-29.166 -5.5 -38.499 -5.5zM503.002 491.998
c12.667 8 24.667 17.332 36 27.999s17 24.334 17 41.001c0 7.33301 -2 13.333 -6 18s-8.66699 7 -14 7c-7.33301 0 -15 -5.5 -23 -16.5s-12 -28.5 -12 -52.5c0 -4 0.166992 -8 0.5 -12s0.833008 -8.33301 1.5 -13zM315.002 310.997c-14.667 -13.333 -25.834 -31 -33.501 -53
s-11.5 -45 -11.5 -69c0 -15.333 1.83301 -30.833 5.5 -46.5s9.16699 -30.5 16.5 -44.5c20.667 4.66699 38.667 12.167 54 22.5s28 22.166 38 35.499s17.5 27.833 22.5 43.5s7.5 30.834 7.5 45.501c0 24.667 -5.66699 45.167 -17 61.5s-24.333 24.5 -39 24.5
c-13.333 0 -27.666 -6.66699 -42.999 -20z" />
    <glyph glyph-name="T" unicode="T" horiz-adv-x="497" 
d="M90 434c0 -2 -1.33301 -2.99219 -4 -2.99219s-4 1 -4 3v2c7.33301 34.667 22.333 60 45 76s49 24 79 24c18.667 0 37.667 -3 57 -9c5.33301 9.33301 12.833 18.666 22.5 27.999s21 17.833 34 25.5s28 13.834 45 18.501s35.833 7 56.5 7c24 0 50.5 -2.66699 79.5 -8
s55.5 -8 79.5 -8c21.333 0 39 4.16699 53 12.5s21 24.166 21 47.499c0 3.33301 1.66699 5 5 5c2.66699 0 4 -2.33301 4 -7c0 -14 -2.33301 -25.667 -7 -35s-10.834 -16.666 -18.501 -21.999s-16.5 -9 -26.5 -11s-20.667 -3 -32 -3c-12.667 0 -25.5 1 -38.5 3
s-25.167 3.66699 -36.5 5c-23.333 -22.667 -40.833 -52.834 -52.5 -90.501s-20.834 -78.167 -27.501 -121.5s-12.167 -87.166 -16.5 -131.499s-10.166 -84.333 -17.499 -120s-17.833 -64.834 -31.5 -87.501s-33.167 -34 -58.5 -34c-14 0 -26.667 3.16699 -38 9.5
s-20.666 14.666 -27.999 24.999s-13 22.166 -17 35.499s-6 27.333 -6 42c0 13.333 2.33301 28 7 44s11.667 30.833 21 44.5s21.5 25.167 36.5 34.5s32.5 14 52.5 14c1.33301 0 2.66602 -1.33301 3.99902 -4c0 -2 -1.33301 -3.66699 -4 -5
c-18 -2 -33.833 -7.16699 -47.5 -15.5s-25 -18.333 -34 -30s-15.667 -24.667 -20 -39s-6.5 -28.833 -6.5 -43.5c0 -12.667 1.66699 -24.834 5 -36.501s7.66602 -21.834 12.999 -30.501s11.333 -15.5 18 -20.5s13.667 -7.5 21 -7.5c18 0 32 11.333 42 34s18.333 51.667 25 87
s12.334 74.833 17.001 118.5s10.667 86.834 18 129.501s17 82.167 29 118.5s28.667 65.166 50 86.499c-2.66699 0 -5.16699 0.166992 -7.5 0.5s-4.83301 0.5 -7.5 0.5c-19.333 0 -36.666 -2.66699 -51.999 -8s-28.833 -12 -40.5 -20s-21.334 -16.833 -29.001 -26.5
s-13.5 -19.167 -17.5 -28.5c19.333 -11.333 33 -23.833 41 -37.5s12 -26.834 12 -39.501c0 -16.667 -5.33301 -30.834 -16 -42.501s-23 -17.5 -37 -17.5c-9.33301 0 -17.666 2.5 -24.999 7.5s-13.5 11.667 -18.5 20s-8.83301 17.666 -11.5 27.999s-4 20.5 -4 30.5
c0 22 4.66699 42.333 14 61c-19.333 5.33301 -37 8 -53 8c-28 0 -52.5 -7.5 -73.5 -22.5s-35.167 -38.5 -42.5 -70.5zM300 500.008c-4 -12 -6.00195 -25.668 -6.00195 -41.001c0 -8 0.833008 -16 2.5 -24s3.83398 -15.333 6.50098 -22s6 -12.167 10 -16.5s8 -6.5 12 -6.5
c3.33301 0 8 3.5 14 10.5s9 17.5 9 31.5c0 11.333 -3.66699 22.833 -11 34.5s-19.666 22.834 -36.999 33.501z" />
    <glyph glyph-name="U" unicode="U" horiz-adv-x="764" 
d="M764 -67c0 1.33301 0.994141 1.99902 2.99414 1.99902c3.33301 0 5 -1.33301 5 -4v-1l-16 -44.5c-6 -16.333 -13.167 -31.666 -21.5 -45.999s-18.5 -26.5 -30.5 -36.5s-26 -15 -42 -15c-13.333 0 -24.666 5 -33.999 15s-16.666 23.667 -21.999 41
s-9.16602 37.5 -11.499 60.5s-3.5 47.833 -3.5 74.5c0 39.333 2 80.5 6 123.5s8.66699 83.5 14 121.5s10.5 71.167 15.5 99.5s8.83301 47.833 11.5 58.5l-26.5 -81c-9.66699 -28.667 -20.167 -57.167 -31.5 -85.5s-23.333 -55.5 -36 -81.5s-26.167 -49 -40.5 -69
s-29.333 -35.833 -45 -47.5s-31.834 -17.5 -48.501 -17.5c-35.333 0 -59.833 11 -73.5 33s-20.5 50.667 -20.5 86c0 28.667 3.16699 60 9.5 94s13.166 68.5 20.499 103.5l20.5 101.5c6.33301 32.667 9.5 62 9.5 88c0 24.667 -4.5 45.334 -13.5 62.001s-21.833 25 -38.5 25
c-6.66699 0 -14 -1.83301 -22 -5.5s-16 -9 -24 -16s-15.333 -15.167 -22 -24.5s-11.667 -20 -15 -32c21.333 -12 36.333 -24.833 45 -38.5s13 -27.167 13 -40.5c0 -17.333 -5.5 -31.833 -16.5 -43.5s-23.167 -17.5 -36.5 -17.5c-10 0 -18.667 3 -26 9s-13.5 13.667 -18.5 23
s-8.66699 19.666 -11 30.999s-3.5 22.666 -3.5 33.999c0 18 2.66699 35 8 51c-16 4.66699 -32.333 7 -49 7c-27.333 0 -51.333 -7.5 -72 -22.5s-34.667 -38.5 -42 -70.5c0 -2 -1.33301 -3 -4 -3s-4 1.33301 -4 4v1c7.33301 34.667 22.166 60 44.499 76s48.5 24 78.5 24
c8 0 16.333 -0.5 25 -1.5s17.334 -2.83301 26.001 -5.5c9.33301 23.333 24.333 41.5 45 54.5s48 19.5 82 19.5c36.667 0 62 -11 76 -33s21 -50.333 21 -85c0 -28.667 -3.16699 -60 -9.5 -94s-13.333 -68.167 -21 -102.5s-14.667 -67.833 -21 -100.5s-9.5 -62 -9.5 -88
c0 -24 4.16699 -44.833 12.5 -62.5s23.166 -26.5 44.499 -26.5c16 0 31.667 6.83301 47 20.5s30 31.5 44 53.5s27.333 47.333 40 76s24.5 58 35.5 88s21.167 59.5 30.5 88.5l25 77.5l15 44c4.66699 4 12 6 22 6c6 0 11.5 -0.833008 16.5 -2.5s7.5 -4.16699 7.5 -7.5v-3
c-2.66699 -1.33301 -6 -9.66602 -10 -24.999s-8.16699 -35.333 -12.5 -60s-8.66602 -53 -12.999 -85s-8.33301 -65.333 -12 -100s-6.66699 -69.5 -9 -104.5s-3.5 -68.167 -3.5 -99.5c0 -24 0.833008 -46.167 2.5 -66.5s4.33398 -38 8.00098 -53s8.33398 -26.667 14.001 -35
s12.834 -12.5 21.501 -12.5s17.334 5.16699 26.001 15.5s16.334 22.333 23.001 36s12.5 27 17.5 40zM238.994 505.999c-1.33301 -5.33301 -2.33301 -10.833 -3 -16.5s-1 -11.5 -1 -17.5c0 -19.333 3.16699 -36.333 9.5 -51s14.5 -22 24.5 -22
c5.33301 0 10.166 2.83301 14.499 8.5s6.5 14.167 6.5 25.5c0 12 -3.66699 24.333 -11 37s-20.666 24.667 -39.999 36z" />
    <glyph glyph-name="V" unicode="V" horiz-adv-x="672" 
d="M616 598c-0.666992 0.666992 -0.996094 1.33887 -0.996094 2.00586c0 3.33301 1.66699 5 5 5c1.33301 0 2.66602 -0.666992 3.99902 -2c9.33301 -15.333 16 -32 20 -50s6 -36.667 6 -56c0 -33.333 -4.16699 -66.5 -12.5 -99.5s-16.833 -62.5 -25.5 -88.5
c-4.66699 -14.667 -10.834 -32.334 -18.501 -53.001s-16.334 -42.5 -26.001 -65.5s-20.334 -45.833 -32.001 -68.5s-24.334 -43 -38.001 -61s-28 -32.667 -43 -44s-30.833 -17 -47.5 -17c-18.667 0 -34.167 3.16699 -46.5 9.5s-22.333 15.333 -30 27s-13 25.334 -16 41.001
s-4.5 32.834 -4.5 51.501c0 28.667 2.83301 60.167 8.5 94.5s11.834 68.666 18.501 102.999l18.5 99.5c5.66699 32 8.5 60.333 8.5 85c0 28 -4.66699 47.833 -14 59.5s-20.333 17.5 -33 17.5c-15.333 0 -30.666 -6.83301 -45.999 -20.5s-26.333 -31.167 -33 -52.5
c21.333 -12 36.333 -24.833 45 -38.5s13 -27.167 13 -40.5c0 -17.333 -5.5 -31.833 -16.5 -43.5s-23.167 -17.5 -36.5 -17.5c-10 0 -18.667 3 -26 9s-13.5 13.667 -18.5 23s-8.66699 19.666 -11 30.999s-3.5 22.666 -3.5 33.999c0 18 2.66699 35 8 51
c-16 4.66699 -32.333 7 -49 7c-27.333 0 -51.333 -7.5 -72 -22.5s-34.334 -38.5 -41.001 -70.5c-1.33301 -2 -3 -3 -5 -3c-2.66699 0 -4 1.33301 -4 4v1c7.33301 34.667 22.333 60 45 76s49 24 79 24c8 0 16.333 -0.5 25 -1.5s17.334 -2.83301 26.001 -5.5
c9.33301 23.333 24.5 42.166 45.5 56.499s48.5 21.5 82.5 21.5c18 0 32.833 -2.66699 44.5 -8s21.167 -13 28.5 -23s12.5 -21.833 15.5 -35.5s4.5 -28.834 4.5 -45.501c0 -29.333 -3.5 -61.5 -10.5 -96.5s-14.667 -70.5 -23 -106.5s-16 -71 -23 -105s-10.5 -64 -10.5 -90
c0 -26.667 4.83301 -47.834 14.5 -63.501s27.167 -23.5 52.5 -23.5c13.333 0 26.666 5.5 39.999 16.5s26.166 25.333 38.499 43s24 37.667 35 60s21.167 44.5 30.5 66.5s17.5 43 24.5 63l17.5 50c8.66699 25.333 17.334 54.166 26.001 86.499s12.667 64.833 12 97.5
c0 18.667 -1.83301 36.5 -5.5 53.5s-10.167 33.167 -19.5 48.5zM236.004 506.005c-2 -10 -3 -20.666 -3 -31.999c0 -8.66699 0.833008 -17.667 2.5 -27s3.83398 -17.833 6.50098 -25.5s6 -14 10 -19s8.33301 -7.5 13 -7.5c3.33301 0 7.83301 3.16699 13.5 9.5
s8.5 16.166 8.5 29.499c0 11.333 -3.83301 23.333 -11.5 36s-20.834 24.667 -39.501 36z" />
    <glyph glyph-name="W" unicode="W" horiz-adv-x="903" 
d="M866 598c-0.666992 0.666992 -0.99707 1.67188 -0.99707 3.00488c0 2.66699 1.66699 4 5 4c5.33301 0 9.83301 -4.66699 13.5 -14s6.83398 -20 9.50098 -32s4.5 -24 5.5 -36s1.5 -20.667 1.5 -26c0 -33.333 -4.16699 -66.5 -12.5 -99.5s-17.166 -62.5 -26.499 -88.5
c-4.66699 -14.667 -10.667 -32.334 -18 -53.001s-15.833 -42.5 -25.5 -65.5s-20.334 -45.833 -32.001 -68.5s-24.334 -43 -38.001 -61s-28 -32.667 -43 -44s-30.833 -17 -47.5 -17c-18.667 0 -34.167 3.33301 -46.5 10s-22 15.667 -29 27s-12 24.333 -15 39
s-4.5 30.334 -4.5 47.001c0 22 1.83301 44.333 5.5 67l10.5 63l-34 -94c-11.333 -30.667 -23.833 -57.667 -37.5 -81s-28.834 -42.166 -45.501 -56.499s-35.334 -21.5 -56.001 -21.5c-16 0 -29.5 3.33301 -40.5 10s-20 16 -27 28s-12 26 -15 42s-4.5 33.333 -4.5 52
c0 31.333 3 65.166 9 101.499s12.833 71.666 20.5 105.999s14.5 66.333 20.5 96s9 53.167 9 70.5c0 30 -5.33301 51.5 -16 64.5s-23.334 19.5 -38.001 19.5c-15.333 0 -30.833 -6.66699 -46.5 -20s-27.167 -31.666 -34.5 -54.999c21.333 -12 36.333 -25 45 -39
s13 -27.667 13 -41c0 -16.667 -5.5 -30.834 -16.5 -42.501s-23.167 -17.5 -36.5 -17.5c-9.33301 0 -17.833 2.83301 -25.5 8.5s-14 13.167 -19 22.5s-8.83301 19.666 -11.5 30.999s-4 22.666 -4 33.999c0 19.333 3 36.666 9 51.999c-16 4.66699 -32.333 7 -49 7
c-27.333 0 -51.333 -7.5 -72 -22.5s-34.667 -38.5 -42 -70.5c0 -2 -1.33301 -3 -4 -3c-3.33301 0 -5 1.66699 -5 5c7.33301 34.667 22.333 60 45 76s49 24 79 24c8 0 16.333 -0.5 25 -1.5s17.334 -2.83301 26.001 -5.5c10.667 25.333 27.667 45 51 59s47.666 21 72.999 21
c13.333 0 26.166 -2.16699 38.499 -6.5s23.166 -10.833 32.499 -19.5s16.833 -19.667 22.5 -33s8.5 -29 8.5 -47c0 -26 -3 -55.167 -9 -87.5s-12.667 -65.833 -20 -100.5l-7 -31c-3.33301 -14.667 -6.66602 -31.5 -9.99902 -50.5s-6.33301 -39.167 -9 -60.5s-4 -42 -4 -62
c0 -28 3.66699 -51.833 11 -71.5s21 -29.5 41 -29.5c16.667 0 32.667 8.33301 48 25s29.833 38.334 43.5 65.001s26.5 56.667 38.5 90s23.333 66.333 34 99l10 30c0 1.33301 1.33301 3.16602 4 5.49902s6 4.5 10 6.5s8.33301 3.83301 13 5.5s9 2.5 13 2.5
c8 0 12 -3.33301 12 -10c0 -4.66699 -1.5 -14.5 -4.5 -29.5l-10.5 -53c-4 -20.333 -7.5 -42.333 -10.5 -66s-4.5 -46.5 -4.5 -68.5c0 -28.667 3.66699 -53.167 11 -73.5s21 -30.5 41 -30.5c14.667 0 30.834 8.5 48.501 25.5s35.167 40.5 52.5 70.5
c13.333 22.667 27.333 51.667 42 87s28 71.666 40 108.999s22 73.5 30 108.5s12 63.5 12 85.5c0 18 -1.83301 35.5 -5.5 52.5s-10.167 33.167 -19.5 48.5zM240.003 506.005c-1.33301 -5.33301 -2.33301 -11.167 -3 -17.5s-1 -12.5 -1 -18.5c0 -20.667 3.5 -37.5 10.5 -50.5
s14.167 -19.5 21.5 -19.5c6 0 11.167 3.16699 15.5 9.5s6.5 14.5 6.5 24.5c0 11.333 -3.5 23.333 -10.5 36s-20.167 24.667 -39.5 36z" />
    <glyph glyph-name="X" unicode="X" horiz-adv-x="813" 
d="M56 479c0 -2 -1.33008 -3.00098 -3.99707 -3.00098c-3.33301 0 -5 1.66699 -5 5c9.33301 31.333 24.833 54.333 46.5 69s46.167 22 73.5 22c20 0 40.667 -4 62 -12c10.667 19.333 25 34.833 43 46.5s41.667 17.5 71 17.5c34.667 0 65 -7.66699 91 -23
s49 -35.166 69 -59.499s37.833 -51.5 53.5 -81.5s30.167 -59.667 43.5 -89c8.66699 29.333 18 57.166 28 83.499s21 49.5 33 69.5s25.667 35.833 41 47.5s32.666 17.5 51.999 17.5h13c5.33301 0 8 -1.66699 8 -5s-1.66699 -5 -5 -5c-14 -2 -27 -8.66699 -39 -20
s-22.833 -25.166 -32.5 -41.499s-18.334 -34.333 -26.001 -54s-14.5 -39 -20.5 -58s-11.167 -36.667 -15.5 -53s-8.16602 -29.5 -11.499 -39.5c0.666992 -2.66699 4.16699 -12.167 10.5 -28.5l24.5 -62l34 -84l40.5 -94.5l43 -93.5c14.333 -30.333 28.333 -57.333 42 -81
s26.334 -42.667 38.001 -57s21.834 -21.5 30.501 -21.5s17.667 5 27 15s17.833 21 25.5 33s14.334 23 20.001 33s9.5 15 11.5 15c4 0 6 -1.33301 6 -4c0 -0.666992 -0.333008 -1.33398 -1 -2.00098c-4.66699 -10 -10.667 -21.833 -18 -35.5s-15.666 -26.5 -24.999 -38.5
s-19.833 -22.167 -31.5 -30.5s-23.834 -12.5 -36.501 -12.5c-14 0 -28.833 8.83301 -44.5 26.5s-31.834 40.834 -48.501 69.501s-33.167 60.667 -49.5 96s-31.833 70.833 -46.5 106.5l-40.5 101.5l-30.5 80c-8 -28.667 -17.333 -57.667 -28 -87s-22.667 -55.833 -36 -79.5
s-27.833 -43 -43.5 -58s-32.834 -22.5 -51.501 -22.5c-14 0 -26.333 3 -37 9s-19.5 14 -26.5 24s-12.333 21.5 -16 34.5s-5.5 26.167 -5.5 39.5c0 15.333 2.66699 31.166 8 47.499s13.166 31.333 23.499 45s23.5 24.834 39.5 33.501s35 13 57 13c2 0 3 -1.66699 3 -5
c0 -1.33301 -1.33301 -2.66602 -4 -3.99902c-20 -0.666992 -37.5 -5 -52.5 -13s-27.5 -18 -37.5 -30s-17.333 -25.667 -22 -41s-7 -30.333 -7 -45c0 -11.333 1.5 -22.666 4.5 -33.999s7.33301 -21.333 13 -30s12 -15.667 19 -21s14.5 -8 22.5 -8c12 0 24 6.33301 36 19
s23.167 28.667 33.5 48s20.166 40.5 29.499 63.5s17.5 45.167 24.5 66.5s12.667 40.166 17 56.499s7.5 27.166 9.5 32.499l2 7l-19 45c-8 19.333 -17.333 40.333 -28 63s-22.667 45.5 -36 68.5s-27.666 43.833 -42.999 62.5s-31.333 34 -48 46s-33.667 18 -51 18
s-34 -6.66699 -50 -20s-27.667 -29.666 -35 -48.999c19.333 -12.667 32.666 -25.834 39.999 -39.501s11 -26.834 11 -39.501c0 -17.333 -5.5 -31.833 -16.5 -43.5s-23.167 -17.5 -36.5 -17.5c-9.33301 0 -17.333 2.5 -24 7.5s-12.5 11.667 -17.5 20
s-8.66699 17.666 -11 27.999s-3.5 20.833 -3.5 31.5c0 22.667 4.33301 44.334 13 65.001c-20 8 -40 12 -60 12c-24.667 0 -46.834 -6.66699 -66.501 -20s-34.167 -34.666 -43.5 -63.999zM268.003 529.999c-2 -7.33301 -3.66699 -14.9971 -5 -22.9971s-2 -16.667 -2 -26
c0 -19.333 2.5 -34.333 7.5 -45s11.167 -16 18.5 -16c6 0 11.5 3.66699 16.5 11s7.5 16.666 7.5 27.999s-3.16699 23.166 -9.5 35.499s-17.5 24.166 -33.5 35.499z" />
    <glyph glyph-name="Y" unicode="Y" horiz-adv-x="774" 
d="M793 -132l0.999023 -0.000976562c0.666992 0 1 0.166992 1 0.5s0.333008 0.5 1 0.5c2.66699 0 4 -1.33301 4 -4c0 -1.33301 -0.333008 -2.33301 -1 -3c-17.333 -20 -38 -33.667 -62 -41s-49.667 -11 -77 -11c-26 0 -51.333 2 -76 6
c-10.667 -39.333 -26.834 -71.166 -48.501 -95.499s-51.167 -36.5 -88.5 -36.5c-15.333 0 -30 2 -44 6s-26.5 10 -37.5 18s-19.833 17.5 -26.5 28.5s-10 23.5 -10 37.5s2.5 25.833 7.5 35.5s11.833 17.167 20.5 22.5s18.5 9.16602 29.5 11.499s22.5 3.5 34.5 3.5
c17.333 0 36.166 -1.66699 56.499 -5l62.5 -10c4.66699 20 10 44.833 16 74.5l19 96.5l20 108.5l20 111c6.66699 36.333 12.667 71 18 104l14 86.5c-11.333 -38 -24.666 -80.167 -39.999 -126.5s-32.666 -90 -51.999 -131s-40.333 -75.333 -63 -103
s-47.334 -41.5 -74.001 -41.5c-35.333 0 -59.666 10.833 -72.999 32.5s-20 50.167 -20 85.5c0 28.667 3.16699 60.167 9.5 94.5s13.166 69 20.499 104l20.5 101.5c6.33301 32.667 9.5 62 9.5 88c0 25.333 -6.16699 44.666 -18.5 57.999s-26.833 20 -43.5 20
c-14.667 0 -28.834 -5.66699 -42.501 -17s-24.167 -28.666 -31.5 -51.999c21.333 -12 36.333 -25 45 -39s13 -27.667 13 -41c0 -16.667 -5.33301 -30.834 -16 -42.501s-23 -17.5 -37 -17.5c-10 0 -18.667 3 -26 9s-13.5 13.667 -18.5 23s-8.66699 19.666 -11 30.999
s-3.5 22.666 -3.5 33.999c0 18 2.66699 35 8 51c-16 4.66699 -32.333 7 -49 7c-27.333 0 -51.333 -7.5 -72 -22.5s-34.334 -38.5 -41.001 -70.5c-1.33301 -2 -3 -3 -5 -3c-2.66699 0 -4 1.33301 -4 4v1c7.33301 34.667 22.333 60 45 76s49 24 79 24c8 0 16.333 -0.5 25 -1.5
s17.334 -2.83301 26.001 -5.5c4.66699 12 11.5 22.833 20.5 32.5s19.167 17.834 30.5 24.501s23.5 11.834 36.5 15.501s25.833 5.5 38.5 5.5c13.333 0 26 -2 38 -6s22.667 -10.167 32 -18.5s16.833 -19.166 22.5 -32.499s8.5 -29 8.5 -47
c0 -26.667 -3.16699 -56.334 -9.5 -89.001l-20.5 -101c-1.33301 -7.33301 -3.66602 -18.166 -6.99902 -32.499s-6.66602 -30.666 -9.99902 -48.999s-6.33301 -37.666 -9 -57.999s-4 -39.833 -4 -58.5c0 -28 4.16699 -52.5 12.5 -73.5s23.5 -31.5 45.5 -31.5
c14 0 27.833 6.5 41.5 19.5s27 30.167 40 51.5s25.5 45.833 37.5 73.5s23.333 56 34 85s20.5 57.667 29.5 86l24.5 76.5l18 58c4 4 10.333 6 19 6c7.33301 0 13.833 -1.33301 19.5 -4s8.5 -5.33398 8.5 -8.00098c-3.33301 -24 -7.83301 -53.5 -13.5 -88.5l-19 -113.5
l-22.5 -126l-23.5 -124.5l-22 -109.5l-17.5 -81c24.667 -4 49.334 -6 74.001 -6c26 0 50.333 3.33301 73 10s42.667 19.667 60 39zM537.999 -176.001l-59.501 9.49902c-19.667 3 -38.167 4.5 -55.5 4.5c-23.333 0 -43.5 -4.5 -60.5 -13.5s-25.5 -26.167 -25.5 -51.5
c0 -10 2.33301 -19.667 7 -29s11.334 -17.666 20.001 -24.999s18.667 -13.166 30 -17.499s23.666 -6.5 36.999 -6.5c16 0 29.833 4 41.5 12s21.834 18.167 30.501 30.5s15.667 26.166 21 41.499s10 30.333 14 45zM246.998 516.998c-2 -10 -3.00098 -20.667 -3.00098 -32
c0 -20 2.83301 -37.667 8.5 -53s12.834 -23 21.501 -23c6 0 11.333 3.5 16 10.5s7 15.5 7 25.5c0 11.333 -3.66699 23.5 -11 36.5s-20.333 24.833 -39 35.5z" />
    <glyph glyph-name="Z" unicode="Z" horiz-adv-x="644" 
d="M43 453c-2.66699 -2.66699 -4.33203 -4.00098 -4.99902 -4.00098c-3.33301 0 -5 1.66699 -5 5c0 0.666992 0.166992 1 0.5 1s0.5 0.333008 0.5 1c14.667 32.667 35 57.334 61 74.001s54 25 84 25c8 0 16.167 -0.5 24.5 -1.5s16.5 -2.83301 24.5 -5.5
c14.667 22.667 33.334 41.167 56.001 55.5s51.667 21.5 87 21.5c24.667 0 46.167 -4 64.5 -12s33.666 -18.667 45.999 -32s21.5 -28.833 27.5 -46.5s9 -36.167 9 -55.5c0 -33.333 -8.83301 -66.666 -26.5 -99.999s-44.5 -61 -80.5 -83c53.333 -43.333 80 -106.333 80 -189
c0 -6.66699 -0.166992 -13.334 -0.5 -20.001s-0.833008 -13.667 -1.5 -21c28 11.333 55.5 24.833 82.5 40.5s51.167 34.167 72.5 55.5c1.33301 1.33301 2.33301 2 3 2c2.66699 0 4 -1.66699 4 -5c0 -1.33301 -0.333008 -2.33301 -1 -3c-22.667 -22.667 -48 -42 -76 -58
s-56.667 -30 -86 -42c-4 -29.333 -12.833 -61.333 -26.5 -96s-31 -67 -52 -97s-45.833 -55 -74.5 -75s-60 -30 -94 -30c-25.333 0 -45 7.33301 -59 22s-21 32.667 -21 54c0 14.667 3.5 30.334 10.5 47.001s18 33.167 33 49.5s34.167 31.833 57.5 46.5
s51.666 27.667 84.999 39l91 31c1.33301 10 2.5 20 3.5 30s1.5 19.667 1.5 29c0 34.667 -5.5 66.667 -16.5 96s-27.167 54.666 -48.5 75.999c-15.333 -7.33301 -29.333 -12.333 -42 -15s-23.667 -4 -33 -4c-17.333 0 -30.333 3.5 -39 10.5s-13 15.167 -13 24.5
c0 14 6.33301 24.167 19 30.5s25 9.5 37 9.5c14 0 28 -2.16699 42 -6.5s25.333 -8.83301 34 -13.5c12.667 10 24.167 22 34.5 36s19.166 29 26.499 45s13 32.667 17 50s6 34.333 6 51c0 15.333 -2.16699 29.833 -6.5 43.5s-10.5 25.667 -18.5 36s-17.5 18.5 -28.5 24.5
s-23.167 9 -36.5 9c-17.333 0 -34.5 -5.16699 -51.5 -15.5s-31.833 -23.833 -44.5 -40.5l-13 -22c15.333 -10 26.333 -20.833 33 -32.5s10 -23.167 10 -34.5s-2.16699 -21.5 -6.5 -30.5s-9.83301 -16.5 -16.5 -22.5s-13.667 -10.5 -21 -13.5s-14.333 -4.5 -21 -4.5
c-15.333 0 -26.5 6.33301 -33.5 19s-10.5 28 -10.5 46c0 12.667 1.83301 26.167 5.5 40.5s9.16699 28.166 16.5 41.499c-15.333 4 -30.666 6 -45.999 6c-28.667 0 -55 -7.66699 -79 -23s-42.667 -38.666 -56 -69.999zM305.002 -193.001c18 13.333 34.167 28.999 48.5 46.999
s27 37 38 57s20.167 40.833 27.5 62.5s13 42.834 17 63.501l-87 -29c-31.333 -10.667 -58.333 -23.167 -81 -37.5s-41.167 -29.166 -55.5 -44.499s-25 -31 -32 -47s-10.5 -30.667 -10.5 -44c0 -7.33301 1 -14.833 3 -22.5s5.33301 -14.5 10 -20.5s10.5 -11 17.5 -15
s15.167 -6 24.5 -6c13.333 0 27 3.66699 41 11s27 15.666 39 24.999zM264.002 522.998c-4 -9.33301 -7.66699 -20.167 -11 -32.5s-5 -24.5 -5 -36.5c0 -12.667 2.33301 -23 7 -31s9.66699 -12 15 -12c4 0 7.83301 1.83301 11.5 5.5s7 8.16699 10 13.5s5.5 11 7.5 17
s3 11.667 3 17c0 10 -2.83301 20 -8.5 30s-15.5 19.667 -29.5 29zM317.002 278.997l18.5 8.00098c6.33301 2.66699 12.833 5.66699 19.5 9c-9.33301 7.33301 -19.833 13.333 -31.5 18s-21.167 7 -28.5 7c-10.667 0 -18.667 -2.83301 -24 -8.5s-8 -11.834 -8 -18.501
c0 -5.33301 2.16699 -10.333 6.5 -15s10.833 -7 19.5 -7s18 2.33301 28 7z" />
    <glyph glyph-name="bracketleft" unicode="[" horiz-adv-x="157" 
d="M73 647l74 -0.000976562c4 0 7.5 -1.5 10.5 -4.5s4.5 -6.5 4.5 -10.5s-1.5 -7.5 -4.5 -10.5s-6.5 -4.5 -10.5 -4.5h-59v-643h59c4 0 7.5 -1.5 10.5 -4.5s4.5 -6.5 4.5 -10.5s-1.5 -7.5 -4.5 -10.5s-6.5 -4.5 -10.5 -4.5h-75c-3.33301 0.666992 -6.5 2.33398 -9.5 5.00098
s-4.5 6 -4.5 10v673c0 4 1.5 7.5 4.5 10.5s6.5 4.5 10.5 4.5z" />
    <glyph glyph-name="backslash" unicode="\" horiz-adv-x="282" 
d="M54 629c0 0.666992 -0.166992 1.16699 -0.5 1.5s-0.5 0.833008 -0.5 1.5c0 4 1.66699 7.33301 5 10s7 4 11 4c8 0 12.667 -4 14 -12l130 -660v-2c0 -3.33301 -1.33301 -6.83301 -4 -10.5s-6 -5.5 -10 -5.5c-8.66699 0 -13.667 4 -15 12z" />
    <glyph glyph-name="bracketright" unicode="]" horiz-adv-x="172" 
d="M83 -47l-74 0.000976562c-4 0 -7.5 1.5 -10.5 4.5s-4.5 6.5 -4.5 10.5s1.5 7.5 4.5 10.5s6.5 4.5 10.5 4.5h59v643h-59c-4 0 -7.5 1.5 -10.5 4.5s-4.5 6.5 -4.5 10.5s1.5 7.5 4.5 10.5s6.5 4.5 10.5 4.5h75c3.33301 -0.666992 6.5 -2.33398 9.5 -5.00098s4.5 -6 4.5 -10
v-673c0 -4 -1.5 -7.5 -4.5 -10.5s-6.5 -4.5 -10.5 -4.5z" />
    <glyph glyph-name="asciicircum" unicode="^" horiz-adv-x="326" 
d="M262 465c0.666992 -0.666992 1 -1.66602 1 -2.99902c0 -2 -0.666992 -4 -2 -6s-3.33301 -3 -6 -3c-1.33301 0 -3 1 -5 3l-91 97l-93 -97c-1.33301 -2 -3 -3 -5 -3c-6 0 -9 2.66699 -9 8c0 1.33301 0.666992 2.66602 2 3.99902l105 147l5 -8z" />
    <glyph glyph-name="underscore" unicode="_" horiz-adv-x="341" 
d="M75 -1c-6.66699 0 -11.5 1.5 -14.5 4.5s-4.5 6.16699 -4.5 9.5c0 4 1.5 7.5 4.5 10.5s7.83301 4.5 14.5 4.5h186c6.66699 0 11.5 -1.5 14.5 -4.5s4.5 -6.5 4.5 -10.5c0 -3.33301 -1.5 -6.5 -4.5 -9.5s-7.83301 -4.5 -14.5 -4.5h-186z" />
    <glyph glyph-name="grave" unicode="`" horiz-adv-x="300" 
d="M229 499c-0.666992 -4.66699 -2.66895 -7 -6.00195 -7c-4.66699 0 -13.5 5.33301 -26.5 16l-41.5 35.5l-42.5 36c-13.667 11 -23.5 16.5 -29.5 16.5h-2c8.66699 5.33301 19.334 8 32.001 8c14.667 0 29 -3.5 43 -10.5s26.333 -15.833 37 -26.5
s19.334 -22.167 26.001 -34.5s10 -23.5 10 -33.5z" />
    <glyph glyph-name="a" unicode="a" horiz-adv-x="261" 
d="M146 185c1.33301 3.33301 4.16699 5.67188 8.5 7.00488s9.16602 2 14.499 2c6.66699 0 12.5 -1 17.5 -3s7.5 -4.66699 7.5 -8v-2c-3.33301 -8.66699 -6.83301 -18.667 -10.5 -30s-7 -22.833 -10 -34.5s-5.5 -23 -7.5 -34s-3 -20.5 -3 -28.5c0 -12 2.66699 -18 8 -18
s12.833 6.16699 22.5 18.5s19.334 26.166 29.001 41.499s18.167 29.666 25.5 42.999s11.666 21 12.999 23c1.33301 1.33301 2.66602 2 3.99902 2c3.33301 0 5 -1.33301 5 -4c0 -1.33301 -4 -9.83301 -12 -25.5s-18.167 -32.834 -30.5 -51.501s-26 -35.667 -41 -51
s-29.167 -23 -42.5 -23c-11.333 0 -18.666 4.5 -21.999 13.5s-5 21.167 -5 36.5c0.666992 5.33301 1.33398 11.166 2.00098 17.499s1.66699 13.166 3 20.499c-8.66699 -12 -18.334 -23.833 -29.001 -35.5s-21.834 -22 -33.501 -31s-23.167 -16.333 -34.5 -22
s-22 -8.5 -32 -8.5c-13.333 -0 -22.333 5.33301 -27 16s-7 22 -7 34c0 23.333 3.66699 44.666 11 63.999s16.833 35.833 28.5 49.5s24.834 24.334 39.501 32.001s29.334 11.5 44.001 11.5c13.333 0 24.833 -5.33301 34.5 -16s16.5 -21.667 20.5 -33zM132.001 142.006
c-4 17.333 -9.16699 29.666 -15.5 36.999s-13.166 11 -20.499 11c-9.33301 0 -18.5 -3.66699 -27.5 -11s-17.333 -16.333 -25 -27s-14.334 -22 -20.001 -34s-9.5 -22.333 -11.5 -31s-3.66699 -16.667 -5 -24s-2 -13.666 -2 -18.999c0 -16 5 -24 15 -24
c6.66699 0 15.167 3.66699 25.5 11s21 16.5 32 27.5s21.167 22.667 30.5 35s16.333 23.833 21 34.5z" />
    <glyph glyph-name="b" unicode="b" horiz-adv-x="325" 
d="M325 162c0.666992 1.33301 1.66797 2.00488 3.00098 2.00488c3.33301 0 5 -1.33301 5 -4v-2c-12 -23.333 -23.167 -42.5 -33.5 -57.5s-20.5 -26.833 -30.5 -35.5s-19.5 -14.667 -28.5 -18s-17.833 -5 -26.5 -5c-6.66699 0 -13.167 0.666992 -19.5 2s-12.833 3 -19.5 5
c-13.333 -18 -27.333 -30.833 -42 -38.5s-27.667 -11.5 -39 -11.5c-13.333 0 -23 3.16699 -29 9.5s-9 13.166 -9 20.499c0 11.333 5 21.5 15 30.5s22.667 13.5 38 13.5c11.333 0 22 -1.33301 32 -4c5.33301 8.66699 11 21 17 37s9 31.333 9 46
c0 8.66699 -1.83301 17.167 -5.5 25.5s-9.5 12.5 -17.5 12.5s-17 -3.83301 -27 -11.5s-19.833 -17.334 -29.5 -29.001s-18.667 -24.5 -27 -38.5s-15.166 -27.333 -20.499 -40c-1.33301 -3.33301 -4.83301 -5.83301 -10.5 -7.5s-11.5 -2.5 -17.5 -2.5
c-5.33301 0 -10 0.833008 -14 2.5s-6 4.83398 -6 9.50098l11 127l9 66c4 28.667 9.33301 59.667 16 93s14.834 67.333 24.501 102s21 66.167 34 94.5s28.167 51.5 45.5 69.5s36.666 27 57.999 27s35.833 -5.83301 43.5 -17.5s11.5 -25.834 11.5 -42.501
c0 -25.333 -5.5 -53.5 -16.5 -84.5s-25.5 -62.5 -43.5 -94.5s-38.333 -63.167 -61 -93.5s-45.334 -57.833 -68.001 -82.5c-4 -27.333 -7.16699 -53 -9.5 -77s-3.83301 -45.667 -4.5 -65c18 36 39.333 63.667 64 83s46.667 29 66 29c12.667 0 23 -4.33301 31 -13
s12 -21.667 12 -39c0 -15.333 -3.16699 -31.833 -9.5 -49.5s-14.5 -33.834 -24.5 -48.501l16 -4c5.33301 -1.33301 10.666 -2 15.999 -2c8 0 16.333 1.66699 25 5s17.667 9.16602 27 17.499s18.833 19.666 28.5 33.999s20.167 32.5 31.5 54.5zM136.001 61.0049
c-9.33301 2 -17.668 3 -25.001 3c-15.333 0 -26.833 -4 -34.5 -12s-11.5 -15.667 -11.5 -23c0 -9.33301 4.33301 -14 13 -14c4.66699 0 10 2 16 6s11.833 8.5 17.5 13.5s10.834 10 15.501 15s7.66699 8.83301 9 11.5zM153.999 587.005c-13.333 -22 -25.5 -48.333 -36.5 -79
s-20.5 -61.667 -28.5 -93s-14.5 -61.666 -19.5 -90.999s-8.83301 -53.333 -11.5 -72c17.333 19.333 36.333 43.333 57 72s40 58.667 58 90s33 62.666 45 93.999s18 59.333 18 84c0 15.333 -2.83301 26.833 -8.5 34.5s-11.5 11.5 -17.5 11.5c-5.33301 0 -10.833 -2 -16.5 -6
s-11 -8.66699 -16 -14s-9.66699 -10.833 -14 -16.5s-7.5 -10.5 -9.5 -14.5z" />
    <glyph glyph-name="c" unicode="c" horiz-adv-x="206" 
d="M206 162c0.666992 1.33301 2.00293 2 4.00293 2c3.33301 0 5 -1.33301 5 -4l-1 -2c-29.333 -56.667 -60 -97.334 -92 -122.001s-60.333 -37 -85 -37c-18.667 0 -33.834 6.33301 -45.501 19s-17.5 30.334 -17.5 53.001c0 14.667 2.66699 30.667 8 48
s12.666 33.666 21.999 48.999s19.833 28.166 31.5 38.499s24.167 15.5 37.5 15.5c11.333 0 20 -4 26 -12s9 -17.667 9 -29c-1.33301 -12 -3.33301 -22.333 -6 -31c-2 -8 -4.5 -15.167 -7.5 -21.5s-6.16699 -9.5 -9.5 -9.5s-5 1.66699 -5 5c4.66699 8 9 17.333 13 28
s6 20.667 6 30c0 7.33301 -1.16699 12.833 -3.5 16.5s-4.83301 5.5 -7.5 5.5c-6.66699 0 -13.834 -4.83301 -21.501 -14.5s-14.667 -21.667 -21 -36s-11.666 -29.666 -15.999 -45.999s-6.5 -31.166 -6.5 -44.499s2.66699 -25 8 -35s14 -15 26 -15s24.833 4.33301 38.5 13
s27 20 40 34s25.667 30 38 48s23.166 36 32.499 54z" />
    <glyph glyph-name="d" unicode="d" horiz-adv-x="270" 
d="M270 162c1.33301 1.33301 2.66797 2.00098 4.00098 2.00098c2.66699 0 4 -1.33301 4 -4v-2c-6.66699 -13.333 -14.834 -28.5 -24.501 -45.5s-20 -33.167 -31 -48.5s-22.167 -28.333 -33.5 -39s-21.666 -16 -30.999 -16c-6 0 -11 2.5 -15 7.5s-7.16699 11.167 -9.5 18.5
s-4 15.666 -5 24.999s-1.5 18.333 -1.5 27c0 4 0.166992 7.66699 0.5 11s0.5 6.66602 0.5 9.99902c-6 -10 -14.5 -21.333 -25.5 -34s-23 -24.5 -36 -35.5s-26.333 -20.333 -40 -28s-25.834 -11.5 -36.501 -11.5c-10 0 -18.667 3.83301 -26 11.5s-11 20.167 -11 37.5
c0 14.667 3.16699 31.167 9.5 49.5s15.333 35.666 27 51.999s25.667 30 42 41s34.5 16.5 54.5 16.5c9.33301 0 18.333 -2.16699 27 -6.5s15.667 -11.166 21 -20.499c1.33301 14.667 4 36.667 8 66s9.33301 61.333 16 96s14.834 70.334 24.501 107.001s21.167 70 34.5 100
s28.833 54.5 46.5 73.5s37.5 28.5 59.5 28.5c21.333 0 35.833 -5.66699 43.5 -17s11.5 -25.666 11.5 -42.999c0 -25.333 -5.5 -53.333 -16.5 -84s-25.333 -61.834 -43 -93.501s-37.834 -62.834 -60.501 -93.501s-45.667 -58.334 -69 -83.001
c-3.33301 -26.667 -6.33301 -52.167 -9 -76.5s-4 -50.166 -4 -77.499c0 -30 3 -45 9 -45c2.66699 0 7.16699 3.66699 13.5 11s13.5 16.833 21.5 28.5s16.333 24.834 25 39.501s17 29.667 25 45zM297.002 602.001c-16 -20.667 -29.833 -46.8301 -41.5 -78.4971
s-21.834 -64.334 -30.501 -98.001s-15.667 -66 -21 -97s-9.33301 -56.167 -12 -75.5c16.667 18.667 35.334 42.167 56.001 70.5s40 58.166 58 89.499s33 62.666 45 93.999s18 59 18 83c0 15.333 -2.33301 26.5 -7 33.5s-10.667 10.5 -18 10.5c-15.333 0 -31 -10.667 -47 -32
zM63.002 47.0049c14.667 12 28 25.333 40 40s20.667 28.667 26 42l3 30c-1.33301 8 -4.83301 15.333 -10.5 22s-12.167 10 -19.5 10c-12 0 -24.167 -5.66699 -36.5 -17s-23.166 -25 -32.499 -41s-17 -32.5 -23 -49.5s-9 -30.833 -9 -41.5c0 -15.333 4.66699 -23 14 -23
c7.33301 0 15.666 3.33301 24.999 10s17 12.667 23 18z" />
    <glyph glyph-name="e" unicode="e" horiz-adv-x="189" 
d="M39 142c10.667 5.33301 21 13.333 31 24s15 20.667 15 30c0 2.66699 -0.666992 4 -2 4c-2.66699 0 -6 -2 -10 -6s-8.16699 -9 -12.5 -15s-8.5 -12.333 -12.5 -19s-7 -12.667 -9 -18zM189 162c0 1.33301 1 2 3 2c3.33301 0 5 -1.66699 5 -5v-1
c-5.33301 -10.667 -13.333 -25 -24 -43s-23.334 -35.667 -38.001 -53s-30.5 -32.333 -47.5 -45s-34.167 -19 -51.5 -19c-19.333 0 -33.833 6.33301 -43.5 19s-14.5 30.667 -14.5 54c0 16 2.33301 32.833 7 50.5s11.167 34 19.5 49s18.166 27.333 29.499 37s24 14.5 38 14.5
c7.33301 0 12.833 -2.16699 16.5 -6.5s5.5 -10.166 5.5 -17.499c0 -10.667 -4.66699 -22.5 -14 -35.5s-24.666 -23.833 -45.999 -32.5c-2.66699 -6.66699 -5.16699 -15.834 -7.5 -27.501s-3.5 -23.834 -3.5 -36.501s2 -24.667 6 -36s10.333 -17 19 -17
c14.667 0 29.667 6.33301 45 19s29.333 27.334 42 44.001s23.834 33.167 33.501 49.5s16.5 28.5 20.5 36.5z" />
    <glyph glyph-name="f" unicode="f" horiz-adv-x="182" 
d="M182 162c0.666992 1.33301 1.6709 1.99707 3.00391 1.99707c3.33301 0 5 -1.33301 5 -4v-2c-10.667 -19.333 -22 -37.666 -34 -54.999s-24.833 -32.666 -38.5 -45.999s-28.334 -24 -44.001 -32s-32.167 -12 -49.5 -12l-1 -3c15.333 -13.333 26.166 -27.5 32.499 -42.5
s9.5 -30.167 9.5 -45.5c0 -12 -1.66699 -23.5 -5 -34.5s-7.66602 -20.667 -12.999 -29s-11.166 -15 -17.499 -20s-12.833 -7.5 -19.5 -7.5c-10.667 0 -20 7.83301 -28 23.5s-12 42.5 -12 80.5c0 26.667 2.5 57.667 7.5 93s12.5 80 22.5 134c6 32.667 12.833 66.667 20.5 102
s16.167 69.833 25.5 103.5s19.5 65.667 30.5 96s22.833 57 35.5 80s26.167 41.333 40.5 55s29.5 20.5 45.5 20.5c13.333 0 24.166 -5.5 32.499 -16.5s12.5 -27.5 12.5 -49.5c0 -24.667 -5.33301 -54 -16 -88s-24.834 -68.5 -42.501 -103.5s-37.834 -68.333 -60.501 -100
s-46.334 -57.5 -71.001 -77.5l-28 -162c16 0 31.333 3.83301 46 11.5s28.5 18 41.5 31s25.333 27.833 37 44.5s22.5 34.334 32.5 53.001zM48.0039 -123.003c5.33301 12.667 8 26.667 8 42c0 14 -2.66699 28 -8 42s-14 26.667 -26 38c-1.33301 -10 -2.33301 -20.833 -3 -32.5
s-1 -23.167 -1 -34.5c0 -7.33301 0.333008 -15.333 1 -24s1.5 -16.5 2.5 -23.5s2.5 -12.833 4.5 -17.5s4.33301 -7 7 -7c4 0 9 5.66699 15 17zM167.004 552.997c-14.667 -24 -28.001 -52.333 -40.001 -85s-22.667 -66 -32 -100s-17.166 -66.167 -23.499 -96.5l-15.5 -73.5
c20 18 40.667 41.5 62 70.5s40.5 60.167 57.5 93.5s31 66.833 42 100.5s16.5 64.167 16.5 91.5s-7 41 -21 41c-6 0 -13 -3.5 -21 -10.5s-16.333 -17.5 -25 -31.5z" />
    <glyph glyph-name="g" unicode="g" horiz-adv-x="283" 
d="M283 162c0.666992 1.33301 2.00293 2.00195 4.00293 2.00195c3.33301 0 5 -1.33301 5 -4l-1 -2c-12 -22 -23.167 -41.333 -33.5 -58s-20.833 -31.5 -31.5 -44.5s-21.334 -24.667 -32.001 -35s-22 -20.5 -34 -30.5c-0.666992 -0.666992 -2.16699 -9.66699 -4.5 -27
s-6.16602 -38.833 -11.499 -64.5s-11.833 -53.5 -19.5 -83.5s-16.834 -57.667 -27.501 -83s-23 -46.5 -37 -63.5s-29.333 -25.5 -46 -25.5c-13.333 0 -23.666 5.66699 -30.999 17s-11 26.333 -11 45c0 22 4.66699 45.333 14 70s20.833 48.5 34.5 71.5
s28.167 44.167 43.5 63.5s29.333 34.666 42 45.999c4.66699 26 8.83398 51.833 12.501 77.5l10.5 73.5c-6 -10 -14.5 -21.333 -25.5 -34s-23 -24.5 -36 -35.5s-26.333 -20.167 -40 -27.5s-25.834 -11 -36.501 -11c-10 0 -18.667 4 -26 12s-11 20.667 -11 38
c0 14.667 3.16699 31.167 9.5 49.5s15.333 35.666 27 51.999s25.667 30 42 41s34.166 16.5 53.499 16.5c11.333 0 21.5 -2.83301 30.5 -8.5s16.167 -13.167 21.5 -22.5c1.33301 8.66699 4.16602 14.667 8.49902 18s9.16602 5 14.499 5c6.66699 0 12.667 -1.5 18 -4.5
s8 -6.16699 8 -9.5v-1l-11 -84.5c-4 -31 -8.66699 -63.5 -14 -97.5c11.333 10 22 20.167 32 30.5s19.667 21.5 29 33.5s18.833 25.667 28.5 41s20.167 33.333 31.5 54zM135.003 163.002l-3.50098 5c-2.33301 3.33301 -5.33301 6.83301 -9 10.5s-8.16699 7.16699 -13.5 10.5
s-11.333 5 -18 5c-13.333 -1.33301 -25.5 -7.66602 -36.5 -18.999s-20.667 -24.833 -29 -40.5s-14.833 -31.834 -19.5 -48.501s-7 -31 -7 -43c0 -16 5.33301 -24 16 -24c9.33301 1.33301 20 6.5 32 15.5s23.833 19.333 35.5 31s21.834 23.5 30.501 35.5s14.667 22 18 30z
M61.002 -232.998c8.66699 26 16.499 54.168 23.499 84.501s13.167 60.5 18.5 90.5c-10 -10 -22 -23.333 -36 -40s-27.167 -35.334 -39.5 -56.001s-23 -43 -32 -67s-13.5 -48.333 -13.5 -73c0 -11.333 1.33301 -20.833 4 -28.5s6.33398 -11.5 11.001 -11.5
c6 0 12 3.5 18 10.5s11.833 15.5 17.5 25.5s11 20.833 16 32.5s9.16699 22.5 12.5 32.5z" />
    <glyph glyph-name="h" unicode="h" horiz-adv-x="278" 
d="M278 162c0.666992 1.33301 1.66406 1.99316 2.99707 1.99316c3.33301 0 5 -1.33301 5 -4v-2l-20.5 -34.5c-9.66699 -16.333 -20.667 -33 -33 -50s-25.5 -32 -39.5 -45s-27 -19.5 -39 -19.5c-10.667 0 -18.334 4.33301 -23.001 13s-7 18 -7 28c0 10.667 1.5 22.5 4.5 35.5
s6.5 25.833 10.5 38.5s7.5 24.834 10.5 36.501s4.5 21.834 4.5 30.501c0 9.33301 -2.33301 14 -7 14c-6.66699 0 -14.667 -5.16699 -24 -15.5s-19 -22.833 -29 -37.5s-19.333 -29.5 -28 -44.5l-21 -37.5c-0.666992 -0.666992 -3.83398 -2.5 -9.50098 -5.5
s-12.167 -4.5 -19.5 -4.5c-5.33301 0 -10.166 1 -14.499 3s-6.5 9.33301 -6.5 22c0 16 1.5 41 4.5 75s7.83301 72 14.5 114s15.167 85.333 25.5 130s22.833 85.334 37.5 122.001s31.5 66.834 50.5 90.501s40.5 35.5 64.5 35.5c21.333 0 35.833 -5.83301 43.5 -17.5
s11.5 -25.834 11.5 -42.501c0 -25.333 -5.33301 -53.166 -16 -83.499s-24.667 -61.166 -42 -92.499s-37.166 -62.166 -59.499 -92.499s-45.166 -57.833 -68.499 -82.5c-4 -28.667 -7.16699 -55.667 -9.5 -81s-4.16602 -48.333 -5.49902 -69
c6.66699 12.667 14.667 26.667 24 42s19.333 29.666 30 42.999s21.834 24.333 33.501 33s23.167 13 34.5 13s19 -3 23 -9s6 -13.667 6 -23s-1.5 -20.166 -4.5 -32.499s-6.33301 -24.666 -10 -36.999s-7 -24.333 -10 -36s-4.5 -21.5 -4.5 -29.5
c0 -4.66699 0.833008 -9.33398 2.5 -14.001s4.16699 -7 7.5 -7s8 3 14 9s12.667 13.667 20 23s14.833 19.5 22.5 30.5l21 30.5l16 24c4.33301 6.66699 6.5 10.334 6.5 11.001zM169.997 605.993c-15.333 -20 -28.833 -45.5 -40.5 -76.5s-21.834 -63.333 -30.501 -97
s-16 -66.167 -22 -97.5s-10.333 -57.333 -13 -78c16.667 18.667 35.167 42.167 55.5 70.5s39.333 58 57 89s32.334 61.833 44.001 92.5s17.5 58 17.5 82c0 30 -8.66699 45 -26 45c-13.333 0 -27.333 -10 -42 -30z" />
    <glyph glyph-name="i" unicode="i" horiz-adv-x="147" 
d="M147 162c1.33301 1.33301 2.66699 2 4 2c2.66699 0 4 -1.33301 4 -4v-2l-19.5 -45c-7.66699 -17.333 -16.5 -34 -26.5 -50s-21.333 -29.5 -34 -40.5s-27.334 -16.5 -44.001 -16.5c-18 0 -30.333 6.33301 -37 19s-10 28 -10 46c0 12.667 1.33301 26 4 40
s5.5 26.833 8.5 38.5s5.83301 21.334 8.5 29.001s4.33398 11.834 5.00098 12.501c4.66699 4.66699 12 7 22 7c6 0 11.667 -1 17 -3s8 -4.66699 8 -8c0 -1.33301 -1.33301 -6.5 -4 -15.5s-5.66699 -20 -9 -33s-6.33301 -26.833 -9 -41.5s-4 -28.334 -4 -41.001
c0 -14.667 1.66699 -24.834 5 -30.501s7.66602 -8.5 12.999 -8.5c10 0 19.833 5.5 29.5 16.5s18.834 24.333 27.501 40s16.5 31.667 23.5 48zM42.001 251c7.33301 0 13 -2.5 17 -7.5s6 -10.5 6 -16.5c0 -5.33301 -2 -10.5 -6 -15.5s-9.66699 -7.5 -17 -7.5
c-8 0 -13.833 2.5 -17.5 7.5s-5.5 10.167 -5.5 15.5c0 6 1.83301 11.5 5.5 16.5s9.5 7.5 17.5 7.5z" />
    <glyph glyph-name="j" unicode="j" horiz-adv-x="170" 
d="M170 162c0.666992 1.33301 2.33301 2.00293 5 2.00293s4 -1 4 -3v-2c-15.333 -33.333 -31.833 -61 -49.5 -83s-34 -39.667 -49 -53s-27.833 -23.333 -38.5 -30s-17 -11.334 -19 -14.001c-0.666992 -0.666992 -2.16699 -9.5 -4.5 -26.5s-6 -37.833 -11 -62.5
s-11.333 -51.5 -19 -80.5s-16.667 -55.833 -27 -80.5s-22.333 -45.167 -36 -61.5s-28.834 -24.5 -45.501 -24.5c-13.333 0 -23.666 5.66699 -30.999 17s-11 26.333 -11 45c0 20.667 4.33301 42.834 13 66.501s19.667 46.667 33 69s27.5 43 42.5 62s29.167 34.167 42.5 45.5
c7.33301 38 13.5 75.667 18.5 113s9.16699 71 12.5 101l3 25v2c0 3.33301 2.16699 5.66602 6.5 6.99902s9.16602 2 14.499 2c7.33301 0 13.666 -1 18.999 -3s8 -4.66699 8 -8c-2.66699 -26 -6.16699 -56 -10.5 -90s-9.5 -69.333 -15.5 -106
c12.667 9.33301 25.334 19.166 38.001 29.499s25.167 22 37.5 35s24.333 28.167 36 45.5s22.834 37.666 33.501 60.999zM-112.001 -314.997c10.667 14.667 20.167 32.667 28.5 54s15.833 43.5 22.5 66.5s12.167 45.833 16.5 68.5l11.5 60
c-11.333 -10.667 -24 -24.667 -38 -42s-27 -36.5 -39 -57.5s-22 -42.667 -30 -65s-12 -43.833 -12 -64.5c0 -12.667 1.66699 -22.167 5 -28.5s7.33301 -9.5 12 -9.5c6 0 13.667 6 23 18zM28.999 252.003c7.33301 0 13 -2.5 17 -7.5s6 -10.5 6 -16.5s-2 -11.5 -6 -16.5
s-9.66699 -7.5 -17 -7.5c-8 0 -13.833 2.5 -17.5 7.5s-5.5 10.5 -5.5 16.5s1.83301 11.5 5.5 16.5s9.5 7.5 17.5 7.5z" />
    <glyph glyph-name="k" unicode="k" 
d="M256 162c0.666992 2 2.00391 3.00293 4.00391 3.00293c2.66699 0 4 -1.33301 4 -4v-2c-8 -17.333 -17 -34.5 -27 -51.5s-20.5 -32.333 -31.5 -46s-22.333 -24.834 -34 -33.501s-22.834 -13 -33.501 -13c-14 0 -26.833 7.66699 -38.5 23s-21.5 42 -29.5 80
c-3.33301 -4 -6.33301 -9.33301 -9 -16s-6 -13.167 -10 -19.5s-9 -11.666 -15 -15.999s-13.333 -6.5 -22 -6.5c-5.33301 0 -10 1 -14 3s-6 5.66699 -6 11c0 7.33301 0.666992 21.166 2 41.499s3.66602 44.666 6.99902 72.999s7.66602 59.5 12.999 93.5
s11.666 68.167 18.999 102.5s16 67.666 26 99.999s21.5 60.833 34.5 85.5s27.333 44.5 43 59.5s33.167 22.5 52.5 22.5c21.333 0 35.833 -5.66699 43.5 -17s11.5 -25.666 11.5 -42.999c0 -25.333 -5.5 -53.333 -16.5 -84s-25.333 -62 -43 -94s-37.834 -63.333 -60.501 -94
s-45.667 -58.334 -69 -83.001c-4 -28 -7.16699 -54.5 -9.5 -79.5s-4.16602 -47.167 -5.49902 -66.5c6 10.667 13.667 22.834 23 36.501s19.5 26.5 30.5 38.5s22.667 22 35 30s24.833 12 37.5 12c9.33301 0 16.5 -2.83301 21.5 -8.5s7.5 -12.167 7.5 -19.5
c0 -8 -2.5 -14.833 -7.5 -20.5s-11.5 -10.334 -19.5 -14.001s-16.833 -6.5 -26.5 -8.5s-18.834 -4 -27.501 -6c0.666992 -4 2.16699 -11.333 4.5 -22s5.5 -21.5 9.5 -32.5s8.66699 -20.833 14 -29.5s11 -13 17 -13c6.66699 0 14.834 5 24.501 15s19 22 28 36
s17.333 28.167 25 42.5s13.5 25.833 17.5 34.5zM160.004 594.003c-14.667 -22 -27.6699 -48.3311 -39.0029 -78.998s-21.166 -62.334 -29.499 -95.001s-15.166 -63.834 -20.499 -93.501s-9.33301 -54.5 -12 -74.5c17.333 19.333 36.333 43.333 57 72s40 58.667 58 90
s33 62.5 45 93.5s18 58.833 18 83.5c0 14.667 -2.5 25.334 -7.5 32.001s-11.167 10 -18.5 10s-15.666 -3.33301 -24.999 -10s-18 -16.334 -26 -29.001zM86.001 140.005c8 2.66699 17.499 5.16504 28.499 7.49805s21.333 5.33301 31 9s17.834 7.83398 24.501 12.501
s10 10.334 10 17.001c0 8 -5.33301 12 -16 12c-7.33301 0 -18.333 -4.16699 -33 -12.5s-29.667 -23.5 -45 -45.5z" />
    <glyph glyph-name="l" unicode="l" horiz-adv-x="203" 
d="M60 248c17.333 18.667 36.3359 42.3311 57.0029 70.998s40 58.667 58 90s33.167 62.666 45.5 93.999s18.5 59.333 18.5 84c0 14.667 -2.5 25.334 -7.5 32.001s-11.167 10 -18.5 10c-14 0 -27.333 -7.16699 -40 -21.5s-24.334 -32.833 -35.001 -55.5
s-20.334 -48.167 -29.001 -76.5s-16.334 -56.666 -23.001 -84.999s-12.167 -55.166 -16.5 -80.499s-7.5 -46 -9.5 -62zM203.003 161.997c1.33301 1.33301 2.33398 2.00195 3.00098 2.00195c3.33301 0 5 -1.66699 5 -5v-1c-6 -12.667 -15 -27.667 -27 -45
s-25.333 -34 -40 -50s-30 -29.667 -46 -41s-30.667 -17 -44 -17c-20.667 0 -35.167 10.667 -43.5 32s-12.5 49 -12.5 83c0 36 3.5 75.667 10.5 119s15.167 85 24.5 125s18.5 75.333 27.5 106s15.5 51 19.5 61c14 35.333 30.333 63.833 49 85.5s40 32.5 64 32.5
c21.333 0 35.833 -5.83301 43.5 -17.5s11.5 -25.834 11.5 -42.501c0 -26 -5.5 -54.5 -16.5 -85.5s-25.5 -62.333 -43.5 -94s-38.333 -62.834 -61 -93.501s-45.667 -58.334 -69 -83.001c-0.666992 -3.33301 -1.5 -8.66602 -2.5 -15.999s-2 -16 -3 -26
s-1.83301 -20.667 -2.5 -32s-1 -23 -1 -35s0.5 -23.667 1.5 -35s2.66699 -21.333 5 -30s5.66602 -15.667 9.99902 -21s9.83301 -8 16.5 -8c10 0 21.333 5.66699 34 17s25 24.5 37 39.5s22.5 29.833 31.5 44.5s15.167 25 18.5 31z" />
    <glyph glyph-name="m" unicode="m" horiz-adv-x="380" 
d="M380 162c1.33301 1.33301 2.66406 1.99414 3.99707 1.99414c3.33301 0 5 -1.33301 5 -4l-5.5 -11.5c-3.66699 -7.66699 -8.66699 -17.167 -15 -28.5s-13.666 -23.5 -21.999 -36.5s-17 -25.167 -26 -36.5s-18.5 -20.666 -28.5 -27.999s-19.333 -11 -28 -11
c-8 0 -15 3.5 -21 10.5s-9 16.167 -9 27.5c0 10 1.5 21.333 4.5 34s6.5 25.334 10.5 38.001s7.5 24.834 10.5 36.501s4.5 21.834 4.5 30.501c0 10 -2.66699 15 -8 15c-7.33301 0 -15.666 -5.16699 -24.999 -15.5s-18.666 -22.5 -27.999 -36.5s-18.166 -28.5 -26.499 -43.5
l-21.5 -37.5c-2 -3.33301 -5.66699 -5.66602 -11 -6.99902s-10.666 -2 -15.999 -2s-10.166 0.666992 -14.499 2s-6.5 3.66602 -6.5 6.99902c0.666992 0.666992 1 1.33398 1 2.00098c2.66699 8.66699 5.83398 18 9.50098 28s6.83398 20 9.50098 30s5 19.833 7 29.5
s3 18.167 3 25.5s-1 12.333 -3 15s-4 4 -6 4c-6.66699 0 -14.834 -5.33301 -24.501 -16s-19.5 -23.167 -29.5 -37.5s-19.333 -29 -28 -44l-20 -35.5c-0.666992 -1.33301 -3.83398 -3.5 -9.50098 -6.5s-11.834 -4.5 -18.501 -4.5c-3.33301 0 -7.5 0.833008 -12.5 2.5
s-7.5 4.5 -7.5 8.5c0 3.33301 0.833008 8.66602 2.5 15.999l5.5 24.5c2 9 4.33301 18.333 7 28l7 25.5l6 23c1.33301 3.33301 4.16602 5.83301 8.49902 7.5s9.16602 2.5 14.499 2.5c6 0 11.667 -1 17 -3s8 -4.66699 8 -8c-0.666992 -0.666992 -1 -1.33398 -1 -2.00098
l-20 -83l21.5 35.5c8.33301 13.667 17.5 26.834 27.5 39.501s20.667 23.334 32 32.001s23 13 35 13c13.333 0 22.5 -3.5 27.5 -10.5s7.5 -15.833 7.5 -26.5c0 -12 -2 -24.667 -6 -38s-7.66699 -25 -11 -35c7.33301 12.667 15.333 25.5 24 38.5s17.834 24.833 27.501 35.5
s19.5 19.334 29.5 26.001s20 10 30 10c12.667 0 21.5 -3.33301 26.5 -10s7.5 -15.667 7.5 -27c0 -10 -1.66699 -21.5 -5 -34.5s-6.83301 -25.833 -10.5 -38.5l-10.5 -36.5c-3.33301 -11.667 -5 -21.167 -5 -28.5c0 -3.33301 0.5 -6.5 1.5 -9.5s2.5 -4.5 4.5 -4.5
c6 0 13.667 5.66699 23 17s18.666 24.5 27.999 39.5s18 29.833 26 44.5s13.333 25 16 31z" />
    <glyph glyph-name="n" unicode="n" horiz-adv-x="257" 
d="M257 162c1.33301 1.33301 2.66699 2.00195 4 2.00195c2.66699 0 4 -1.33301 4 -4s-2 -8.16699 -6 -16.5s-9.5 -18.166 -16.5 -29.499s-14.833 -23.333 -23.5 -36s-17.5 -24.167 -26.5 -34.5s-18.167 -19 -27.5 -26s-17.666 -10.5 -24.999 -10.5
c-6.66699 0 -13 2.66699 -19 8s-9 15 -9 29c0 10.667 1.33301 23 4 37s5.66699 28 9 42l9 39c2.66699 12 4 21.667 4 29s-2 11 -6 11c-6 0 -14 -5.33301 -24 -16s-20 -23.334 -30 -38.001s-19.5 -29.5 -28.5 -44.5s-15.833 -26.833 -20.5 -35.5
c-0.666992 -1.33301 -3.83398 -3.5 -9.50098 -6.5s-12.167 -4.5 -19.5 -4.5c-2.66699 0 -6.5 0.833008 -11.5 2.5s-7.5 4.16699 -7.5 7.5c0 4 1.16699 12.167 3.5 24.5s5 25.166 8 38.499l8 36c2.33301 10.667 3.83301 16.667 4.5 18c1.33301 4 4.33301 6.83301 9 8.5
s9.66699 2.5 15 2.5c6.66699 0 12.5 -0.833008 17.5 -2.5s7.5 -4.16699 7.5 -7.5v-1l-18 -87l24.5 41c9 14.667 18.5 28 28.5 40s20.333 22 31 30s21.334 12 32.001 12c11.333 0 19.166 -3.33301 23.499 -10s6.5 -15.334 6.5 -26.001c0 -10 -1.33301 -21.167 -4 -33.5
s-5.66699 -24.666 -9 -36.999s-6.33301 -24.166 -9 -35.499s-4 -21.333 -4 -30c0 -4.66699 0.5 -9 1.5 -13s2.83301 -6 5.5 -6c5.33301 0 12.833 6 22.5 18s19.5 25.667 29.5 41s19 30.166 27 44.499s13 24.166 15 29.499z" />
    <glyph glyph-name="o" unicode="o" horiz-adv-x="262" 
d="M262 162c1.33301 1.33301 2.33496 1.99805 3.00195 1.99805c3.33301 0 5 -1.66699 5 -5v-2l-23 -38c-8.66699 -14 -18 -27.333 -28 -40s-20.667 -23.167 -32 -31.5s-22.666 -12.5 -33.999 -12.5c-12.667 0 -24.667 5.66699 -36 17c-25.333 -31.333 -51 -47 -77 -47
c-16.667 0 -31 6.66699 -43 20s-18 33.333 -18 60c0 12.667 1.83301 25.834 5.5 39.501s9 26.334 16 38.001s15.833 21.334 26.5 29.001s23.334 11.5 38.001 11.5c2 0 4.66699 -0.333008 8 -1s5 -2.66699 5 -6c0 -0.666992 -0.666992 -1.66699 -2 -3
c-16.667 -9.33301 -28.834 -24 -36.501 -44s-11.5 -40 -11.5 -60c0 -18 2.83301 -33.5 8.5 -46.5s14.167 -19.5 25.5 -19.5c6.66699 0 14.167 2.66699 22.5 8s17.166 14.666 26.499 27.999c-9.33301 11.333 -16.333 24.833 -21 40.5s-7 31.167 -7 46.5
c0 17.333 3.33301 32.333 10 45s17 19 31 19c11.333 0 19.5 -4.33301 24.5 -13s7.5 -19.667 7.5 -33c0 -16.667 -3.33301 -34.667 -10 -54s-14.667 -36.333 -24 -51c10 -10 20 -15 30 -15c15.333 0 31.666 9.66699 48.999 29s37.666 49 60.999 89zM116.002 65.998
c8.66699 13.333 16.002 29.335 22.002 48.002s9 35.667 9 51c0 11.333 -1.83301 20.166 -5.5 26.499s-9.83398 9.5 -18.501 9.5c-10.667 0 -18.5 -5.33301 -23.5 -16s-7.5 -23.334 -7.5 -38.001c0 -13.333 2.16699 -27.5 6.5 -42.5s10.166 -27.833 17.499 -38.5z" />
    <glyph glyph-name="p" unicode="p" horiz-adv-x="311" 
d="M311 162c0.666992 1.33301 1.66992 2.00391 3.00293 2.00391c3.33301 0 5 -1.66699 5 -5c-0.666992 -0.666992 -1 -1.33398 -1 -2.00098c-15.333 -26.667 -29.166 -48.334 -41.499 -65.001s-23.833 -29.834 -34.5 -39.501s-20.834 -16.334 -30.501 -20.001
s-19.167 -5.5 -28.5 -5.5c-10 0 -21 1.66699 -33 5c-8.66699 -8 -19.834 -15.167 -33.501 -21.5s-26.167 -9.5 -37.5 -9.5c-8.66699 0 -15 1.83301 -19 5.5s-6 8.16699 -6 13.5c0 8.66699 3.83301 15.834 11.5 21.501s18.5 8.5 32.5 8.5c3.33301 0 6.5 -0.166992 9.5 -0.5
s6.16699 -0.833008 9.5 -1.5c4 4 8.5 10.333 13.5 19s10 18.334 15 29.001s9.16699 21.5 12.5 32.5s5 21.167 5 30.5s-2.16699 17.166 -6.5 23.499s-11.5 9.5 -21.5 9.5c-18.667 0 -36.167 -8.16699 -52.5 -24.5s-29.833 -36.166 -40.5 -59.499
c-2 -4 -4.33301 -18.5 -7 -43.5s-6.66699 -55.333 -12 -91s-12.166 -73.834 -20.499 -114.501s-18.5 -78.167 -30.5 -112.5s-26.167 -62.833 -42.5 -85.5s-35.5 -34 -57.5 -34c-8.66699 0 -15.834 2 -21.501 6s-10.334 9.33301 -14.001 16s-6.16699 14 -7.5 22
s-2 15.667 -2 23c0 16 2.66699 34.833 8 56.5s14 45 26 70s27.333 50.833 46 77.5s41.667 53 69 79l13.5 97.5c4.33301 31.667 7.83301 60.834 10.5 87.501l2 23c0.666992 3.33301 3.33398 5.83301 8.00098 7.5s9.66699 2.5 15 2.5c6 0 11.833 -1 17.5 -3
s8.5 -4.66699 8.5 -8c0 -0.666992 -0.166992 -1.16699 -0.5 -1.5s-0.5 -0.833008 -0.5 -1.5l-5 -47c13.333 23.333 30.166 41.333 50.499 54s39.5 19 57.5 19c15.333 0 28.166 -4.83301 38.499 -14.5s15.5 -24.167 15.5 -43.5c0 -20 -4.83301 -40 -14.5 -60
s-21.167 -36.667 -34.5 -50c8 -2 16 -3 24 -3c8.66699 0 17.667 1.66699 27 5s19 9.66602 29 18.999s21 22.166 33 38.499s25.333 37.5 40 63.5zM-25.9971 -37.9961c-25.333 -25.333 -46.8301 -51.001 -64.4971 -77.001s-32 -51 -43 -75s-19 -46.5 -24 -67.5
s-7.5 -38.833 -7.5 -53.5c0 -13.333 1.66699 -23.666 5 -30.999s8 -11 14 -11c10.667 0 21.667 8.5 33 25.5s22.166 40 32.499 69s20.166 62.5 29.499 100.5s17.666 78 24.999 120zM110.006 40.0029c-2.66699 0 -5 0.166992 -7 0.5s-4 0.5 -6 0.5
c-11.333 0 -19.833 -2 -25.5 -6s-8.5 -8.66699 -8.5 -14c0 -4.66699 2.33301 -7 7 -7c3.33301 0 8.33301 1.83301 15 5.5s15 10.5 25 20.5z" />
    <glyph glyph-name="q" unicode="q" horiz-adv-x="286" 
d="M127 150c-7.33301 11.333 -14 19.832 -20 25.499s-12.667 8.5 -20 8.5c-5.33301 0 -12.833 -3.83301 -22.5 -11.5s-19.334 -18 -29.001 -31s-18.167 -28.333 -25.5 -46s-11 -36.5 -11 -56.5c0 -6 1 -11.5 3 -16.5s5.66699 -7.5 11 -7.5c7.33301 0 16.333 4.16699 27 12.5
s21.334 18.333 32.001 30s20.5 23.834 29.5 36.501s15.167 23.667 18.5 33zM286 161.999c1.33301 1.33301 2.66211 2.00098 3.99512 2.00098c2.66699 0 4 -1.33301 4 -4v-2c-10.667 -21.333 -21.167 -40.5 -31.5 -57.5s-21.5 -31.5 -33.5 -43.5s-25.333 -21.5 -40 -28.5
s-32 -10.833 -52 -11.5l-6 -24c-2 -8 -3.66699 -16 -5 -24l6.5 -19c4.33301 -12.667 9.33301 -29 15 -49s10.667 -42.333 15 -67s6.5 -49 6.5 -73c0 -14.667 -1.16699 -29 -3.5 -43s-6.16602 -26.333 -11.499 -37s-12.166 -19.334 -20.499 -26.001s-18.166 -10 -29.499 -10
c-21.333 0 -36.333 10.333 -45 31s-13 47 -13 79c0 29.333 2.66699 61.166 8 95.499s11.5 67.333 18.5 99s14 60 21 85l15.5 54.5c-6.66699 -9.33301 -14.834 -19.333 -24.501 -30s-20 -20.667 -31 -30s-22.333 -17 -34 -23s-22.5 -9 -32.5 -9
c-12.667 0 -21.667 4.5 -27 13.5s-8 19.833 -8 32.5c0 14.667 3.16699 31.167 9.5 49.5s14.833 35.5 25.5 51.5s23 29.5 37 40.5s28.667 16.5 44 16.5c10.667 0 21.334 -3 32.001 -9s21 -16.333 31 -31c4 11.333 8 19.833 12 25.5s12.667 8.5 26 8.5
c4.66699 0 9 -0.833008 13 -2.5s6 -4.16699 6 -7.5c0 -2 -0.333008 -3.33301 -1 -4l-23.5 -72.5c-8.33301 -26.333 -16.166 -54.166 -23.499 -83.499c18.667 1.33301 34.834 5.5 48.501 12.5s26 16.5 37 28.5s21.333 26 31 42s19.5 34 29.5 54zM121.996 -47
c-1.33301 -4 -3.33301 -13.6689 -6 -29.002s-5.5 -33.333 -8.5 -54s-5.66699 -42.667 -8 -66s-3.5 -45 -3.5 -65c0 -21.333 1.83301 -39.333 5.5 -54s10.167 -22 19.5 -22c6 0 11.333 2.83301 16 8.5s8.66699 13.167 12 22.5s6 19.833 8 31.5s3 23.834 3 36.501
c0 27.333 -3.16699 57.333 -9.5 90s-15.833 66.334 -28.5 101.001z" />
    <glyph glyph-name="r" unicode="r" horiz-adv-x="191" 
d="M8 159c-0.666992 -2.66699 -2.00098 -3.99902 -4.00098 -3.99902c-3.33301 0 -5 1.66699 -5 5c0 0.666992 0.333008 1.33398 1 2.00098l11 22c-8 5.33301 -13.667 10.833 -17 16.5s-5 11.167 -5 16.5c0 8 3.16699 14.833 9.5 20.5s12.833 8.5 19.5 8.5
c4 0 7.83301 -1.33301 11.5 -4s5.5 -7.33398 5.5 -14.001c0 -4 -0.666992 -8 -2 -12s-2.66602 -8.33301 -3.99902 -13c4.66699 -3.33301 10.834 -6.66602 18.501 -9.99902s15 -6.83301 22 -10.5s13.167 -7.5 18.5 -11.5s8 -8.33301 8 -13c0 -4 -1.33301 -10.167 -4 -18.5
s-5.5 -17.833 -8.5 -28.5s-5.66699 -21.5 -8 -32.5s-3.5 -20.833 -3.5 -29.5s1.33301 -16.167 4 -22.5s7.66699 -9.5 15 -9.5c10 0 20.833 7.66699 32.5 23s22.667 32.166 33 50.499s19.166 35.166 26.499 50.499s11.333 23 12 23c3.33301 0 5 -1.33301 5 -4
c0 -5.33301 -3.83301 -15.833 -11.5 -31.5s-17 -32.167 -28 -49.5s-22.5 -33.166 -34.5 -47.499s-22.667 -22.833 -32 -25.5c-8 -2.66699 -15.667 -4 -23 -4c-15.333 0 -25.833 5.66699 -31.5 17s-8.5 24.666 -8.5 39.999c0 8.66699 0.833008 17.667 2.5 27
s3.66699 18.5 6 27.5s4.33301 17.333 6 25s2.5 14.167 2.5 19.5c0 4 -3.66699 8 -11 12l-19 10zM21.999 208.001c2.66699 6 4 11.667 4 17c0 7.33301 -2.66699 11 -8 11s-8 -3 -8 -9c0 -6.66699 4 -13 12 -19z" />
    <glyph glyph-name="s" unicode="s" horiz-adv-x="169" 
d="M40 179c5.33301 6.66699 8.83301 12.834 10.5 18.501s2.5 10.167 2.5 13.5c0 8.66699 -3.33301 13 -10 13c-7.33301 0 -11 -5.33301 -11 -16c0 -8.66699 2.66699 -18.334 8 -29.001zM39 16c10.667 12.667 16 27.666 16 44.999c0 8.66699 -1.66699 17.334 -5 26.001
c-8 -6.66699 -16 -15 -24 -25s-12 -20.667 -12 -32c1.33301 -12.667 6 -19 14 -19c4 0 7.66699 1.66699 11 5zM169 161.999h2.00293c2.66699 0 4 -1.33301 4 -4c0 -1.33301 -3.83301 -4.16602 -11.5 -8.49902l-26 -14l-29 -14.5l-20.5 -10c10 -18 15 -35.333 15 -52
c0 -18.667 -5.33301 -34.167 -16 -46.5s-24.667 -18.5 -42 -18.5c-10.667 0 -20 3.5 -28 10.5s-12 16.167 -12 27.5c0 9.33301 3.16699 19.333 9.5 30s17.166 21.667 32.499 33c-4.66699 9.33301 -10.5 18.333 -17.5 27l-20.5 26.5c-6.66699 9 -12.334 18.167 -17.001 27.5
s-7 19.333 -7 30c0 13.333 4 23.166 12 29.499s16.667 9.5 26 9.5s18.166 -3 26.499 -9s12.5 -14.667 12.5 -26c0 -12 -5.66699 -25 -17 -39l38 -53l42 23c14 7.33301 28.667 14.333 44 21z" />
    <glyph glyph-name="t" unicode="t" horiz-adv-x="149" 
d="M149 162c0.666992 2 2.00195 3.00098 4.00195 3.00098c3.33301 0 5 -1.66699 5 -5c0 -0.666992 -0.333008 -1.33398 -1 -2.00098c-4.66699 -10 -11.834 -23.5 -21.501 -40.5s-20.334 -33.5 -32.001 -49.5s-23.834 -30 -36.501 -42s-24.334 -18 -35.001 -18
c-13.333 0 -22.666 8.5 -27.999 25.5s-8 38.167 -8 63.5c0 28.667 2.66699 61.167 8 97.5s11.333 70.666 18 102.999s13 60.5 19 84.5s9.66699 38.333 11 43h-16c-16.667 0 -29.667 -1.33301 -39 -4s-16.5 -5.5 -21.5 -8.5s-8.5 -5.83301 -10.5 -8.5s-4 -4 -6 -4
c-2.66699 0 -4 1.33301 -4 4c0 4.66699 6.33301 10.834 19 18.501s33.667 11.5 63 11.5h17c2.66699 11.333 5.16699 20 7.5 26s10.166 9 23.499 9c5.33301 0 10.666 -1.16699 15.999 -3.5s8 -5.16602 8 -8.49902v-1l-8 -27c11.333 -1.33301 23 -2.5 35 -3.5
s23.667 -1.5 35 -1.5c13.333 0 24.5 1.33301 33.5 4s14.167 7.66699 15.5 15c0 2.66699 1.66699 4 5 4c2.66699 0 4 -1.66699 4 -5c-1.33301 -10.667 -7.66602 -17.834 -18.999 -21.501s-25 -5.5 -41 -5.5c-11.333 0 -23 0.666992 -35 2l-35 4c-3.33301 -12 -8 -32 -14 -60
s-12.167 -58.833 -18.5 -92.5s-11.833 -67.334 -16.5 -101.001s-7 -62.5 -7 -86.5c0 -13.333 0.833008 -24.833 2.5 -34.5s4.83398 -14.5 9.50098 -14.5s11.334 4.66699 20.001 14s17.5 20.833 26.5 34.5s17.833 27.834 26.5 42.501s15.667 27.667 21 39z" />
    <glyph glyph-name="u" unicode="u" horiz-adv-x="254" 
d="M254 162c1.33301 1.33301 2.66797 1.99805 4.00098 1.99805c2.66699 0 4 -1.33301 4 -4c0 0.666992 -1.83301 -2.66602 -5.5 -9.99902l-14.5 -28c-6 -11.333 -13.167 -23.5 -21.5 -36.5s-17.166 -25.333 -26.499 -37s-18.833 -21.334 -28.5 -29.001
s-18.834 -11.5 -27.501 -11.5c-11.333 0 -19.333 4.66699 -24 14s-7 19.333 -7 30c0 8.66699 0.833008 17.334 2.5 26.001s3.5 16.667 5.5 24c-4.66699 -8.66699 -10.5 -18.5 -17.5 -29.5s-14.833 -21.5 -23.5 -31.5s-17.834 -18.333 -27.501 -25s-19.5 -10 -29.5 -10
c-13.333 0 -22.833 5 -28.5 15s-8.5 22.667 -8.5 38c0 13.333 1.5 27.5 4.5 42.5s6.16699 28.833 9.5 41.5s6.66602 23.334 9.99902 32.001s5.33301 13.334 6 14.001c4.66699 4 11.667 6 21 6c6.66699 0 12.5 -1 17.5 -3s7.5 -4.66699 7.5 -8v-2
c-1.33301 -3.33301 -3.5 -9.66602 -6.5 -18.999s-6 -20 -9 -32s-5.66699 -24.5 -8 -37.5s-3.5 -25.167 -3.5 -36.5c0 -21.333 4 -32 12 -32c6.66699 0 13.834 4.16699 21.501 12.5s15.334 18.666 23.001 30.999s15 25.666 22 39.999s13.167 27.5 18.5 39.5s9.5 22 12.5 30
s4.16699 11.667 3.5 11c4 4 10.667 6 20 6c6.66699 0 12.834 -1 18.501 -3s8.5 -4.66699 8.5 -8v-1c-2 -2.66699 -4.83301 -9.5 -8.5 -20.5s-7.5 -23.5 -11.5 -37.5s-7.5 -28.167 -10.5 -42.5s-4.5 -25.833 -4.5 -34.5c0 -10.667 2.33301 -16 7 -16
c5.33301 0 12.666 5.66699 21.999 17s18.666 24.5 27.999 39.5l26 43.5z" />
    <glyph glyph-name="v" unicode="v" horiz-adv-x="247" 
d="M247 162c1.33301 1.33301 2.66602 2 3.99902 2c2.66699 0 4 -1.33301 4 -4v-2c-16.667 -31.333 -33.167 -54.333 -49.5 -69s-32.166 -22 -47.499 -22c-18 0 -33.333 9 -46 27c-6 -10.667 -12.667 -21.334 -20 -32.001s-15.166 -20.167 -23.499 -28.5
s-17 -15.166 -26 -20.499s-17.833 -8 -26.5 -8c-11.333 0 -18.833 5.83301 -22.5 17.5s-5.5 25.834 -5.5 42.501c0 10 0.5 20 1.5 30s2.16699 19.5 3.5 28.5s2.66602 16.833 3.99902 23.5l3 15l5 22c0 4 2.16699 6.83301 6.5 8.5s9.5 2.5 15.5 2.5s11.833 -1 17.5 -3
s8.5 -4.66699 8.5 -8c0 -2.66699 -1.16699 -8.83398 -3.5 -18.501s-4.66602 -20.834 -6.99902 -33.501l-7 -40c-2.33301 -14 -3.5 -26.333 -3.5 -37c0 -8 0.833008 -14.667 2.5 -20s4.5 -8 8.5 -8c2.66699 0 6.66699 2.16699 12 6.5s11 10 17 17s12 15 18 24
s11.333 18.167 16 27.5c-13.333 20.667 -20 39.667 -20 57c0 14.667 3.83301 26 11.5 34s15.5 12 23.5 12c5.33301 0 10.166 -2.16699 14.499 -6.5s6.5 -11.166 6.5 -20.499c0 -12 -3 -25 -9 -39s-11.667 -26.333 -17 -37c12 -17.333 26 -26 42 -26
c14 0 28.5 6.83301 43.5 20.5s30.167 35.5 45.5 65.5zM111 111c8 15.333 13.665 28.168 16.998 38.501s5 19.166 5 26.499c0 13.333 -4.33301 20 -13 20c-5.33301 0 -10.666 -3.33301 -15.999 -10s-8 -16 -8 -28c0 -6 0.833008 -12.5 2.5 -19.5s4.83398 -14.5 9.50098 -22.5
z" />
    <glyph glyph-name="w" unicode="w" horiz-adv-x="355" 
d="M355 162c1.33301 1.33301 2.66602 1.99707 3.99902 1.99707c2.66699 0 4 -1.66699 4 -5v-2l-18 -31.5c-6 -10.333 -12.333 -19.666 -19 -27.999s-13.667 -15 -21 -20s-15.333 -7.5 -24 -7.5c-14 0 -28.667 7.66699 -44 23c-13.333 -23.333 -28.666 -43.833 -45.999 -61.5
s-34.666 -26.5 -51.999 -26.5c-9.33301 0 -16.833 3.66699 -22.5 11s-8.5 19.666 -8.5 36.999c0 15.333 2.66699 34.333 8 57c-4.66699 -9.33301 -10.667 -19.833 -18 -31.5s-15.5 -23 -24.5 -34s-18.5 -20.167 -28.5 -27.5s-20 -11 -30 -11
c-11.333 0 -19.166 5.16699 -23.499 15.5s-6.5 23.166 -6.5 38.499c0 13.333 1.16699 27.333 3.5 42s4.83301 28.334 7.5 41.001s5.16699 23.167 7.5 31.5l3.5 12.5c4 5.33301 11.667 8 23 8c6 0 11.667 -1 17 -3s8 -4.66699 8 -8c0 -1.33301 -0.333008 -2.33301 -1 -3
s-2.16699 -5.66699 -4.5 -15s-4.83301 -20.333 -7.5 -33s-5 -26.167 -7 -40.5s-3 -26.833 -3 -37.5c0 -7.33301 0.666992 -13.5 2 -18.5s4 -7.5 8 -7.5c6.66699 0 15.5 7.16699 26.5 21.5s21.5 29.833 31.5 46.5s18 31.667 24 45s8 19.333 6 18
c2.66699 2.66699 6 4.5 10 5.5s8 1.5 12 1.5c6.66699 0 12.5 -0.833008 17.5 -2.5s7.5 -4.16699 7.5 -7.5c0 -1.33301 -1.16699 -6.16602 -3.5 -14.499s-4.83301 -18 -7.5 -29s-5.16699 -22.667 -7.5 -35s-3.5 -22.833 -3.5 -31.5c0 -14.667 3 -22 9 -22
c4 0 9.16699 2.66699 15.5 8s12.666 11.833 18.999 19.5s12.333 15.834 18 24.501s10.5 16.667 14.5 24c-13.333 20.667 -20 39.667 -20 57c0 15.333 3.83301 27 11.5 35s15.5 12 23.5 12c5.33301 0 10.166 -2.16699 14.499 -6.5s6.5 -11.166 6.5 -20.499
c0 -12 -3 -25.167 -9 -39.5s-11.667 -26.5 -17 -36.5c14 -14.667 27 -22 39 -22c11.333 0 22.833 6.33301 34.5 19s25.167 33.667 40.5 63zM236 109.997c8 15.333 13.499 28.332 16.499 38.999s4.5 19.334 4.5 26.001c0 12.667 -4 19 -12 19
c-5.33301 0 -10.666 -3.33301 -15.999 -10s-8 -16 -8 -28c0 -14 5 -29.333 15 -46z" />
    <glyph glyph-name="x" unicode="x" horiz-adv-x="231" 
d="M231 162c0.666992 1.33301 2.00781 1.99609 4.00781 1.99609c2.66699 0 4 -1.33301 4 -4v-1l-15.5 -36.5c-7 -16.333 -15.333 -32.666 -25 -48.999s-20.5 -30.833 -32.5 -43.5s-24.333 -19 -37 -19s-25.334 6.16699 -38.001 18.5s-25.334 27.166 -38.001 44.499l-54 -65
c-0.666992 -0.666992 -1.66699 -1 -3 -1c-2.66699 0 -4 1.33301 -4 4s2.16699 6.83398 6.5 12.501s9.5 12 15.5 19s12.167 13.833 18.5 20.5s11.5 12.667 15.5 18c-2.66699 4 -7.66699 12.167 -15 24.5l-23 39l-21 37c-6 11 -8.66699 17.167 -8 18.5c2.66699 6 9 9 19 9
c5.33301 0 10.666 -0.833008 15.999 -2.5s9.66602 -3.5 12.999 -5.5l47 -85l67 84c1.33301 1.33301 2.66602 2 3.99902 2c2.66699 0 4 -1.33301 4 -4c0 -1.33301 -2.16699 -5.16602 -6.5 -11.499s-10 -13.666 -17 -21.999l-23 -27.5l-23.5 -29l12 -20
c5.33301 -8.66699 11.166 -17.167 17.499 -25.5s12.666 -15.5 18.999 -21.5s11.833 -9 16.5 -9c8 0 16.667 6.5 26 19.5s18.166 27.5 26.499 43.5s15.5 30.833 21.5 44.5s9.66699 20.834 11 21.501z" />
    <glyph glyph-name="y" unicode="y" horiz-adv-x="299" 
d="M42 -298c8.66699 16 16.501 34.001 23.501 54.001s13.167 40.5 18.5 61.5s10 41.333 14 61s7.33301 37.167 10 52.5c-12 -10.667 -24.833 -24.834 -38.5 -42.501s-26.5 -37 -38.5 -58s-22 -42.667 -30 -65s-12 -43.833 -12 -64.5c0 -2.66699 0.166992 -6 0.5 -10
s1.16602 -8 2.49902 -12s3 -7.33301 5 -10s4.66699 -4 8 -4c5.33301 0 11.333 3.33301 18 10s13 15.667 19 27zM299.001 162.001c1.33301 1.33301 2.67188 2.00488 4.00488 2.00488c3.33301 0 5 -1.33301 5 -4c0 -0.666992 -0.166992 -1 -0.5 -1s-0.5 -0.333008 -0.5 -1
c-18.667 -34 -36.334 -62.333 -53.001 -85s-31.5 -40.834 -44.5 -54.501s-23.5 -23.667 -31.5 -30s-12.333 -10.5 -13 -12.5c-0.666992 -0.666992 -2.33398 -9.5 -5.00098 -26.5s-6.5 -38 -11.5 -63s-11.167 -52 -18.5 -81s-16.333 -55.833 -27 -80.5
s-22.834 -45.167 -36.501 -61.5s-29.167 -24.5 -46.5 -24.5c-12.667 0 -22.667 5.83301 -30 17.5s-11 26.834 -11 45.501c0 20.667 4.33301 43 13 67s19.667 47.167 33 69.5s27.666 43 42.999 62s29.666 34.167 42.999 45.5c6 33.333 11.5 66.5 16.5 99.5
s9.16699 64.167 12.5 93.5c-15.333 -40 -33.5 -71.167 -54.5 -93.5s-39.833 -33.5 -56.5 -33.5c-15.333 0 -25.333 6.66699 -30 20s-7 29.666 -7 48.999c0 34 2.16699 60.167 6.5 78.5s7.16602 28.166 8.49902 29.499c4.66699 4 11.334 6 20.001 6
c7.33301 0 13.666 -1.16699 18.999 -3.5s8 -4.83301 8 -7.5l-3.5 -17.5c-1.66699 -8.33301 -3.5 -18 -5.5 -29s-3.66699 -22.5 -5 -34.5s-2 -23 -2 -33c0 -11.333 1 -20.5 3 -27.5s5.66699 -10.5 11 -10.5c9.33301 0 19 6.16699 29 18.5s19.333 26.833 28 43.5
s16.167 33.667 22.5 51s10.5 30.666 12.5 39.999c0.666992 3.33301 3.33398 5.66602 8.00098 6.99902s9.66699 2 15 2c7.33301 0 13.5 -0.833008 18.5 -2.5s7.5 -4.16699 7.5 -7.5c-2.66699 -26.667 -6.16699 -56.834 -10.5 -90.501s-9.5 -68.5 -15.5 -104.5l33 32.5
c10 10.333 20 21.833 30 34.5s20.5 27.5 31.5 44.5s23.5 37.5 37.5 61.5z" />
    <glyph glyph-name="z" unicode="z" horiz-adv-x="252" 
d="M252 162c1.33301 1.33301 2.67285 1.99512 4.00586 1.99512c3.33301 0 5 -1.33301 5 -4c0 -0.666992 -0.166992 -1 -0.5 -1s-0.5 -0.333008 -0.5 -1c-9.33301 -20.667 -19.5 -39.167 -30.5 -55.5s-23 -31.833 -36 -46.5s-26.833 -28.5 -41.5 -41.5l-46 -39.5
c3.33301 -8 5.66602 -16.5 6.99902 -25.5s2 -18.833 2 -29.5c0 -18 -1.83301 -36.667 -5.5 -56s-8.33398 -38.333 -14.001 -57s-12 -36.167 -19 -52.5s-13.5 -30.166 -19.5 -41.499c-10.667 -19.333 -23.667 -36.166 -39 -50.499s-31 -21.5 -47 -21.5
c-15.333 0 -26 5.5 -32 16.5s-9 23.5 -9 37.5c0 27.333 5 54.166 15 80.499s22.167 50.833 36.5 73.5s29.166 42.834 44.499 60.501s28.666 31.5 39.999 41.5c-5.33301 24.667 -16.5 43.334 -33.5 56.001s-37.833 21.667 -62.5 27c-2.66699 0 -4 1.66699 -4 5
c0 2.66699 2.66699 4 8 4c21.333 2.66699 40 7.83398 56 15.501s29.333 16.667 40 27s18.667 21.5 24 33.5s8 23.333 8 34c0 16.667 -4 28.5 -12 35.5s-16.333 10.5 -25 10.5c-11.333 0 -22.5 -4 -33.5 -12s-18.833 -17.333 -23.5 -28c-1.33301 -2 -2.66602 -3 -3.99902 -3
c-2.66699 0 -4 1.33301 -4 4c0 8.66699 3.16699 16.167 9.5 22.5s14 11.833 23 16.5s18.167 8.16699 27.5 10.5s17.333 3.5 24 3.5c17.333 0 31.666 -4.5 42.999 -13.5s17 -24.167 17 -45.5c0 -12.667 -3 -25.167 -9 -37.5s-14 -23.666 -24 -33.999
s-21.833 -19.5 -35.5 -27.5s-27.834 -14 -42.501 -18c31.333 -9.33301 54.666 -27 69.999 -53c32 26 60.333 52.167 85 78.5s46 59.5 64 99.5zM0.00683594 -298.005c10 16 19.167 33.835 27.5 53.502s15.5 39.667 21.5 60s10.667 40 14 59s5 35.833 5 50.5
c0 3.33301 -0.166992 6.16602 -0.5 8.49902s-0.5 4.83301 -0.5 7.5c-13.333 -12 -27.5 -27.667 -42.5 -47s-28.833 -40 -41.5 -62s-23 -44.833 -31 -68.5s-12 -45.834 -12 -66.501c0 -9.33301 1.16699 -17.333 3.5 -24s6.83301 -10 13.5 -10c12.667 0 27 13 43 39z" />
    <glyph glyph-name="braceleft" unicode="{" horiz-adv-x="237" 
d="M235 -42c-3.33301 -0.666992 -6.33789 -0.998047 -9.00488 -0.998047h-9c-22 0 -40 3.66699 -54 11s-25 17.166 -33 29.499s-13.5 26.666 -16.5 42.999s-4.5 33.5 -4.5 51.5c0 30 2.33301 60.333 7 91s7.66699 57.667 9 81c-7.33301 -4.66699 -14.666 -7 -21.999 -7
c-9.33301 0 -17.166 3.33301 -23.499 10s-9.5 14.667 -9.5 24c0 8.66699 3.5 17.667 10.5 27s16.833 14 29.5 14c6.66699 0 14 -2.33301 22 -7c6.66699 19.333 10.834 40.666 12.501 63.999s2.83398 46.833 3.50098 70.5s2.33398 46.5 5.00098 68.5
s8.33398 41.667 17.001 59s21.667 31.166 39 41.499s41.666 15.5 72.999 15.5l1 -8c-26.667 -6 -46.667 -16 -60 -30s-23 -30.5 -29 -49.5s-9.33301 -39.833 -10 -62.5s-1.5 -45.5 -2.5 -68.5s-3.33301 -45.833 -7 -68.5s-11.167 -43.667 -22.5 -63
c2.66699 -10.667 4 -24.667 4 -42c0 -23.333 -1.83301 -48.666 -5.5 -75.999s-5.5 -56.666 -5.5 -87.999c0 -15.333 1.16699 -30.333 3.5 -45s6.66602 -27.5 12.999 -38.5s15.333 -20 27 -27s26.834 -10.5 45.501 -10.5c3.33301 0 5 -1.66699 5 -5
c0 -2.66699 -1.33301 -4 -4 -4zM114.995 290.002c4 6 6 11.667 6 17c0 4.66699 -1.5 8.33398 -4.5 11.001s-6.5 4 -10.5 4c-6 0 -11.833 -2.83301 -17.5 -8.5s-8.5 -12.834 -8.5 -21.501c0 -5.33301 1.16699 -10 3.5 -14s5.5 -6 9.5 -6c6.66699 0 14 6 22 18z" />
    <glyph glyph-name="bar" unicode="|" horiz-adv-x="208" 
d="M83 642c0 4.66699 1.5 8.33398 4.5 11.001s6.5 4 10.5 4s7.5 -1.33301 10.5 -4s4.5 -6.33398 4.5 -11.001v-673c0 -4 -1.5 -7.5 -4.5 -10.5s-6.5 -4.5 -10.5 -4.5s-7.5 1.5 -10.5 4.5s-4.5 6.5 -4.5 10.5v673z" />
    <glyph glyph-name="braceright" unicode="}" horiz-adv-x="225" 
d="M3 642c3.33301 0 6.33691 0.166016 9.00391 0.499023s5.33398 0.5 8.00098 0.5c22 0 40 -3.66699 54 -11s25 -17.166 33 -29.499s13.5 -26.666 16.5 -42.999s4.5 -33.5 4.5 -51.5c0 -30 -2.16699 -60.167 -6.5 -90.5s-7.16602 -57.166 -8.49902 -80.499
c6.66699 4.66699 13.667 7 21 7c9.33301 0 17.333 -3.5 24 -10.5s10 -15.167 10 -24.5s-3.83301 -18.5 -11.5 -27.5s-17.834 -13.5 -30.501 -13.5c-6 0 -13 2.33301 -21 7c-6.66699 -19.333 -10.667 -40.5 -12 -63.5s-2.5 -46.333 -3.5 -70s-2.66699 -46.667 -5 -69
s-7.83301 -42 -16.5 -59s-21.834 -30.833 -39.501 -41.5s-41.834 -16 -72.501 -16l-4 2l2 6l1 1c26 5.33301 45.667 15 59 29s23 30.333 29 49s9.5 39.334 10.5 62.001l3 69c1 23.333 3.16699 46.333 6.5 69s10.666 43.667 21.999 63c-2.66699 10 -4 23.333 -4 40
c0 23.333 2 49.166 6 77.499s6 58.166 6 89.499c0 15.333 -1.16699 30.166 -3.5 44.499s-6.83301 27 -13.5 38s-15.834 20 -27.501 27s-26.834 10.5 -45.501 10.5c-2.66699 0 -4 1.33301 -4 4c0 3.33301 1.33301 5 4 5zM128.004 314.999
c-7.33301 -9.33301 -11.001 -17.333 -11.001 -24c0 -8.66699 4.66699 -13 14 -13c6 0 12 2.83301 18 8.5s9 13.167 9 22.5c0 5.33301 -1.16699 9.83301 -3.5 13.5s-5.16602 5.5 -8.49902 5.5c-5.33301 0 -11.333 -4.33301 -18 -13z" />
    <glyph glyph-name="asciitilde" unicode="~" horiz-adv-x="375" 
d="M54 190l-9.00098 1.99902c1.33301 17.333 5 31.5 11 42.5s13.5 19.5 22.5 25.5s19.5 10.167 31.5 12.5s24.667 3.5 38 3.5c20.667 0 42 -1.5 64 -4.5s42.667 -4.5 62 -4.5c28 0 48 7 60 21c2 0 3.16699 -0.666992 3.5 -2s0.5 -2.66602 0.5 -3.99902
c-7.33301 -23.333 -20.666 -38.333 -39.999 -45s-41.666 -10 -66.999 -10c-14 0 -28.5 0.5 -43.5 1.5s-29.5 1.5 -43.5 1.5c-22 0 -41.333 -2.33301 -58 -7s-27.334 -15.667 -32.001 -33z" />
    <glyph glyph-name="a.015" unicode="&#xe16c;" horiz-adv-x="261" 
d="M146 185c1.33301 3.33301 4.16797 5.67188 8.50098 7.00488s9.16602 2 14.499 2c6.66699 0 12.5 -1 17.5 -3s7.5 -4.66699 7.5 -8v-2c-3.33301 -8.66699 -6.83301 -18.667 -10.5 -30s-7 -22.833 -10 -34.5s-5.5 -23 -7.5 -34s-3 -20.5 -3 -28.5c0 -12 2.66699 -18 8 -18
s12.833 6.16699 22.5 18.5s19.334 26.166 29.001 41.499s18.167 29.666 25.5 42.999s11.666 21 12.999 23c1.33301 1.33301 2.66602 2 3.99902 2c3.33301 0 5 -1.33301 5 -4c0 -1.33301 -4 -9.83301 -12 -25.5s-18.167 -32.834 -30.5 -51.501s-26 -35.667 -41 -51
s-29.167 -23 -42.5 -23c-11.333 0 -18.666 4.5 -21.999 13.5s-5 21.167 -5 36.5c0.666992 5.33301 1.33398 11.166 2.00098 17.499s1.66699 13.166 3 20.499c-8.66699 -12 -18.334 -23.833 -29.001 -35.5s-21.834 -22 -33.501 -31s-23.167 -16.333 -34.5 -22
s-22 -8.5 -32 -8.5c-13.333 -0 -22.333 5.33301 -27 16s-7 22 -7 34c0 23.333 3.16699 42.166 9.5 56.499s12.5 26.5 18.5 36.5c-36 -24 -72.667 -45.333 -110 -64s-73.833 -34.167 -109.5 -46.5s-69.834 -21.833 -102.501 -28.5s-63 -10 -91 -10
c-44 0 -80.167 8.66699 -108.5 26s-42.5 45.333 -42.5 84v9c0 4 0.333008 7.83301 1 11.5s1.33398 7 2.00098 10s2 4.5 4 4.5s3 -1.33301 3 -4c0 -5.33301 -0.333008 -10.333 -1 -15s-1 -9.66699 -1 -15c0 -36 13.333 -62.167 40 -78.5s61 -24.5 103 -24.5
c28 0 59 3.5 93 10.5s69.333 17.333 106 31s74.334 30.5 113.001 50.5s76.667 42.667 114 68c10 12.667 22 23.334 36 32.001s29.333 13 46 13c13.333 0 24.833 -5.33301 34.5 -16s16.5 -21.667 20.5 -33zM132.002 142.006c-4 17.333 -9.16699 29.666 -15.5 36.999
s-13.166 11 -20.499 11c-9.33301 0 -18.5 -3.66699 -27.5 -11s-17.333 -16.333 -25 -27s-14.334 -22 -20.001 -34s-9.5 -22.333 -11.5 -31s-3.66699 -16.667 -5 -24s-2 -13.666 -2 -18.999c0 -16 5 -24 15 -24c6.66699 0 15.167 3.66699 25.5 11s21 16.5 32 27.5
s21.167 22.667 30.5 35s16.333 23.833 21 34.5z" />
    <glyph glyph-name="b.015" unicode="&#xe16d;" horiz-adv-x="325" 
d="M325 162c0.666992 1.33301 1.66699 2.00391 3 2.00391c3.33301 0 5 -1.33301 5 -4v-2c-12 -23.333 -23.167 -42.5 -33.5 -57.5s-20.5 -26.833 -30.5 -35.5s-19.5 -14.667 -28.5 -18s-17.833 -5 -26.5 -5c-6.66699 0 -13.167 0.666992 -19.5 2s-12.833 3 -19.5 5
c-13.333 -18 -27.333 -30.833 -42 -38.5s-27.667 -11.5 -39 -11.5c-13.333 0 -23 3.16699 -29 9.5s-9 13.166 -9 20.499c0 11.333 5 21.5 15 30.5s22.667 13.5 38 13.5c11.333 0 22 -1.33301 32 -4c5.33301 8.66699 11 21 17 37s9 31.333 9 46
c0 8.66699 -1.83301 17.167 -5.5 25.5s-9.5 12.5 -17.5 12.5s-17 -3.83301 -27 -11.5s-19.833 -17.334 -29.5 -29.001s-18.667 -24.5 -27 -38.5s-15.166 -27.333 -20.499 -40c-1.33301 -3.33301 -4.83301 -5.83301 -10.5 -7.5s-11.5 -2.5 -17.5 -2.5
c-5.33301 0 -10 0.833008 -14 2.5s-6 4.83398 -6 9.50098l10 118c-37.333 -31.333 -75.166 -59.166 -113.499 -83.499s-76.166 -45 -113.499 -62s-73.166 -29.833 -107.499 -38.5s-65.833 -13 -94.5 -13c-38 0 -69 8.83301 -93 26.5s-36 46.834 -36 87.501c0 10 2 15 6 15
c2 0 3 -4.5 3 -13.5s0.333008 -15.5 1 -19.5c3.33301 -31.333 15.666 -53.833 36.999 -67.5s48.666 -20.5 81.999 -20.5c28.667 0 60.167 4.5 94.5 13.5s70 22 107 39s75 37.833 114 62.5s77.167 53 114.5 85c2 16 5 38.333 9 67s9.33301 59.667 16 93s15 67.166 25 101.499
s21.5 65.5 34.5 93.5s28 50.833 45 68.5s36.167 26.5 57.5 26.5s35.833 -5.83301 43.5 -17.5s11.5 -25.834 11.5 -42.501c0 -25.333 -5.5 -53.5 -16.5 -84.5s-25.5 -62.5 -43.5 -94.5s-38.333 -63.167 -61 -93.5s-45.334 -57.833 -68.001 -82.5
c-4 -27.333 -7.16699 -53 -9.5 -77s-3.83301 -45.667 -4.5 -65c18 36 39.333 63.667 64 83s46.667 29 66 29c12.667 0 23 -4.33301 31 -13s12 -21.667 12 -39c0 -15.333 -3.16699 -31.833 -9.5 -49.5s-14.5 -33.834 -24.5 -48.501l16 -4
c5.33301 -1.33301 10.666 -2 15.999 -2c8 0 16.333 1.66699 25 5s17.667 9.16602 27 17.499s18.833 19.666 28.5 33.999s20.167 32.5 31.5 54.5zM154 587.004c-13.333 -22 -25.5 -48.333 -36.5 -79s-20.5 -61.667 -28.5 -93s-14.5 -61.666 -19.5 -90.999
s-8.83301 -53.333 -11.5 -72c17.333 19.333 36.333 43.333 57 72s40 58.667 58 90s33 62.666 45 93.999s18 59.333 18 84c0 15.333 -2.83301 26.833 -8.5 34.5s-11.5 11.5 -17.5 11.5c-5.33301 0 -10.833 -2 -16.5 -6s-11 -8.66699 -16 -14s-9.66699 -10.833 -14 -16.5
s-7.5 -10.5 -9.5 -14.5zM136 61.0039c-9.33301 2 -17.668 3 -25.001 3c-15.333 0 -26.833 -4 -34.5 -12s-11.5 -15.667 -11.5 -23c0 -9.33301 4.33301 -14 13 -14c4.66699 0 10 2 16 6s11.833 8.5 17.5 13.5s10.834 10 15.501 15s7.66699 8.83301 9 11.5z" />
    <glyph glyph-name="c.015" unicode="&#xe16e;" horiz-adv-x="206" 
d="M206 162c0.666992 1.33301 2 1.99805 4 1.99805c3.33301 0 5 -1.33301 5 -4l-1 -2c-29.333 -56.667 -60 -97.334 -92 -122.001s-60.333 -37 -85 -37c-18.667 0 -33.834 6.33301 -45.501 19s-17.5 30.334 -17.5 53.001c0 23.333 6.33301 48.666 19 75.999
c-36.667 -24.667 -73.834 -46.5 -111.501 -65.5s-74.667 -35 -111 -48s-71.166 -22.833 -104.499 -29.5s-64 -10 -92 -10c-44 0 -80.167 8.66699 -108.5 26s-42.5 45.333 -42.5 84v9c0 4 0.333008 7.83301 1 11.5s1.33398 7 2.00098 10s2 4.5 4 4.5s3 -1.33301 3 -4
c0 -5.33301 -0.333008 -10.333 -1 -15s-1 -9.66699 -1 -15c0 -36 13.333 -62.167 40 -78.5s61 -24.5 103 -24.5c28 0 59 3.5 93 10.5s69.333 17.333 106 31s74.334 30.5 113.001 50.5s76.667 42.667 114 68c9.33301 16.667 20.333 30.834 33 42.501s26 17.5 40 17.5
c11.333 0 20 -4 26 -12s9 -17.667 9 -29c-1.33301 -12 -3.33301 -22.333 -6 -31c-2 -8 -4.5 -15.167 -7.5 -21.5s-6.16699 -9.5 -9.5 -9.5s-5 1.66699 -5 5c4.66699 8 9 17.333 13 28s6 20.667 6 30c0 7.33301 -1.16699 12.833 -3.5 16.5s-4.83301 5.5 -7.5 5.5
c-6.66699 0 -13.834 -4.83301 -21.501 -14.5s-14.667 -21.667 -21 -36s-11.666 -29.666 -15.999 -45.999s-6.5 -31.166 -6.5 -44.499s2.66699 -25 8 -35s14 -15 26 -15s24.833 4.33301 38.5 13s27 20 40 34s25.667 30 38 48s23.166 36 32.499 54z" />
    <glyph glyph-name="d.015" unicode="&#xe16f;" horiz-adv-x="270" 
d="M0 162c11.333 12 24.333 22.5 39 31.5s30.334 13.5 47.001 13.5c9.33301 0 18.333 -2.16699 27 -6.5s15.667 -11.166 21 -20.499c1.33301 14.667 4 36.667 8 66s9.33301 61.333 16 96s14.834 70.334 24.501 107.001s21.167 70 34.5 100s28.833 54.5 46.5 73.5
s37.5 28.5 59.5 28.5c21.333 0 35.833 -5.66699 43.5 -17s11.5 -25.666 11.5 -42.999c0 -25.333 -5.5 -53.333 -16.5 -84s-25.333 -61.834 -43 -93.501s-37.834 -62.834 -60.501 -93.501s-45.667 -58.334 -69 -83.001c-3.33301 -26.667 -6.33301 -52.167 -9 -76.5
s-4 -50.166 -4 -77.499c0 -30 3 -45 9 -45c2.66699 0 7.16699 3.66699 13.5 11s13.5 16.833 21.5 28.5s16.333 24.834 25 39.501s17 29.667 25 45c1.33301 1.33301 2.66602 2 3.99902 2c2.66699 0 4 -1.33301 4 -4v-2c-6.66699 -13.333 -14.834 -28.5 -24.501 -45.5
s-20 -33.167 -31 -48.5s-22.167 -28.333 -33.5 -39s-21.666 -16 -30.999 -16c-6 0 -11 2.5 -15 7.5s-7.16699 11.167 -9.5 18.5s-4 15.666 -5 24.999s-1.5 18.333 -1.5 27c0 4 0.166992 7.66699 0.5 11s0.5 6.66602 0.5 9.99902c-6 -10 -14.5 -21.333 -25.5 -34
s-23 -24.5 -36 -35.5s-26.333 -20.333 -40 -28s-25.834 -11.5 -36.501 -11.5c-10 0 -18.667 3.83301 -26 11.5s-11 20.167 -11 37.5c0 14 2.83301 29.333 8.5 46s13.5 32.667 23.5 48c-36 -24 -72.5 -45.167 -109.5 -63.5s-73.333 -33.833 -109 -46.5
s-69.834 -22.167 -102.501 -28.5s-62.667 -9.5 -90 -9.5c-44 0 -80.167 8.66699 -108.5 26s-42.5 45.333 -42.5 84v9c0 4 0.333008 7.83301 1 11.5s1.33398 7 2.00098 10s2 4.5 4 4.5s3 -1.33301 3 -4c0 -5.33301 -0.333008 -10.333 -1 -15s-1 -9.66699 -1 -15
c0 -36 13.333 -62.167 40 -78.5s61 -24.5 103 -24.5c28 0 59 3.5 93 10.5s69.333 17.333 106 31s74.334 30.5 113.001 50.5s76.667 42.667 114 68zM297 602c-16 -20.667 -29.833 -46.8301 -41.5 -78.4971s-21.834 -64.334 -30.501 -98.001s-15.667 -66 -21 -97
s-9.33301 -56.167 -12 -75.5c16.667 18.667 35.334 42.167 56.001 70.5s40 58.166 58 89.499s33 62.666 45 93.999s18 59 18 83c0 15.333 -2.33301 26.5 -7 33.5s-10.667 10.5 -18 10.5c-15.333 0 -31 -10.667 -47 -32zM63 47.0039c14.667 12 28 25.333 40 40
s20.667 28.667 26 42l3 30c-1.33301 8 -4.83301 15.333 -10.5 22s-12.167 10 -19.5 10c-12 0 -24.167 -5.66699 -36.5 -17s-23.166 -25 -32.499 -41s-17 -32.5 -23 -49.5s-9 -30.833 -9 -41.5c0 -15.333 4.66699 -23 14 -23c7.33301 0 15.666 3.33301 24.999 10
s17 12.667 23 18z" />
    <glyph glyph-name="e.015" unicode="&#xe170;" horiz-adv-x="189" 
d="M189 162c0 1.33301 0.998047 2 2.99805 2c3.33301 0 5 -1.66699 5 -5v-1c-5.33301 -10.667 -13.333 -25 -24 -43s-23.334 -35.667 -38.001 -53s-30.5 -32.333 -47.5 -45s-34.167 -19 -51.5 -19c-19.333 0 -33.833 6.33301 -43.5 19s-14.5 30.667 -14.5 54
c0 24.667 5.33301 50.334 16 77.001c-36.667 -25.333 -73.834 -47.5 -111.501 -66.5s-74.667 -35 -111 -48s-71.333 -22.833 -105 -29.5s-64.5 -10 -92.5 -10c-44 0 -80.167 8.66699 -108.5 26s-42.5 45.333 -42.5 84v9c0 4 0.333008 7.83301 1 11.5s1.33398 7 2.00098 10
s2 4.5 4 4.5s3 -1.33301 3 -4c0 -5.33301 -0.333008 -10.333 -1 -15s-1 -9.66699 -1 -15c0 -36 13.333 -62.167 40 -78.5s61 -24.5 103 -24.5c28 0 59 3.5 93 10.5s69.333 17.333 106 31s74.334 30.5 113.001 50.5s76.667 42.667 114 68c8.66699 17.333 19 31.666 31 42.999
s25.667 17 41 17c7.33301 0 12.833 -2.16699 16.5 -6.5s5.5 -10.166 5.5 -17.499c0 -10.667 -4.66699 -22.5 -14 -35.5s-24.666 -23.833 -45.999 -32.5c-2.66699 -6.66699 -5.16699 -15.834 -7.5 -27.501s-3.5 -23.834 -3.5 -36.501s2 -24.667 6 -36s10.333 -17 19 -17
c14.667 0 29.667 6.33301 45 19s29.333 27.334 42 44.001s23.834 33.167 33.501 49.5s16.5 28.5 20.5 36.5zM38.998 142c10.667 5.33301 21 13.333 31 24s15 20.667 15 30c0 2.66699 -0.666992 4 -2 4c-2.66699 0 -6 -2 -10 -6s-8.16699 -9 -12.5 -15
s-8.5 -12.333 -12.5 -19s-7 -12.667 -9 -18z" />
    <glyph glyph-name="f.015" unicode="&#xe171;" horiz-adv-x="182" 
d="M182 162c0.666992 1.33301 1.67285 1.99805 3.00586 1.99805c3.33301 0 5 -1.33301 5 -4v-2c-10.667 -19.333 -22 -37.666 -34 -54.999s-24.833 -32.666 -38.5 -45.999s-28.334 -24 -44.001 -32s-32.167 -12 -49.5 -12l-1 -3c15.333 -13.333 26.166 -27.5 32.499 -42.5
s9.5 -30.167 9.5 -45.5c0 -12 -1.66699 -23.5 -5 -34.5s-7.66602 -20.667 -12.999 -29s-11.166 -15 -17.499 -20s-12.833 -7.5 -19.5 -7.5c-10.667 0 -20 7.83301 -28 23.5s-12 42.5 -12 80.5c0 25.333 2.5 53.666 7.5 84.999l18.5 120
c-36.667 -30.667 -74 -57.834 -112 -81.501s-75.5 -43.667 -112.5 -60s-72.333 -28.833 -106 -37.5s-64.5 -13 -92.5 -13c-38 0 -69 8.83301 -93 26.5s-36 46.834 -36 87.501c0 10 2 15 6 15c2 0 3 -4.5 3 -13.5s0.333008 -15.5 1 -19.5
c3.33301 -31.333 15.666 -53.833 36.999 -67.5s48.666 -20.5 81.999 -20.5c28 0 58.833 4.33301 92.5 13s69 21.5 106 38.5s74.833 37.667 113.5 62s76.667 52.166 114 83.499c0 1.33301 0.166992 2.83301 0.5 4.5s0.5 3.16699 0.5 4.5c6 32.667 12.833 66.667 20.5 102
s16.167 69.833 25.5 103.5s19.5 65.834 30.5 96.501s22.833 57.5 35.5 80.5s26.167 41.167 40.5 54.5s29.5 20 45.5 20c13.333 0 24.166 -5.5 32.499 -16.5s12.5 -27.5 12.5 -49.5c0 -24.667 -5.33301 -54 -16 -88s-24.834 -68.5 -42.501 -103.5
s-37.834 -68.333 -60.501 -100s-46.334 -57.5 -71.001 -77.5l-28 -162c16 0 31.333 3.83301 46 11.5s28.5 18 41.5 31s25.333 27.833 37 44.5s22.5 34.334 32.5 53.001zM167.006 552.998c-14.667 -24 -28.001 -52.333 -40.001 -85s-22.667 -66 -32 -100
s-17.166 -66.167 -23.499 -96.5l-15.5 -73.5c20 18 40.667 41.5 62 70.5s40.5 60.167 57.5 93.5s31 66.833 42 100.5s16.5 64.167 16.5 91.5s-7 41 -21 41c-6 0 -13 -3.5 -21 -10.5s-16.333 -17.5 -25 -31.5zM48.0049 -123.002c5.33301 12.667 8 26.667 8 42
c0 14 -2.66699 28 -8 42s-14 26.667 -26 38c-1.33301 -10 -2.33301 -20.833 -3 -32.5s-1 -23.167 -1 -34.5c0 -7.33301 0.333008 -15.333 1 -24s1.5 -16.5 2.5 -23.5s2.5 -12.833 4.5 -17.5s4.33301 -7 7 -7c4 0 9 5.66699 15 17z" />
    <glyph glyph-name="g.015" unicode="&#xe172;" horiz-adv-x="283" 
d="M283 162c0.666992 1.33301 2.00098 2.00098 4.00098 2.00098c3.33301 0 5 -1.33301 5 -4l-1 -2c-12 -22 -23.167 -41.333 -33.5 -58s-20.833 -31.5 -31.5 -44.5s-21.334 -24.667 -32.001 -35s-22 -20.5 -34 -30.5c-0.666992 -0.666992 -2.16699 -9.66699 -4.5 -27
s-6.16602 -38.833 -11.499 -64.5s-11.833 -53.5 -19.5 -83.5s-16.834 -57.667 -27.501 -83s-23 -46.5 -37 -63.5s-29.333 -25.5 -46 -25.5c-13.333 0 -23.666 5.66699 -30.999 17s-11 26.333 -11 45c0 22 4.66699 45.333 14 70s20.833 48.5 34.5 71.5
s28.167 44.167 43.5 63.5s29.333 34.666 42 45.999c4.66699 26 8.83398 51.833 12.501 77.5l10.5 73.5c-6 -10 -14.5 -21.333 -25.5 -34s-23 -24.5 -36 -35.5s-26.333 -20.167 -40 -27.5s-25.834 -11 -36.501 -11c-10 0 -18.667 4 -26 12s-11 20.667 -11 38
c0 13.333 2.83301 28.333 8.5 45s13.5 32.667 23.5 48c-36 -24 -72.667 -45.167 -110 -63.5s-73.666 -33.833 -108.999 -46.5s-69.333 -22.167 -102 -28.5s-63 -9.5 -91 -9.5c-44 0 -80.167 8.66699 -108.5 26s-42.5 45.333 -42.5 84v9c0 4 0.333008 7.83301 1 11.5
s1.33398 7 2.00098 10s2 4.5 4 4.5s3 -1.33301 3 -4c0 -5.33301 -0.333008 -10.333 -1 -15s-1 -9.66699 -1 -15c0 -36 13.333 -62.167 40 -78.5s61 -24.5 103 -24.5c28 0 59 3.5 93 10.5s69.333 17.333 106 31s74.334 30.5 113.001 50.5s76.667 42.667 114 68
c11.333 13.333 24.166 24.333 38.499 33s30.166 13 47.499 13c11.333 0 21.5 -2.83301 30.5 -8.5s16.167 -13.167 21.5 -22.5c1.33301 8.66699 4.16602 14.667 8.49902 18s9.16602 5 14.499 5c6.66699 0 12.667 -1.5 18 -4.5s8 -6.16699 8 -9.5v-1l-11 -84.5
c-4 -31 -8.66699 -63.5 -14 -97.5c11.333 10 22 20.167 32 30.5s19.667 21.5 29 33.5s18.833 25.667 28.5 41s20.167 33.333 31.5 54zM135.001 163.001l-3.50098 5c-2.33301 3.33301 -5.33301 6.83301 -9 10.5s-8.16699 7.16699 -13.5 10.5s-11.333 5 -18 5
c-13.333 -1.33301 -25.5 -7.66602 -36.5 -18.999s-20.667 -24.833 -29 -40.5s-14.833 -31.834 -19.5 -48.501s-7 -31 -7 -43c0 -16 5.33301 -24 16 -24c9.33301 1.33301 20 6.5 32 15.5s23.833 19.333 35.5 31s21.834 23.5 30.501 35.5s14.667 22 18 30zM61 -232.999
c8.66699 26 16.499 54.168 23.499 84.501s13.167 60.5 18.5 90.5c-10 -10 -22 -23.333 -36 -40s-27.167 -35.334 -39.5 -56.001s-23 -43 -32 -67s-13.5 -48.333 -13.5 -73c0 -11.333 1.33301 -20.833 4 -28.5s6.33398 -11.5 11.001 -11.5c6 0 12 3.5 18 10.5
s11.833 15.5 17.5 25.5s11 20.833 16 32.5s9.16699 22.5 12.5 32.5z" />
    <glyph glyph-name="h.015" unicode="&#xe173;" horiz-adv-x="278" 
d="M278 162c0.666992 1.33301 1.66504 1.99512 2.99805 1.99512c3.33301 0 5 -1.33301 5 -4v-2l-20.5 -34.5c-9.66699 -16.333 -20.667 -33 -33 -50s-25.5 -32 -39.5 -45s-27 -19.5 -39 -19.5c-10.667 0 -18.334 4.33301 -23.001 13s-7 18 -7 28c0 10.667 1.5 22.5 4.5 35.5
s6.5 25.833 10.5 38.5s7.5 24.834 10.5 36.501s4.5 21.834 4.5 30.501c0 9.33301 -2.33301 14 -7 14c-6.66699 0 -14.667 -5.16699 -24 -15.5s-19 -22.833 -29 -37.5s-19.333 -29.5 -28 -44.5l-21 -37.5c-0.666992 -0.666992 -3.83398 -2.5 -9.50098 -5.5
s-12.167 -4.5 -19.5 -4.5c-5.33301 0 -10.166 1 -14.499 3s-6.5 9.33301 -6.5 22c0 8 0.5 18.5 1.5 31.5l3.5 45.5l3 34c-37.333 -31.333 -75.166 -59.333 -113.499 -84s-76.166 -45.5 -113.499 -62.5s-73.333 -29.833 -108 -38.5s-66.334 -13 -95.001 -13
c-38 0 -69 8.83301 -93 26.5s-36 46.834 -36 87.501c0 10 2 15 6 15c2 0 3 -4.5 3 -13.5s0.333008 -15.5 1 -19.5c3.33301 -31.333 15.666 -53.833 36.999 -67.5s48.666 -20.5 81.999 -20.5c28 0 59.167 4.5 93.5 13.5s70.333 22.167 108 39.5s76 38.5 115 63.5
s77.5 53.5 115.5 85.5c3.33301 28.667 7.83301 59.5 13.5 92.5s12.5 66 20.5 99s17 64.667 27 95s21.333 57.166 34 80.499s26.667 42 42 56s32 21 50 21c21.333 0 35.833 -5.83301 43.5 -17.5s11.5 -25.834 11.5 -42.501c0 -25.333 -5.33301 -53.166 -16 -83.499
s-24.667 -61.166 -42 -92.499s-37.166 -62.166 -59.499 -92.499s-45.166 -57.833 -68.499 -82.5c-4 -28.667 -7.16699 -55.667 -9.5 -81s-4.16602 -48.333 -5.49902 -69c6.66699 12.667 14.667 26.667 24 42s19.333 29.666 30 42.999s21.834 24.333 33.501 33
s23.167 13 34.5 13s19 -3 23 -9s6 -13.667 6 -23s-1.5 -20.166 -4.5 -32.499s-6.33301 -24.666 -10 -36.999s-7 -24.333 -10 -36s-4.5 -21.5 -4.5 -29.5c0 -4.66699 0.833008 -9.33398 2.5 -14.001s4.16699 -7 7.5 -7s8 3 14 9s12.667 13.667 20 23s14.833 19.5 22.5 30.5
l21 30.5l16 24c4.33301 6.66699 6.5 10.334 6.5 11.001zM169.998 605.995c-15.333 -20 -28.833 -45.5 -40.5 -76.5s-21.834 -63.333 -30.501 -97s-16 -66.167 -22 -97.5s-10.333 -57.333 -13 -78c16.667 18.667 35.167 42.167 55.5 70.5s39.333 58 57 89
s32.334 61.833 44.001 92.5s17.5 58 17.5 82c0 30 -8.66699 45 -26 45c-13.333 0 -27.333 -10 -42 -30z" />
    <glyph glyph-name="i.015" unicode="&#xe174;" horiz-adv-x="147" 
d="M147 162c1.33301 1.33301 2.66602 2.00195 3.99902 2.00195c2.66699 0 4 -1.33301 4 -4v-2l-19.5 -45c-7.66699 -17.333 -16.5 -34 -26.5 -50s-21.333 -29.5 -34 -40.5s-27.334 -16.5 -44.001 -16.5c-18 0 -30.333 6.33301 -37 19s-10 27.667 -10 45
c0 13.333 1.33301 27.166 4 41.499s5.66699 27.166 9 38.499c-37.333 -25.333 -75 -47.666 -113 -66.999s-75.167 -35.666 -111.5 -48.999s-71.5 -23.333 -105.5 -30s-65 -10 -93 -10c-44 0 -80.167 8.66699 -108.5 26s-42.5 45.333 -42.5 84v9c0 4 0.333008 7.83301 1 11.5
s1.33398 7 2.00098 10s2 4.5 4 4.5s3 -1.33301 3 -4c0 -5.33301 -0.333008 -10.333 -1 -15s-1 -9.66699 -1 -15c0 -36 13.333 -62.167 40 -78.5s61 -24.5 103 -24.5c28 0 59 3.5 93 10.5s69.333 17.333 106 31s74.334 30.5 113.001 50.5s76.667 42.667 114 68
c2.66699 10 5.16699 17.5 7.5 22.5s4.5 8.5 6.5 10.5s4.5 3 7.5 3h10.5c6 0 11.667 -1 17 -3s8 -4.66699 8 -8c0 -1.33301 -1.33301 -6.5 -4 -15.5s-5.66699 -20 -9 -33s-6.33301 -26.833 -9 -41.5s-4 -28.334 -4 -41.001c0 -14.667 1.66699 -24.834 5 -30.501
s7.66602 -8.5 12.999 -8.5c10 0 19.833 5.5 29.5 16.5s18.834 24.333 27.501 40s16.5 31.667 23.5 48zM42 251.002c7.33301 0 13 -2.5 17 -7.5s6 -10.5 6 -16.5c0 -5.33301 -2 -10.5 -6 -15.5s-9.66699 -7.5 -17 -7.5c-8 0 -13.833 2.5 -17.5 7.5s-5.5 10.167 -5.5 15.5
c0 6 1.83301 11.5 5.5 16.5s9.5 7.5 17.5 7.5z" />
    <glyph glyph-name="j.015" unicode="&#xe175;" horiz-adv-x="170" 
d="M170 162c0.666992 1.33301 2.33105 2.00293 4.99805 2.00293s4 -1 4 -3v-2c-15.333 -33.333 -31.833 -61 -49.5 -83s-34 -39.667 -49 -53s-27.833 -23.333 -38.5 -30s-17 -11.334 -19 -14.001c-0.666992 -0.666992 -2.16699 -9.5 -4.5 -26.5s-6 -37.833 -11 -62.5
s-11.333 -51.5 -19 -80.5s-16.667 -55.833 -27 -80.5s-22.333 -45.167 -36 -61.5s-28.834 -24.5 -45.501 -24.5c-13.333 0 -23.666 5.66699 -30.999 17s-11 26.333 -11 45c0 20.667 4.33301 42.834 13 66.501s19.667 46.667 33 69s27.5 43 42.5 62s29.167 34.167 42.5 45.5
c6.66699 36 12.5 71.5 17.5 106.5s9.16699 67.167 12.5 96.5c-37.333 -25.333 -75 -47.833 -113 -67.5s-75.333 -36.167 -112 -49.5s-72 -23.333 -106 -30s-65.333 -10 -94 -10c-44 0 -80.167 8.66699 -108.5 26s-42.5 45.333 -42.5 84v9c0 4 0.333008 7.83301 1 11.5
s1.33398 7 2.00098 10s2 4.5 4 4.5s3 -1.33301 3 -4c0 -5.33301 -0.333008 -10.333 -1 -15s-1 -9.66699 -1 -15c0 -36 13.333 -62.167 40 -78.5s61 -24.5 103 -24.5c28 0 59 3.5 93 10.5s69.333 17.333 106 31s74.334 30.5 113.001 50.5s76.667 42.667 114 68l3 25v2
c0 3.33301 2.16699 5.66602 6.5 6.99902s9.16602 2 14.499 2c7.33301 0 13.666 -1 18.999 -3s8 -4.66699 8 -8c-2.66699 -26 -6.16699 -56 -10.5 -90s-9.5 -69.333 -15.5 -106c12.667 9.33301 25.334 19.166 38.001 29.499s25.167 22 37.5 35s24.333 28.167 36 45.5
s22.834 37.666 33.501 60.999zM-112.003 -314.997c10.667 14.667 20.167 32.667 28.5 54s15.833 43.5 22.5 66.5s12.167 45.833 16.5 68.5l11.5 60c-11.333 -10.667 -24 -24.667 -38 -42s-27 -36.5 -39 -57.5s-22 -42.667 -30 -65s-12 -43.833 -12 -64.5
c0 -12.667 1.66699 -22.167 5 -28.5s7.33301 -9.5 12 -9.5c6 0 13.667 6 23 18zM28.9971 252.003c7.33301 0 13 -2.5 17 -7.5s6 -10.5 6 -16.5s-2 -11.5 -6 -16.5s-9.66699 -7.5 -17 -7.5c-8 0 -13.833 2.5 -17.5 7.5s-5.5 10.5 -5.5 16.5s1.83301 11.5 5.5 16.5
s9.5 7.5 17.5 7.5z" />
    <glyph glyph-name="k.015" unicode="&#xe176;" 
d="M256 162c0.666992 2 2.00488 2.99805 4.00488 2.99805c2.66699 0 4 -1.33301 4 -4v-2c-8 -17.333 -17 -34.5 -27 -51.5s-20.5 -32.333 -31.5 -46s-22.333 -24.834 -34 -33.501s-22.834 -13 -33.501 -13c-14 0 -26.833 7.66699 -38.5 23s-21.5 42 -29.5 80
c-3.33301 -4 -6.33301 -9.33301 -9 -16s-6 -13.167 -10 -19.5s-9 -11.666 -15 -15.999s-13.333 -6.5 -22 -6.5c-5.33301 0 -10 1 -14 3s-6 5.66699 -6 11s0.5 15.833 1.5 31.5s2.5 34.5 4.5 56.5l4 39c-37.333 -32 -75.333 -60.333 -114 -85s-76.667 -45.5 -114 -62.5
s-73.333 -29.833 -108 -38.5s-66.334 -13 -95.001 -13c-38 0 -69 8.83301 -93 26.5s-36 46.834 -36 87.501c0 10 2 15 6 15c2 0 3 -4.5 3 -13.5s0.333008 -15.5 1 -19.5c3.33301 -31.333 15.666 -53.833 36.999 -67.5s48.666 -20.5 81.999 -20.5c28 0 59.333 4.5 94 13.5
s70.667 22.167 108 39.5s75.666 38.666 114.999 63.999s77.666 54 114.999 86c3.33301 28.667 7.83301 59.334 13.5 92.001s12.334 65.334 20.001 98.001s16.5 64 26.5 94s21.333 56.5 34 79.5s26.667 41.333 42 55s32 20.5 50 20.5c21.333 0 35.833 -5.66699 43.5 -17
s11.5 -25.666 11.5 -42.999c0 -25.333 -5.5 -53.333 -16.5 -84s-25.333 -62 -43 -94s-37.834 -63.333 -60.501 -94s-45.667 -58.334 -69 -83.001c-4 -28 -7.16699 -54.5 -9.5 -79.5s-4.16602 -47.167 -5.49902 -66.5c6 10.667 13.667 22.834 23 36.501s19.5 26.5 30.5 38.5
s22.667 22 35 30s24.833 12 37.5 12c9.33301 0 16.5 -2.83301 21.5 -8.5s7.5 -12.167 7.5 -19.5c0 -8 -2.5 -14.833 -7.5 -20.5s-11.5 -10.334 -19.5 -14.001s-16.833 -6.5 -26.5 -8.5s-18.834 -4 -27.501 -6c0.666992 -4 2.16699 -11.333 4.5 -22s5.5 -21.5 9.5 -32.5
s8.66699 -20.833 14 -29.5s11 -13 17 -13c6.66699 0 14.834 5 24.501 15s19 22 28 36s17.333 28.167 25 42.5s13.5 25.833 17.5 34.5zM160.005 593.998c-14.667 -22 -27.6699 -48.3311 -39.0029 -78.998s-21.166 -62.334 -29.499 -95.001s-15.166 -63.834 -20.499 -93.501
s-9.33301 -54.5 -12 -74.5c17.333 19.333 36.333 43.333 57 72s40 58.667 58 90s33 62.5 45 93.5s18 58.833 18 83.5c0 14.667 -2.5 25.334 -7.5 32.001s-11.167 10 -18.5 10s-15.666 -3.33301 -24.999 -10s-18 -16.334 -26 -29.001zM86.002 140
c8 2.66699 17.499 5.16504 28.499 7.49805s21.333 5.33301 31 9s17.834 7.83398 24.501 12.501s10 10.334 10 17.001c0 8 -5.33301 12 -16 12c-7.33301 0 -18.333 -4.16699 -33 -12.5s-29.667 -23.5 -45 -45.5z" />
    <glyph glyph-name="l.015" unicode="&#xe177;" horiz-adv-x="203" 
d="M203 162c1.33301 1.33301 2.33398 2.00195 3.00098 2.00195c3.33301 0 5 -1.66699 5 -5v-1c-6 -12.667 -15 -27.667 -27 -45s-25.333 -34 -40 -50s-30 -29.667 -46 -41s-30.667 -17 -44 -17c-20.667 0 -35.167 10.667 -43.5 32s-12.5 49 -12.5 83c0 11.333 0.5 23 1.5 35
s2.16699 24.333 3.5 37c-37.333 -31.333 -75.333 -59.333 -114 -84s-76.667 -45.5 -114 -62.5s-73.166 -29.833 -107.499 -38.5s-65.833 -13 -94.5 -13c-38 0 -69 8.83301 -93 26.5s-36 46.834 -36 87.501c0 10 2 15 6 15c2 0 3 -4.5 3 -13.5s0.333008 -15.5 1 -19.5
c3.33301 -31.333 15.666 -53.833 36.999 -67.5s48.666 -20.5 81.999 -20.5c28.667 0 60 4.5 94 13.5s69.667 22.167 107 39.5s75.5 38.333 114.5 63s77.5 53 115.5 85c4 34 9.66699 68.667 17 104s14.833 68.166 22.5 98.499s14.834 56.833 21.501 79.5s11.667 38 15 46
c14 35.333 30.333 63.833 49 85.5s40 32.5 64 32.5c21.333 0 35.833 -5.83301 43.5 -17.5s11.5 -25.834 11.5 -42.501c0 -26 -5.5 -54.5 -16.5 -85.5s-25.5 -62.333 -43.5 -94s-38.333 -62.834 -61 -93.501s-45.667 -58.334 -69 -83.001
c-0.666992 -3.33301 -1.5 -8.66602 -2.5 -15.999s-2 -16 -3 -26s-1.83301 -20.667 -2.5 -32s-1 -23 -1 -35s0.5 -23.667 1.5 -35s2.66699 -21.333 5 -30s5.66602 -15.667 9.99902 -21s9.83301 -8 16.5 -8c10 0 21.333 5.66699 34 17s25 24.5 37 39.5s22.5 29.833 31.5 44.5
s15.167 25 18.5 31zM60.001 248.002c17.333 18.667 36.3359 42.3311 57.0029 70.998s40 58.667 58 90s33.167 62.666 45.5 93.999s18.5 59.333 18.5 84c0 14.667 -2.5 25.334 -7.5 32.001s-11.167 10 -18.5 10c-14 0 -27.333 -7.16699 -40 -21.5
s-24.334 -32.833 -35.001 -55.5s-20.334 -48.167 -29.001 -76.5s-16.334 -56.666 -23.001 -84.999s-12.167 -55.166 -16.5 -80.499s-7.5 -46 -9.5 -62z" />
    <glyph glyph-name="m.015" unicode="&#xe178;" horiz-adv-x="380" 
d="M380 162c1.33301 1.33301 2.66211 1.99121 3.99512 1.99121c3.33301 0 5 -1.33301 5 -4l-5.5 -11.5c-3.66699 -7.66699 -8.66699 -17.167 -15 -28.5s-13.666 -23.5 -21.999 -36.5s-17 -25.167 -26 -36.5s-18.5 -20.666 -28.5 -27.999s-19.333 -11 -28 -11
c-8 0 -15 3.5 -21 10.5s-9 16.167 -9 27.5c0 10 1.5 21.333 4.5 34s6.5 25.334 10.5 38.001s7.5 24.834 10.5 36.501s4.5 21.834 4.5 30.501c0 10 -2.66699 15 -8 15c-7.33301 0 -15.666 -5.16699 -24.999 -15.5s-18.666 -22.5 -27.999 -36.5s-18.166 -28.5 -26.499 -43.5
l-21.5 -37.5c-2 -3.33301 -5.66699 -5.66602 -11 -6.99902s-10.666 -2 -15.999 -2s-10.166 0.666992 -14.499 2s-6.5 3.66602 -6.5 6.99902c0.666992 0.666992 1 1.33398 1 2.00098c2.66699 8.66699 5.83398 18 9.50098 28s6.83398 20 9.50098 30s5 19.833 7 29.5
s3 18.167 3 25.5s-1 12.333 -3 15s-4 4 -6 4c-6.66699 0 -14.834 -5.33301 -24.501 -16s-19.5 -23.167 -29.5 -37.5s-19.333 -29 -28 -44l-20 -35.5c-0.666992 -1.33301 -3.83398 -3.5 -9.50098 -6.5s-11.834 -4.5 -18.501 -4.5c-2.66699 0 -6.66699 0.833008 -12 2.5
s-8 4.16699 -8 7.5c0 2.66699 0.666992 7 2 13l4.5 21c1.66699 8 3.66699 16.167 6 24.5s4.5 16.5 6.5 24.5c-37.333 -25.333 -75 -47.666 -113 -66.999s-75.167 -35.666 -111.5 -48.999s-71.5 -23.333 -105.5 -30s-65 -10 -93 -10c-44 0 -80.167 8.66699 -108.5 26
s-42.5 45.333 -42.5 84v9c0 4 0.333008 7.83301 1 11.5s1.33398 7 2.00098 10s2 4.5 4 4.5s3 -1.33301 3 -4c0 -5.33301 -0.333008 -10.333 -1 -15s-1 -9.66699 -1 -15c0 -36 13.333 -62.167 40 -78.5s61 -24.5 103 -24.5c28 0 59 3.5 93 10.5s69.333 17.333 106 31
s74.334 30.5 113.001 50.5s76.667 42.667 114 68l6 23c1.33301 3.33301 4.16602 5.83301 8.49902 7.5s9.16602 2.5 14.499 2.5c6 0 11.667 -1 17 -3s8 -4.66699 8 -8c-0.666992 -0.666992 -1 -1.33398 -1 -2.00098l-20 -83l21.5 35.5
c8.33301 13.667 17.5 26.834 27.5 39.501s20.667 23.334 32 32.001s23 13 35 13c13.333 0 22.5 -3.5 27.5 -10.5s7.5 -15.833 7.5 -26.5c0 -12 -2 -24.667 -6 -38s-7.66699 -25 -11 -35c7.33301 12.667 15.333 25.5 24 38.5s17.834 24.833 27.501 35.5
s19.5 19.334 29.5 26.001s20 10 30 10c12.667 0 21.5 -3.33301 26.5 -10s7.5 -15.667 7.5 -27c0 -10 -1.66699 -21.5 -5 -34.5s-6.83301 -25.833 -10.5 -38.5l-10.5 -36.5c-3.33301 -11.667 -5 -21.167 -5 -28.5c0 -3.33301 0.5 -6.5 1.5 -9.5s2.5 -4.5 4.5 -4.5
c6 0 13.667 5.66699 23 17s18.666 24.5 27.999 39.5s18 29.833 26 44.5s13.333 25 16 31z" />
    <glyph glyph-name="n.015" unicode="&#xe179;" horiz-adv-x="257" 
d="M257 162c1.33301 1.33301 2.66504 2.00098 3.99805 2.00098c2.66699 0 4 -1.33301 4 -4s-2 -8.16699 -6 -16.5s-9.5 -18.166 -16.5 -29.499s-14.833 -23.333 -23.5 -36s-17.5 -24.167 -26.5 -34.5s-18.167 -19 -27.5 -26s-17.666 -10.5 -24.999 -10.5
c-6.66699 0 -13 2.66699 -19 8s-9 15 -9 29c0 10.667 1.33301 23 4 37s5.66699 28 9 42l9 39c2.66699 12 4 21.667 4 29s-2 11 -6 11c-6 0 -14 -5.33301 -24 -16s-20 -23.334 -30 -38.001s-19.5 -29.5 -28.5 -44.5s-15.833 -26.833 -20.5 -35.5
c-0.666992 -1.33301 -3.83398 -3.5 -9.50098 -6.5s-12.167 -4.5 -19.5 -4.5c-2 0 -5.5 0.833008 -10.5 2.5s-7.5 4.16699 -7.5 7.5c0 2 0.5 6 1.5 12l3.5 21c1.33301 8 2.83301 16.333 4.5 25s3.5 17 5.5 25c-37.333 -25.333 -75 -47.666 -113 -66.999
s-75.167 -35.666 -111.5 -48.999s-71.5 -23.333 -105.5 -30s-65 -10 -93 -10c-44 0 -80.167 8.66699 -108.5 26s-42.5 45.333 -42.5 84v9c0 4 0.333008 7.83301 1 11.5s1.33398 7 2.00098 10s2 4.5 4 4.5s3 -1.33301 3 -4c0 -5.33301 -0.333008 -10.333 -1 -15
s-1 -9.66699 -1 -15c0 -36 13.333 -62.167 40 -78.5s61 -24.5 103 -24.5c28 0 59 3.5 93 10.5s69.333 17.333 106 31s74.334 30.5 113.001 50.5s76.667 42.667 114 68c2 7.33301 3.5 13.166 4.5 17.499s2.5 7.66602 4.5 9.99902s4.5 3.83301 7.5 4.5s7.16699 1 12.5 1
c6.66699 0 12.5 -0.833008 17.5 -2.5s7.5 -4.16699 7.5 -7.5v-1l-18 -87l24.5 41c9 14.667 18.5 28 28.5 40s20.333 22 31 30s21.334 12 32.001 12c11.333 0 19.166 -3.33301 23.499 -10s6.5 -15.334 6.5 -26.001c0 -10 -1.33301 -21.167 -4 -33.5
s-5.66699 -24.666 -9 -36.999s-6.33301 -24.166 -9 -35.499s-4 -21.333 -4 -30c0 -4.66699 0.5 -9 1.5 -13s2.83301 -6 5.5 -6c5.33301 0 12.833 6 22.5 18s19.5 25.667 29.5 41s19 30.166 27 44.499s13 24.166 15 29.499z" />
    <glyph glyph-name="o.015" unicode="&#xe17a;" horiz-adv-x="262" 
d="M262 162c1.33301 1.33301 2.33301 2.00098 3 2.00098c3.33301 0 5 -1.66699 5 -5v-2l-23 -38c-8.66699 -14 -18 -27.333 -28 -40s-20.667 -23.167 -32 -31.5s-22.666 -12.5 -33.999 -12.5c-12.667 0 -24.667 5.66699 -36 17c-25.333 -31.333 -51 -47 -77 -47
c-16.667 0 -31 6.66699 -43 20s-18 33.333 -18 60c0 9.33301 1.16699 19.5 3.5 30.5s5.83301 21.5 10.5 31.5c-36.667 -24.667 -73.834 -46.5 -111.501 -65.5s-74.667 -35 -111 -48s-71.166 -22.833 -104.499 -29.5s-64 -10 -92 -10c-44 0 -80.167 8.66699 -108.5 26
s-42.5 45.333 -42.5 84v9c0 4 0.333008 7.83301 1 11.5s1.33398 7 2.00098 10s2 4.5 4 4.5s3 -1.33301 3 -4c0 -5.33301 -0.333008 -10.333 -1 -15s-1 -9.66699 -1 -15c0 -36 13.333 -62.167 40 -78.5s61 -24.5 103 -24.5c28 0 59 3.5 93 10.5s69.333 17.333 106 31
s74.334 30.5 113.001 50.5s76.667 42.667 114 68c7.33301 12 16.333 21.833 27 29.5s23.334 11.5 38.001 11.5c2 0 4.66699 -0.333008 8 -1s5 -2.66699 5 -6c0 -0.666992 -0.666992 -1.66699 -2 -3c-16.667 -9.33301 -28.834 -24 -36.501 -44s-11.5 -40 -11.5 -60
c0 -18 2.83301 -33.5 8.5 -46.5s14.167 -19.5 25.5 -19.5c6.66699 0 14.167 2.66699 22.5 8s17.166 14.666 26.499 27.999c-9.33301 11.333 -16.333 24.833 -21 40.5s-7 31.167 -7 46.5c0 17.333 3.33301 32.333 10 45s17 19 31 19c11.333 0 19.5 -4.33301 24.5 -13
s7.5 -19.667 7.5 -33c0 -16.667 -3.33301 -34.667 -10 -54s-14.667 -36.333 -24 -51c10 -10 20 -15 30 -15c15.333 0 31.666 9.66699 48.999 29s37.666 49 60.999 89zM116 66.001c8.66699 13.333 16.002 29.335 22.002 48.002s9 35.667 9 51
c0 11.333 -1.83301 20.166 -5.5 26.499s-9.83398 9.5 -18.501 9.5c-10.667 0 -18.5 -5.33301 -23.5 -16s-7.5 -23.334 -7.5 -38.001c0 -13.333 2.16699 -27.5 6.5 -42.5s10.166 -27.833 17.499 -38.5z" />
    <glyph glyph-name="p.015" unicode="&#xe17b;" horiz-adv-x="311" 
d="M311 162c0.666992 1.33301 1.6709 2.00293 3.00391 2.00293c3.33301 0 5 -1.66699 5 -5c-0.666992 -0.666992 -1 -1.33398 -1 -2.00098c-15.333 -26.667 -29.166 -48.334 -41.499 -65.001s-23.833 -29.834 -34.5 -39.501s-20.834 -16.334 -30.501 -20.001
s-19.167 -5.5 -28.5 -5.5c-10 0 -21 1.66699 -33 5c-8.66699 -8 -19.834 -15.167 -33.501 -21.5s-26.167 -9.5 -37.5 -9.5c-8.66699 0 -15 1.83301 -19 5.5s-6 8.16699 -6 13.5c0 8.66699 3.83301 15.834 11.5 21.501s18.5 8.5 32.5 8.5c3.33301 0 6.5 -0.166992 9.5 -0.5
s6.16699 -0.833008 9.5 -1.5c4 4 8.5 10.333 13.5 19s10 18.334 15 29.001s9.16699 21.5 12.5 32.5s5 21.167 5 30.5s-2.16699 17.166 -6.5 23.499s-11.5 9.5 -21.5 9.5c-18.667 0 -36.167 -8.16699 -52.5 -24.5s-29.833 -36.166 -40.5 -59.499
c-2 -4 -4.33301 -18.5 -7 -43.5s-6.66699 -55.333 -12 -91s-12.166 -73.834 -20.499 -114.501s-18.5 -78.167 -30.5 -112.5s-26.167 -62.833 -42.5 -85.5s-35.5 -34 -57.5 -34c-8.66699 0 -15.834 2 -21.501 6s-10.334 9.33301 -14.001 16s-6.16699 14 -7.5 22
s-2 15.667 -2 23c0 16 2.66699 34.833 8 56.5s14 45 26 70s27.333 50.833 46 77.5s41.667 53 69 79c5.33301 31.333 9.66602 61.833 12.999 91.5s6.66602 57.167 9.99902 82.5c-37.333 -25.333 -75.166 -47.666 -113.499 -66.999s-75.833 -35.666 -112.5 -48.999
s-71.834 -23.5 -105.501 -30.5s-64.834 -10.5 -93.501 -10.5c-44 0 -80.167 8.66699 -108.5 26s-42.5 45.333 -42.5 84v9c0 4 0.333008 7.83301 1 11.5s1.33398 7 2.00098 10s2 4.5 4 4.5s3 -1.33301 3 -4c0 -5.33301 -0.333008 -10.333 -1 -15s-1 -9.66699 -1 -15
c0 -36 13.333 -62.167 40 -78.5s61 -24.5 103 -24.5c28 0 59 3.5 93 10.5s69.333 17.333 106 31s74.334 30.5 113.001 50.5s76.667 42.667 114 68l2 23c0.666992 3.33301 3.33398 5.83301 8.00098 7.5s9.66699 2.5 15 2.5c6 0 11.833 -1 17.5 -3s8.5 -4.66699 8.5 -8
c0 -0.666992 -0.166992 -1.16699 -0.5 -1.5s-0.5 -0.833008 -0.5 -1.5l-5 -47c13.333 23.333 30.166 41.333 50.499 54s39.5 19 57.5 19c15.333 0 28.166 -4.83301 38.499 -14.5s15.5 -24.167 15.5 -43.5c0 -20 -4.83301 -40 -14.5 -60s-21.167 -36.667 -34.5 -50
c8 -2 16 -3 24 -3c8.66699 0 17.667 1.66699 27 5s19 9.66602 29 18.999s21 22.166 33 38.499s25.333 37.5 40 63.5zM-25.9961 -37.9971c-25.333 -25.333 -46.8301 -51.001 -64.4971 -77.001s-32 -51 -43 -75s-19 -46.5 -24 -67.5s-7.5 -38.833 -7.5 -53.5
c0 -13.333 1.66699 -23.666 5 -30.999s8 -11 14 -11c10.667 0 21.667 8.5 33 25.5s22.166 40 32.499 69s20.166 62.5 29.499 100.5s17.666 78 24.999 120zM110.007 40.002c-2.66699 0 -5 0.166992 -7 0.5s-4 0.5 -6 0.5c-11.333 0 -19.833 -2 -25.5 -6
s-8.5 -8.66699 -8.5 -14c0 -4.66699 2.33301 -7 7 -7c3.33301 0 8.33301 1.83301 15 5.5s15 10.5 25 20.5z" />
    <glyph glyph-name="q.015" unicode="&#xe17c;" horiz-adv-x="286" 
d="M0 162c9.33301 11.333 19.8262 20.668 31.4932 28.001s23.834 11 36.501 11c22.667 0 43.667 -13.333 63 -40c4 11.333 8 19.833 12 25.5s12.667 8.5 26 8.5c4.66699 0 9 -0.833008 13 -2.5s6 -4.16699 6 -7.5c0 -2 -0.333008 -3.33301 -1 -4l-23.5 -72.5
c-8.33301 -26.333 -16.166 -54.166 -23.499 -83.499c18.667 1.33301 34.834 5.5 48.501 12.5s26 16.5 37 28.5s21.333 26 31 42s19.5 34 29.5 54c1.33301 1.33301 2.66602 2 3.99902 2c2.66699 0 4 -1.33301 4 -4v-2c-10.667 -21.333 -21.167 -40.5 -31.5 -57.5
s-21.5 -31.5 -33.5 -43.5s-25.333 -21.5 -40 -28.5s-32 -10.833 -52 -11.5l-6 -24c-2 -8 -3.66699 -16 -5 -24l6.5 -19c4.33301 -12.667 9.33301 -29 15 -49s10.667 -42.333 15 -67s6.5 -49 6.5 -73c0 -14.667 -1.16699 -29 -3.5 -43s-6.16602 -26.333 -11.499 -37
s-12.166 -19.334 -20.499 -26.001s-18.166 -10 -29.499 -10c-21.333 0 -36.333 10.333 -45 31s-13 47 -13 79c0 29.333 2.66699 61.166 8 95.499s11.5 67.333 18.5 99s14 60 21 85l15.5 54.5c-6.66699 -9.33301 -14.834 -19.333 -24.501 -30s-20 -20.667 -31 -30
s-22.333 -17 -34 -23s-22.5 -9 -32.5 -9c-12.667 0 -21.667 4.66699 -27 14s-8 20 -8 32c0 15.333 3 31.833 9 49.5s14.333 34.5 25 50.5c-36 -24 -72.667 -45.333 -110 -64s-73.666 -34.167 -108.999 -46.5s-69.333 -21.833 -102 -28.5s-63 -10 -91 -10
c-44 0 -80.167 8.66699 -108.5 26s-42.5 45.333 -42.5 84v9c0 4 0.333008 7.83301 1 11.5s1.33398 7 2.00098 10s2 4.5 4 4.5s3 -1.33301 3 -4c0 -5.33301 -0.333008 -10.333 -1 -15s-1 -9.66699 -1 -15c0 -36 13.333 -62.167 40 -78.5s61 -24.5 103 -24.5
c28 0 59 3.5 93 10.5s69.333 17.333 106 31s74.334 30.5 113.001 50.5s76.667 42.667 114 68zM121.993 -46.998c-1.33301 -4 -3.33301 -13.6689 -6 -29.002s-5.5 -33.333 -8.5 -54s-5.66699 -42.667 -8 -66s-3.5 -45 -3.5 -65c0 -21.333 1.83301 -39.333 5.5 -54
s10.167 -22 19.5 -22c6 0 11.333 2.83301 16 8.5s8.66699 13.167 12 22.5s6 19.833 8 31.5s3 23.834 3 36.501c0 27.333 -3.16699 57.333 -9.5 90s-15.833 66.334 -28.5 101.001zM126.993 150c-7.33301 11.333 -14 19.832 -20 25.499s-12.667 8.5 -20 8.5
c-5.33301 0 -12.833 -3.83301 -22.5 -11.5s-19.334 -18 -29.001 -31s-18.167 -28.333 -25.5 -46s-11 -36.5 -11 -56.5c0 -6 1 -11.5 3 -16.5s5.66699 -7.5 11 -7.5c7.33301 0 16.333 4.16699 27 12.5s21.334 18.333 32.001 30s20.5 23.834 29.5 36.501
s15.167 23.667 18.5 33z" />
    <glyph glyph-name="r.015" unicode="&#xe17d;" horiz-adv-x="191" 
d="M8 159c-0.666992 -2 -2.00391 -3.33105 -4.00391 -3.99805c-37.333 -26 -75.333 -49 -114 -69s-76.667 -36.833 -114 -50.5s-73.166 -24 -107.499 -31s-65.833 -10.5 -94.5 -10.5c-44 0 -80.167 8.66699 -108.5 26s-42.5 45.333 -42.5 84v9c0 4 0.333008 7.83301 1 11.5
s1.33398 7 2.00098 10s2 4.5 4 4.5s3 -1.33301 3 -4c0 -5.33301 -0.333008 -10.333 -1 -15s-1 -9.66699 -1 -15c0 -36 13.333 -62.167 40 -78.5s61 -24.5 103 -24.5c28 0 59 3.5 93 10.5s69.333 17.333 106 31s74.334 30.5 113.001 50.5s76.667 42.667 114 68l11 22
c-8 5.33301 -13.667 10.833 -17 16.5s-5 11.167 -5 16.5c0 8 3.16699 14.833 9.5 20.5s12.833 8.5 19.5 8.5c4 0 7.83301 -1.33301 11.5 -4s5.5 -7.33398 5.5 -14.001c0 -4 -0.666992 -8 -2 -12s-2.66602 -8.33301 -3.99902 -13
c4.66699 -3.33301 10.834 -6.66602 18.501 -9.99902s15 -6.83301 22 -10.5s13.167 -7.5 18.5 -11.5s8 -8.33301 8 -13c0 -4 -1.33301 -10.167 -4 -18.5s-5.5 -17.833 -8.5 -28.5s-5.66699 -21.5 -8 -32.5s-3.5 -20.833 -3.5 -29.5s1.33301 -16.167 4 -22.5
s7.66699 -9.5 15 -9.5c10 0 20.833 7.66699 32.5 23s22.667 32.166 33 50.499s19.166 35.166 26.499 50.499s11.333 23 12 23c3.33301 0 5 -1.33301 5 -4c0 -5.33301 -3.83301 -15.833 -11.5 -31.5s-17 -32.167 -28 -49.5s-22.5 -33.166 -34.5 -47.499
s-22.667 -22.833 -32 -25.5c-8 -2.66699 -15.667 -4 -23 -4c-15.333 0 -25.833 5.66699 -31.5 17s-8.5 24.666 -8.5 39.999c0 8.66699 0.833008 17.667 2.5 27s3.66699 18.5 6 27.5s4.33301 17.333 6 25s2.5 14.167 2.5 19.5c0 4 -3.66699 8 -11 12l-19 10zM21.9961 208.002
c2.66699 6 4 11.667 4 17c0 7.33301 -2.66699 11 -8 11s-8 -3 -8 -9c0 -6.66699 4 -13 12 -19z" />
    <glyph glyph-name="s.015" unicode="&#xe17e;" horiz-adv-x="169" 
d="M169 162l2.00488 -0.00195312c2.66699 0 4 -1.33301 4 -4c0 -1.33301 -3.83301 -4.16602 -11.5 -8.49902l-26 -14l-29 -14.5l-20.5 -10c10 -18 15 -35.333 15 -52c0 -18.667 -5.33301 -34.167 -16 -46.5s-24.667 -18.5 -42 -18.5c-10.667 0 -20 3.5 -28 10.5
s-12 16.167 -12 27.5c0 9.33301 3.16699 19.333 9.5 30s17.166 21.667 32.499 33c-4.66699 8 -10 16 -16 24l-18 23c-37.333 -25.333 -75 -47.666 -113 -66.999s-75.333 -35.666 -112 -48.999s-71.834 -23.5 -105.501 -30.5s-64.834 -10.5 -93.501 -10.5
c-44 0 -80.167 8.66699 -108.5 26s-42.5 45.333 -42.5 84v9c0 4 0.333008 7.83301 1 11.5s1.33398 7 2.00098 10s2 4.5 4 4.5s3 -1.33301 3 -4c0 -5.33301 -0.333008 -10.333 -1 -15s-1 -9.66699 -1 -15c0 -36 13.333 -62.167 40 -78.5s61 -24.5 103 -24.5
c28 0 58.667 3.5 92 10.5s68.166 17 104.499 30s73.333 29.167 111 48.5s75.167 41.666 112.5 66.999l-9 13c-4.66699 6.66699 -8.33398 13.834 -11.001 21.501s-4 15.167 -4 22.5c0 13.333 4 23.166 12 29.499s16.667 9.5 26 9.5s18.166 -3 26.499 -9
s12.5 -14.667 12.5 -26c0 -12 -5.66699 -25 -17 -39l38 -53l42 23c14 7.33301 28.667 14.333 44 21zM39.0049 15.998c10.667 12.667 16 27.666 16 44.999c0 8.66699 -1.66699 17.334 -5 26.001c-8 -6.66699 -16 -15 -24 -25s-12 -20.667 -12 -32
c1.33301 -12.667 6 -19 14 -19c4 0 7.66699 1.66699 11 5zM40.0049 178.997c5.33301 6.66699 8.83301 12.834 10.5 18.501s2.5 10.167 2.5 13.5c0 8.66699 -3.33301 13 -10 13c-7.33301 0 -11 -5.33301 -11 -16c0 -8.66699 2.66699 -18.334 8 -29.001z" />
    <glyph glyph-name="t.015" unicode="&#xe17f;" horiz-adv-x="149" 
d="M374 462c0.666992 0.666992 1.33691 0.994141 2.00391 0.994141c1.33301 -1.33301 2 -3 2 -5c0 -0.666992 -1 -2 -3 -4c-44.667 -12 -88.834 -21 -132.501 -27s-85.834 -9 -126.501 -9h-18c-3.33301 -13.333 -8.16602 -33.833 -14.499 -61.5s-12.5 -58 -18.5 -91
s-11.333 -66.167 -16 -99.5s-7 -61.666 -7 -84.999c0 -13.333 1 -24.833 3 -34.5s5.33301 -14.5 10 -14.5s11.334 4.66699 20.001 14s17.5 20.833 26.5 34.5s17.833 27.834 26.5 42.501s15.667 27.667 21 39c0.666992 2 2 3 4 3c3.33301 0 5 -1.66699 5 -5
c0 -0.666992 -0.333008 -1.33398 -1 -2.00098c-4.66699 -10 -11.834 -23.5 -21.501 -40.5s-20.334 -33.5 -32.001 -49.5s-23.834 -30 -36.501 -42s-24.334 -18 -35.001 -18c-13.333 0 -22.666 8.5 -27.999 25.5s-8 38.167 -8 63.5c0 27.333 2.33301 58 7 92s10 66.667 16 98
s12 59.166 18 83.499s10.333 40.833 13 49.5c-34 2.66699 -66 7.66699 -96 15s-56.167 17 -78.5 29s-39.833 26.333 -52.5 43s-19 35.334 -19 56.001c0 4 0.666992 9.83301 2 17.5s3 15.334 5 23.001s4.5 14.334 7.5 20.001s6.5 8.5 10.5 8.5l2 -2
c0 -9.33301 -3.33301 -19.666 -10 -30.999s-10 -23 -10 -35c0 -20 6.16699 -37.667 18.5 -53s29.333 -28.833 51 -40.5s47.334 -21 77.001 -28s61.5 -11.833 95.5 -14.5l1 6c2.66699 11.333 5.16699 20 7.5 26s10.166 9 23.499 9c5.33301 0 10.666 -1.16699 15.999 -3.5
s8 -5.16602 8 -8.49902v-1l-9 -30c42 0 86 2.83301 132 8.5s93.333 14.834 142 27.501z" />
    <glyph glyph-name="u.015" unicode="&#xe180;" horiz-adv-x="254" 
d="M254 162c1.33301 1.33301 2.66602 1.99902 3.99902 1.99902c2.66699 0 4 -1.33301 4 -4c0 0.666992 -1.83301 -2.66602 -5.5 -9.99902l-14.5 -28c-6 -11.333 -13.167 -23.5 -21.5 -36.5s-17.166 -25.333 -26.499 -37s-18.833 -21.334 -28.5 -29.001
s-18.834 -11.5 -27.501 -11.5c-11.333 0 -19.333 4.66699 -24 14s-7 19.333 -7 30c0 8.66699 0.833008 17.334 2.5 26.001s3.5 16.667 5.5 24c-4.66699 -8.66699 -10.5 -18.5 -17.5 -29.5s-14.833 -21.5 -23.5 -31.5s-17.834 -18.333 -27.501 -25s-19.5 -10 -29.5 -10
c-13.333 0 -22.666 5 -27.999 15s-8 22.667 -8 38c0 14.667 1.5 30 4.5 46s6.5 30.667 10.5 44c-37.333 -25.333 -74.833 -47.5 -112.5 -66.5s-74.834 -35.167 -111.501 -48.5s-71.834 -23.333 -105.501 -30s-64.5 -10 -92.5 -10c-44 0 -80.167 8.66699 -108.5 26
s-42.5 45.333 -42.5 84v9c0 4 0.333008 7.83301 1 11.5s1.33398 7 2.00098 10s2 4.5 4 4.5s3 -1.33301 3 -4c0 -5.33301 -0.333008 -10.333 -1 -15s-1 -9.66699 -1 -15c0 -36 13.333 -62.167 40 -78.5s61 -24.5 103 -24.5c28 0 59 3.5 93 10.5s69.333 17.333 106 31
s74.334 30.5 113.001 50.5s76.667 42.667 114 68c2.66699 9.33301 5.16699 16.333 7.5 21s4.5 7.83398 6.5 9.50098s4.33301 2.5 7 2.5h10c6.66699 0 12.5 -1 17.5 -3s7.5 -4.66699 7.5 -8v-2c-1.33301 -3.33301 -3.5 -9.66602 -6.5 -18.999s-6 -20 -9 -32
s-5.66699 -24.5 -8 -37.5s-3.5 -25.167 -3.5 -36.5c0 -21.333 4 -32 12 -32c6.66699 0 13.834 4.16699 21.501 12.5s15.334 18.666 23.001 30.999s15 25.666 22 39.999s13.167 27.5 18.5 39.5s9.5 22 12.5 30s4.16699 11.667 3.5 11c4 4 10.667 6 20 6
c6.66699 0 12.834 -1 18.501 -3s8.5 -4.66699 8.5 -8v-1c-2 -2.66699 -4.83301 -9.5 -8.5 -20.5s-7.5 -23.5 -11.5 -37.5s-7.5 -28.167 -10.5 -42.5s-4.5 -25.833 -4.5 -34.5c0 -10.667 2.33301 -16 7 -16c5.33301 0 12.666 5.66699 21.999 17s18.666 24.5 27.999 39.5
l26 43.5z" />
    <glyph glyph-name="v.015" unicode="&#xe181;" horiz-adv-x="247" 
d="M247 162c1.33301 1.33301 2.66504 1.99902 3.99805 1.99902c2.66699 0 4 -1.33301 4 -4v-2c-16.667 -31.333 -33.167 -54.333 -49.5 -69s-32.166 -22 -47.499 -22c-18 0 -33.333 9 -46 27c-6 -10.667 -12.667 -21.334 -20 -32.001s-15.166 -20.167 -23.499 -28.5
s-17 -15.166 -26 -20.499s-17.833 -8 -26.5 -8c-11.333 0 -18.833 6 -22.5 18s-5.5 26 -5.5 42c0 15.333 1.16699 31 3.5 47s4.5 28.667 6.5 38c-37.333 -25.333 -75 -47.666 -113 -66.999s-75.333 -35.666 -112 -48.999s-71.834 -23.333 -105.501 -30
s-64.834 -10 -93.501 -10c-44 0 -80.167 8.66699 -108.5 26s-42.5 45.333 -42.5 84v9c0 4 0.333008 7.83301 1 11.5s1.33398 7 2.00098 10s2 4.5 4 4.5s3 -1.33301 3 -4c0 -5.33301 -0.333008 -10.333 -1 -15s-1 -9.66699 -1 -15c0 -36 13.333 -62.167 40 -78.5
s61 -24.5 103 -24.5c28 0 59 3.5 93 10.5s69.333 17.333 106 31s74.334 30.5 113.001 50.5s76.667 42.667 114 68l5 22c0 4 2.16699 6.83301 6.5 8.5s9.5 2.5 15.5 2.5s11.833 -1 17.5 -3s8.5 -4.66699 8.5 -8c0 -2.66699 -1.16699 -8.83398 -3.5 -18.501
s-4.66602 -20.834 -6.99902 -33.501l-7 -40c-2.33301 -14 -3.5 -26.333 -3.5 -37c0 -8 0.833008 -14.667 2.5 -20s4.5 -8 8.5 -8c2.66699 0 6.66699 2.16699 12 6.5s11 10 17 17s12 15 18 24s11.333 18.167 16 27.5c-13.333 20.667 -20 39.667 -20 57
c0 14.667 3.83301 26 11.5 34s15.5 12 23.5 12c5.33301 0 10.166 -2.16699 14.499 -6.5s6.5 -11.166 6.5 -20.499c0 -12 -3 -25 -9 -39s-11.667 -26.333 -17 -37c12 -17.333 26 -26 42 -26c14 0 28.5 6.83301 43.5 20.5s30.167 35.5 45.5 65.5zM110.999 110.999
c8 15.333 13.665 28.168 16.998 38.501s5 19.166 5 26.499c0 13.333 -4.33301 20 -13 20c-5.33301 0 -10.666 -3.33301 -15.999 -10s-8 -16 -8 -28c0 -6 0.833008 -12.5 2.5 -19.5s4.83398 -14.5 9.50098 -22.5z" />
    <glyph glyph-name="w.015" unicode="&#xe182;" horiz-adv-x="355" 
d="M355 162c1.33301 1.33301 2.66406 1.99316 3.99707 1.99316c2.66699 0 4 -1.66699 4 -5v-2l-18 -31.5c-6 -10.333 -12.333 -19.666 -19 -27.999s-13.667 -15 -21 -20s-15.333 -7.5 -24 -7.5c-14 0 -28.667 7.66699 -44 23c-13.333 -23.333 -28.666 -43.833 -45.999 -61.5
s-34.666 -26.5 -51.999 -26.5c-9.33301 0 -16.833 3.66699 -22.5 11s-8.5 19.666 -8.5 36.999c0 15.333 2.66699 34.333 8 57c-4.66699 -9.33301 -10.667 -19.833 -18 -31.5s-15.5 -23 -24.5 -34s-18.5 -20.167 -28.5 -27.5s-20 -11 -30 -11
c-11.333 0 -19.166 5.33301 -23.499 16s-6.5 23.667 -6.5 39c0 14.667 1.16699 29.834 3.5 45.501s5.16602 30.167 8.49902 43.5c-37.333 -25.333 -75 -47.666 -113 -66.999s-75.167 -35.666 -111.5 -48.999s-71.5 -23.333 -105.5 -30s-65 -10 -93 -10
c-44 0 -80.167 8.66699 -108.5 26s-42.5 45.333 -42.5 84v9c0 4 0.333008 7.83301 1 11.5s1.33398 7 2.00098 10s2 4.5 4 4.5s3 -1.33301 3 -4c0 -5.33301 -0.333008 -10.333 -1 -15s-1 -9.66699 -1 -15c0 -36 13.333 -62.167 40 -78.5s61 -24.5 103 -24.5
c28 0 59 3.5 93 10.5s69.333 17.333 106 31s74.334 30.5 113.001 50.5s76.667 42.667 114 68c2.66699 8.66699 4.83398 15.334 6.50098 20.001s3.5 8 5.5 10s4.33301 3 7 3h11c6 0 11.667 -1 17 -3s8 -4.66699 8 -8c0 -1.33301 -0.333008 -2.33301 -1 -3
s-2.16699 -5.66699 -4.5 -15s-4.83301 -20.333 -7.5 -33s-5 -26.167 -7 -40.5s-3 -26.833 -3 -37.5c0 -7.33301 0.666992 -13.5 2 -18.5s4 -7.5 8 -7.5c6.66699 0 15.5 7.16699 26.5 21.5s21.5 29.833 31.5 46.5s18 31.667 24 45s8 19.333 6 18
c2.66699 2.66699 6 4.5 10 5.5s8 1.5 12 1.5c6.66699 0 12.5 -0.833008 17.5 -2.5s7.5 -4.16699 7.5 -7.5c0 -1.33301 -1.16699 -6.16602 -3.5 -14.499s-4.83301 -18 -7.5 -29s-5.16699 -22.667 -7.5 -35s-3.5 -22.833 -3.5 -31.5c0 -14.667 3 -22 9 -22
c4 0 9.16699 2.66699 15.5 8s12.666 11.833 18.999 19.5s12.333 15.834 18 24.501s10.5 16.667 14.5 24c-13.333 20.667 -20 39.667 -20 57c0 15.333 3.83301 27 11.5 35s15.5 12 23.5 12c5.33301 0 10.166 -2.16699 14.499 -6.5s6.5 -11.166 6.5 -20.499
c0 -12 -3 -25.167 -9 -39.5s-11.667 -26.5 -17 -36.5c14 -14.667 27 -22 39 -22c11.333 0 22.833 6.33301 34.5 19s25.167 33.667 40.5 63zM235.998 109.993c8 15.333 13.499 28.332 16.499 38.999s4.5 19.334 4.5 26.001c0 12.667 -4 19 -12 19
c-5.33301 0 -10.666 -3.33301 -15.999 -10s-8 -16 -8 -28c0 -14 5 -29.333 15 -46z" />
    <glyph glyph-name="x.015" unicode="&#xe183;" horiz-adv-x="231" 
d="M231 162c0.666992 1.33301 2.00488 1.99512 4.00488 1.99512c2.66699 0 4 -1.33301 4 -4v-1l-15.5 -36.5c-7 -16.333 -15.333 -32.666 -25 -48.999s-20.5 -30.833 -32.5 -43.5s-24.333 -19 -37 -19s-25.334 6.16699 -38.001 18.5s-25.334 27.166 -38.001 44.499l-54 -65
c-0.666992 -0.666992 -1.66699 -1 -3 -1c-2.66699 0 -4 1.33301 -4 4s2.16699 6.83398 6.5 12.501s9.5 12 15.5 19s12.167 13.833 18.5 20.5s11.5 12.667 15.5 18c-3.33301 4 -9.33301 13.333 -18 28l-26 45c-37.333 -26 -75.333 -49 -114 -69s-76.667 -36.833 -114 -50.5
s-73.166 -24 -107.499 -31s-65.833 -10.5 -94.5 -10.5c-44 0 -80.167 8.66699 -108.5 26s-42.5 45.333 -42.5 84v9c0 4 0.333008 7.83301 1 11.5s1.33398 7 2.00098 10s2 4.5 4 4.5s3 -1.33301 3 -4c0 -5.33301 -0.333008 -10.333 -1 -15s-1 -9.66699 -1 -15
c0 -36 13.333 -62.167 40 -78.5s61 -24.5 103 -24.5c28 0 59 3.5 93 10.5s69.333 17.333 106 31s74.334 30.5 113.001 50.5s76.667 42.667 114 68l-14 26.5c-4 7.66699 -5.66699 11.834 -5 12.501c2.66699 6 9 9 19 9c5.33301 0 10.666 -0.833008 15.999 -2.5
s9.66602 -3.5 12.999 -5.5l47 -85l67 84c1.33301 1.33301 2.66602 2 3.99902 2c2.66699 0 4 -1.33301 4 -4c0 -1.33301 -2.16699 -5.16602 -6.5 -11.499s-10 -13.666 -17 -21.999l-23 -27.5l-23.5 -29l12 -20c5.33301 -8.66699 11.166 -17.167 17.499 -25.5
s12.666 -15.5 18.999 -21.5s11.833 -9 16.5 -9c8 0 16.667 6.5 26 19.5s18.166 27.5 26.499 43.5s15.5 30.833 21.5 44.5s9.66699 20.834 11 21.501z" />
    <glyph glyph-name="y.015" unicode="&#xe184;" horiz-adv-x="299" 
d="M299 162c1.33301 1.33301 2.67285 2.00293 4.00586 2.00293c3.33301 0 5 -1.33301 5 -4c0 -0.666992 -0.166992 -1 -0.5 -1s-0.5 -0.333008 -0.5 -1c-18.667 -34 -36.334 -62.333 -53.001 -85s-31.5 -40.834 -44.5 -54.501s-23.5 -23.667 -31.5 -30
s-12.333 -10.5 -13 -12.5c-0.666992 -0.666992 -2.33398 -9.5 -5.00098 -26.5s-6.5 -38 -11.5 -63s-11.167 -52 -18.5 -81s-16.333 -55.833 -27 -80.5s-22.834 -45.167 -36.501 -61.5s-29.167 -24.5 -46.5 -24.5c-12.667 0 -22.667 5.83301 -30 17.5s-11 26.834 -11 45.501
c0 20.667 4.33301 43 13 67s19.667 47.167 33 69.5s27.666 43 42.999 62s29.666 34.167 42.999 45.5c6 33.333 11.5 66.5 16.5 99.5s9.16699 64.167 12.5 93.5c-15.333 -40 -33.5 -71.167 -54.5 -93.5s-39.833 -33.5 -56.5 -33.5c-15.333 0 -25.333 6.83301 -30 20.5
s-7 30.167 -7 49.5c0 12.667 0.666992 25.167 2 37.5s2.66602 22.833 3.99902 31.5c-37.333 -25.333 -75 -47.833 -113 -67.5s-75.333 -36.167 -112 -49.5s-71.834 -23.333 -105.501 -30s-64.834 -10 -93.501 -10c-44 0 -80.167 8.66699 -108.5 26s-42.5 45.333 -42.5 84v9
c0 4 0.333008 7.83301 1 11.5s1.33398 7 2.00098 10s2 4.5 4 4.5s3 -1.33301 3 -4c0 -5.33301 -0.333008 -10.333 -1 -15s-1 -9.66699 -1 -15c0 -36 13.333 -62.167 40 -78.5s61 -24.5 103 -24.5c28 0 59 3.5 93 10.5s69.333 17.333 106 31s74.334 30.5 113.001 50.5
s76.667 42.667 114 68c2.66699 18 6 28 10 30s9.66699 3 17 3s13.666 -1.16699 18.999 -3.5s8 -4.83301 8 -7.5l-3.5 -17.5c-1.66699 -8.33301 -3.5 -18 -5.5 -29s-3.66699 -22.5 -5 -34.5s-2 -23 -2 -33c0 -11.333 1 -20.5 3 -27.5s5.66699 -10.5 11 -10.5
c9.33301 0 19 6.16699 29 18.5s19.333 26.833 28 43.5s16.167 33.667 22.5 51s10.5 30.666 12.5 39.999c0.666992 3.33301 3.33398 5.66602 8.00098 6.99902s9.66699 2 15 2c7.33301 0 13.5 -0.833008 18.5 -2.5s7.5 -4.16699 7.5 -7.5
c-2.66699 -26.667 -6.16699 -56.834 -10.5 -90.501s-9.5 -68.5 -15.5 -104.5l33 32.5c10 10.333 20 21.833 30 34.5s20.5 27.5 31.5 44.5s23.5 37.5 37.5 61.5zM42.0068 -297.997c8.66699 16 16.501 34.001 23.501 54.001s13.167 40.5 18.5 61.5s10 41.333 14 61
s7.33301 37.167 10 52.5c-12 -10.667 -24.833 -24.834 -38.5 -42.501s-26.5 -37 -38.5 -58s-22 -42.667 -30 -65s-12 -43.833 -12 -64.5c0 -2.66699 0.166992 -6 0.5 -10s1.16602 -8 2.49902 -12s3 -7.33301 5 -10s4.66699 -4 8 -4c5.33301 0 11.333 3.33301 18 10
s13 15.667 19 27z" />
    <glyph glyph-name="z.015" unicode="&#xe185;" horiz-adv-x="252" 
d="M252 162c1.33301 1.33301 2.67188 1.99512 4.00488 1.99512c3.33301 0 5 -1.33301 5 -4c0 -0.666992 -0.166992 -1 -0.5 -1s-0.5 -0.333008 -0.5 -1c-9.33301 -20.667 -19.5 -39.167 -30.5 -55.5s-23 -31.833 -36 -46.5s-26.833 -28.5 -41.5 -41.5l-46 -39.5
c3.33301 -8 5.66602 -16.5 6.99902 -25.5s2 -18.833 2 -29.5c0 -18 -1.83301 -36.667 -5.5 -56s-8.33398 -38.333 -14.001 -57s-12 -36.167 -19 -52.5s-13.5 -30.166 -19.5 -41.499c-10.667 -19.333 -23.667 -36.166 -39 -50.499s-31 -21.5 -47 -21.5
c-15.333 0 -26 5.5 -32 16.5s-9 23.5 -9 37.5c0 27.333 5 54.166 15 80.499s22.167 50.833 36.5 73.5s29.166 42.834 44.499 60.501s28.666 31.5 39.999 41.5c-5.33301 24.667 -16.5 43.334 -33.5 56.001s-37.833 21.667 -62.5 27c-2.66699 0 -4 1.66699 -4 5
c0 2.66699 2.66699 4 8 4c21.333 2.66699 40 7.83398 56 15.501s29.333 16.667 40 27s18.667 21.5 24 33.5s8 23.333 8 34c0 16.667 -4 28.5 -12 35.5s-16.333 10.5 -25 10.5c-11.333 0 -22.5 -4 -33.5 -12s-18.833 -17.333 -23.5 -28c-0.666992 -2 -2 -3.33301 -4 -4
c-37.333 -26 -75.333 -49 -114 -69s-76.667 -36.833 -114 -50.5s-73.166 -24 -107.499 -31s-65.833 -10.5 -94.5 -10.5c-44 0 -80.167 8.66699 -108.5 26s-42.5 45.333 -42.5 84v9c0 4 0.333008 7.83301 1 11.5s1.33398 7 2.00098 10s2 4.5 4 4.5s3 -1.33301 3 -4
c0 -5.33301 -0.333008 -10.333 -1 -15s-1 -9.66699 -1 -15c0 -36 13.333 -62.167 40 -78.5s61 -24.5 103 -24.5c28 0 59 3.5 93 10.5s69.333 17.333 106 31s74.334 30.5 113.001 50.5s76.667 42.667 114 68c6 16 17.167 28.5 33.5 37.5s33.166 13.5 50.499 13.5
s31.666 -4.5 42.999 -13.5s17 -24.167 17 -45.5c0 -12.667 -3 -25.167 -9 -37.5s-14 -23.666 -24 -33.999s-21.833 -19.5 -35.5 -27.5s-27.834 -14 -42.501 -18c31.333 -9.33301 54.666 -27 69.999 -53c32 26 60.333 52.167 85 78.5s46 59.5 64 99.5zM0.00585938 -298.005
c10 16 19.167 33.835 27.5 53.502s15.5 39.667 21.5 60s10.667 40 14 59s5 35.833 5 50.5c0 3.33301 -0.166992 6.16602 -0.5 8.49902s-0.5 4.83301 -0.5 7.5c-13.333 -12 -27.5 -27.667 -42.5 -47s-28.833 -40 -41.5 -62s-23 -44.833 -31 -68.5s-12 -45.834 -12 -66.501
c0 -9.33301 1.16699 -17.333 3.5 -24s6.83301 -10 13.5 -10c12.667 0 27 13 43 39z" />
    <glyph glyph-name="a.016" unicode="&#xe186;" horiz-adv-x="261" 
d="M146 185c1.33301 3.33301 4.16504 5.66992 8.49805 7.00293s9.16602 2 14.499 2c6.66699 0 12.5 -1 17.5 -3s7.5 -4.66699 7.5 -8v-2c-3.33301 -8.66699 -6.83301 -18.667 -10.5 -30s-7 -22.833 -10 -34.5s-5.5 -23 -7.5 -34s-3 -20.5 -3 -28.5c0 -12 2.66699 -18 8 -18
s12.833 6.16699 22.5 18.5s19.334 26.166 29.001 41.499s18.167 29.666 25.5 42.999s11.666 21 12.999 23c30.667 51.333 63.5 99 98.5 143s70.167 82 105.5 114s70.333 57.167 105 75.5s67 27.5 97 27.5c19.333 0 36.833 -4.5 52.5 -13.5s28.5 -23.167 38.5 -42.5
c1.33301 -3.33301 3.5 -8.16602 6.5 -14.499s4.5 -11.5 4.5 -15.5s-1 -6 -3 -6s-4.5 4 -7.5 12s-5.16699 14.333 -6.5 19c-9.33301 18.667 -21.333 32.167 -36 40.5s-31 12.5 -49 12.5c-29.333 0 -60.833 -9 -94.5 -27s-67.834 -42.833 -102.501 -74.5
s-69.167 -69.167 -103.5 -112.5s-66.833 -90.666 -97.5 -141.999c-3.33301 -4.66699 -9.16602 -15 -17.499 -31s-18.166 -32.833 -29.499 -50.5s-23.833 -33.334 -37.5 -47.001s-27.167 -20.5 -40.5 -20.5c-11.333 0 -18.666 4.5 -21.999 13.5s-5 21.167 -5 36.5
c0.666992 5.33301 1.33398 11.166 2.00098 17.499s1.66699 13.166 3 20.499c-8.66699 -12 -18.334 -23.833 -29.001 -35.5s-21.834 -22 -33.501 -31s-23.167 -16.333 -34.5 -22s-22 -8.5 -32 -8.5c-13.333 -0 -22.333 5.33301 -27 16s-7 22 -7 34
c0 23.333 3.66699 44.666 11 63.999s16.833 35.833 28.5 49.5s24.834 24.334 39.501 32.001s29.334 11.5 44.001 11.5c13.333 0 24.833 -5.33301 34.5 -16s16.5 -21.667 20.5 -33zM131.999 142.004c-4 17.333 -9.16699 29.666 -15.5 36.999s-13.166 11 -20.499 11
c-9.33301 0 -18.5 -3.66699 -27.5 -11s-17.333 -16.333 -25 -27s-14.334 -22 -20.001 -34s-9.5 -22.333 -11.5 -31s-3.66699 -16.667 -5 -24s-2 -13.666 -2 -18.999c0 -16 5 -24 15 -24c6.66699 0 15.167 3.66699 25.5 11s21 16.5 32 27.5s21.167 22.667 30.5 35
s16.333 23.833 21 34.5z" />
    <glyph glyph-name="b.016" unicode="&#xe187;" horiz-adv-x="325" 
d="M638 497c34.667 16.667 65.668 25.001 93.001 25.001c19.333 0 36.833 -4.5 52.5 -13.5s28.5 -23.167 38.5 -42.5c1.33301 -3.33301 3.5 -8.16602 6.5 -14.499s4.5 -11.5 4.5 -15.5s-1 -6 -3 -6s-4.5 4 -7.5 12s-5.16699 14.333 -6.5 19
c-9.33301 18.667 -21.333 32.167 -36 40.5s-31 12.5 -49 12.5c-27.333 0 -58 -8.5 -92 -25.5s-69 -41.167 -105 -72.5s-71.5 -68.833 -106.5 -112.5s-66.5 -92.167 -94.5 -145.5c-12 -23.333 -23.5 -42.5 -34.5 -57.5s-21.5 -26.833 -31.5 -35.5s-19.5 -14.667 -28.5 -18
s-17.833 -5 -26.5 -5c-6 0 -12.167 0.666992 -18.5 2s-12.5 3 -18.5 5c-13.333 -18 -27.333 -30.833 -42 -38.5s-27.667 -11.5 -39 -11.5c-13.333 0 -23 3.16699 -29 9.5s-9 13.166 -9 20.499c0 11.333 5 21.5 15 30.5s22.667 13.5 38 13.5c11.333 0 22 -1.33301 32 -4
c5.33301 8.66699 11 21 17 37s9 31.333 9 46c0 8.66699 -1.83301 17.167 -5.5 25.5s-9.5 12.5 -17.5 12.5s-17 -3.83301 -27 -11.5s-19.833 -17.334 -29.5 -29.001s-18.667 -24.5 -27 -38.5s-15.166 -27.333 -20.499 -40c-1.33301 -3.33301 -4.83301 -5.83301 -10.5 -7.5
s-11.5 -2.5 -17.5 -2.5c-5.33301 0 -10 0.833008 -14 2.5s-6 4.83398 -6 9.50098l11 127l9 66c4 28.667 9.33301 59.667 16 93s14.834 67.333 24.501 102s21 66.167 34 94.5s28.167 51.5 45.5 69.5s36.666 27 57.999 27s35.833 -5.83301 43.5 -17.5
s11.5 -25.834 11.5 -42.501c0 -25.333 -5.5 -53.5 -16.5 -84.5s-25.5 -62.5 -43.5 -94.5s-38.333 -63.167 -61 -93.5s-45.334 -57.833 -68.001 -82.5c-4 -27.333 -7.16699 -53 -9.5 -77s-3.83301 -45.667 -4.5 -65c18 36 39.333 63.667 64 83s46.667 29 66 29
c12.667 0 23 -4.33301 31 -13s12 -21.667 12 -39c0 -15.333 -3.16699 -31.833 -9.5 -49.5s-14.5 -33.834 -24.5 -48.501l15.5 -4c5 -1.33301 10.167 -2 15.5 -2c8 0 16.167 1.66699 24.5 5s17.166 9 26.499 17s19 19 29 33s20.667 32 32 54c20.667 40 44 77.667 70 113
s52.667 67.333 80 96s55 53.834 83 75.501s55 39.167 81 52.5zM154.001 587.001c-13.333 -22 -25.5 -48.333 -36.5 -79s-20.5 -61.667 -28.5 -93s-14.5 -61.666 -19.5 -90.999s-8.83301 -53.333 -11.5 -72c17.333 19.333 36.333 43.333 57 72s40 58.667 58 90
s33 62.666 45 93.999s18 59.333 18 84c0 15.333 -2.83301 26.833 -8.5 34.5s-11.5 11.5 -17.5 11.5c-5.33301 0 -10.833 -2 -16.5 -6s-11 -8.66699 -16 -14s-9.66699 -10.833 -14 -16.5s-7.5 -10.5 -9.5 -14.5zM136.001 61.001c-9.33301 2 -17.668 3 -25.001 3
c-15.333 0 -26.833 -4 -34.5 -12s-11.5 -15.667 -11.5 -23c0 -9.33301 4.33301 -14 13 -14c4.66699 0 10 2 16 6s11.833 8.5 17.5 13.5s10.834 10 15.501 15s7.66699 8.83301 9 11.5z" />
    <glyph glyph-name="c.016" unicode="&#xe188;" horiz-adv-x="206" 
d="M206 162c28.667 52.667 60.6709 101.164 96.0039 145.497s71.333 82.333 108 114s72.5 56.334 107.5 74.001s66.5 26.5 94.5 26.5c19.333 0 36.833 -4.5 52.5 -13.5s28.5 -23.167 38.5 -42.5c1.33301 -3.33301 3.5 -8.16602 6.5 -14.499s4.5 -11.5 4.5 -15.5s-1 -6 -3 -6
s-4.5 4 -7.5 12s-5.16699 14.333 -6.5 19c-9.33301 18.667 -21.333 32.167 -36 40.5s-31 12.5 -49 12.5c-27.333 0 -58 -8.66699 -92 -26s-69 -41.5 -105 -72.5s-71.333 -68.5 -106 -112.5s-66.334 -92.333 -95.001 -145c-30 -56 -60.833 -96.5 -92.5 -121.5
s-59.834 -37.5 -84.501 -37.5c-18.667 0 -33.834 6.33301 -45.501 19s-17.5 30.334 -17.5 53.001c0 14.667 2.66699 30.667 8 48s12.666 33.666 21.999 48.999s19.833 28.166 31.5 38.499s24.167 15.5 37.5 15.5c11.333 0 20 -4 26 -12s9 -17.667 9 -29
c-1.33301 -12 -3.33301 -22.333 -6 -31c-2 -8 -4.5 -15.167 -7.5 -21.5s-6.16699 -9.5 -9.5 -9.5s-5 1.66699 -5 5c4.66699 8 9 17.333 13 28s6 20.667 6 30c0 7.33301 -1.16699 12.833 -3.5 16.5s-4.83301 5.5 -7.5 5.5c-6.66699 0 -13.834 -4.83301 -21.501 -14.5
s-14.667 -21.667 -21 -36s-11.666 -29.666 -15.999 -45.999s-6.5 -31.166 -6.5 -44.499s2.66699 -25 8 -35s14 -15 26 -15s24.833 4.33301 38.5 13s27 20 40 34s25.5 30 37.5 48s23 36 33 54z" />
    <glyph glyph-name="d.016" unicode="&#xe189;" horiz-adv-x="270" 
d="M270 162c28.667 52.667 60.6699 101.167 96.0029 145.5s71.166 82.333 107.499 114s72.166 56.334 107.499 74.001s67 26.5 95 26.5c19.333 0 36.833 -4.5 52.5 -13.5s28.5 -23.167 38.5 -42.5c1.33301 -3.33301 3.5 -8.16602 6.5 -14.499s4.5 -11.5 4.5 -15.5
s-1 -6 -3 -6s-4.5 4 -7.5 12s-5.16699 14.333 -6.5 19c-9.33301 18.667 -21.333 32.167 -36 40.5s-31 12.5 -49 12.5c-27.333 0 -58 -8.66699 -92 -26s-69 -41.5 -105 -72.5s-71.333 -68.5 -106 -112.5s-66.334 -92.333 -95.001 -145l-24.5 -44.5
c-9.66699 -17 -20 -33.333 -31 -49s-22.167 -28.834 -33.5 -39.501s-21.666 -16 -30.999 -16c-6 0 -11 2.5 -15 7.5s-7.16699 11.167 -9.5 18.5s-4 15.666 -5 24.999s-1.5 18.333 -1.5 27c0 4 0.166992 7.66699 0.5 11s0.5 6.66602 0.5 9.99902
c-6 -10 -14.5 -21.333 -25.5 -34s-23 -24.5 -36 -35.5s-26.333 -20.333 -40 -28s-25.834 -11.5 -36.501 -11.5c-10 0 -18.667 3.83301 -26 11.5s-11 20.167 -11 37.5c0 14.667 3.16699 31.167 9.5 49.5s15.333 35.666 27 51.999s25.667 30 42 41s34.5 16.5 54.5 16.5
c9.33301 0 18.333 -2.16699 27 -6.5s15.667 -11.166 21 -20.499c1.33301 14.667 4 36.667 8 66s9.33301 61.333 16 96s14.834 70.334 24.501 107.001s21.167 70 34.5 100s28.833 54.5 46.5 73.5s37.5 28.5 59.5 28.5c21.333 0 35.833 -5.66699 43.5 -17
s11.5 -25.666 11.5 -42.999c0 -25.333 -5.5 -53.333 -16.5 -84s-25.333 -61.834 -43 -93.501s-37.834 -62.834 -60.501 -93.501s-45.667 -58.334 -69 -83.001c-3.33301 -26.667 -6.33301 -52.167 -9 -76.5s-4 -50.166 -4 -77.499c0 -30 3 -45 9 -45
c3.33301 0 8 3.66699 14 11s13 16.833 21 28.5s16.333 24.834 25 39.501s17 29.667 25 45zM297.003 602c-16 -20.667 -29.833 -46.8301 -41.5 -78.4971s-21.834 -64.334 -30.501 -98.001s-15.667 -66 -21 -97s-9.33301 -56.167 -12 -75.5
c16.667 18.667 35.334 42.167 56.001 70.5s40 58.166 58 89.499s33 62.666 45 93.999s18 59 18 83c0 15.333 -2.33301 26.5 -7 33.5s-10.667 10.5 -18 10.5c-15.333 0 -31 -10.667 -47 -32zM63.0029 47.0039c14.667 12 28 25.333 40 40s20.667 28.667 26 42l3 30
c-1.33301 8 -4.83301 15.333 -10.5 22s-12.167 10 -19.5 10c-12 0 -24.167 -5.66699 -36.5 -17s-23.166 -25 -32.499 -41s-17 -32.5 -23 -49.5s-9 -30.833 -9 -41.5c0 -15.333 4.66699 -23 14 -23c7.33301 0 15.666 3.33301 24.999 10s17 12.667 23 18z" />
    <glyph glyph-name="e.016" unicode="&#xe18a;" horiz-adv-x="189" 
d="M197 158c-5.33301 -10 -13.5039 -23.9961 -24.5039 -41.9961s-23.667 -35.833 -38 -53.5s-30 -32.834 -47 -45.501s-34.167 -19 -51.5 -19c-19.333 0 -33.833 6.33301 -43.5 19s-14.5 30.667 -14.5 54c0 16 2.33301 32.833 7 50.5s11.167 34 19.5 49
s18.166 27.333 29.499 37s24 14.5 38 14.5c7.33301 0 12.833 -2.16699 16.5 -6.5s5.5 -10.166 5.5 -17.499c0 -10.667 -4.66699 -22.5 -14 -35.5s-24.666 -23.833 -45.999 -32.5c-2.66699 -6.66699 -5.16699 -15.834 -7.5 -27.501s-3.5 -23.834 -3.5 -36.501
s2 -24.667 6 -36s10.333 -17 19 -17c14.667 0 29.334 6.16699 44.001 18.5s28.334 26.666 41.001 42.999s23.834 32.666 33.501 48.999l21.5 36.5c28 53.333 59.833 102.166 95.5 146.499s71.834 82.5 108.501 114.5s72.667 56.833 108 74.5s67 26.5 95 26.5
c19.333 0 36.833 -4.5 52.5 -13.5s28.5 -23.167 38.5 -42.5c1.33301 -3.33301 3.5 -8.16602 6.5 -14.499s4.5 -11.5 4.5 -15.5s-1 -6 -3 -6s-4.5 4 -7.5 12s-5.16699 14.333 -6.5 19c-9.33301 18.667 -21.333 32.167 -36 40.5s-31 12.5 -49 12.5
c-27.333 0 -58 -8.5 -92 -25.5s-69 -41.167 -105 -72.5s-71.5 -68.833 -106.5 -112.5s-66.5 -92.167 -94.5 -145.5zM38.9961 142.004c10.667 5.33301 21 13.333 31 24s15 20.667 15 30c0 2.66699 -0.666992 4 -2 4c-2.66699 0 -6 -2 -10 -6s-8.16699 -9 -12.5 -15
s-8.5 -12.333 -12.5 -19s-7 -12.667 -9 -18z" />
    <glyph glyph-name="f.016" unicode="&#xe18b;" horiz-adv-x="182" 
d="M495 497c34.667 16.667 65.6689 24.9951 93.002 24.9951c19.333 0 36.833 -4.5 52.5 -13.5s28.5 -23.167 38.5 -42.5c1.33301 -3.33301 3.5 -8.16602 6.5 -14.499s4.5 -11.5 4.5 -15.5s-1 -6 -3 -6s-4.5 4 -7.5 12s-5.16699 14.333 -6.5 19
c-9.33301 18.667 -21.333 32.167 -36 40.5s-31 12.5 -49 12.5c-28 0 -59 -8.66699 -93 -26s-68.667 -41.666 -104 -72.999s-70.333 -68.833 -105 -112.5s-66.667 -91.834 -96 -144.501c-10.667 -19.333 -22 -37.666 -34 -54.999s-24.833 -32.666 -38.5 -45.999
s-28.334 -24 -44.001 -32s-32.167 -12 -49.5 -12l-1 -3c15.333 -13.333 26.166 -27.5 32.499 -42.5s9.5 -30.167 9.5 -45.5c0 -12 -1.66699 -23.5 -5 -34.5s-7.66602 -20.667 -12.999 -29s-11.166 -15 -17.499 -20s-12.833 -7.5 -19.5 -7.5c-10.667 0 -20 7.83301 -28 23.5
s-12 42.5 -12 80.5c0 26.667 2.5 57.667 7.5 93s12.5 80 22.5 134c6 32.667 12.833 66.667 20.5 102s16.167 69.833 25.5 103.5s19.5 65.667 30.5 96s22.833 57 35.5 80s26.167 41.333 40.5 55s29.5 20.5 45.5 20.5c13.333 0 24.166 -5.5 32.499 -16.5
s12.5 -27.5 12.5 -49.5c0 -24.667 -5.33301 -54 -16 -88s-24.834 -68.5 -42.501 -103.5s-37.834 -68.333 -60.501 -100s-46.334 -57.5 -71.001 -77.5l-28 -162c16 0 31.167 3.66699 45.5 11s28 17.333 41 30s25.333 27.334 37 44.001s22.5 34.334 32.5 53.001
c21.333 40 44.833 77.5 70.5 112.5s52.334 67 80.001 96s55.334 54.333 83.001 76s54.5 39.167 80.5 52.5zM167.002 552.995c-14.667 -24 -28.001 -52.333 -40.001 -85s-22.667 -66 -32 -100s-17.166 -66.167 -23.499 -96.5l-15.5 -73.5c20 18 40.667 41.5 62 70.5
s40.5 60.167 57.5 93.5s31 66.833 42 100.5s16.5 64.167 16.5 91.5s-7 41 -21 41c-6 0 -13 -3.5 -21 -10.5s-16.333 -17.5 -25 -31.5zM48.001 -123.005c5.33301 12.667 8 26.667 8 42c0 14 -2.66699 28 -8 42s-14 26.667 -26 38c-1.33301 -10 -2.33301 -20.833 -3 -32.5
s-1 -23.167 -1 -34.5c0 -7.33301 0.333008 -15.333 1 -24s1.5 -16.5 2.5 -23.5s2.5 -12.833 4.5 -17.5s4.33301 -7 7 -7c4 0 9 5.66699 15 17z" />
    <glyph glyph-name="g.016" unicode="&#xe18c;" horiz-adv-x="283" 
d="M747 133c-28 19.333 -56.3281 33.001 -84.9951 41.001s-58 12 -88 12c-38.667 0 -77.334 -6 -116.001 -18s-75.834 -27.5 -111.501 -46.5s-69.334 -40 -101.001 -63s-60.167 -45.833 -85.5 -68.5c-0.666992 -0.666992 -2.16699 -9.66699 -4.5 -27
s-6.16602 -38.833 -11.499 -64.5s-11.833 -53.5 -19.5 -83.5s-16.834 -57.667 -27.501 -83s-23 -46.5 -37 -63.5s-29.333 -25.5 -46 -25.5c-13.333 0 -23.666 5.66699 -30.999 17s-11 26.333 -11 45c0 22 4.66699 45.333 14 70s20.833 48.5 34.5 71.5
s28.167 44.167 43.5 63.5s29.333 34.666 42 45.999c4.66699 26 8.83398 51.833 12.501 77.5l10.5 73.5c-6 -10 -14.5 -21.333 -25.5 -34s-23 -24.5 -36 -35.5s-26.333 -20.167 -40 -27.5s-25.834 -11 -36.501 -11c-10 0 -18.667 4 -26 12s-11 20.667 -11 38
c0 14.667 3.16699 31.167 9.5 49.5s15.333 35.666 27 51.999s25.667 30 42 41s34.166 16.5 53.499 16.5c11.333 0 21.5 -2.83301 30.5 -8.5s16.167 -13.167 21.5 -22.5c1.33301 8.66699 4.16602 14.667 8.49902 18s9.16602 5 14.499 5c6.66699 0 12.667 -1.5 18 -4.5
s8 -6.16699 8 -9.5v-1l-11 -84.5c-4 -31 -8.66699 -63.5 -14 -97.5c26.667 24.667 56.334 48.5 89.001 71.5s66.667 43.5 102 61.5s71.666 32.5 108.999 43.5s74.333 16.5 111 16.5c32 0 62.833 -4.5 92.5 -13.5s58.5 -23.5 86.5 -43.5
c1.33301 -1.33301 2 -2.66602 2 -3.99902c0 -2 -1.33301 -3 -4 -3c-0.666992 0 -1.16699 0.166992 -1.5 0.5s-0.833008 0.5 -1.5 0.5zM135.005 163.001l-3.50098 5c-2.33301 3.33301 -5.33301 6.83301 -9 10.5s-8.16699 7.16699 -13.5 10.5s-11.333 5 -18 5
c-13.333 -1.33301 -25.5 -7.66602 -36.5 -18.999s-20.667 -24.833 -29 -40.5s-14.833 -31.834 -19.5 -48.501s-7 -31 -7 -43c0 -16 5.33301 -24 16 -24c9.33301 1.33301 20 6.5 32 15.5s23.833 19.333 35.5 31s21.834 23.5 30.501 35.5s14.667 22 18 30zM61.0039 -232.999
c8.66699 26 16.499 54.168 23.499 84.501s13.167 60.5 18.5 90.5c-10 -10 -22 -23.333 -36 -40s-27.167 -35.334 -39.5 -56.001s-23 -43 -32 -67s-13.5 -48.333 -13.5 -73c0 -11.333 1.33301 -20.833 4 -28.5s6.33398 -11.5 11.001 -11.5c6 0 12 3.5 18 10.5
s11.833 15.5 17.5 25.5s11 20.833 16 32.5s9.16699 22.5 12.5 32.5z" />
    <glyph glyph-name="h.016" unicode="&#xe18d;" horiz-adv-x="278" 
d="M591 497c33.333 17.333 64.6641 25.9961 93.9971 25.9961c19.333 0 36.5 -4.33301 51.5 -13s27.833 -22.667 38.5 -42c1.33301 -3.33301 3.5 -8.33301 6.5 -15s4.5 -12.334 4.5 -17.001c0 -4 -1 -6 -3 -6s-4.33301 4 -7 12s-5 14.333 -7 19
c-8 19.333 -19.167 33.166 -33.5 41.499s-30.833 12.5 -49.5 12.5c-39.333 0 -77.666 -11.833 -114.999 -35.5s-73.833 -54.834 -109.5 -93.501s-70.834 -82.334 -105.501 -131.001s-68.334 -98.334 -101.001 -149.001c-7.33301 -11.333 -15.166 -22.666 -23.499 -33.999
s-17 -21.666 -26 -30.999s-17.833 -17 -26.5 -23s-17 -9 -25 -9c-10.667 0 -18.334 4.33301 -23.001 13s-7 18 -7 28c0 10.667 1.5 22.5 4.5 35.5s6.5 25.833 10.5 38.5s7.5 24.834 10.5 36.501s4.5 21.834 4.5 30.501c0 9.33301 -2.33301 14 -7 14
c-6.66699 0 -14.667 -5.16699 -24 -15.5s-19 -22.833 -29 -37.5s-19.333 -29.5 -28 -44.5l-21 -37.5c-0.666992 -0.666992 -3.83398 -2.5 -9.50098 -5.5s-12.167 -4.5 -19.5 -4.5c-5.33301 0 -10.166 1 -14.499 3s-6.5 9.33301 -6.5 22c0 16 1.5 41 4.5 75
s7.83301 72 14.5 114s15.167 85.333 25.5 130s22.833 85.334 37.5 122.001s31.5 66.834 50.5 90.501s40.5 35.5 64.5 35.5c21.333 0 35.833 -5.83301 43.5 -17.5s11.5 -25.834 11.5 -42.501c0 -25.333 -5.33301 -53.166 -16 -83.499s-24.667 -61.166 -42 -92.499
s-37.166 -62.166 -59.499 -92.499s-45.166 -57.833 -68.499 -82.5c-4 -28.667 -7.16699 -55.667 -9.5 -81s-4.16602 -48.333 -5.49902 -69c6.66699 12.667 14.667 26.667 24 42s19.333 29.666 30 42.999s21.834 24.333 33.501 33s23.167 13 34.5 13s19 -3 23 -9
s6 -13.667 6 -23s-1.5 -20.166 -4.5 -32.499s-6.33301 -24.666 -10 -36.999s-7 -24.333 -10 -36s-4.5 -21.5 -4.5 -29.5c0 -4.66699 0.833008 -9.33398 2.5 -14.001s4.16699 -7 7.5 -7c2.66699 0 6.5 2.33301 11.5 7s10.667 10.667 17 18s13 15.5 20 24.5
s13.5 18.167 19.5 27.5l84.5 120.5c27 39 54.167 75.333 81.5 109s55.5 63.834 84.5 90.501s60.5 48.667 94.5 66zM169.998 605.996c-15.333 -20 -28.833 -45.5 -40.5 -76.5s-21.834 -63.333 -30.501 -97s-16 -66.167 -22 -97.5s-10.333 -57.333 -13 -78
c16.667 18.667 35.167 42.167 55.5 70.5s39.333 58 57 89s32.334 61.833 44.001 92.5s17.5 58 17.5 82c0 30 -8.66699 45 -26 45c-13.333 0 -27.333 -10 -42 -30z" />
    </font>
</defs>
</svg>
