<?xml version="1.0" standalone="no"?>
<!DOCTYPE svg PUBLIC "-//W3C//DTD SVG 1.1//EN" "http://www.w3.org/Graphics/SVG/1.1/DTD/svg11.dtd" >
<svg xmlns="http://www.w3.org/2000/svg" xmlns:xlink="http://www.w3.org/1999/xlink" version="1.1">
<metadata>
Created by FontForge 20160405 at Thu Jul 21 13:41:06 2016
 By www-data
123dev
</metadata>
<defs>
<font id="123Bambou" horiz-adv-x="563" >
  <font-face 
    font-family="123Bambou"
    font-weight="500"
    font-stretch="normal"
    units-per-em="1000"
    panose-1="2 0 6 3 0 0 0 0 0 0"
    ascent="800"
    descent="-200"
    x-height="528.5"
    cap-height="735"
    bbox="-53.96 -260 973 953.05"
    underline-thickness="50"
    underline-position="-200"
    unicode-range="U+0020-F8FF"
  />
<missing-glyph horiz-adv-x="364" 
d="M66 33h199v600h-199v-600zM33 0v666h265v-666h-265z" />
    <glyph glyph-name=".notdef" horiz-adv-x="364" 
d="M66 33h199v600h-199v-600zM33 0v666h265v-666h-265z" />
    <glyph glyph-name=".null" horiz-adv-x="0" 
 />
    <glyph glyph-name="nonmarkingreturn" horiz-adv-x="333" 
 />
    <glyph glyph-name="space" unicode=" " horiz-adv-x="300" 
 />
    <glyph glyph-name="exclam" unicode="!" horiz-adv-x="338" 
d="M231 720q-44 -169 -48 -317q-4 -114 33 -163q2 -4 7 -9.5t6.5 -8t3 -6.5t0.5 -6.5t-4 -6.5t-8 -9q-4 -3 -9.5 -7t-14.5 -9t-14.5 -4.5t-8.5 5.5q-44 113 -30 323q2 29 7 74.5t8 79t1 58.5q-1 19 5 26t24 6q15 -1 30 -7t12 -19zM116 69q47 8 66 18q30 17 48 21q20 5 29 0
t9 -26q0 -5 -0.5 -12t-2.5 -16t-6.5 -14t-10.5 -4q-19 6 -26 8t-16.5 2t-16.5 -4.5t-31 -30t-42 8.5q-4 7 -7 16.5t-2 20.5t9 12z" />
    <glyph glyph-name="quotedbl" unicode="&#x22;" horiz-adv-x="358" 
d="M100 732q10 -89 16 -220q5 -92 13 -131q7 -20 4 -29.5t-22 -12.5q-7 -4 -28 -2.5t-20 13.5q0 19 4 76t4 70.5t-1 67.5q-6 82 -33 134q-9 17 -6 26t20 15q5 2 12 3.5t15.5 2t14.5 -2.5t7 -10zM258 741q4 -44 12 -118.5t10 -86.5q2 -24 4 -71.5t3 -59.5q1 -14 0.5 -22.5
t-6.5 -12.5t-20 -4q-5 0 -11.5 1t-15.5 2.5t-14.5 6t-3.5 10.5q25 121 14.5 196t-37.5 129q-8 17 -4.5 25.5t21.5 14.5q8 4 27.5 3.5t20.5 -13.5z" />
    <glyph glyph-name="numbersign" unicode="#" horiz-adv-x="639" 
d="M349 449q-20 -2 -79 -8l-16 -2q-23 -81 -39 -162q0 -1 -1 -3q43 0 90 6q14 57 33 124q5 19 12 45zM364 499q39 136 47 209q2 20 8 26t24 3q14 -2 28.5 -9.5t10.5 -20.5q-47 -139 -67 -201q63 9 114 13q14 1 23 0.5t12.5 -6.5t4.5 -20q0 -8 -1 -17t-5.5 -19.5t-13.5 -9.5
q-67 10 -152 5q-27 -89 -48 -166q62 9 128 21q20 5 29.5 2.5t12.5 -22.5q3 -7 1 -27.5t-14 -20.5q-79 3 -169 -3q-32 -138 -26 -246q4 -21 1.5 -30.5t-22.5 -11.5q-6 -3 -27.5 -0.5t-19.5 14.5q13 119 49 271q-23 -2 -51 -5q-16 -2 -36 -2q-22 -126 -22 -234v-13v-11
t-1 -6.5t-4 -6t-7.5 -2.5t-11.5 -2q-5 0 -11.5 0.5t-16 1.5t-15 5.5t-4.5 10.5q20 122 47 256q-16 1 -51 2t-53 2q-19 0 -25.5 7t-2.5 26q2 14 10 28t20 10q55 -18 113 -24q13 63 28 128q3 17 8 35q-9 0 -32.5 1t-36 1.5t-31 -0.5t-33.5 -3q-19 -3 -26.5 2t-8.5 23
q-1 8 0 17.5t5.5 19t13.5 8.5q104 -16 162 -18q42 160 51 215q3 19 10 24.5t24 1.5q14 -3 28 -11.5t9 -20.5q-41 -105 -73 -210q36 1 70 6q16 3 26 4z" />
    <glyph glyph-name="dollar" unicode="$" horiz-adv-x="581" 
d="M248 431q5 54 19 145q-48 -1 -77 -31q-12 -13 -14.5 -35t5.5 -33q17 -20 67 -46zM289 360q-3 -42 -3 -84q-3 -125 19 -245q46 1 79 22q42 27 65 82.5t9 93.5q-8 19 -23.5 37.5t-40.5 35t-46 28t-54 28.5q-2 1 -5 2zM335 630q45 -5 84 -25.5t66 -49.5q12 -14 11.5 -23.5
t-15.5 -19.5q-7 -4 -15 -8t-19 -5t-15 8q-11 21 -41 39t-70 26q-18 -81 -27 -164q38 -18 61 -31q138 -76 154 -176q6 -38 -14.5 -83t-55.5 -81q-47 -48 -124 -57q7 -18 5 -27t-20 -14q-5 -1 -11.5 -2.5t-15.5 -2t-15.5 2.5t-6.5 9l-2 36q-96 13 -148 71q-33 36 -35 92
t24 110q7 14 10.5 20t9 10t11.5 2.5t15 -6.5q7 -4 14.5 -9.5t14 -15t1.5 -15.5q-18 -20 -33.5 -49t-12.5 -57q2 -21 18.5 -41.5t39.5 -32.5q33 -16 68 -24q-9 183 -1 344q-63 29 -86 53q-16 17 -21.5 47t3.5 61.5t32 50.5q36 32 103 38q9 53 13 88q2 19 9 25t24 2
q15 -2 28.5 -10t9.5 -21q-14 -42 -25 -85z" />
    <glyph glyph-name="percent" unicode="%" horiz-adv-x="868" 
d="M156 570q-49 -92 -8 -174q7 -15 28.5 -19.5t42.5 2.5q46 14 77 54q23 31 28 62t-10 48q-27 29 -133 28q-6 0 -14.5 -0.5t-10.5 -0.5zM137 628q4 13 13 12q37 -3 73.5 -11t70 -20t56.5 -32t26 -44q10 -58 -39.5 -118.5t-117.5 -81.5q-39 -12 -82.5 19.5t-59.5 87.5
q-7 22 -7.5 44.5t5 46.5t10 38.5t13.5 39.5q7 18 14.5 22t24.5 -3zM538 225q-23 30 -9 39q99 60 161 43q38 -11 66 -46.5t37 -78.5q9 -42 -1.5 -85t-38.5 -71q-27 -27 -72 -38t-82 4q-48 21 -70.5 77.5t-9.5 112.5q6 23 19 43zM672 660q-160 -204 -252 -392
q-69 -140 -93 -287q-1 -4 -2 -11t-1.5 -9t-1.5 -7t-2.5 -5.5t-4.5 -3t-7.5 -1.5t-10.5 0q-5 1 -11.5 2t-15.5 3.5t-14 7.5t-2 11q72 222 186 434q23 43 82 138.5t84 145.5q9 18 16.5 21t24.5 -5q12 -8 22.5 -20t2.5 -22zM689 231q-71 18 -101 -18q-18 -22 -24.5 -54.5
t0.5 -61.5q5 -27 24.5 -46t44.5 -22q32 -3 60.5 10t40.5 34q17 33 13.5 77t-27.5 74q-6 7 -15 13q-7 -9 -16 -6z" />
    <glyph glyph-name="ampersand" unicode="&#x26;" horiz-adv-x="691" 
d="M278 348q-55 -37 -77 -56q-39 -32 -55 -81t-6 -100q4 -20 23 -36.5t41 -21.5q45 -12 99 11q74 31 124 76q-75 92 -149 208zM495 143q53 -62 100 -91q2 -1 6 -3.5t5 -3.5t4 -3t3.5 -3t2.5 -3t2 -3t0.5 -3.5t0 -4.5t-1.5 -5l-2 -6q-5 -14 -17 -27t-21 -4q-59 52 -116 117
l-18 -18q-55 -55 -152 -76q-50 -10 -98 1t-76 46q-26 34 -30.5 83.5t9.5 89.5q20 63 109 126q17 12 51 32q-43 70 -85 148q-15 29 -9.5 66t26.5 65q22 28 60 42t69 2q59 -23 94.5 -82t20.5 -113q-12 -40 -41 -72t-74 -64q6 -7 24.5 -30.5t27.5 -35.5q14 -19 46 -62.5
t49 -65.5h1q6 10 13 22t11.5 21.5t11 26t9.5 24t9 28t7.5 25t8.5 29t8 26.5q2 5 4 13t3 11t3 7.5t3.5 6t5 3t7.5 1t11 -2.5q7 -1 15.5 -4t18 -10t5.5 -15q-2 -6 -13 -34.5t-20 -49t-23 -51t-31 -60t-37 -56.5zM293 408q31 21 50 39q29 28 39 64.5t-2 79.5q-12 35 -44 57
t-65 15t-50.5 -42t-6.5 -71q19 -61 79 -142z" />
    <glyph glyph-name="quotesingle" unicode="'" horiz-adv-x="228" 
d="M154 749q-14 -96 -12 -157q1 -50 12 -93q6 -19 3 -28.5t-23 -12.5q-6 -4 -27.5 -2t-20.5 14q2 19 5.5 55t4.5 59.5t1 45.5q-2 67 -12 103q-5 18 0.5 26t23.5 10q8 1 18 0t19.5 -6t7.5 -14z" />
    <glyph glyph-name="parenleft" unicode="(" horiz-adv-x="379" 
d="M248 -234q-97 163 -134 281q-54 167 -41 307q15 167 145 393q1 1 3 5q8 13 12 17.5t11 5t18 -6.5q7 -4 14 -9.5t13.5 -15t1.5 -15.5q-110 -130 -147 -247q-46 -144 -20 -286q18 -99 63 -197t108 -179q13 -16 13.5 -23.5t-12.5 -19.5q-7 -5 -14.5 -9.5t-18.5 -7t-15 6.5z
" />
    <glyph glyph-name="parenright" unicode=")" horiz-adv-x="283" 
d="M16 -152q41 37 74.5 98t50.5 134q41 167 21 284q-25 147 -150 335q-3 4 -7.5 10.5t-6.5 9t-3.5 7t-0.5 7t4 6.5t9 8q4 4 9 7t14 8t14.5 4t10.5 -6q3 -6 17.5 -33t19.5 -37t18 -34.5t19.5 -39t16.5 -36t17 -40.5t13 -37q47 -144 34 -284q-21 -220 -136 -413
q-18 -30 -43 -5q-6 6 -11 13t-8.5 17.5t4.5 16.5z" />
    <glyph glyph-name="asterisk" unicode="*" horiz-adv-x="441" 
d="M171 518q-29 -37 -55 -105q-6 -17 -14.5 -21t-24.5 5q-13 6 -24.5 18t-3.5 22q9 11 26.5 33t26 32.5t21 26t23.5 26.5t21 20q-41 22 -103 16q-19 -2 -26.5 4t-7.5 24q0 14 5.5 30t18.5 13q75 -20 123 -47q1 10 2 18q4 49 -5 79q-5 17 1 25t25 9q14 1 30 -3.5t14 -16.5
q-22 -104 -23 -116q13 6 44.5 18.5t50.5 20.5q18 11 27.5 10.5t17.5 -19.5q2 -4 4 -10.5t4 -15.5t0 -15.5t-8 -7.5q-90 -18 -118 -27l8 -8q12 -15 22.5 -35.5t23 -48t20.5 -42.5q1 -2 2 -5q10 -15 9 -23.5t-18 -17.5q-4 -2 -10.5 -4.5t-15 -4.5t-15.5 -0.5t-8 7.5
q-21 85 -34 117q-3 -1 -6 -3q-4 -1 -11 -3t-16 -3.5t-15.5 1t-6.5 8.5q-1 10 -1 19z" />
    <glyph glyph-name="plus" unicode="+" horiz-adv-x="643" 
d="M39 293q93 5 235 4q-1 16 -3 63.5t-4 80.5t-7 64q-3 18 2.5 25.5t23.5 8.5q8 0 17.5 -1t18.5 -6.5t8 -14.5q-13 -104 -10 -220q15 0 22 -1q117 0 183 15q20 6 29.5 4.5t14.5 -20.5q4 -6 4 -27.5t-12 -21.5q-37 0 -77.5 1t-88.5 3t-74 3q1 -22 3 -45q9 -142 17 -202
q5 -21 2 -30t-23 -12q-6 -3 -27 -0.5t-20 14.5q9 147 3 276h-13q-124 0 -195 -26q-18 -7 -26.5 -3.5t-13.5 20.5q-4 8 -3 27.5t14 20.5z" />
    <glyph glyph-name="comma" unicode="," horiz-adv-x="253" 
d="M165 103q9 -43 13 -69.5t4.5 -57t-7.5 -54.5q-4 -12 -12.5 -25t-14.5 -20.5t-22.5 -25.5t-21.5 -22q-11 -13 -15.5 -17t-12 -3t-17.5 12q-4 3 -7.5 8t-9 13.5t-5.5 14t5 10.5q49 31 72.5 53t26.5 46q4 40 -36 98q-10 15 -8 24.5t19 17.5q7 3 16.5 5.5t20 1.5t12.5 -10z
" />
    <glyph glyph-name="hyphen" unicode="-" horiz-adv-x="396" 
d="M39 328q99 -10 154 -8q52 1 91 9q20 6 29 3t12 -23q3 -7 0.5 -28t-14.5 -20q-15 2 -42.5 5.5t-41.5 5t-34 3t-36 0.5q-60 -2 -98 -16q-18 -6 -26 -0.5t-11 23.5q-2 14 1 30.5t16 15.5z" />
    <glyph glyph-name="period" unicode="." horiz-adv-x="236" 
d="M159 103q14 -42 -1 -75.5t-45 -27.5q-14 4 -22 27.5t-1 46.5q5 15 10.5 21.5t14.5 4.5q38 23 44 3z" />
    <glyph glyph-name="slash" unicode="/" horiz-adv-x="403" 
d="M-15 -25q78 281 146 457q21 54 65 151t61 138q2 3 4.5 10.5t3.5 9t3.5 6t4.5 5t5 1.5t7.5 0t10.5 -4q7 -2 15 -6.5t16 -12.5t4 -15q-139 -237 -204 -419q-62 -177 -70 -318q-2 -19 -7.5 -25.5t-23.5 -4.5q-14 1 -29 7.5t-12 19.5z" />
    <glyph glyph-name="zero" unicode="0" horiz-adv-x="542" 
d="M236 609q-19 -6 -34 -17q-34 -27 -58 -89q-40 -102 -40 -204q1 -147 58 -221q30 -38 96 -23q54 13 85 61q40 60 60 138t18 160q-4 96 -52 155q-21 26 -55.5 37t-73.5 4q-2 -1 -4 -1zM337 664q11 -4 21 -9q55 -26 83 -99q42 -112 26 -241q-16 -125 -84 -222
q-42 -59 -103 -77q-38 -13 -79.5 -7t-62.5 30q-47 57 -65 149t-9.5 200t56.5 186q25 40 64 67q-5 26 8 28q37 6 67 6q23 6 47 7q29 2 31 -18z" />
    <glyph glyph-name="one" unicode="1" horiz-adv-x="551" 
d="M383 666q-49 -155 -55 -380q-3 -134 15 -232q81 28 89 31q18 9 27.5 7t15.5 -21q2 -5 3 -11.5t2 -15.5t-1.5 -15.5t-9.5 -6.5q-77 -6 -116 -14q3 -11 -0.5 -16.5t-18.5 -9.5q-42 -12 -48 3q-41 -19 -70 -44q-14 -13 -23.5 -11t-19.5 17q-4 7 -7.5 16t-3 20t8.5 13
q59 18 112 37q-4 164 6 376q3 50 13 147q-27 -33 -59 -49q-15 -7 -34 -9.5t-51.5 -1.5t-45.5 1q-19 -1 -25.5 6.5t-3.5 25.5q2 14 9.5 28.5t20.5 10.5q101 -35 140 -4q31 25 42 101q0 3 1 8.5t1 7.5t1 6t1.5 5.5t2 3.5t3.5 2.5t5 1.5t6.5 1t8.5 -1q11 -1 22 -4
q14 -3 27 -10.5t9 -19.5z" />
    <glyph glyph-name="two" unicode="2" horiz-adv-x="634" 
d="M52 461q3 50 36 104.5t89 84.5q43 23 92.5 29.5t95.5 -6.5q51 -15 86.5 -62.5t34.5 -101.5q-2 -74 -92 -159q-25 -24 -92.5 -77t-98.5 -86q-43 -44 -67 -94t-17 -82q128 31 225 46q29 4 88.5 10t88.5 10q20 5 29.5 2t11.5 -23q3 -6 0.5 -27t-14.5 -20q-169 11 -268 -7
q-90 -17 -152 -51q-17 -22 -26 -15q-13 -7 -20.5 -4t-15.5 18q-3 7 -6 16t-2 19.5t10 12.5q3 1 5 2q-6 37 3.5 80t32.5 80q14 22 37.5 45.5t38.5 36t48 38.5q48 38 75 61t60.5 56t51 64t22.5 62q4 27 -13 53.5t-43 40.5q-46 25 -116 12q-65 -13 -107 -49
q-23 -21 -34.5 -47.5t-7.5 -51.5q2 -19 -2 -26.5t-21 -10.5q-14 -2 -30 1t-16 16z" />
    <glyph glyph-name="three" unicode="3" horiz-adv-x="557" 
d="M218 389q33 2 61 1q42 22 58 63q17 42 10 87.5t-35 70.5q-17 16 -54 14.5t-76 -21.5q-34 -17 -48 -43.5t-4 -49.5q8 -17 6 -26t-18 -16q-7 -3 -16 -5.5t-19.5 -1t-13.5 10.5q-8 36 2 77t37 67q21 20 51.5 34.5t58.5 15.5q65 4 113.5 -31t61.5 -91q16 -64 -22 -140
q-7 -13 -16 -25q102 -27 127 -130q18 -74 -25 -155.5t-115 -114.5q-32 -15 -70 -10.5t-73.5 21t-65.5 41.5q-72 62 -97 187q-5 22 -2 31.5t23 12.5q47 7 48 -14q1 -60 30 -119.5t82 -94.5q26 -18 60.5 -19.5t62.5 11.5q57 26 81 97q18 45 16 96.5t-28 80.5q-23 26 -42 32
t-63 0q-24 -16 -52 -26q-20 -9 -30 -6.5t-15 22.5q-3 10 -4 21q-3 10 0 27t15 18z" />
    <glyph glyph-name="four" unicode="4" horiz-adv-x="584" 
d="M380 603q-117 -127 -184 -211q-89 -112 -132 -190q125 -5 224 8q48 7 70 10q-3 91 1 181q2 38 21 202zM-25 181q137 177 256 323q8 10 31.5 39t35 43t30 37.5t33.5 44t28 41.5v4q1 19 7.5 25.5t23.5 4.5q8 -1 17 -3t17.5 -9t6.5 -16q-1 0 -1 -1q11 -13 4 -20
q-6 -7 -12 -13q-51 -216 -52 -402q-1 -25 1 -51q40 8 73 19q18 7 26 2.5t12 -22.5q4 -8 1.5 -27t-15.5 -20q-45 -1 -93 -4q9 -93 35 -179q9 -20 8.5 -29.5t-18.5 -16.5q-5 -2 -11.5 -4t-15.5 -3.5t-15.5 1t-7.5 8.5q-15 109 -20 220q-58 -6 -138 -16q-19 -2 -82 -8.5
t-97 -12.5q-2 0 -5.5 -0.5t-5.5 -1t-4.5 -0.5h-4t-4 -0.5t-3.5 0t-3 1t-3 1.5l-2 2l-6 3q-13 6 -24 18t-3 22z" />
    <glyph glyph-name="five" unicode="5" horiz-adv-x="561" 
d="M474 613q-75 3 -213 2q-18 -1 -83 1q-8 -57 -12.5 -84.5t-12.5 -70t-15 -61.5t-14 -20q23 4 64.5 16t68 19t60.5 7t59 -12q49 -24 74.5 -87t21.5 -141q-3 -81 -60 -140q-60 -63 -145 -70q-91 -9 -159 43q-61 45 -79 149q-6 24 -3 34t24 13q6 3 27 0.5t20 -14.5
q-1 -44 19.5 -91t62.5 -69q40 -19 89 -14t88 32q33 23 53 66.5t21 95.5q0 59 -25 104t-63 55q-27 7 -57.5 3t-64 -11t-61 -13.5t-48.5 -6t-26 10.5q-12 23 -12 57t6.5 62.5t17 71.5t14.5 66q-11 1 -15 6.5t-4 21.5q1 5 1.5 11.5t3 15.5t7 14t10.5 3l10 -2q6 4 20 4
q37 -1 42 -19q70 -14 129 -12q84 3 137 22q18 6 26 1t12 -23q3 -8 0 -27.5t-16 -18.5z" />
    <glyph glyph-name="six" unicode="6" horiz-adv-x="559" 
d="M146 181q4 -13 9 -25q9 -20 33.5 -37t55.5 -25q56 -15 104 11q32 17 56.5 47.5t32.5 69.5q9 40 -6.5 74t-45.5 48q-31 14 -71 7.5t-76 -31.5q-51 -34 -86 -121q-3 -7 -6 -18zM413 521q-16 72 -73 84q-29 7 -57.5 0.5t-48.5 -23.5q-37 -32 -63 -84t-37 -113
q-9 -53 -6 -105q51 72 106 107t129 19q37 -8 67 -29t45 -52t13.5 -71.5t-19.5 -81.5q-31 -73 -96 -106q-71 -36 -143 -14q-43 12 -76.5 38.5t-44.5 59.5q-2 6 -4 13q-14 4 -24 11t-6 16q7 14 17 32q-24 151 36 300q20 48 60 84.5t89 52.5q56 18 122 -9q44 -18 77 -95
q8 -17 5 -26t-19 -15q-8 -3 -17 -4.5t-19.5 0.5t-12.5 11z" />
    <glyph glyph-name="seven" unicode="7" horiz-adv-x="595" 
d="M173 325q96 17 124 24q14 3 26 7q19 36 135 241q5 8 14.5 27.5t15 28.5t9.5 9q-15 1 -31 -1.5t-38 -7t-31 -6.5q-6 -1 -140 -25q-36 -7 -102 -17t-72 -10q-19 -3 -26.5 1.5t-9.5 21.5q-2 15 1.5 30t16.5 16q113 0 363 34q33 5 69.5 -19.5t23.5 -58.5q-7 -19 -15.5 -35.5
t-20 -36t-17.5 -29.5q-20 -38 -67 -115q-7 -13 -14 -24q15 2 22 -22q2 -4 3 -10.5t2 -16t-1.5 -16t-8.5 -6.5q-13 0 -32.5 -0.5t-25.5 -1.5q-105 -190 -126 -333q-1 -8 -1 -18.5t-1 -14t-6 -6.5t-15 -4q-4 0 -12 0.5t-16.5 1.5t-14.5 5t-4 11q40 151 145 354q-8 -2 -15 -4
q-39 -11 -69 -34q-27 -21 -42 12q-3 7 -5.5 16.5t-1 20t10.5 11.5z" />
    <glyph glyph-name="eight" unicode="8" horiz-adv-x="575" 
d="M299 352h-2q-5 -2 -32.5 -11t-37.5 -13t-28 -12.5t-30 -16.5q-55 -38 -53 -110q0 -30 10.5 -64t26.5 -56q18 -25 48 -40t63 -16q70 -1 129 43q30 22 48.5 52.5t18.5 62.5q-1 53 -25 96t-62 61q-28 14 -74 24zM334 598q-13 6 -32 9.5t-47.5 -1.5t-53.5 -20
q-23 -15 -37.5 -40t-14.5 -49q-1 -54 50 -74q20 -8 79 -20q41 15 63 25q47 22 57 55q5 16 3.5 38.5t-9.5 31.5q-4 5 -12 13t-9.5 11t-0.5 8.5t8 14.5l7.5 7.5t12.5 11t13.5 7t10.5 -4.5q9 -10 17.5 -27t16 -50.5t4.5 -67.5q-4 -33 -35 -59q-24 -21 -58 -38q77 -31 109 -88
q23 -40 27.5 -90.5t-10.5 -87.5q-15 -38 -46 -68.5t-70 -49.5q-87 -42 -163 -20q-48 14 -85.5 57t-52.5 108q-14 60 4.5 115t59.5 85q25 18 59 34q-20 5 -36 12q-27 12 -45.5 41.5t-20.5 65.5q-2 29 8.5 58t30.5 49q42 43 100 60t111 8q19 -3 23.5 -11.5t-0.5 -25.5
q-5 -14 -14.5 -26.5t-21.5 -6.5z" />
    <glyph glyph-name="nine" unicode="9" horiz-adv-x="525" 
d="M392 293q-32 -17 -66.5 -26.5t-76 -11.5t-76.5 15q-60 26 -100 88t-37 126q2 64 56.5 120.5t125.5 75.5q41 9 78.5 0t66.5 -30q66 -49 81 -124q18 -84 5.5 -184t-55.5 -188q-42 -85 -117 -148t-168 -98q-24 -10 -34.5 -8t-15.5 22q-2 8 -3.5 17t0.5 20t10 12
q45 4 105 30.5t108 74.5q64 65 101 176q7 21 12 41zM407 376q6 60 -1 114q-10 69 -54 112q-45 44 -112 37q-39 -5 -76.5 -26.5t-58.5 -54.5q-22 -35 -21.5 -77.5t20.5 -78.5q21 -37 56.5 -63.5t75.5 -32.5q36 -6 74 10t67 45q11 11 17 14.5t13 0.5z" />
    <glyph glyph-name="colon" unicode=":" horiz-adv-x="262" 
d="M104 507q11 -3 18.5 -7t10.5 -5.5t5 -1.5q1 0 3.5 4t5.5 5q17 8 27 4t13 -25q2 -7 -0.5 -28.5t-13.5 -18.5q-13 2 -22 6t-12 6.5t-5 2.5q-1 0 -2 -1.5t-4 -4.5t-8 -6q-16 -8 -25 -1t-11 26q-1 14 3.5 31t16.5 14zM99 103q25 -8 50 -19q15 -7 24 -13q17 -13 18.5 -21.5
t-14.5 -23.5q-4 -3 -9.5 -7t-14.5 -8.5t-14.5 -4t-9.5 5.5q-7 18 -5 27q-6 -4 -13 -7q-33 -13 -34 27q-1 14 4.5 30.5t17.5 13.5z" />
    <glyph glyph-name="semicolon" unicode=";" horiz-adv-x="275" 
d="M110 494q13 -1 22.5 -3t13 -3t6 -0.5t5.5 4.5t6 5q18 8 27.5 4t12.5 -25q3 -7 0.5 -28.5t-14.5 -18.5q-8 1 -15 3.5t-10 4.5t-5 3.5t-3 2.5v1l-2.5 -2.5t-5.5 -5t-9 -8.5q-29 -21 -40 18q-4 8 -3 28t14 20zM125 105q46 -40 61 -87t-3 -84q-8 -17 -28 -47.5t-28 -45.5
q-6 -12 -8 -15.5t-6.5 -8.5t-10.5 -3.5t-16 6.5q-4 3 -9 6.5t-13 10t-9.5 12t1.5 11.5q11 12 33 34.5t32 33.5t21 27t15 30t-9 28.5t-40 22.5q-19 5 -23.5 13t2.5 25q6 13 17.5 26t20.5 5z" />
    <glyph glyph-name="less" unicode="&#x3c;" horiz-adv-x="687" 
d="M-7 277q48 24 154.5 80.5t165.5 85.5q32 16 66.5 30t85.5 33.5t68 25.5q19 10 28.5 9t17.5 -20q2 -7 4.5 -15.5t1.5 -20t-9 -13.5q-186 -36 -329 -112q-86 -45 -146 -88q214 -91 290 -128q81 -39 201 -122q15 -10 19 -14t4.5 -11.5t-8.5 -18.5q-3 -4 -7 -8.5t-11.5 -11
t-13 -7t-11.5 2.5q-115 118 -288 195q-137 61 -229 72l-8 2q-12 -10 -20.5 -9t-18.5 15q-4 6 -8 14t-6 19.5t7 14.5z" />
    <glyph glyph-name="equal" unicode="=" horiz-adv-x="684" 
d="M42 410q123 -15 321 -13q37 1 109 -0.5t103 -1.5h8h7.5h5.5t5 -0.5t4 -1.5t3.5 -2.5t2.5 -3.5t2 -4.5t0.5 -6t0.5 -7.5q0 -8 -1 -17t-6 -19.5t-14 -8.5q-164 31 -316 28q-11 0 -42.5 -1t-47.5 -1.5t-42 -1.5t-48 -3t-42 -5q-19 -3 -26.5 2.5t-8.5 23.5q0 8 1 17.5
t6.5 18.5t14.5 8zM22 192q99 1 329 7q162 5 210 10q20 5 29.5 2t11.5 -22q3 -7 0.5 -28t-14.5 -20q-216 16 -323 12q-142 -5 -219 -28q-18 -6 -26 -1.5t-12 21.5q-4 9 -1.5 28t15.5 19z" />
    <glyph glyph-name="greater" unicode="&#x3e;" horiz-adv-x="703" 
d="M18 93q48 10 97.5 27.5t127.5 50.5t102 42q66 26 167 56q-113 61 -239 103q-25 9 -74 26.5t-89 30.5t-75 23q-19 5 -23.5 12.5t2.5 25.5q5 13 15 25.5t22 5.5q119 -66 328 -138q29 -10 223 -87q1 0 3 -1q5 0 9 -3q14 -6 17 -11.5t-3 -23.5l-2 -6q1 -25 -12 -26
q-4 -1 -8 -1q-7 -5 -12 -2q-165 -20 -323 -86q-41 -17 -124 -58.5t-101 -49.5q-17 -8 -26 -4t-13 22q-5 7 -3.5 26t14.5 21z" />
    <glyph glyph-name="question" unicode="?" horiz-adv-x="569" 
d="M60 520q10 39 34 80t60 70q65 54 146 61q45 4 88 -10t71 -47q29 -34 37.5 -83.5t-8.5 -88.5q-9 -21 -25 -42.5t-30 -35.5t-37 -36.5t-34 -33.5q-76 -78 -46 -127q4 -6 10.5 -14t7.5 -11t-0.5 -8.5t-9.5 -12.5q-4 -4 -9 -8t-13.5 -9t-14 -5t-10.5 5q-14 24 -21 52.5
t-3.5 61.5t21.5 58q11 18 29 35t42.5 37t36.5 32q63 59 72 103q6 29 -5 62.5t-34 51.5q-34 25 -83.5 27t-94.5 -20q-43 -22 -71 -60.5t-34 -79.5q-4 -20 -9 -26t-22 -5q-14 2 -29 8.5t-12 18.5zM349 10q-12 1 -23 4t-13 3.5t-8 -0.5q-2 -1 -5 -6.5t-5 -8.5q-13 -16 -22 -17
t-23 15q-3 4 -6.5 10t-7.5 14t-4 15t6 9q21 7 39.5 9.5t21.5 3.5l28 16q30 18 38 -21q3 -8 0 -28t-16 -18z" />
    <glyph glyph-name="at" unicode="@" horiz-adv-x="946" 
d="M644 529q1 6 2 13q1 5 1.5 12t1 10t1 7t2.5 6t5 3q5 16 27 14q8 -1 17 -3t17.5 -8.5t6.5 -15.5q-2 -8 -19 -59q-16 -61 -35 -111q-13 -47 -22 -91q-8 -41 9 -61q6 -6 21 -9t31 2q37 15 67 52.5t43 87.5q14 52 7.5 103t-33.5 83q-49 58 -126 91.5t-160 31.5
q-81 -2 -155.5 -38t-122.5 -98q-39 -50 -53 -114.5t-3 -127.5q11 -64 48 -122t89 -92q101 -69 242 -55q114 11 228 91q7 5 15 11.5t11 8.5t7.5 3.5t8.5 -1t11 -9.5q3 -3 7 -8t9.5 -13.5t5.5 -14t-5 -10.5q-130 -84 -259 -112q-78 -17 -172 5q-103 25 -175 91
q-73 65 -104 161q-34 104 -8 206q26 106 105 178q74 68 180 92q110 26 202 1q81 -22 145.5 -66.5t92.5 -108.5q26 -68 12 -145.5t-58 -147.5q-19 -30 -53.5 -49.5t-69.5 -18.5q-31 1 -56 21t-35 49q-48 -62 -106 -76q-47 -11 -92 13t-58 71q-14 48 3.5 115.5t58.5 127.5
q18 25 50.5 40t68.5 18q60 5 121 -34zM617 462q-41 48 -96 47q-26 -1 -50.5 -13t-38.5 -32q-48 -70 -50 -138q-2 -46 17 -77t47 -32q34 -1 74.5 33t70.5 92q6 11 11 23q7 41 22 93q-4 1 -7 4z" />
    <glyph glyph-name="A" unicode="A" horiz-adv-x="676" 
d="M126 206q-24 -98 -32 -188q-1 -14 -2.5 -19.5t-7 -9.5t-17.5 -5q-8 0 -17 1.5t-18 7t-8 14.5q12 89 45 200q-1 1 -2 3q-3 7 -5.5 16.5t-0.5 20t11 12.5l14 2q16 51 35 100q48 129 74 182q36 78 79 109q44 32 97 30t71 -39q58 -121 90 -316q16 2 30 4q21 5 30 2t12 -23
q3 -6 0.5 -27t-14.5 -20q-26 2 -48 3q6 -47 16.5 -132.5t16.5 -121.5q5 -20 4 -29.5t-20 -14.5q-5 -1 -11 -2t-15.5 -2t-15.5 2t-7 10q-10 190 -20 292q-107 2 -192 -11q-103 -17 -172 -51zM143 273q132 26 228 38q25 4 113 11q0 4 -1 7q-16 141 -50 232q-13 36 -31 59
t-36 26q-19 3 -49 -14.5t-45 -45.5q-81 -150 -129 -313z" />
    <glyph glyph-name="B" unicode="B" horiz-adv-x="717" 
d="M533 409q26 -10 49 -25q39 -23 54.5 -75t6.5 -102q-9 -44 -36 -84t-67 -60q-68 -32 -145 -47t-169 -23t-133 -16q-7 -1 -15.5 -3t-11.5 -3t-7.5 0t-7.5 5t-6 12q-1 5 -3 11t-3.5 15.5t1 16t8.5 6.5q19 3 40 5q-23 93 -29.5 196t7.5 217q12 86 43.5 152.5t78.5 98.5
q43 30 96.5 39t104 -1t95.5 -35q34 -18 60.5 -49t40.5 -66q17 -38 10.5 -87.5t-37.5 -77.5q-12 -11 -25 -20zM233 408q125 37 230 20q40 16 64 48t22 62q-3 41 -35 82t-80 67q-45 23 -93.5 26t-91.5 -19q-56 -34 -95.5 -119t-48.5 -181q-8 -92 6 -185t44 -163q6 0 91.5 2.5
t129.5 5.5q82 6 144 51q36 25 58.5 59.5t23.5 67.5q2 48 -32 91.5t-89 57.5h-2q-39 -15 -108 -27t-84 -16q-7 -2 -16.5 -6t-13 -5t-8 2t-10.5 12q-5 10 -9 20q-18 41 3 47z" />
    <glyph glyph-name="C" unicode="C" horiz-adv-x="730" 
d="M659 250q-12 -43 -37 -86.5t-68.5 -86t-94.5 -60.5q-68 -23 -143.5 -9.5t-136.5 58.5q-49 35 -82 98t-43 139q-17 134 47 258q43 84 122 131q46 27 92.5 37t95.5 -2q138 -42 227 -265q11 -25 10.5 -36t-19.5 -18q-8 -3 -16.5 -5t-20 -1t-13.5 9q-9 52 -33 116t-65 103
q-42 39 -103.5 47t-113.5 -17q-52 -24 -92.5 -76t-61.5 -118q-17 -52 -15 -114t21 -123q25 -79 91 -128q71 -51 156 -50q91 2 153 57q30 25 48 62.5t24 76.5q2 20 7.5 26t22.5 4q15 -1 29.5 -8t11.5 -19z" />
    <glyph glyph-name="D" unicode="D" horiz-adv-x="751" 
d="M153 -2q180 46 257 69q75 23 126 61t78 105q26 72 11 146.5t-64 136.5q-49 61 -118 104.5t-141 60.5q-58 13 -108 -5.5t-69 -59.5q-4 -9 -6.5 -19.5t-3.5 -26.5t-1.5 -26t0.5 -32.5t1.5 -31.5t2 -37t2.5 -36q14 -224 36 -379q4 -23 -3 -30zM88 9q-1 39 -8 130.5
t-11.5 165t-1.5 168.5t18 166q9 43 60.5 68t109.5 25q75 0 159 -45q141 -75 213 -187q33 -51 46.5 -112t1.5 -119q-15 -68 -55.5 -126t-88.5 -82q-81 -40 -235 -84.5t-185 -56.5q-7 -2 -15 -6t-11.5 -5.5t-8 -1.5t-8 3.5t-7.5 11.5q-3 4 -5.5 10t-5.5 14.5t-2 15.5t7 9
q22 7 69 19q-36 0 -36 19z" />
    <glyph glyph-name="E" unicode="E" horiz-adv-x="714" 
d="M584 629q-126 39 -204 22q-79 -18 -143 -112q-52 -79 -83 -163q102 34 177 54q27 7 82 17.5t82 17.5q20 7 29 4.5t14 -21.5q3 -6 2.5 -27.5t-12.5 -21.5q-160 -2 -251 -29q-86 -26 -146 -67q-19 -82 -10 -150q3 -26 26.5 -48t57.5 -33q46 -16 132 -12q150 6 236 63
q6 5 14.5 12t11.5 8t8.5 -0.5t12.5 -8.5q4 -4 8 -8.5t9.5 -13t5.5 -14t-4 -10.5q-40 -26 -103 -50t-128 -30q-129 -12 -206 14q-56 19 -91 64t-42 101q-6 50 8 111q-1 1 -1 2q-4 6 -8 15t-3.5 19.5t8.5 13.5q10 4 20 7q6 18 13 36q76 186 170 259q94 74 310 51
q19 -2 25 -8.5t3 -24.5q-2 -14 -10 -28t-20 -11z" />
    <glyph glyph-name="F" unicode="F" horiz-adv-x="712" 
d="M570 638q-178 28 -270 -44q-101 -79 -140 -252q85 49 185 77q40 11 83 18t97 13.5t74 8.5q21 5 30 2t12 -22q3 -7 0.5 -27.5t-14.5 -20.5q-223 9 -378 -47q-54 -20 -99 -54q-30 -178 5 -367q1 -5 3 -14.5t2.5 -12t-0.5 -7t-5.5 -7t-12.5 -5.5q-5 -1 -11.5 -2.5
t-15.5 -2.5t-15.5 2t-7.5 9q-18 196 -2 334q1 9 3 18q-18 -22 -29 -46q-8 -18 -14.5 -22t-24.5 2q-13 6 -25.5 17.5t-4.5 21.5q48 54 110 98q25 120 77 214q27 50 69.5 91.5t93.5 65.5q42 21 95 27t126 5q19 0 25.5 -6t5.5 -24q-1 -8 -3 -16.5t-8.5 -17t-15.5 -7.5z" />
    <glyph glyph-name="G" unicode="G" horiz-adv-x="800" 
d="M597 501q-4 79 -45 118q-41 38 -109 38q-60 -1 -119.5 -21.5t-106.5 -59.5q-83 -68 -96 -187q-15 -129 46 -214q43 -61 124 -79q83 -18 149 17q55 28 97.5 82t67.5 127q-58 5 -98 4q-75 -2 -112 -11q-18 -5 -26 1t-9 25q0 8 1 17.5t6 18.5t14 8q94 -16 168 -14q41 1 75 6
q3 9 20 14q8 5 28 4.5t21 -13.5q4 -55 10 -264q3 -98 20 -155q8 -19 6.5 -28.5t-20.5 -15.5q-5 -2 -11.5 -3t-15.5 -2t-15.5 1.5t-6.5 9.5q-3 50 -2 133t0 127q-2 48 -7 80q-44 -99 -105 -150q-52 -44 -120 -62.5t-130 -5.5q-65 12 -119.5 58t-82.5 111q-23 54 -24.5 120
t21.5 130q31 81 101.5 141.5t158.5 87.5q49 16 101 13.5t94 -22.5q83 -38 119 -162q5 -18 1 -26t-22 -12q-8 -3 -27 -0.5t-20 15.5z" />
    <glyph glyph-name="H" unicode="H" horiz-adv-x="731" 
d="M126 386q-23 -8 -39 -22q-6 -6 -6.5 -17.5t3.5 -31t9.5 -37.5t16.5 -46.5t18.5 -48t20.5 -50.5q-4 91 -17 202q-3 23 -6 51zM133 -23q1 7 -14.5 44t-34.5 81.5t-35 106.5t-15 115q0 56 91 76q-19 185 -31 248q-4 19 0.5 27t22.5 10q14 2 30 -1.5t16 -16.5q-3 -114 8 -260
q38 4 121 6q86 1 146 18t92 61q6 9 13 19q0 62 4 92q5 39 14 82q10 51 22 71q8 15 26.5 18t33 -5.5t12.5 -23.5q-15 -93 -39 -164q-1 -6 -7.5 -58l-9 -72t-5 -59.5t-1.5 -70.5q5 -211 56 -375q2 -7 5.5 -16t4.5 -12.5t1 -8.5t-4 -8t-12 -7q-4 -2 -10 -4.5t-15 -4.5t-16 -0.5
t-8 7.5q-51 208 -53 550q-22 -26 -47 -40q-33 -19 -89.5 -19t-126 7t-107.5 4q7 -82 18 -176q18 -162 29 -219q5 -20 2 -29.5t-23 -11.5q-11 -2 -22 -1q-9 -1 -18 0t-17 6t-8 14z" />
    <glyph glyph-name="I" unicode="I" horiz-adv-x="416" 
d="M-6 702q30 5 85.5 15t83.5 14q31 4 107 4q12 0 17.5 -0.5t11 -3t6.5 -8.5t0 -17q0 -5 -1.5 -11.5t-4 -15t-7 -13.5t-11.5 -3q-56 17 -92 20q0 -1 -1 -3q-45 -173 -43 -414q2 -151 31 -241l12 2q48 5 125 -8q23 -3 29.5 -9t0.5 -26q-2 -7 -5 -15.5t-10.5 -17.5t-15.5 -5
q-67 33 -123 34q-3 -6 -16 -12q-5 -2 -11.5 -4t-15.5 -4t-15.5 -0.5t-7.5 8.5v3q-56 -15 -97 -49q-15 -11 -24.5 -10t-18.5 17q-4 7 -7.5 16t-3.5 19.5t9 13.5q83 26 136 37q-19 149 -15 382q1 55 8 149.5t7 131.5q-47 -12 -87 -38q-16 -10 -25.5 -7t-16.5 20q-3 8 -5 17
t0 19.5t11 12.5z" />
    <glyph glyph-name="J" unicode="J" horiz-adv-x="631" 
d="M247 714q40 -1 89 3v2q-3 19 2 26.5t23 8.5q8 0 17 -0.5t18.5 -6t9.5 -14.5q-1 -5 -1 -10q5 1 9 1q48 4 115 -8q23 -4 29 -10t0 -26q-2 -7 -5.5 -15.5t-11 -17t-15.5 -5.5q-66 35 -121 35q1 -32 4.5 -73t6.5 -72t8.5 -84t8.5 -81q11 -110 -10 -194q-27 -107 -108 -171
q-33 -26 -75 -34.5t-82 6.5q-33 14 -61 47.5t-40 68.5q-8 23 -13.5 46.5t-9 52t-5 45t-3 50.5t-2.5 44q-4 23 -1.5 32.5t22.5 12.5q6 3 27 0.5t20 -14.5q0 -4 -1.5 -25t-2 -31t-1 -32t-0.5 -37t1.5 -35t3.5 -38q6 -42 25 -80t50 -57q32 -18 71.5 -7.5t72.5 41.5
q67 64 73 145q5 69 -2 160.5t-14 143t-25 162.5q-38 -8 -73 -23q-18 -6 -26.5 -1.5t-11.5 23.5q-4 8 -1 27t16 19z" />
    <glyph glyph-name="K" unicode="K" horiz-adv-x="764" 
d="M275 419q-50 -46 -88 -95q1 -38 1 -75q0 -30 -2 -64.5t-4 -57t-7.5 -63.5t-7 -53.5t-8.5 -59t-8 -50.5q0 -2 -1 -8t-1.5 -7.5t-1 -5.5t-1.5 -5t-2 -4t-2.5 -3t-3.5 -1.5t-5 -1.5t-6.5 0.5t-7.5 0.5q-8 1 -16.5 3.5t-18 9t-7.5 14.5q53 174 63 363q-22 -38 -33 -74
q-7 -19 -13.5 -24t-23.5 0q-14 5 -27.5 15t-6.5 20q46 72 107 143q0 37 -2 73q-9 210 -78 339q-9 16 -8 25t16 18q7 3 16.5 6.5t20 2.5t12.5 -9q52 -193 64 -408q27 29 56 57q-11 7 -12.5 14.5t5.5 21.5q7 12 20 23.5t22 2.5l14 -16q41 37 85 72q50 40 141 101.5t114 78.5
q2 2 7.5 6t7 5t5.5 3.5t5.5 2t4.5 0t5.5 -1.5t5 -5t6.5 -7q3 -4 6.5 -9.5t7.5 -14t3.5 -15t-6.5 -9.5q-223 -115 -370 -238q104 -119 185 -283q9 -17 17 -34.5t15.5 -37t12.5 -33t12.5 -35.5t11 -31t11 -33t9.5 -30q9 -19 7 -28.5t-21 -15.5q-8 -2 -17 -3.5t-20 0.5t-12 10
q-23 184 -119 354q-62 112 -134 164z" />
    <glyph glyph-name="L" unicode="L" horiz-adv-x="769" 
d="M141 760q1 -50 6 -128t14 -197.5t14 -198.5q7 -103 5 -153q153 12 246 15q127 5 240 -16q23 -5 29 -11t0 -26q-2 -7 -5.5 -15t-11 -16.5t-15.5 -5.5q-130 55 -352 40q-77 -5 -134 -14q-8 -58 -31 -94q-11 -16 -24.5 -15.5t-23.5 19.5q-3 6 -5.5 14t-4 19.5t5.5 16.5
q9 8 16 26q-25 -6 -46 -13q-18 -7 -26 -3t-13 21q-4 8 -2.5 27.5t14.5 19.5q33 2 85 6q14 111 -4 329q-20 247 -45 331q-5 18 -0.5 26t22.5 11q8 4 27 1t19 -16z" />
    <glyph glyph-name="M" unicode="M" horiz-adv-x="824" 
d="M365 -11q1 23 0 109t1 137l-8 52q-17 114 -47 220q-27 96 -49 123q-11 14 -28.5 16.5t-35.5 -9.5t-28 -36q-26 -67 -38.5 -141.5t-10.5 -154.5t9 -143.5t20 -147.5q3 -19 -1.5 -26.5t-22.5 -8.5q-15 -2 -30 2t-15 17q1 37 -2.5 87t-9 118t-7.5 112q-4 55 3.5 103.5
t27.5 112.5q27 84 63 129q19 23 46.5 33t55.5 -1q44 -20 63 -75q32 -95 61 -218q26 123 107 238q38 54 84.5 81.5t79.5 9.5q59 -32 62 -175q2 -65 3.5 -185t3 -184t8 -154.5t18.5 -166.5q1 -6 3 -16t2.5 -13t-1 -8t-6 -7.5t-12.5 -4.5q-7 -2 -16 -3.5t-20.5 0.5t-12.5 10
q-23 248 -22 409q0 28 4 93.5t5 101.5q2 94 -3 134q-4 41 -17 74t-27.5 47.5t-26.5 5.5q-64 -49 -110.5 -132t-59.5 -163q-12 -77 -11 -166q18 -98 33 -210q5 -22 2.5 -31.5t-22.5 -12.5q-11 -1 -22 -1q-9 0 -17.5 0.5t-17 5.5t-8.5 13z" />
    <glyph glyph-name="N" unicode="N" horiz-adv-x="772" 
d="M105 48q-20 133 -20 283q0 141 22 241q25 115 82 130q31 9 68 -17.5t60 -71.5q51 -99 90.5 -187t84.5 -198.5t61 -147.5q0 24 -0.5 89.5t0.5 116.5t3 99q6 117 70 340q1 3 2.5 8.5t2 7t1.5 5.5t2 5t2.5 3.5t3 3t4 1.5t5 0.5t6 -1t7.5 -1.5q8 -2 16 -5.5t17 -11t5 -15.5
q-102 -238 -103 -467q0 -159 22 -293q3 -19 -2.5 -26t-23.5 -9q-16 -1 -29 3q-20 -6 -24 6q-20 55 -63.5 171t-55.5 151q-38 102 -49 129q-37 96 -54 127q-28 50 -58.5 85t-50.5 46t-24 1q-29 -65 -39.5 -166t-3.5 -205t27 -200q5 -18 2.5 -26.5t-19.5 -13.5q-7 -5 -26.5 -4
t-20.5 14z" />
    <glyph glyph-name="O" unicode="O" horiz-adv-x="802" 
d="M458 741q42 -14 86 -42t90 -77t69 -105q28 -67 28.5 -146.5t-25.5 -147.5q-27 -74 -85 -130t-132 -74q-76 -18 -152.5 4t-139.5 71q-77 60 -119 168.5t-21 209.5q11 54 41 102.5t75 83.5q13 11 29.5 20t29.5 15t34 13l31.5 10.5t34 10t31.5 8.5q24 9 34 9t17 -19
q3 -7 5 -16t1 -20.5t-9 -12.5q-35 -6 -58.5 -11.5t-64 -18.5t-76 -35.5t-61.5 -53.5q-37 -43 -47.5 -110.5t6.5 -125.5q16 -66 55.5 -124t94.5 -94q54 -36 122 -44t135 15q42 15 76.5 50.5t56.5 81.5q40 86 29.5 191t-67.5 177q-29 37 -71 62t-85 34q-19 4 -25 10t-3 23
q3 14 10.5 28.5t19.5 9.5z" />
    <glyph glyph-name="P" unicode="P" horiz-adv-x="634" 
d="M155 651q5 -114 -1 -277q93 -16 222 -2q101 10 128 51q16 28 12.5 67t-22.5 70q-26 39 -71.5 67.5t-98.5 37.5q-62 11 -169 -14zM84 697q-2 11 2 17t18 10q8 4 27.5 3t20.5 -14q160 10 259 -26q40 -15 73.5 -46t53.5 -70q14 -28 21 -62.5t2 -69t-27 -51.5
q-50 -38 -117 -57.5t-130.5 -21t-134.5 0.5q-1 -17 -1 -39q-7 -169 16 -275q7 -20 6 -29.5t-19 -15.5q-5 -2 -11.5 -3t-15.5 -2t-15.5 1.5t-6.5 9.5q-7 110 4 355h-2q-25 2 -32.5 8t-3.5 26q1 8 4 16.5t9.5 17.5t14.5 7q7 -2 13 -4q1 4 1 8q6 154 -15 249q-12 2 -15 24
q-4 19 1 33z" />
    <glyph glyph-name="Q" unicode="Q" horiz-adv-x="784" 
d="M562 162q26 22 44 50q45 71 38 179q-6 108 -62 173q-27 32 -68.5 47.5t-86.5 10.5q-96 -11 -152 -79q-5 -6 -10.5 -14t-8 -11t-6.5 -5.5t-9 -1t-12 5.5q-1 1 -2 1q-40 -62 -57 -131.5t-6 -134.5q10 -69 74 -118q58 -43 133 -42q88 2 156 43q-44 36 -100 51
q-18 5 -22.5 13t1.5 25q6 14 16.5 26.5t21.5 4.5q72 -50 118 -93zM564 99q-51 -35 -122 -46t-144 6q-59 13 -104.5 55.5t-66.5 97.5q-38 105 5 234q39 114 129 183q75 56 215 71q19 2 26.5 -3t8.5 -23q11 -4 20 -9q65 -36 107.5 -101t51.5 -142q8 -81 -16 -161t-77 -134
q11 -12 21 -24q16 -20 43.5 -61.5t37.5 -55.5q0 -1 2 -4q7 -9 9.5 -13t3 -9.5t-3 -10t-12.5 -9.5q-4 -3 -10 -6t-14.5 -6.5t-15 -3t-9.5 6.5q-24 62 -42.5 100t-42.5 68z" />
    <glyph glyph-name="R" unicode="R" horiz-adv-x="715" 
d="M155 651q5 -114 -1 -277q21 -4 43 -6q61 7 111 -2q33 2 68 6q101 10 128 51q16 28 12.5 67t-22.5 70q-26 39 -71.5 67.5t-98.5 37.5q-62 11 -169 -14zM573 -8q0 108 -41 174q-51 83 -135 121q-39 18 -82 25q-48 -5 -111 -4q-20 -4 -38 -10q-6 -2 -15 -6v-21
q-7 -169 16 -275q7 -20 6 -29.5t-19 -15.5q-5 -2 -11.5 -3t-15.5 -2t-15.5 1.5t-6.5 9.5q-7 110 4 355h-2q-25 2 -32.5 8t-3.5 26q1 8 4 16.5t9.5 17.5t14.5 7q7 -2 13 -4q1 4 1 8q6 154 -15 249q-12 2 -15 24q-4 19 1 33q-2 11 2 17t18 10q8 4 27.5 3t20.5 -14
q160 10 259 -26q40 -15 73.5 -46t53.5 -70q14 -28 21 -62.5t2 -69t-27 -51.5q-51 -39 -119 -58q53 -27 94 -67q81 -79 133 -252q5 -18 0 -26t-24 -11q-14 -1 -29.5 2t-15.5 16z" />
    <glyph glyph-name="S" unicode="S" horiz-adv-x="710" 
d="M523 494q-2 5 -6 30.5t-8 45.5t-15 44.5t-27 39.5q-39 35 -116.5 22t-124.5 -65q-28 -31 -41 -71.5t-1 -54.5q17 -19 54 -32.5t100 -30t102 -30.5q74 -27 128.5 -82t67.5 -131q12 -65 -12.5 -131t-78.5 -98q-88 -51 -234 -36q-60 6 -114 40.5t-87.5 84.5t-35.5 116.5
t25 127.5q5 15 9 21.5t9 11t11.5 3.5t16.5 -6q4 -2 9 -5.5t13 -10t9.5 -11.5t-1.5 -12q-18 -23 -32.5 -75t0.5 -102q11 -32 37 -60.5t58 -42.5q67 -28 141 -27.5t143 25.5q29 11 46.5 47.5t22.5 80.5q5 39 -2.5 79t-29.5 64q-26 30 -71.5 54.5t-81 36t-97.5 28.5
q-171 48 -177 122q-4 56 37 111t101 87q50 26 106 29.5t103 -19.5q14 -8 26.5 -19t22.5 -26t17 -26.5t14 -30.5t10 -28t9 -29.5t7 -23.5q6 -18 4 -26.5t-18 -14.5q-7 -3 -16 -5t-19.5 0t-12.5 11z" />
    <glyph glyph-name="T" unicode="T" horiz-adv-x="710" 
d="M305 657q4 81 1 141q-1 20 4 27t23 7q8 0 17.5 -1.5t18.5 -7t7 -14.5q-10 -74 -19 -146h4q39 4 119.5 7.5t116.5 6.5q22 4 31 0.5t11 -23.5q0 -5 0.5 -16t-4 -21t-12.5 -10q-163 16 -271 10q-17 -156 -24 -300q-8 -181 8 -312q5 -21 3 -30.5t-22 -13.5q-6 -3 -27 -1.5
t-21 13.5q4 148 23 479q1 28 5 82.5t6 78.5q-12 -2 -24 -3q-128 -17 -216 -54q-17 -8 -26 -4.5t-14 20.5q-5 8 -4.5 27t13.5 21q38 5 130.5 18t142.5 19z" />
    <glyph glyph-name="U" unicode="U" horiz-adv-x="694" 
d="M165 717q-3 -26 -10 -69t-12 -76.5t-10.5 -78t-8.5 -82.5t-3 -81.5t4 -82.5q6 -53 37.5 -100.5t77.5 -83.5q48 -38 110 -41q69 -4 106 37q46 51 76 128t36 165q6 94 -14.5 177t-58.5 133q-5 7 -12 13.5t-9.5 9.5t-2 8.5t7.5 14.5q3 4 7 8.5t12 11t13.5 7.5t10.5 -3
q34 -41 63.5 -117.5t36.5 -166.5q8 -105 -24 -218q-46 -162 -129 -218q-50 -33 -117.5 -29t-132.5 40q-75 43 -117 142q-35 82 -32 183q1 64 13 184.5t12 173.5q0 20 5 26.5t22 7.5q8 0 17 -1.5t18.5 -7t7.5 -14.5z" />
    <glyph glyph-name="V" unicode="V" horiz-adv-x="761" 
d="M102 739q71 -120 121.5 -220.5t85.5 -204.5q12 -39 23 -87q33 117 97 243q82 163 196 289q11 12 16.5 16t13 2.5t17.5 -12.5q30 -35 14 -47q-73 -59 -150 -168t-136 -241q-41 -92 -46 -192q13 -74 20 -106q7 -21 5 -30.5t-22 -14.5q-11 -2 -21 -3q-16 -2 -30.5 1
t-14.5 15q4 49 10 94q-20 204 -77 345q-61 152 -168 267q-14 15 -14.5 23t12.5 21q6 5 14 9.5t19 7.5t15 -7z" />
    <glyph glyph-name="W" unicode="W" horiz-adv-x="1043" 
d="M91 747q53 -186 128 -426q16 -51 39 -129q18 97 49 201q16 55 51.5 153.5t45.5 126.5q-13 17 -26 32t-13.5 22.5t12.5 20.5q6 5 14 10t19 7.5t15 -6.5q6 -12 13 -24q4 -1 11 -2q7 -2 15.5 -5.5t17.5 -11t5 -15.5q-8 -16 -15 -31q109 -213 178 -430q10 -32 19 -68
q23 117 76 262q19 50 43.5 102t60 119.5t49.5 95.5q1 3 4 9l4 8l3 6t3.5 4.5t4.5 2t5.5 1t6.5 -1.5t9 -3q7 -4 15 -8.5t15.5 -13.5t2.5 -16q-168 -249 -231 -456q-21 -68 -31.5 -120.5t-9.5 -111.5q17 -73 26 -105q8 -20 6.5 -29.5t-20.5 -14.5q-11 -3 -22 -4
q-10 -4 -27.5 -1.5t-17.5 14.5q1 54 5 103q-28 188 -89 357q-48 136 -115 242q-92 -201 -132 -359q-23 -92 -24 -168q15 -50 26 -85q8 -20 7 -30t-20 -16q-11 -3 -21 -5q-10 -4 -28 -2t-18 14q0 39 3 80q-36 186 -100 390q-56 180 -108 278q-9 16 -6.5 25t18.5 16
q8 3 16.5 5.5t19.5 0.5t13 -10z" />
    <glyph glyph-name="X" unicode="X" horiz-adv-x="799" 
d="M69 -13q33 145 130 282q49 70 120 143q-4 5 -8 11q-149 221 -233 247q-1 0 -4 1q-17 6 -22 11t-2 20q2 14 10.5 30t18.5 9q119 -83 270 -299q15 14 30 29q35 33 77 69t67.5 57t76 60.5t62.5 49.5q2 2 8 6.5t7 5.5t5 3.5t5.5 2t5 0t5.5 -1.5t5 -4.5t7 -6.5q3 -4 6.5 -9
t8 -14t4 -14.5t-5.5 -10.5q-200 -118 -347 -261q32 -48 66 -101q30 -47 71 -142t66 -137q4 -6 10.5 -13.5t8 -10.5t0.5 -8.5t-9 -12.5q-10 -11 -25.5 -20.5t-20.5 1.5q-14 33 -43 100.5t-46 106t-47 96t-62 110.5q-26 -27 -50 -54q-68 -77 -109 -162t-46 -160
q-2 -20 -6.5 -26.5t-21.5 -6.5q-15 0 -30.5 5.5t-12.5 18.5z" />
    <glyph glyph-name="Y" unicode="Y" horiz-adv-x="716" 
d="M278 271q-12 63 -29 120q-25 86 -72.5 159t-108.5 117q-16 12 -18.5 19t6.5 23q8 12 21.5 22t21.5 1q138 -163 207 -393q55 125 122 219q25 36 80.5 98.5t65.5 75.5q2 2 6 7t5 6t4 4.5t4 3.5t4 1.5t5 1t4.5 -1.5t5.5 -3t7 -5.5t8.5 -7.5t11 -12t6.5 -13.5t-4 -11.5
q-76 -64 -131.5 -121t-96.5 -122q-65 -104 -75 -216q-1 -12 -4 -18q11 -56 24 -157.5t21 -141.5q6 -21 4 -30.5t-21 -14.5q-6 -3 -27 -2.5t-21 12.5q-8 209 -27 328q-26 9 -20.5 24t11.5 29z" />
    <glyph glyph-name="Z" unicode="Z" horiz-adv-x="758" 
d="M30 666q182 44 363 56q19 1 110 4.5t140 9.5q21 5 30.5 2.5t12.5 -22.5q2 -14 1 -26q3 -13 -6 -19q-107 -72 -213 -171.5t-195 -217.5q-80 -106 -118 -207q99 25 255 38q28 2 71.5 4.5t69.5 5t43 5.5q19 5 28.5 2t11.5 -23q3 -7 0.5 -28t-13.5 -20q-168 17 -317 1
q-110 -12 -166 -41q-1 -4 -2 -9q-1 -6 -2.5 -14.5t-2 -11.5t-3.5 -6.5t-8 -4t-13 0.5q-15 1 -28 5q-8 1 -19 12q-6 5 -11.5 13.5t-8.5 19t6 14.5q20 9 42 17q85 182 253 382q17 21 38.5 44t38 40t42.5 42t39 36.5t42.5 38.5t37.5 35q-175 8 -281 -2q-137 -14 -228 -64
q-17 -10 -26 -8t-16 18q-4 7 -6.5 16.5t-1.5 20t10 12.5z" />
    <glyph glyph-name="bracketleft" unicode="[" horiz-adv-x="315" 
d="M89 -189v-7q5 -22 2 -31t-22 -12q-7 -3 -27.5 -0.5t-20.5 14.5q9 350 28 535q9 81 12 141t-2.5 126.5t-21.5 111.5q-8 17 -6 26t17 16q7 3 17 5.5t20.5 1t11.5 -10.5q0 -4 1 -9q36 -2 56 0q12 2 49 12q19 7 28 3.5t12 -24.5q3 -6 0.5 -27.5t-14.5 -19.5q-13 2 -37 6.5
t-28 4.5t-24 -1q-18 -2 -37 -12q1 -65 1.5 -96.5t-3.5 -100t-7 -102t-9 -102t-9 -100.5q-9 -112 7 -291q35 -9 59 -7q15 1 52 12q19 6 28.5 2.5t12.5 -23.5q3 -7 0.5 -28t-14.5 -20q-13 2 -30 5t-26.5 4.5t-20.5 2.5t-20 0q-19 -1 -35 -5z" />
    <glyph glyph-name="backslash" unicode="\" horiz-adv-x="405" 
d="M43 721q44 -89 79.5 -190t78.5 -244q51 -166 115 -256q3 -4 9 -11.5t7 -9.5t2 -7t-2 -9t-10 -10q-3 -3 -8.5 -7t-14 -9t-14 -4.5t-10.5 5.5q-13 27 -25 54.5t-25 62t-21 56.5t-21.5 65.5t-18.5 59t-21 67.5t-19 63q-56 184 -129 271q-12 15 -12.5 22.5t12.5 20.5
q6 5 14.5 9.5t19.5 7t14 -6.5z" />
    <glyph glyph-name="bracketright" unicode="]" horiz-adv-x="317" 
d="M-3 -120q68 -14 113 -9q24 2 56 10q12 255 10 457q0 17 -0.5 78.5t-1 90t-2 76t-5.5 84.5q-47 4 -63 3q-49 0 -80 -10q-17 -6 -25.5 0t-9.5 24q-2 15 2 31t17 14q90 -15 125 -15q15 1 29 3q0 12 5.5 17t20.5 7q23 2 36 -6q12 0 19 -22q1 -5 2 -11.5t2 -15.5t-2 -15.5
t-9 -6.5h-7q-10 -203 -8 -470q2 -249 10 -348q4 -22 1.5 -31.5t-22.5 -11.5q-6 -3 -27 -0.5t-20 14.5v5q-48 5 -76 2q-46 -5 -77 -14q-18 -5 -26 1t-9 25q0 15 4.5 31t17.5 13z" />
    <glyph glyph-name="asciicircum" unicode="^" horiz-adv-x="538" 
d="M307 726q37 -153 73 -249q33 -87 67 -118q2 -2 7 -6t6 -5.5t4 -4.5t3 -4.5t0.5 -4.5t-1 -5.5t-3.5 -6t-6 -7.5q-3 -4 -8 -8.5t-13 -10.5t-13.5 -6t-10.5 4q-10 17 -19.5 37t-16 34.5t-17.5 42t-14.5 38t-16 45.5t-15.5 43q-28 79 -35 95q-4 -9 -33.5 -66t-44.5 -88
q-34 -73 -29 -114q5 -20 2 -29t-23 -12q-6 -3 -27.5 -0.5t-19.5 14.5q3 19 9.5 39.5t11 34t15.5 39t14.5 33t19 39t17.5 35.5q48 98 50 145v3q-2 8 2 14q4 12 18 13q8 3 17 5.5t18.5 1.5t11.5 -10z" />
    <glyph glyph-name="underscore" unicode="_" horiz-adv-x="704" 
d="M-7 -56q54 -5 108.5 -7t142 -2.5t112.5 -0.5t108.5 -5.5t125.5 -2.5q21 4 30.5 1.5t11.5 -22.5q3 -6 0.5 -27.5t-14.5 -19.5q-22 2 -109 13t-141.5 15t-109.5 4q-162 -3 -252 -16q-19 -3 -26 2.5t-8 23.5q0 8 1 17.5t6 18.5t14 8z" />
    <glyph glyph-name="grave" unicode="`" horiz-adv-x="314" 
d="M102 766q47 -78 73 -111q25 -32 50 -58q12 -11 15.5 -16.5t1.5 -12.5t-13 -17q-4 -3 -9 -6.5t-14 -8t-14.5 -4t-9.5 5.5q-4 9 -13 27.5t-12.5 27t-10.5 21t-13 22t-12 17.5q-29 36 -61 56q-29 17 -5 43q6 5 13.5 10.5t18.5 9t15 -5.5z" />
    <glyph glyph-name="a" unicode="a" horiz-adv-x="550" 
d="M73 364q1 42 31.5 82.5t74.5 53.5q84 24 134 9q65 -18 99 -74.5t35 -128.5q0 -9 0.5 -41.5t1 -42.5t1 -38.5t1.5 -41t3 -36.5t4.5 -40t6.5 -36.5t9 -39.5q7 -20 5.5 -30t-20.5 -15q-7 -2 -16 -3.5t-20.5 0.5t-12.5 10q-3 32 -4 70q-85 -28 -191 -19q-2 1 -16 2t-17 1.5
t-15 2t-16.5 2.5t-14.5 3.5t-16 5t-13.5 6.5t-13.5 8q-29 20 -35.5 57.5t9.5 68.5q20 41 60.5 76.5t90.5 56.5q74 30 184 5q-6 74 -24 133q-6 23 -50.5 30t-85.5 -1q-46 -7 -74.5 -28t-26.5 -46q1 -20 -2 -27t-20 -10q-8 -4 -27.5 -1t-18.5 16zM397 225q-92 46 -180 14
q-53 -19 -88 -65q-21 -28 -28 -57.5t5 -34.5q48 -27 126 -28.5t138 22.5q7 3 15.5 8t10.5 6t9 -1q1 122 0 135q-4 -1 -8 1z" />
    <glyph glyph-name="b" unicode="b" horiz-adv-x="570" 
d="M124 195q40 -78 82 -113q32 -27 69 -33.5t62 11.5q58 44 90.5 124t25.5 160q-5 49 -46 83t-95 30q-56 -4 -99.5 -33.5t-67.5 -70.5q-13 -22 -22 -23v-47q0 -51 1 -88zM79 378v25q0 36 2 103.5t2.5 104t-1.5 101.5q-1 19 4.5 26t23.5 7q8 0 17 -2t18 -7.5t8 -14.5
q-22 -137 -28 -292q51 45 107 63q50 17 103.5 14t88.5 -27q36 -25 54.5 -69.5t21.5 -96.5q3 -84 -31 -157q-32 -67 -81.5 -113.5t-107.5 -49.5q-67 -4 -152 88q2 -47 6 -88q5 -22 2 -31t-22 -12q-7 -3 -28 -0.5t-20 14.5q5 89 8 180q-10 13 -13 18.5t-1 12.5t12 15q2 1 4 3
q2 82 3 164q-8 10 -2 19z" />
    <glyph glyph-name="c" unicode="c" 
d="M476 149q-17 -53 -64 -99.5t-107 -53.5q-51 -6 -104.5 16t-90.5 61q-56 59 -51 181q5 106 55 169q43 54 104.5 80t118.5 9q79 -24 145 -185q11 -22 10.5 -32.5t-18.5 -17.5q-8 -3 -16.5 -5.5t-20 -1.5t-13.5 9q-17 95 -53 140q-24 31 -59.5 44t-68.5 4t-63 -37.5
t-51 -69.5q-36 -71 -25 -150q8 -58 44 -99.5t89 -59.5q59 -19 113 10q22 12 36.5 35.5t18.5 50.5q2 20 8 26t23 4q14 -1 29 -8.5t11 -19.5z" />
    <glyph glyph-name="d" unicode="d" horiz-adv-x="590" 
d="M392 271q-12 55 -26 103q-17 57 -60 81q-17 10 -41 9t-44 -13q-44 -26 -72.5 -69t-35.5 -94q-9 -68 19 -129q16 -35 40.5 -59t50.5 -30q24 -5 52 9t53 44q31 37 54 115q2 6 4 13t3 12t3 8zM496 731q-42 -178 -19 -474q14 -178 38 -288q6 -20 4.5 -29.5t-21.5 -13.5
q-10 -3 -21 -4q-43 -6 -45 16q-7 117 -20 211q-33 -61 -68 -95q-23 -23 -55.5 -32.5t-63 -5t-58.5 22t-45 43.5q-34 51 -48.5 115.5t-0.5 130.5q12 57 55.5 106t100.5 67q42 14 89.5 -9t74.5 -66q18 -30 33 -75q-2 26 -3 50q-3 85 -3 119.5t2 111.5t3 99q0 19 7 25.5t25 3.5
q8 -1 16.5 -3.5t16.5 -9.5t6 -16z" />
    <glyph glyph-name="e" unicode="e" horiz-adv-x="592" 
d="M122 285q95 -25 166 -15q59 9 100.5 38.5t48.5 65.5q4 21 -13 48t-48 49q-59 42 -109 34q-47 -7 -90 -47t-53 -90q-8 -40 -2 -83zM519 138q-23 -33 -56.5 -63t-81.5 -51.5t-92 -15.5q-57 9 -106.5 56.5t-79.5 112.5q-10 21 -17 44q-14 5 -12 27l2 14q-14 85 18 154
q27 61 89 99t126 32q41 -3 81.5 -27t63.5 -56q30 -42 27.5 -97.5t-38.5 -87.5q-86 -78 -302 -64q26 -67 77 -116q27 -26 65.5 -36t70.5 1q28 8 53.5 34.5t43.5 61.5q9 18 15.5 21.5t23.5 -3.5q13 -6 24.5 -17.5t4.5 -22.5z" />
    <glyph glyph-name="f" unicode="f" horiz-adv-x="428" 
d="M-3 534q58 -7 119 -5q44 141 166 279q11 13 16.5 17.5t13 3t17.5 -11.5q4 -4 7.5 -8.5t9 -13t5 -14.5t-4.5 -11q-111 -79 -167 -205q-7 -17 -13 -34q11 1 24 2q24 2 70 4.5t59.5 3.5t22 0.5t12.5 -6.5t4 -20q0 -5 -0.5 -11.5t-2.5 -15.5t-6.5 -14.5t-10.5 -3.5
q-109 22 -188 16q-25 -85 -29 -174q-8 -144 60 -362q6 -18 1.5 -26.5t-22.5 -11.5q-8 -3 -26.5 0t-19.5 16q-1 7 -6.5 48.5t-7 53t-6.5 50.5t-6 55.5t-3.5 53t-2.5 57.5t0.5 54.5t3 59t6.5 56t10 59.5q0 3 1 6q-53 -6 -91 -16q-18 -5 -26 0.5t-9 23.5q-1 8 0 17.5t5.5 19
t14.5 8.5z" />
    <glyph glyph-name="g" unicode="g" horiz-adv-x="544" 
d="M380 374q-24 74 -77 89q-36 9 -78 -8t-72 -52q-46 -54 -42 -152q5 -116 53 -166q18 -18 44.5 -21t50.5 9q46 22 78 84q42 84 43 208v9zM429 541q40 -203 44 -352q3 -110 -14.5 -193t-72.5 -146q-40 -47 -111 -61t-128 9q-52 18 -90.5 68.5t-62.5 120.5q-10 22 -8 32
t22 16q7 2 16 3.5t20.5 -0.5t12.5 -10q7 -91 50 -139q23 -27 57 -42t70 -15q35 0 69 15t58 42q55 62 61 145q5 86 -1 179q-3 -10 -7 -20q-22 -60 -57.5 -104.5t-77.5 -60.5q-49 -20 -102 4.5t-83 80.5q-20 37 -27 86.5t1 102.5q13 74 58.5 130t105.5 77q35 11 72 5.5
t69 -25.5q-3 10 -6 19q-7 17 -4.5 25.5t18.5 14.5q7 3 16.5 5t20 -0.5t11.5 -11.5z" />
    <glyph glyph-name="h" unicode="h" horiz-adv-x="545" 
d="M110 454q-12 177 -55 260q-10 16 -8.5 25t17.5 17q7 4 16.5 7t20 2t12.5 -10q23 -111 36 -260q4 4 9 7q36 26 77.5 38t71.5 0q55 -22 90.5 -81.5t48.5 -137.5q14 -82 19.5 -217t6.5 -147q4 -21 1.5 -30t-22.5 -12q-6 -3 -27 -0.5t-20 14.5q4 72 5.5 120t0 124.5
t-14.5 145.5t-37 129q-13 31 -53.5 41.5t-80.5 -7.5q-45 -20 -70 -69q5 -81 6 -167q1 -56 -1 -114t-5.5 -121t-4.5 -89v-6q0 -11 -0.5 -15.5t-3.5 -9t-8.5 -6t-15.5 -0.5q-8 0 -16.5 1.5t-19 7t-8.5 13.5q41 200 37 437q-3 0 -7 1q-15 3 -29 10.5t-9 20.5q14 42 41 78z" />
    <glyph glyph-name="i" unicode="i" horiz-adv-x="355" 
d="M138 694q33 -10 26 -23q-10 -21 -24.5 -29t-24.5 -2q-4 3 -25 10q-33 12 -8 42q4 6 12 12.5t18 11t15 -4.5q7 -11 11 -17zM165 509q-29 -74 -38.5 -179t4.5 -217q2 -15 8 -27.5t11 -17t7 -3.5q21 9 53 57q2 4 6.5 11t6 9t5 5.5t6.5 3t7.5 -1.5t10.5 -5q5 -2 10 -5.5
t12.5 -10t9 -12t-1.5 -11.5q-28 -32 -59.5 -53.5t-60.5 -28t-47 11.5q-17 17 -26 50.5t-11.5 62t-3.5 77.5q-1 32 0 65t4 68.5t5 57t6 58.5t5 46q2 18 10.5 23.5t25.5 -0.5q14 -4 26.5 -13t8.5 -21z" />
    <glyph glyph-name="j" unicode="j" horiz-adv-x="246" 
d="M138 694q33 -10 26 -23q-10 -21 -24.5 -29t-24.5 -2q-4 3 -25 10q-33 12 -8 42q4 6 12 12.5t18 11t15 -4.5q7 -11 11 -17zM135 531q60 -372 30 -615q-9 -70 -59 -102q-32 -21 -79.5 -14t-62 37.5t-16 65.5t6 83t7.5 56q1 5 1 12.5t0.5 10t1.5 7t3.5 6t7 2.5t12.5 1
q5 0 11.5 -0.5t15.5 -2t14 -6t4 -10.5q-2 -11 -8.5 -37t-12 -53.5t-7.5 -53.5q-3 -33 14.5 -57.5t37.5 -14.5q45 23 65 88.5t20 149.5q-1 107 -19.5 216.5t-50.5 198.5q-7 17 -4.5 25.5t19.5 14.5q5 2 11.5 3.5t15 2t14.5 -3t7 -10.5z" />
    <glyph glyph-name="k" unicode="k" horiz-adv-x="557" 
d="M132 660q-6 -108 6 -349q12 13 25 25q-5 11 8 27q9 10 22 18.5t22 1.5q21 18 43 36q35 28 94 68t73 50q1 1 4 3q9 6 13 8.5t9.5 3.5t9.5 -3t10 -12q3 -4 6 -10t6.5 -14.5t3 -15t-6.5 -9.5q-139 -60 -240 -140q57 -85 104 -189q3 -7 12 -27t13.5 -29.5t12.5 -25.5
t15 -28.5t15 -24.5q2 -2 5 -7t4 -6.5t3 -5t2 -5t0.5 -4.5t-0.5 -4.5t-2.5 -4t-4.5 -5t-7.5 -5t-10 -5.5t-14 -6.5t-15.5 -3t-9 6.5q-10 27 -26.5 76.5t-30 85.5t-28.5 67q-35 71 -84 111q-32 -30 -53 -59q2 -72 -11 -256q0 -2 -0.5 -8t-0.5 -7t-0.5 -6t-1 -5t-2 -4t-2.5 -3
t-3.5 -2t-5 -1.5t-6 -0.5t-7.5 0q-8 1 -17 2.5t-19 7t-8 13.5q19 79 27 158q-6 -2 -17 1q-14 2 -28.5 11t-8.5 20q26 45 62 90q1 54 -2 107q-13 194 -27 277q-3 19 2 26.5t23 9.5q14 1 29.5 -3t14.5 -17z" />
    <glyph glyph-name="l" unicode="l" horiz-adv-x="447" 
d="M257 748q-36 -36 -70.5 -107t-57.5 -164q-33 -133 -20 -251q12 -102 65 -140q45 -32 145 -1q6 2 14.5 5.5t11.5 4.5t8 0.5t8 -4.5t6 -12q4 -7 7 -16t2.5 -20.5t-8.5 -13.5q-1 0 -15.5 -3.5t-20.5 -5t-20.5 -4.5t-24.5 -4t-23.5 -2t-25.5 0t-23 3q-42 8 -75.5 35t-48.5 64
q-47 119 -20 293q30 196 126 381q16 30 43 8q11 -10 19 -23.5t-2 -22.5z" />
    <glyph glyph-name="m" unicode="m" horiz-adv-x="816" 
d="M128 498q-7 -53 -7 -110q19 36 45 74q44 61 86 76q31 13 71 1.5t54 -43.5q20 -44 34 -92q12 29 30 63q41 82 85 95q34 10 70 -13.5t49 -57.5q25 -66 41.5 -138.5t32.5 -181.5t21 -138q7 -21 5.5 -30.5t-19.5 -15.5q-8 -2 -17 -3.5t-20.5 0.5t-11.5 11q-2 21 -5.5 74
t-7.5 103.5t-9 96.5q-10 93 -36 167q-24 69 -53 85q-12 7 -33.5 -5.5t-32.5 -36.5q-47 -96 -57 -209q9 -49 19 -134t14 -111q5 -22 3 -31.5t-21 -13.5q-11 -2 -22 -3q-43 -4 -44 18q0 15 -6 119t-4 164q0 19 4 40q-8 48 -20 93q-17 60 -43 80q-15 12 -37 10t-39 -18
q-37 -32 -67 -84.5t-47 -113.5l-4 -14q4 -30 9 -62q6 -34 15.5 -99.5t14.5 -94.5q5 -20 2 -29.5t-23 -12.5q-6 -2 -27 0t-21 14q1 13 1 26q-24 51 -29 120t11 146v1q-6 34 -12.5 103.5t-11.5 103.5q-3 19 3 26t24 8q8 0 17 -1.5t18 -7t8 -14.5z" />
    <glyph glyph-name="n" unicode="n" horiz-adv-x="559" 
d="M60 -22q-1 8 -4 62t-3.5 79.5t1 70.5t7.5 82v8q-2 21 -4 105t-7 128q-2 19 4 26t24 7q8 0 17 -1.5t18 -7t8 -14.5q-10 -62 -13 -127q22 35 56 78q48 62 97 74q34 8 70.5 -8t52.5 -48q20 -42 35 -88.5t25.5 -102t16 -93t13 -103t11.5 -90.5q5 -22 3.5 -31.5t-20.5 -14.5
q-6 -3 -27 -2.5t-22 12.5q-5 216 -16 306q-12 95 -49 169q-12 22 -29.5 37.5t-33.5 16.5q-18 1 -38.5 -11t-38.5 -32q-43 -52 -72 -105.5t-35 -97.5q1 -34 3 -69q7 -119 13 -173q2 -9 4 -20q4 -17 1 -25h1q4 -21 1.5 -30.5t-22.5 -11.5q-7 -3 -27.5 -0.5t-20 14.5t1.5 24
q-2 3 -2 7z" />
    <glyph glyph-name="o" unicode="o" 
d="M312 456q-43 6 -89 -8.5t-79 -53.5q-29 -34 -44 -81.5t-13 -95.5q3 -46 26 -85t61 -56q39 -19 90.5 -17.5t85.5 22.5q48 30 72.5 88.5t16.5 120.5q-8 54 -42.5 98t-84.5 68zM311 527q24 0 27 -15q95 -54 131 -134q23 -49 24 -107.5t-18 -107.5q-19 -51 -61.5 -89.5
t-96.5 -51.5q-54 -14 -114.5 -2.5t-93.5 44.5q-48 50 -58.5 132.5t14.5 157.5q22 74 89 126q44 34 115 44q8 17 19 13t23 -10z" />
    <glyph glyph-name="p" unicode="p" horiz-adv-x="518" 
d="M105 111q45 -46 87 -56q31 -7 93 10q46 14 76.5 48.5t37.5 83.5q9 61 -2.5 124.5t-40.5 115.5q-16 29 -42.5 47t-54.5 20q-30 2 -65 -11t-44 -37q-48 -135 -45 -345zM58 -237q5 87 1 295q-17 14 -19.5 20.5t8.5 23.5q5 5 10 11q-1 54 -1 89q0 46 -1 87t9 89t33 87
q20 33 62.5 57t83.5 26q44 2 86.5 -22.5t63.5 -63.5q43 -81 52 -174.5t-20 -177.5q-15 -42 -63.5 -70t-102.5 -37q-79 -14 -152 24q3 -55 20 -253q2 -19 -3.5 -26t-22.5 -8q-8 0 -17 1t-18.5 6.5t-8.5 15.5z" />
    <glyph glyph-name="q" unicode="q" horiz-adv-x="543" 
d="M411 171q-3 65 -11 127q-8 66 -33 114.5t-52 53.5q-33 6 -81 -26t-94 -81q-46 -50 -48 -129q-1 -39 11 -71t34 -49q48 -36 130 -19q59 12 120 60q5 4 13 11t11 9zM402 -178q13 170 11 269q-101 -62 -183 -62q-61 -1 -113 37.5t-67 97.5q-15 58 2.5 121.5t56.5 106.5
q53 59 118.5 96t110.5 17q98 -42 122 -316q7 -85 8 -204.5t4 -146.5q2 -19 -2.5 -26.5t-22.5 -8.5q-8 -1 -17 -0.5t-18.5 5.5t-9.5 14z" />
    <glyph glyph-name="r" unicode="r" horiz-adv-x="405" 
d="M78 352q-2 85 -8 128q-2 19 3.5 26.5t23.5 7.5q8 0 17.5 -1.5t18.5 -7t7 -14.5l-6 -46q17 19 35 34q34 27 123 47q20 6 29 3t12 -24q3 -6 0.5 -27t-14.5 -20q-109 6 -155 -43q-38 -40 -34 -105q1 -18 -5 -25q1 -50 5 -101q8 -112 30 -196q8 -20 6.5 -29.5t-20.5 -14.5
q-5 -1 -11.5 -2.5t-15.5 -2t-15.5 2.5t-6.5 9q-3 47 -8 152t-9 162q0 9 -1 18q-25 8 -20 23q9 25 19 46z" />
    <glyph glyph-name="s" unicode="s" horiz-adv-x="515" 
d="M354 367q0 52 -32 77q-29 22 -81 24q-51 3 -85 -17q-18 -11 -31.5 -31t-6.5 -29q12 -17 47 -34.5t74.5 -32.5t89.5 -43t86 -61q20 -19 26.5 -51.5t1 -64.5t-19.5 -54q-22 -35 -61.5 -59t-84.5 -29q-41 -5 -84 12t-72 52q-33 40 -45 145q-5 27 -2.5 37t22.5 13q7 3 28 0.5
t20 -14.5q-2 -45 10.5 -100t44.5 -76q39 -22 88 -11.5t86 44.5q33 29 22 92q-8 43 -51 70q-23 15 -52.5 27.5t-68 26t-58.5 22.5q-43 18 -70 48t-21 65q7 37 41.5 63.5t78.5 36.5q72 17 136 -12q35 -16 59 -48t33 -69q5 -18 0 -26t-23 -11q-14 -2 -29.5 1.5t-15.5 16.5z" />
    <glyph glyph-name="t" unicode="t" horiz-adv-x="470" 
d="M98 518q3 35 11 108.5t10 105.5q2 19 8.5 25t24.5 3q8 -1 16.5 -4t16.5 -10t5 -16q-26 -95 -40 -208q38 3 65 10q20 6 29 3t12 -23q3 -7 1 -28t-14 -20q-11 1 -46 6t-52 6q-16 -172 4 -327q5 -41 23 -74t42 -47q21 -12 55 -6.5t62 25.5q5 4 12 9.5t9.5 7.5t7 3t8.5 -2
t10 -9q4 -4 7.5 -8.5t9 -13t5.5 -14t-5 -11.5q-83 -53 -142 -47q-40 4 -72 28t-47 59q-46 103 -46 270q-1 70 6 154q-32 -6 -58 -25q-15 -10 -24.5 -7t-16.5 20q-3 7 -5.5 17t-0.5 20.5t11 11.5q41 5 98 8z" />
    <glyph glyph-name="u" unicode="u" horiz-adv-x="544" 
d="M161 464q-50 -175 -20 -282q10 -39 34.5 -68.5t54.5 -40.5q31 -13 68.5 -6t63.5 33q30 29 46 79.5t15 102.5q-1 39 -15 115.5t-17 99.5q-5 23 -2.5 32.5t22.5 12.5q7 2 27.5 0t20.5 -14q-1 -32 7.5 -128.5t5.5 -155.5q-2 -42 -17 -82.5t-40 -69.5q-32 -39 -75.5 -59.5
t-84.5 -12.5q-59 11 -108 68.5t-70 139.5q-4 18 -5.5 38.5t-1.5 36.5t2.5 42.5t4.5 39t6.5 43t5.5 39.5q3 19 9.5 25t23.5 3q8 -1 16.5 -4t16.5 -10.5t6 -16.5z" />
    <glyph glyph-name="v" unicode="v" horiz-adv-x="572" 
d="M104 504q35 -78 69 -166q23 -60 56 -161q5 -14 19.5 -43t19.5 -43q1 10 4 21q44 176 154 398q1 3 4 9l4 8t3.5 6t4 4.5t4 2t5.5 1t7 -1.5t9 -3q7 -3 14.5 -8t15 -14t2.5 -15q-67 -94 -116 -190q-25 -50 -43 -105q-1 -3 -24 -99l-3.5 -17.5t-4 -18t-4.5 -15t-6 -16
t-7 -11.5q-13 -16 -35.5 -7.5t-33.5 36.5t-38.5 102.5t-42.5 112t-40.5 92t-50.5 94.5q-10 16 -9.5 25t15.5 18q6 5 14.5 8.5t19.5 3.5t14 -8z" />
    <glyph glyph-name="w" unicode="w" horiz-adv-x="763" 
d="M113 517q8 -96 78 -297q3 -10 21.5 -46t24.5 -59q1 5 3 11q5 24 19.5 109t29.5 135q7 22 17 42t24 37.5t34 25t41 -0.5q8 -2 13.5 -21.5t12 -56.5t11.5 -57q24 -88 40 -219q1 -7 1 1q0 4 1 13q2 50 17 108.5t30 97.5t43.5 106t40.5 95q1 4 4 12t4 10.5t3.5 7t4.5 5
t5.5 1.5t8 0t10.5 -3q7 -2 15 -6t16.5 -12t4.5 -15q-62 -113 -124 -294q-21 -59 -34 -128q-2 -7 -4.5 -30t-6 -34.5t-10.5 -14.5q-13 -4 -23.5 1.5t-17.5 18.5t-10.5 23.5t-7.5 23.5q-26 114 -68 273q-7 26 -11 57q-1 10 -1.5 10.5t-2.5 -5.5q-5 -22 -25 -63.5t-25 -62.5
q-6 -21 -10 -44.5t-8.5 -55.5t-7.5 -44q0 -6 -4 -32t-6 -36t-8 -27t-15 -28q-14 -21 -29.5 -16.5t-27.5 22t-23 46.5q-103 272 -136 394q-5 19 -0.5 27t22.5 11q8 4 26.5 1t19.5 -17z" />
    <glyph glyph-name="x" unicode="x" horiz-adv-x="515" 
d="M209 300q-62 103 -137 165q-14 13 -15.5 21.5t11.5 21.5q5 6 12.5 11.5t18 9t15.5 -5.5q78 -114 123 -187q24 29 74 78t64 64q1 1 5.5 6t5.5 6t4.5 4t4.5 3t4 1.5t4.5 0.5t4.5 -2t6 -3.5t6.5 -6t7.5 -8t10 -13t6 -14t-4 -10.5q-119 -84 -178 -149q20 -35 38 -68
q15 -30 29.5 -64.5t31.5 -80t26 -66.5q10 -19 9 -28.5t-19 -16.5q-7 -3 -16 -5.5t-20.5 -2t-13.5 8.5q-34 171 -95 288q-9 -12 -17 -24q-63 -91 -70 -195q-2 -19 -8 -25.5t-24 -4.5q-14 2 -29 9.5t-11 19.5q58 154 136 262z" />
    <glyph glyph-name="y" unicode="y" horiz-adv-x="555" 
d="M120 545q1 -9 5.5 -46t6 -48.5t5.5 -42.5t7.5 -46t8.5 -39t10.5 -43t12.5 -37q27 -71 96 -126q15 37 29 78q69 197 109 359q3 11 3.5 13t3 8.5t4 7t5.5 2.5t8.5 1.5t11.5 -2.5q8 -3 16 -6.5t16.5 -11t5.5 -15.5q-23 -51 -84.5 -215t-93.5 -244q14 -9 16 -14t-6 -21
q-3 -6 -8 -13t-14 -14t-15 -5l-14 -34q-39 -95 -85 -138q-35 -31 -79 -27t-83 40q-13 13 -12.5 23t14.5 21q7 4 15 8t19 6t15 -7q19 -33 32.5 -44t26.5 -3q36 23 82 109q19 37 38 79q-98 112 -137 245q-5 19 -22 95t-33 115q-8 18 -4.5 26.5t20.5 14.5q7 4 26.5 4t21.5 -13z
" />
    <glyph glyph-name="z" unicode="z" horiz-adv-x="596" 
d="M88 509q108 -8 238 10q15 2 45.5 6t44.5 6q2 5 3 9q6 18 14 22.5t25 -2.5q17 -8 27 -19q18 5 26 1t11 -23q2 -6 0 -27t-14 -20q-28 2 -53 3q-6 -10 -83.5 -122.5t-127.5 -183.5q-43 -60 -85 -112q59 10 128 15q20 2 90 5t106 7q21 5 30 2t12 -22q3 -7 0.5 -28t-14.5 -20
q-5 0 -16 1q-190 16 -284 5q-60 -6 -104 -24q-20 -23 -40 -42q-11 -12 -17 -15.5t-13 -1.5t-16 13q-7 9 -12 18q-5 7 -9 15.5t-4 18.5t8 13q23 9 48 16q110 92 237 278q70 103 102 165q-63 -1 -122 -9q-11 -2 -39 -5.5t-43.5 -6t-38.5 -6.5t-42 -9t-27 0t-10 23
q-1 15 2.5 31t16.5 15z" />
    <glyph glyph-name="braceleft" unicode="{" horiz-adv-x="407" 
d="M302 -214q-62 7 -109 39.5t-61 81.5q-9 34 -11.5 99.5t-4.5 81.5q-8 68 -36 96q-26 25 -90 22q-21 -3 -30.5 -0.5t-11.5 21.5q-7 46 11 48q-1 25 12 26q125 10 155 47q20 25 23.5 74.5t-0.5 95.5q-4 86 29 135q15 22 42 38.5t71 36.5q17 8 26 5t15 -20q3 -7 4.5 -16
t-1 -19.5t-11.5 -12.5q-104 -24 -121 -66q-8 -20 -9.5 -46.5t1 -66t2.5 -60.5q-2 -86 -60 -139q-24 -21 -75 -37q58 -24 79 -67q9 -20 14.5 -46.5t7 -46.5t2.5 -53t2 -50q6 -79 26 -107q25 -35 90 -25q20 2 27.5 -2t9.5 -22q2 -14 -1.5 -30.5t-16.5 -14.5z" />
    <glyph glyph-name="bar" unicode="|" horiz-adv-x="247" 
d="M148 753q15 -222 19 -434q0 -25 0.5 -70.5t0.5 -74t1.5 -66.5t4.5 -69q5 -21 2 -30.5t-22 -11.5q-7 -3 -28 -0.5t-20 14.5q19 285 15 427q-6 183 -38 287q-7 18 -3.5 26.5t21.5 12.5q8 4 27 3t20 -14z" />
    <glyph glyph-name="braceright" unicode="}" horiz-adv-x="445" 
d="M3 -132q118 2 140 48q8 17 11.5 41.5t3.5 43.5t-1 53.5t-1 50.5q0 88 49 139q19 19 53 35q-69 22 -93 65q-12 22 -14 51.5t2.5 71t4.5 59.5q0 80 -30 115q-29 34 -106 40q-19 2 -25.5 7.5t-4.5 23.5q1 14 8 29t19 11q63 -19 109.5 -50.5t62.5 -74.5q10 -28 12 -61
t-1 -76.5t-2 -60.5q0 -67 23 -82q10 -6 25 -8.5t40 -4t39 -3.5q1 0 3 -1q10 -1 13.5 -2t9.5 -3t6.5 -4.5t2.5 -8t-1 -12.5q24 -41 6 -47q-11 -4 -36 -12t-38 -13t-31 -13.5t-29.5 -19t-19.5 -23.5q-10 -17 -12 -42t0 -69t2 -60q0 -96 -44 -145q-19 -22 -52.5 -34t-85.5 -22
q-19 -4 -26.5 0.5t-10.5 22.5q-1 14 2 29.5t17 15.5z" />
    <glyph glyph-name="asciitilde" unicode="~" horiz-adv-x="665" 
d="M-6 204q42 60 90.5 97.5t93.5 30.5q32 -5 67 -27t65 -42.5t51 -21.5q30 -2 70.5 36t89.5 101q3 2 7.5 8l6 8t4.5 5t5 3h5.5t7.5 -2t9 -6q4 -3 8.5 -7t11.5 -11.5t7.5 -13t-2.5 -11.5q-12 -11 -41.5 -39.5t-51.5 -47.5t-46 -34q-81 -53 -188 11q-30 17 -44.5 25t-37.5 14
t-40 1q-40 -12 -79 -98q-9 -18 -15.5 -21.5t-23.5 3.5q-14 6 -25.5 17t-4.5 22z" />
    <glyph glyph-name="exclamdown" unicode="&#xa1;" horiz-adv-x="284" 
d="M121 520q12 -2 20 -5t11.5 -5t5.5 -1q2 0 4.5 4t5.5 5q17 10 27 6.5t14 -24.5q4 -6 2.5 -28t-12.5 -20q-14 2 -23.5 5t-13 5.5t-5.5 2.5q-2 -1 -3 -2.5t-4.5 -4.5t-8.5 -6q-15 -9 -24.5 -2.5t-12.5 24.5q0 7 -0.5 18t4 20.5t13.5 7.5zM212 341q-42 -125 -33 -306
q6 -116 23 -207q6 -20 3.5 -29t-22.5 -13q-7 -3 -28 -1.5t-20 13.5q2 111 -3 327q-2 46 3.5 129.5t5.5 90.5q1 19 8.5 25t25.5 2q14 -2 28 -10t9 -21z" />
    <glyph glyph-name="cent" unicode="&#xa2;" horiz-adv-x="614" 
d="M339 475q13 85 10 154q0 20 5 27t22 7q8 0 17.5 -1.5t18.5 -7t8 -14.5q-15 -83 -36 -177q59 -22 103 -72q13 -14 11.5 -23.5t-16.5 -19.5q-7 -4 -15.5 -7.5t-19 -3.5t-14.5 8q-24 51 -60 71q-25 -108 -59 -240q-16 -57 -24 -90q8 0 16 1q93 11 166 79l10.5 10.5l8.5 8.5
t6.5 3.5t9 -1t10.5 -7.5q4 -3 8.5 -7.5t11 -12.5t7 -13.5t-3.5 -10.5q-54 -39 -122 -66.5t-138 -29.5q-21 -92 -28 -163q-1 -4 -1.5 -12.5t-0.5 -11t-1.5 -7t-4.5 -5.5t-7.5 -2t-12.5 -1q-5 0 -11.5 1t-15.5 3t-14 7t-3 11q17 69 50 182l-12 2q-38 6 -70 39t-47 78
q-28 83 4 160q23 54 66.5 95.5t97.5 55.5q34 8 70 3zM331 429q-64 5 -120 -37q-55 -42 -72 -112q-18 -76 14 -129q28 -47 90 -61q41 143 61 221q17 66 27 118z" />
    <glyph glyph-name="sterling" unicode="&#xa3;" horiz-adv-x="614" 
d="M46 370q78 -11 118 -9q-29 49 -29 50q-22 40 -24.5 85.5t19.5 81.5q32 44 94.5 64.5t136.5 11.5q19 -3 35.5 -12.5t27.5 -20.5t23 -32.5t18 -35.5l18 -42q3 -8 4 -11q8 -18 6 -26.5t-18 -15.5q-7 -3 -16 -5.5t-19.5 -0.5t-13.5 11q-5 21 -12 55.5t-12 54t-10 23.5
q-14 11 -59 13.5t-80 -4.5q-32 -6 -58 -24t-36 -43q-19 -47 21 -115q17 -28 29 -57q21 4 42 12q19 9 28.5 7t14.5 -22q2 -5 3 -11.5t1.5 -15.5t-2 -15.5t-9.5 -6.5q-25 0 -60 1q16 -66 0 -119q-15 -50 -62 -119q39 2 156 -10q98 -9 150 51q4 5 9 12t7 9t6 4t9 0t12 -7
q4 -3 9 -6.5t12 -11t8 -13t-2 -10.5q-75 -71 -147 -76q-25 -2 -50 0t-62 9t-48 8q-64 9 -99 -1q-12 -17 -20 -29q-2 -4 -7 -11.5t-6.5 -9l-5 -5t-6.5 -3t-7.5 1.5t-10.5 5q-10 6 -19 13q-12 9 -21 22.5t0 19.5q19 11 40 19q105 125 119 214q4 20 -5 44q-21 1 -37 0
q-54 -4 -85 -15q-18 -5 -26 0.5t-10 23.5v17.5t5 20t13 7.5z" />
    <glyph glyph-name="currency" unicode="&#xa4;" horiz-adv-x="606" 
d="M310 483q-6 -7 -14 -6q-13 2 -26 2q-4 -1 -10.5 -3.5t-9.5 -3.5t-7 -1.5t-6.5 1t-5.5 4.5q-23 -4 -41 -14q-3 -7 -15 -15q-4 -3 -10 -6q-22 -25 -31.5 -59.5t-3.5 -68.5q5 -32 27 -58.5t55 -38.5q32 -12 72.5 -10.5t59.5 16.5q30 22 42 68.5t3 97.5q-8 50 -44 80
q-15 12 -35 15zM-6 137q10 8 23.5 18t20.5 15.5t15.5 12.5t15.5 13q12 12 32 40l9 12q-22 39 -25.5 85.5t11.5 88.5q8 21 23 39q-12 37 -28 49q-15 11 -44 12q-35 1 -23 37q4 13 14.5 27t20.5 6q23 -16 76 -61q20 -17 30 -28q23 16 52 27q2 6 7 7q11 2 24 3q19 5 40 8
q28 4 31 -15q45 -12 74 -40q37 26 48 39q16 20 28 50q14 31 43 8q6 -5 12 -12.5t10.5 -17.5t-4.5 -15q-53 -37 -68 -56q-9 -11 -27 -44q-3 -4 -5 -7q30 -74 6 -159q-5 -19 -15 -36q13 -14 22.5 -27.5t17 -27.5t11.5 -19q14 -21 36 -35q30 -17 3 -43q-6 -5 -14.5 -10t-19 -8
t-14.5 6q-7 15 -14.5 33t-12.5 29t-11 19q-7 10 -27 17t-25 13q-26 -19 -56 -24q-45 -9 -89 -1t-73 29q-9 -5 -22 -12t-20 -11t-14.5 -9.5t-13.5 -10.5q-17 -18 -28 -48q-12 -32 -42 -10q-12 8 -21.5 22t0.5 22z" />
    <glyph glyph-name="yen" unicode="&#xa5;" horiz-adv-x="611" 
d="M23 295q83 -1 213 7q0 3 2 6q2 5 5 9q-25 31 -59 91h-3q-24 0 -55 3t-43 2q-26 -2 -52 -17q-30 -18 -39 18q-5 8 -3.5 28t14.5 20q17 -1 39.5 -2.5t31 -1.5h26.5q18 2 45 13q1 1 3 2q-9 15 -16 28q-4 7 -15.5 27t-16 27t-13.5 23t-14 23.5t-12.5 18.5t-13.5 18.5
t-12 13.5q-13 13 -12 22.5t17 20.5q6 4 15 8t19.5 4.5t13.5 -8.5q45 -116 129 -258q30 -51 51 -80q12 20 37 63q-2 5 -2 11t-0.5 17t4.5 20.5t14 7.5q3 0 7.5 -1t7.5 -1q24 41 43 73q5 10 27 47t35 60.5t25 46.5q1 2 3 7t3 6.5t3 5t2.5 4.5t2.5 3t3.5 2t4 0.5t5 -0.5t6 -2
t7.5 -3t9.5 -5.5t13.5 -9.5t9.5 -11t-0.5 -12q-109 -138 -155 -218q9 -1 17 0q7 1 45 12q19 7 28.5 3.5t12.5 -23.5q3 -7 0.5 -28.5t-14.5 -19.5q-14 2 -34 6t-30 5t-20 0q-16 -2 -34 -10q-22 -43 -35 -80q12 -5 12 -15q-1 -8 -1 -15q22 0 74.5 1t79.5 2q14 1 22.5 0.5
t12.5 -6t4 -19.5q1 -8 0 -17t-5.5 -19.5t-13.5 -9.5q-97 17 -176 20q-1 -46 3 -155q1 -48 -5 -141q-1 -7 -1 -10t-1 -8t-1.5 -6.5t-2 -4.5t-4 -3.5t-5.5 -1.5t-7 -1t-10 1q-7 1 -16 3t-18.5 8.5t-6.5 14.5q37 107 31 206q-3 58 -11 98l-42 -2q-120 -9 -186 -29
q-18 -6 -26.5 -1.5t-11.5 22.5q-4 8 -0.5 27.5t16.5 18.5z" />
    <glyph glyph-name="brokenbar" unicode="&#xa6;" horiz-adv-x="238" 
d="M137 734q0 -88 11 -162q9 -68 16 -99q5 -20 2 -29t-23 -12q-7 -3 -28 -0.5t-20 14.5q11 109 4 160q-10 62 -28 102q-8 17 -3.5 26t22.5 13q8 4 27.5 2t19.5 -15zM160 274q-35 -67 -32 -149q1 -49 13 -104q6 -20 2.5 -29t-23.5 -12q-6 -3 -27 -0.5t-20 14.5q10 103 10 175
q-1 22 2 64t4 51q1 19 9.5 24.5t26.5 0.5q14 -4 27.5 -13.5t7.5 -21.5z" />
    <glyph glyph-name="section" unicode="&#xa7;" horiz-adv-x="555" 
d="M382 511q-13 66 -71 92q-29 13 -61 13t-51 -14q-18 -14 -21 -44.5t11 -47.5q11 -13 28 -27q8 -1 14 -10q11 -8 34.5 -23t36.5 -23q37 -26 61 -44t53 -46.5t47 -57.5q18 -28 21 -65t-12 -71q-12 -30 -39.5 -51.5t-62.5 -31.5q39 -41 61 -83q17 -32 10.5 -75.5t-32.5 -69.5
q-24 -25 -62 -36t-76 -5q-65 10 -116.5 55.5t-72.5 115.5q-8 23 -4 33.5t25 13.5q6 3 27 0.5t21 -14.5q-2 -37 14.5 -76t51.5 -58q38 -21 83 -20t72 22q21 17 19.5 60t-23.5 79q-11 19 -31 38.5t-36.5 32t-44.5 33.5q-9 6 -41 28.5t-44.5 32.5t-35 28.5t-36.5 35t-24 33.5
q-14 29 -7 64.5t31 68.5q25 36 75 67q-17 15 -29 30q-18 24 -16 58.5t19 61.5q17 25 47 39t60 12q59 -5 110 -38.5t81 -83.5q9 -16 5.5 -25t-21.5 -15q-7 -5 -26 -5t-22 13zM232 415q-34 -10 -66 -32.5t-47 -55.5q-9 -20 5.5 -48.5t47.5 -55.5q20 -17 68.5 -53.5t73.5 -57.5
q4 13 13 13q32 -2 63.5 16.5t39.5 52.5q6 27 -10 59t-46 59q-20 19 -41 35t-56.5 40t-42.5 29q-1 -1 -2 -1z" />
    <glyph glyph-name="dieresis" unicode="&#xa8;" horiz-adv-x="357" 
d="M264 671q6 -5 10 -13q10 -17 7.5 -27t-22.5 -16q-5 -1 -12 -2t-16 -1.5t-15.5 2.5t-5.5 9q1 22 5 37l4 16q0 2 -0.5 4.5t-2 9t-2.5 13.5q-3 18 5.5 25t26.5 4q15 -2 30 -10t9 -20q-14 -28 -21 -31zM130 690q-6 -15 -11 -23.5t-7 -9.5l-2 -1h1l2 -2t2.5 -2t3 -3.5
t2.5 -4.5q11 -17 8.5 -27t-22.5 -16q-5 -1 -11.5 -2.5t-16 -2t-15.5 2t-6 9.5q0 15 2.5 26t4.5 16.5t2 8.5q0 1 -1 4l-3 9t-4 13q-5 17 3 24.5t27 6.5q14 -1 30 -7.5t11 -18.5z" />
    <glyph glyph-name="copyright" unicode="&#xa9;" horiz-adv-x="773" 
d="M434 715q15 0 21 -7q79 -29 133 -73q56 -47 83 -118q62 -163 8 -292q-27 -65 -87 -117.5t-140 -78.5q-82 -25 -158 -9t-133 65q-77 65 -107 194q-29 119 6 224q19 55 55.5 100t86.5 71q29 14 65.5 22.5t56.5 10.5t60 4q5 16 16 13q15 -3 34 -9zM469 399q-1 70 -41 91
q-23 13 -53.5 13t-57.5 -13q-23 -10 -40.5 -31.5t-23.5 -49.5q-13 -58 15 -111q18 -37 46 -62.5t57 -31.5q24 -5 44 14t28 56q1 7 2.5 18t3 13.5t6.5 5.5t16 2q8 0 17 -1.5t19.5 -6.5t8.5 -13q-28 -111 -83 -135q-35 -14 -77 -2t-71 42q-49 51 -67.5 121t6.5 141
q17 44 66.5 69.5t99.5 21.5q50 -3 89.5 -40.5t57.5 -90.5q6 -18 0.5 -26.5t-23.5 -10.5q-14 -2 -29.5 1t-15.5 16zM442 645q-24 0 -50.5 0.5t-58.5 -3.5t-61.5 -10t-59.5 -21t-53 -36q-43 -39 -60 -106t-8 -137q9 -75 45 -141t91 -103q49 -32 119 -30t146 37q85 38 129 120
q45 84 32 180q-14 97 -78 169q-51 58 -129 82q-2 -1 -4 -1z" />
    <glyph glyph-name="ordfeminine" unicode="&#xaa;" horiz-adv-x="422" 
d="M23 669q28 25 48 39.5t53 28t65 11.5q48 -2 76.5 -44.5t32.5 -95.5q8 -123 13 -124q19 5 28 2t12 -23q0 -5 0.5 -12t-0.5 -16.5t-4.5 -15t-9.5 -4.5q-53 13 -73 63q-50 -47 -85 -55q-49 -10 -93.5 10.5t-48.5 54.5q-5 36 44.5 71t132.5 63q17 6 25.5 1t11.5 -23
q1 -1 1 -2q0 58 -14 83q-8 14 -33 17.5t-55 -7.5q-37 -13 -65 -57q-11 -16 -19.5 -18.5t-22.5 8.5q-12 9 -21 22.5t1 22.5zM236 554q-3 0 -15.5 -0.5t-16.5 -1t-15 -1t-16 -1t-14 -2t-14.5 -3t-12 -3.5t-11.5 -5q-28 -14 -34.5 -34.5t8.5 -28.5q21 -12 56 1.5t68 50.5
q3 4 7.5 9.5t6 8t5.5 5.5t6 2.5t7 -0.5v5v13q-4 -15 -15 -15z" />
    <glyph glyph-name="guillemotleft" unicode="&#xab;" horiz-adv-x="552" 
d="M276 381q-57 -44 -102 -85q-18 -16 -40 -34q20 -18 36 -31q32 -27 59 -46q12 -10 16.5 -14.5t3.5 -12t-10 -18.5q-4 -4 -8.5 -8t-12.5 -10t-14 -6t-11 4q-2 4 -6 10q-15 24 -23 35.5t-20.5 26.5t-25.5 24q-11 10 -23 16q-8 -6 -15.5 -3t-15.5 16q0 1 -1 1q-6 2 -12 3
q-33 8 -17 40q6 13 18.5 24.5t21.5 3.5l14 -12q52 19 80 45q30 29 47 66q14 31 42 10q11 -9 20.5 -23t-1.5 -22zM471 375q-62 -29 -98 -62q-16 -14 -35 -35q9 -8 27.5 -24t27.5 -24q51 -43 68 -57q12 -9 16.5 -14t3.5 -12.5t-11 -17.5q-3 -4 -8 -8t-13.5 -10t-14 -6t-10.5 5
q-26 42 -45 67t-44 45q-16 13 -32 22q-11 -7 -27 11l-1 1q-8 2 -17 4q-18 3 -22.5 12t2.5 26q6 13 17 26t21 5q7 -6 15 -12q50 26 73 48q35 32 55 59t43 0q5 -7 9.5 -15t7 -19t-7.5 -15z" />
    <glyph glyph-name="logicalnot" unicode="&#xac;" horiz-adv-x="639" 
d="M49 407q88 -5 290 2q31 2 160 0q4 8 23 11q8 4 27.5 1t18.5 -16q-1 -8 -1 -16v-8q-1 -12 -3 -23q-13 -129 -14 -138q-3 -57 11 -99q9 -19 7.5 -28.5t-21.5 -15.5q-4 -1 -11 -2.5t-16 -2.5t-15.5 2t-6.5 9q-1 32 1 64t6 68t5 53q3 48 -1 76q-128 24 -246 18
q-128 -7 -195 -24q-19 -5 -27 0t-10 23q-2 14 1.5 30t16.5 16z" />
    <glyph glyph-name="registered" unicode="&#xae;" horiz-adv-x="798" 
d="M386 724h1q22 3 29 -4q88 -15 149 -52q65 -39 103 -113q84 -167 51 -310q-18 -75 -72 -137.5t-131 -90.5q-83 -28 -164 -20.5t-145 44.5q-47 28 -82.5 76t-55.5 106q-38 112 -13 228q27 126 116 199q58 47 168 67q3 11 11 10q16 0 35 -3zM226 191q-1 17 -7 56t-9.5 70.5
t-1.5 75.5t13 80q10 34 45 57.5t76 28t80 -5.5q31 -10 47 -43.5t10 -65.5q-8 -46 -53 -80q21 -14 37 -28q53 -47 64 -166q4 -22 1.5 -31.5t-22.5 -11.5q-6 -3 -27 -0.5t-20 14.5q4 27 1.5 72t-18.5 67q-25 36 -90 63q-23 3 -38 13q-20 6 -14 16l1 1q-4 14 13.5 29t69.5 -12
q13 8 24 18q18 17 26 39q6 15 2 29q-6 23 -24 32q-21 10 -48 11.5t-52 -7.5q-21 -7 -34.5 -28.5t-15.5 -47.5q-5 -84 31 -222q5 -18 1 -26t-22 -12q-8 -3 -27 -0.5t-19 15.5zM403 655q-29 2 -78 -4.5t-90 -26.5q-63 -30 -93 -89q-34 -66 -43.5 -138t9.5 -145
q20 -71 70.5 -126.5t116.5 -76.5q66 -19 141 -5.5t133 50.5q38 25 64 66t38 89q22 93 -10 193t-105 159q-59 49 -143 58q-4 -4 -10 -4z" />
    <glyph glyph-name="macron" unicode="&#xaf;" horiz-adv-x="449" 
d="M2 690q27 0 70 -1.5t76.5 -2.5t62.5 -1q82 0 125 7q20 5 29.5 2t11.5 -23q3 -6 0.5 -27.5t-14.5 -19.5q-19 2 -53 6t-54 6t-47.5 4t-50.5 2q-82 0 -132 -19q-18 -6 -26 -1.5t-12 22.5q-4 8 -1.5 27.5t15.5 18.5z" />
    <glyph glyph-name="degree" unicode="&#xb0;" horiz-adv-x="415" 
d="M146 608q-4 -49 4.5 -83t28.5 -42q17 -6 39 -1.5t42 17.5q20 14 32 32.5t8 32.5q-5 19 -29.5 37.5t-52.5 22.5q-34 6 -72 -16zM80 574q-3 2 -6.5 5.5l-8 8t-10 13t-5.5 14t5 10.5q107 69 198 42q29 -8 54.5 -31t33.5 -50q9 -29 -3.5 -61t-38.5 -52q-37 -28 -83 -35
t-85 14q-39 25 -51 122z" />
    <glyph glyph-name="plusminus" unicode="&#xb1;" horiz-adv-x="639" 
d="M288 349q-1 76 -15 125q-5 18 -0.5 26t22.5 11q15 2 31 -1t15 -16q-5 -79 -7 -145q89 0 134 5q21 4 30 0.5t10 -23.5q1 -3 0.5 -11t-1 -16.5t-5 -14.5t-10.5 -5q-105 14 -159 18v-44q0 -95 8 -145q5 -20 2 -29.5t-23 -11.5q-6 -3 -27 -0.5t-20 14.5q16 167 16 218
q-17 1 -33 1q-106 -1 -160 -15q-18 -4 -26 1t-10 23q-1 15 2.5 31t16.5 14q104 -9 209 -10zM85 56q139 -11 271 -11q113 1 170 9q20 4 29.5 1.5t11.5 -22.5q3 -7 0.5 -28t-14.5 -20q-193 17 -268 17q-124 -1 -182 -15q-18 -4 -26 0.5t-10 22.5q-2 15 1.5 31t16.5 15z" />
    <glyph glyph-name="uni00B2" unicode="&#xb2;" horiz-adv-x="397" 
d="M3 568q25 55 76.5 92.5t110.5 39.5q33 1 63 -25t38 -62q7 -29 -4 -60t-32 -54q-21 -21 -59 -56t-61 -59.5t-32 -45.5q51 -4 90 -2q47 3 86 17q19 9 28.5 7t15.5 -22q1 -5 2 -11.5t2 -15.5t-2 -15.5t-9 -6.5q-29 0 -81 1.5t-78 0.5q-43 -3 -65 -6q-4 -3 -15 -5q-4 0 -8 -1
q-6 -1 -11 -3q-18 -5 -26 0t-10 24q0 6 -0.5 17t4.5 20t14 8h5q28 63 102 122q51 40 78 74t22 68q-5 25 -36 36.5t-63 1.5q-29 -9 -49.5 -32t-24.5 -48q-3 -20 -9 -26t-23 -3q-14 2 -29 10t-10 20z" />
    <glyph glyph-name="uni00B3" unicode="&#xb3;" horiz-adv-x="378" 
d="M-6 566q14 52 39.5 90.5t59.5 44.5q41 7 82.5 -14.5t68.5 -56.5q19 -26 18.5 -59t-20.5 -61q27 -12 42 -32q31 -45 21 -102.5t-53 -93.5q-23 -20 -61 -24.5t-74 7.5q-37 10 -65 37t-41 67q-7 21 -3.5 31t24.5 12q7 3 27.5 0.5t20.5 -14.5q-1 -33 19 -58.5t57 -32.5
q36 -7 68 13t42 52q8 23 -3.5 49t-36.5 39q-15 8 -38 10q-21 -9 -30 -1q-15 -1 -34 -5q-19 -3 -26.5 1t-10.5 21q-3 8 0 27t16 19q26 0 47 -2q4 8 11 8q35 1 51 6.5t14 17.5q-3 22 -21.5 44.5t-44.5 37.5q-19 11 -39.5 11.5t-34.5 -10.5q-20 -17 -21 -74q0 -19 -6 -25.5
t-24 -5.5q-14 1 -29 7t-12 19z" />
    <glyph glyph-name="acute" unicode="&#xb4;" horiz-adv-x="333" 
d="M257 692q-71 -41 -93 -62q-19 -18 -32 -47q-5 -11 -8 -15.5t-7.5 -8t-10.5 -2t-16 6.5q-4 3 -9 6.5t-12.5 10.5t-9 12.5t2.5 11.5q21 19 51.5 42.5t40.5 32.5q30 29 46 55q17 29 43 3q5 -5 10.5 -13t9 -18.5t-5.5 -14.5z" />
    <glyph glyph-name="uni00B5" unicode="&#xb5;" horiz-adv-x="591" 
d="M517 451q-9 -32 -19 -74t-15.5 -69t-18 -86.5t-16.5 -80.5q-17 -82 -55 -195q-4 -12 -6 -16.5t-6 -9.5t-10 -4t-16 5q-8 3 -16 7t-15.5 12.5t-3.5 15.5q43 70 71 159q-18 -24 -39 -45q-29 -29 -64.5 -49.5t-72.5 -26t-63 17.5q-28 25 -43 64q-2 -5 -3 -11
q-7 -21 -22.5 -65.5t-24 -69.5t-16 -61t-7.5 -65q0 -6 0.5 -14.5t0.5 -11.5t-2 -7.5t-6.5 -6t-13.5 -2.5q-6 -3 -27.5 -0.5t-19.5 14.5q14 80 65.5 227.5t57.5 169.5q-1 35 4 80q5 48 26 132t23 94q1 5 2.5 12t2 9.5t2 7t3 5t4.5 3t7 1t11 -0.5q11 -1 21 -5
q15 -3 27.5 -10.5t8.5 -19.5q-19 -56 -94 -306q1 -76 36 -121q17 -23 59 -12.5t72 45.5q117 137 140 334v27q0 16 4 23q1 18 1 36q-1 20 3 27t21 8q8 1 17.5 0.5t19 -5.5t8.5 -14q-3 -29 -7 -58q6 -6 4 -14z" />
    <glyph glyph-name="paragraph" unicode="&#xb6;" horiz-adv-x="559" 
d="M468 658q-127 8 -198 -14q-100 -32 -138 -111q-12 -26 -11.5 -54t12.5 -50q16 -31 58 -38q1 58 -1 95q-1 19 5 26t24 6q8 -1 17 -2.5t17.5 -8t7.5 -15.5q-10 -51 -16 -103q7 -3 10 -20q3 -7 0.5 -28.5t-14.5 -19.5h-2q-4 -79 2 -160q9 -120 31 -218q6 -21 4 -30.5
t-21 -13.5q-6 -4 -27 -3.5t-22 12.5q-3 127 -14 340q-2 33 -1 85q-47 17 -79 49t-37 74q-7 51 20.5 104.5t72.5 83.5q24 16 51 28t60 20.5t55.5 13.5t63 12t55.5 10q18 3 26 -2t9 -23q1 -14 -2.5 -29.5t-17.5 -15.5zM426 621q-2 -25 -6.5 -86.5t-6.5 -95.5l-5 -85t-5 -96
t-2 -88q-3 -160 30 -287q8 -20 7.5 -29.5t-19.5 -16.5q-4 -1 -10.5 -2.5t-15.5 -3t-15.5 1t-7.5 9.5q-18 179 -10 450q1 16 2.5 60t2 67t0.5 59.5t-2 66.5t-6 59q-3 19 1.5 26.5t22.5 9.5q14 1 30 -2.5t15 -16.5z" />
    <glyph glyph-name="periodcentered" unicode="&#xb7;" horiz-adv-x="257" 
d="M187 376q-10 -50 -38.5 -77t-57.5 -18q-17 6 -22 33t14 52q18 21 32 12q3 13 26 16h18t20 -4.5t8 -13.5z" />
    <glyph glyph-name="cedilla" unicode="&#xb8;" horiz-adv-x="341" 
d="M159 -56q-9 21 -7 57q1 19 6.5 25.5t23.5 5.5q14 -1 29 -7.5t12 -19.5q-9 -35 -30 -59q28 0 43 -11q19 -13 27.5 -35t7 -42t-10.5 -33q-33 -44 -90 -52.5t-109 23.5q-19 11 -21 21.5t14 25.5q4 3 8.5 6.5t13.5 9t14.5 5t10.5 -5.5q37 -59 78 -45q25 9 39 42.5t-3 40.5
q-33 16 -47 34q-11 -1 -17 14q1 -1 8 0zM151 -56v1v-1z" />
    <glyph glyph-name="uni00B9" unicode="&#xb9;" horiz-adv-x="305" 
d="M235 707q-16 -82 -14 -190q0 -16 0.5 -61t0.5 -69q1 -10 0.5 -17.5t-2.5 -12t-8 -6t-17 -1.5q-5 0 -11.5 1t-15.5 3t-14 6.5t-3 10.5q27 112 25 197q-1 33 -2 51q-15 -16 -35 -26q-10 -4 -23.5 -6.5t-32.5 -4.5t-30 -4q-18 -3 -25.5 4t-5.5 26q1 15 7 30t19 11
q70 -22 90 -6q15 10 10 47q-4 20 -0.5 29t23.5 10q10 1 22 0q15 0 29.5 -5t12.5 -17z" />
    <glyph glyph-name="ordmasculine" unicode="&#xba;" horiz-adv-x="379" 
d="M150 652q-6 -5 -11 -12q-31 -42 -29 -100q1 -26 10.5 -46.5t25.5 -26.5q21 -8 48 -4t40 18q20 19 24 52t-10 63q-12 26 -37.5 41t-55.5 15h-5zM151 718q26 16 54 24q18 5 26 -1t9 -25q1 -13 -2 -25q10 -7 19 -15q25 -23 38.5 -56.5t13.5 -67.5q0 -36 -17 -68.5t-47 -49.5
q-29 -16 -68.5 -16.5t-64.5 17.5q-32 27 -43 77.5t3 98.5q11 39 38 71q-3 38 14 38q14 -1 27 -2z" />
    <glyph glyph-name="guillemotright" unicode="&#xbb;" horiz-adv-x="588" 
d="M306 270q-17 -16 -53 -50t-55 -52q-21 -19 -73 -58q-10 -7 -14.5 -10t-10.5 -4t-10.5 3.5t-10.5 13.5l-5 10t-6 15t-2 15.5t7 8.5q86 27 120 62q21 21 34 45q-14 9 -27.5 19t-28 21.5t-22.5 16.5q-35 27 -62 35q-33 9 -15 40q8 13 21 24t21 1q5 -5 18.5 -19t18.5 -19.5
t14.5 -15t17 -16t16.5 -11.5q23 -17 48 -17q16 0 23.5 -2.5t9.5 -10.5l2 -2q13 -8 23 -21t1 -22zM511 253q-91 -43 -122 -67q-31 -23 -44 -51q-6 -11 -8.5 -15.5t-7 -8.5t-10.5 -2.5t-16 7.5q-4 2 -9.5 6t-12.5 10.5t-8.5 12t1.5 11.5q20 18 39.5 32.5t44 30.5t34.5 23
q21 15 32 24q-9 9 -23 26t-23.5 28t-19.5 20q-32 29 -67 39q-17 5 -21 14.5t5 25.5q7 13 19.5 24.5t21.5 2.5q21 -20 50.5 -51t43.5 -44q27 -25 57 -39q1 0 1 -1q15 11 33 -10q5 -6 9.5 -14t7 -19t-6.5 -15z" />
    <glyph glyph-name="onequarter" unicode="&#xbc;" horiz-adv-x="876" 
d="M671 138q14 247 4 248q-19 2 -41.5 -22.5t-43 -65.5t-37.5 -84.5t-30 -88.5q87 2 135 11q5 0 13 2zM270 691q-23 -82 -17 -195q5 -87 15 -145q5 -20 2 -29t-23 -12q-7 -3 -28 -0.5t-20 14.5q12 133 7 229q0 8 -2 61q-19 -19 -43 -32q-18 -9 -77 -18q-18 -3 -25 5t-4 27
q2 14 9.5 29t19.5 10q50 -21 79 -1q20 15 20 50q-1 11 -0.5 18t2.5 11.5t8 6t17 1.5q10 0 21 -3q15 -1 29 -8t10 -19zM659 677q-100 -206 -223 -415q-12 -21 -38 -63.5t-41 -67.5t-32 -60.5t-25 -65.5q-2 -7 -4 -17.5t-3.5 -13t-7 -5t-15.5 -1.5q-5 1 -12 2.5t-16 4
t-13.5 7.5t-1.5 11q38 80 124.5 219t110.5 181q97 172 127 293q4 19 11 24t24 1q14 -4 27.5 -13.5t7.5 -20.5zM441 92q31 76 63 132q33 56 96 134q3 4 21 32t32.5 42.5t26.5 9.5q16 -5 25.5 -16.5t12.5 -28t4 -28.5t-0.5 -31.5t-1.5 -23.5q1 -124 2 -167q25 5 46 13
q18 6 26 0.5t11 -23.5q2 -15 -1.5 -31t-16.5 -15q-34 3 -64 3q2 -57 6 -105q5 -22 2 -31t-22 -12q-7 -3 -28 -0.5t-20 14.5q0 3 8 131q-23 -2 -45 -6q-55 -10 -101 -25q-27 -9 -34 -3q-5 0 -12 2q-14 3 -27.5 12t-8.5 21z" />
    <glyph glyph-name="onehalf" unicode="&#xbd;" horiz-adv-x="849" 
d="M242 664q-34 -43 -36 -194q-1 -78 3 -153q1 -14 0 -22t-7 -11.5t-20 -3.5q-8 0 -17 1.5t-19.5 6.5t-8.5 13q23 99 27 244q1 46 3 79q-5 -3 -33 -21q-10 -7 -33 -19t-36 -21q-29 -18 -40 17q-4 8 -3.5 27.5t13.5 20.5q66 3 96 26q19 13 29 41q4 11 7 16t7.5 9t10.5 2.5
t15 -6.5q10 -4 19 -11q12 -8 21.5 -20t1.5 -21zM611 686q-157 -272 -234 -415q-21 -40 -41.5 -84.5t-48.5 -110.5t-39 -92q-6 -14 -8 -18t-7 -9t-11 -3.5t-15 5.5q-7 4 -14.5 8.5t-15 13.5t-2.5 16q34 56 69.5 119t86 158t70.5 131q38 70 54.5 101.5t43.5 89.5t43 105
q6 18 13 22.5t24 -0.5q14 -6 26.5 -16t5.5 -21zM428 -9q36 110 167 196q54 36 84.5 74.5t21.5 72.5q-5 20 -39.5 26t-64.5 -10q-43 -22 -56 -101q-1 -7 -1.5 -16t-1.5 -12t-3.5 -7t-7 -5t-13.5 -1q-5 1 -11.5 1.5t-15.5 2.5t-14.5 6.5t-3.5 10.5q18 66 59.5 119.5t95.5 64.5
q34 7 69.5 -11.5t49.5 -49.5q12 -28 4 -66t-31 -61q-25 -25 -73 -63t-81.5 -70.5t-50.5 -65.5q61 6 115 15q17 3 37.5 4.5t45.5 2.5t40 2q18 2 24.5 -5.5t4.5 -26.5q-2 -14 -9.5 -28.5t-19.5 -10.5q-78 27 -160 10q-49 -9 -105 -32q-18 -9 -28 -7.5t-16 20.5q0 1 -1 2
q-14 8 -11 19z" />
    <glyph glyph-name="threequarters" unicode="&#xbe;" horiz-adv-x="865" 
d="M696 352q-47 -33 -115 -114q-48 -58 -71 -92q26 1 71.5 0t54.5 -1h43q5 55 8 98q1 20 4.5 56.5t4.5 52.5zM150 545q38 2 67 2q10 7 16 17q15 27 13 60.5t-20 38.5q-32 10 -73 -18t-49 -64q-5 -19 -11 -24.5t-23 -1.5q-15 3 -29 11t-8 20q35 82 99 106q54 20 103.5 2
t57.5 -60q8 -44 -21 -91q35 -6 46 -19q22 -26 27 -59.5t-5.5 -66t-31.5 -61.5q-21 -27 -50 -46t-59 -23q-33 -5 -66 16t-57 58q-7 12 -9.5 16.5t-3.5 11t3 11t14 9.5q42 23 49 4q15 -41 37.5 -60.5t48.5 -9.5q36 14 65 47t32 67q2 25 -22.5 38.5t-69.5 9.5q-17 -13 -36 -23
q-18 -11 -28.5 -8t-16.5 23q-2 11 -3 22q-8 43 14 45zM710 677q-156 -188 -285 -404q-95 -159 -148 -289q-1 -4 -4 -12t-4 -10t-4 -6t-6 -4h-8t-11 3q-8 2 -16 6t-16.5 12t-4.5 15q113 193 256 424q16 26 85.5 131.5t99.5 161.5q9 17 17 20t24 -6q12 -7 22.5 -19.5
t2.5 -22.5zM769 422q-37 -124 -42 -249q-1 -12 -1 -23q16 2 31 7q18 6 26 1t11 -23q2 -14 -1 -30.5t-16 -15.5q-15 1 -51 5q1 -44 7 -82q5 -21 2 -30t-23 -12q-7 -3 -28 -0.5t-20 14.5q2 22 6 60.5t5 53.5q-50 4 -86 3q-58 0 -102 -19q-18 -10 -27.5 -9t-16.5 19q-1 2 -1 3
q-13 10 -20.5 22t1.5 20q61 56 179 194q5 6 23.5 28t26 30t21 21t25.5 21q2 12 9 16t22 3q14 -2 29 -9t11 -19z" />
    <glyph glyph-name="questiondown" unicode="&#xbf;" horiz-adv-x="543" 
d="M272 444q-8 40 15.5 66t47.5 16q13 -6 24 -23t14 -38q4 -21 -1 -29t-26 -8q-30 1 -42 11q-29 -11 -32 5zM348 339q-2 -39 -15 -75.5t-39.5 -75.5t-43.5 -61t-53 -64q-44 -51 -41 -123q0 -24 22 -47.5t50 -29.5q38 -8 79.5 3.5t71.5 39.5q29 26 33 62t-17 63
q-4 6 -11.5 13.5t-9 10.5t-0.5 8.5t8 13.5l8.5 8.5t12.5 10.5t13.5 6t10.5 -4q26 -34 39.5 -79.5t-1.5 -85.5q-13 -34 -45 -60.5t-73 -43.5q-82 -32 -151 -2q-37 16 -62 53.5t-22 75.5q6 89 94 187q86 97 76 170q-4 18 -1 26.5t20 12.5q8 4 28 2t19 -15z" />
    <glyph glyph-name="Agrave" unicode="&#xc0;" horiz-adv-x="676" 
d="M126 206q-24 -98 -32 -188q-1 -14 -2.5 -19.5t-7 -9.5t-17.5 -5q-8 0 -17 1.5t-18 7t-8 14.5q12 89 45 200q-1 1 -2 3q-3 7 -5.5 16.5t-0.5 20t11 12.5l14 2q16 51 35 100q48 129 74 182q36 78 79 109q44 32 97 30t71 -39q58 -121 90 -316q16 2 30 4q21 5 30 2t12 -23
q3 -6 0.5 -27t-14.5 -20q-26 2 -48 3q6 -47 16.5 -132.5t16.5 -121.5q5 -20 4 -29.5t-20 -14.5q-5 -1 -11 -2t-15.5 -2t-15.5 2t-7 10q-10 190 -20 292q-107 2 -192 -11q-103 -17 -172 -51zM143 273q132 26 228 38q25 4 113 11q0 4 -1 7q-16 141 -50 232q-13 36 -31 59
t-36 26q-19 3 -49 -14.5t-45 -45.5q-81 -150 -129 -313zM293 913q41 -63 52 -75q6 -7 19 -20t18 -19q7 -8 10.5 -13t4.5 -10.5t-3 -10.5t-13 -11q-4 -3 -10 -6t-14.5 -7t-15.5 -3t-9 7q-2 8 -6.5 21.5t-6.5 19t-5.5 14t-7 14t-7.5 10.5q-15 16 -44 29q-32 14 -8 43
q5 6 12.5 12t18 10t15.5 -5z" />
    <glyph glyph-name="Aacute" unicode="&#xc1;" horiz-adv-x="676" 
d="M126 206q-24 -98 -32 -188q-1 -14 -2.5 -19.5t-7 -9.5t-17.5 -5q-8 0 -17 1.5t-18 7t-8 14.5q12 89 45 200q-1 1 -2 3q-3 7 -5.5 16.5t-0.5 20t11 12.5l14 2q16 51 35 100q48 129 74 182q36 78 79 109q44 32 97 30t71 -39q58 -121 90 -316q16 2 30 4q21 5 30 2t12 -23
q3 -6 0.5 -27t-14.5 -20q-26 2 -48 3q6 -47 16.5 -132.5t16.5 -121.5q5 -20 4 -29.5t-20 -14.5q-5 -1 -11 -2t-15.5 -2t-15.5 2t-7 10q-10 190 -20 292q-107 2 -192 -11q-103 -17 -172 -51zM143 273q132 26 228 38q25 4 113 11q0 4 -1 7q-16 141 -50 232q-13 36 -31 59
t-36 26q-19 3 -49 -14.5t-45 -45.5q-81 -150 -129 -313zM404 867q-50 -32 -67 -55q-6 -8 -27 -46q-8 -13 -12.5 -18t-12 -4.5t-19.5 8.5q-4 3 -8.5 7.5t-11 12t-7.5 13t4 11.5q8 6 23 16.5t21 15.5t14 12.5t13 14.5q16 21 30 51q15 32 43 7q6 -5 12 -12.5t10 -18t-5 -15.5z
" />
    <glyph glyph-name="Acircumflex" unicode="&#xc2;" horiz-adv-x="676" 
d="M126 206q-24 -98 -32 -188q-1 -14 -2.5 -19.5t-7 -9.5t-17.5 -5q-8 0 -17 1.5t-18 7t-8 14.5q12 89 45 200q-1 1 -2 3q-3 7 -5.5 16.5t-0.5 20t11 12.5l14 2q16 51 35 100q48 129 74 182q36 78 79 109q44 32 97 30t71 -39q58 -121 90 -316q16 2 30 4q21 5 30 2t12 -23
q3 -6 0.5 -27t-14.5 -20q-26 2 -48 3q6 -47 16.5 -132.5t16.5 -121.5q5 -20 4 -29.5t-20 -14.5q-5 -1 -11 -2t-15.5 -2t-15.5 2t-7 10q-10 190 -20 292q-107 2 -192 -11q-103 -17 -172 -51zM143 273q132 26 228 38q25 4 113 11q0 4 -1 7q-16 141 -50 232q-13 36 -31 59
t-36 26q-19 3 -49 -14.5t-45 -45.5q-81 -150 -129 -313zM213 823q11 8 43 35.5t55 38t51 6.5q17 -3 34 -18.5t26.5 -31t22.5 -40.5q11 -18 8.5 -28t-21.5 -16q-8 -2 -17 -4t-20 -0.5t-13 10.5q-4 36 -22 64t-30 24q-6 -3 -14 -11.5t-13.5 -17.5t-16 -26.5t-17.5 -27.5
q-18 -29 -43 -4q-6 6 -11 13.5t-8 18t6 15.5z" />
    <glyph glyph-name="Atilde" unicode="&#xc3;" horiz-adv-x="676" 
d="M126 206q-24 -98 -32 -188q-1 -14 -2.5 -19.5t-7 -9.5t-17.5 -5q-8 0 -17 1.5t-18 7t-8 14.5q12 89 45 200q-1 1 -2 3q-3 7 -5.5 16.5t-0.5 20t11 12.5l14 2q16 51 35 100q48 129 74 182q36 78 79 109q44 32 97 30t71 -39q58 -121 90 -316q16 2 30 4q21 5 30 2t12 -23
q3 -6 0.5 -27t-14.5 -20q-26 2 -48 3q6 -47 16.5 -132.5t16.5 -121.5q5 -20 4 -29.5t-20 -14.5q-5 -1 -11 -2t-15.5 -2t-15.5 2t-7 10q-10 190 -20 292q-107 2 -192 -11q-103 -17 -172 -51zM143 273q132 26 228 38q25 4 113 11q0 4 -1 7q-16 141 -50 232q-13 36 -31 59
t-36 26q-19 3 -49 -14.5t-45 -45.5q-81 -150 -129 -313zM520 870q-58 -80 -108 -80q-26 1 -62.5 20t-45.5 21q-16 3 -30.5 -10.5t-35.5 -46.5q-9 -14 -13.5 -19t-12 -5t-18.5 9q-4 3 -8.5 7t-11 11.5t-7.5 13t3 11.5q44 40 95 53.5t99 -3.5q61 -23 88 40q8 18 15.5 21.5
t24.5 -3.5q13 -6 24.5 -17.5t3.5 -22.5z" />
    <glyph glyph-name="Adieresis" unicode="&#xc4;" horiz-adv-x="676" 
d="M126 206q-24 -98 -32 -188q-1 -14 -2.5 -19.5t-7 -9.5t-17.5 -5q-8 0 -17 1.5t-18 7t-8 14.5q12 89 45 200q-1 1 -2 3q-3 7 -5.5 16.5t-0.5 20t11 12.5l14 2q16 51 35 100q48 129 74 182q36 78 79 109q44 32 97 30t71 -39q58 -121 90 -316q16 2 30 4q21 5 30 2t12 -23
q3 -6 0.5 -27t-14.5 -20q-26 2 -48 3q6 -47 16.5 -132.5t16.5 -121.5q5 -20 4 -29.5t-20 -14.5q-5 -1 -11 -2t-15.5 -2t-15.5 2t-7 10q-10 190 -20 292q-107 2 -192 -11q-103 -17 -172 -51zM143 273q132 26 228 38q25 4 113 11q0 4 -1 7q-16 141 -50 232q-13 36 -31 59
t-36 26q-19 3 -49 -14.5t-45 -45.5q-81 -150 -129 -313zM279 890q2 -11 1.5 -20t-1 -10.5t0.5 -4.5q1 -1 5 -1.5t7 -2.5q14 -14 14.5 -23.5t-17.5 -21.5q-4 -3 -10 -6t-15 -6t-15.5 -2t-8.5 7q-3 13 -3 22.5t1 13t0 4.5q0 1 -2 1.5t-5.5 2t-8.5 4.5q-13 11 -10.5 22t18.5 21
q7 3 16.5 6.5t20.5 3t12 -9.5zM460 870q-4 -11 -7.5 -18.5t-5.5 -10t-2 -3.5t3.5 -3.5t5.5 -5.5q7 -18 2.5 -27.5t-25.5 -11.5q-3 -1 -11.5 -0.5t-17 1.5t-14 5t-4.5 10q3 13 7.5 21.5t7 11.5t2.5 4t-1.5 2t-4.5 4t-5 8q-8 16 -0.5 25t26.5 9q14 1 31 -4t13 -17z" />
    <glyph glyph-name="Aring" unicode="&#xc5;" horiz-adv-x="676" 
d="M126 206q-24 -98 -32 -188q-1 -14 -2.5 -19.5t-7 -9.5t-17.5 -5q-8 0 -17 1.5t-18 7t-8 14.5q12 89 45 200q-1 1 -2 3q-3 7 -5.5 16.5t-0.5 20t11 12.5l14 2q16 51 35 100q48 129 74 182q36 78 79 109q44 32 97 30t71 -39q58 -121 90 -316q16 2 30 4q21 5 30 2t12 -23
q3 -6 0.5 -27t-14.5 -20q-26 2 -48 3q6 -47 16.5 -132.5t16.5 -121.5q5 -20 4 -29.5t-20 -14.5q-5 -1 -11 -2t-15.5 -2t-15.5 2t-7 10q-10 190 -20 292q-107 2 -192 -11q-103 -17 -172 -51zM143 273q132 26 228 38q25 4 113 11q0 4 -1 7q-16 141 -50 232q-13 36 -31 59
t-36 26q-19 3 -49 -14.5t-45 -45.5q-81 -150 -129 -313zM318 843q-29 -44 -7 -54q20 -8 44 -0.5t36 27.5q4 5 -3 15t-20 15q-30 12 -50 -3zM264 890q6 8 17 6q36 12 75.5 6.5t61.5 -30.5q23 -29 4.5 -72t-57.5 -57q-26 -9 -55 -2.5t-48 25.5q-32 32 -7 107v1q-2 12 6 15
q1 1 3 1z" />
    <glyph glyph-name="AE" unicode="&#xc6;" horiz-adv-x="1035" 
d="M144 276q101 23 181 35q27 4 80 9.5t78 9.5q-16 140 -50 231q-13 36 -31 59t-36 26q-19 3 -49 -14.5t-45 -45.5q-80 -148 -128 -310zM908 615q-108 40 -172 14q-51 -21 -102 -123q-38 -78 -60 -160q87 26 159 40q23 4 68 10t65 10q20 6 29.5 2.5t11.5 -23.5q3 -6 0.5 -27
t-13.5 -20q-134 11 -206 -6q-76 -18 -126 -59q-2 -1 -4 -3q-6 -36 -7 -70q2 -16 10 -88q13 -27 35 -43q33 -25 103 -24q124 3 192 61q6 5 13.5 12.5t10 9.5t8.5 1t14 -7q4 -3 8.5 -7.5t11 -12t7.5 -13t-3 -11.5q-35 -29 -90 -54.5t-113 -30.5q-122 -11 -185 33l2 -14
q5 -20 4 -29.5t-20 -14.5q-5 -1 -11 -2t-15.5 -2t-15.5 2t-7 10q-9 189 -20 289q-136 8 -225 -8q-81 -16 -138 -46q-25 -100 -33 -193q-1 -14 -2.5 -19.5t-7 -9.5t-17.5 -5q-8 0 -17 1.5t-18 7t-8 14.5q12 85 43 192q-3 4 -6 9q-3 7 -6 16t-1.5 20t9.5 13q12 3 23 5
q16 50 35 99q48 129 74 182q36 78 79 109q44 32 97 30t71 -39q54 -112 85 -286q4 13 9 27q47 144 120 240q46 61 127 74q14 2 27.5 2.5t29 -1.5t25.5 -3.5t27.5 -5l22.5 -4.5q19 -4 24.5 -11t1.5 -24q-3 -14 -12 -27.5t-21 -8.5z" />
    <glyph glyph-name="Ccedilla" unicode="&#xc7;" horiz-adv-x="730" 
d="M395 1q-6 -6 -18.5 -17t-17.5 -15.5t-11 -11t-10 -13.5q-1 -1 -1 -2q86 -5 111 -54q12 -24 -6.5 -55.5t-52.5 -57.5q-9 -8 -14 -11t-11 -4t-10.5 3.5t-10.5 13.5q-3 4 -5.5 10t-5.5 14.5t-2.5 15.5t7.5 9q27 11 43.5 23t19 22t-7.5 18q-24 19 -68 3q-6 -19 -27 -13
q-1 -1 -2 -1q-16 -10 -25 -8.5t-17 18.5q-3 7 -6 16.5t-2 20t10 11.5q9 2 19 3q5 7 13.5 16t14 15.5t9.5 12.5q7 11 12 23q-80 13 -144 60q-49 35 -82 98t-43 139q-17 134 47 258q43 84 122 131q46 27 92.5 37t95.5 -2q138 -42 227 -265q11 -25 10.5 -36t-19.5 -18
q-8 -3 -16.5 -5t-20 -1t-13.5 9q-9 52 -33 116t-65 103q-42 39 -103.5 47t-113.5 -17q-52 -24 -92.5 -76t-61.5 -118q-17 -52 -15 -114t21 -123q25 -79 91 -128q71 -51 156 -50q91 2 153 57q30 25 48 62.5t24 76.5q2 20 7.5 26t22.5 4q15 -1 29.5 -8t11.5 -19
q-12 -43 -37 -86.5t-68.5 -86t-94.5 -60.5q-29 -10 -61 -13z" />
    <glyph glyph-name="Egrave" unicode="&#xc8;" horiz-adv-x="714" 
d="M584 629q-126 39 -204 22q-79 -18 -143 -112q-52 -79 -83 -163q102 34 177 54q27 7 82 17.5t82 17.5q20 7 29 4.5t14 -21.5q3 -6 2.5 -27.5t-12.5 -21.5q-160 -2 -251 -29q-86 -26 -146 -67q-19 -82 -10 -150q3 -26 26.5 -48t57.5 -33q46 -16 132 -12q150 6 236 63
q6 5 14.5 12t11.5 8t8.5 -0.5t12.5 -8.5q4 -4 8 -8.5t9.5 -13t5.5 -14t-4 -10.5q-40 -26 -103 -50t-128 -30q-129 -12 -206 14q-56 19 -91 64t-42 101q-6 50 8 111q-1 1 -1 2q-4 6 -8 15t-3.5 19.5t8.5 13.5q10 4 20 7q6 18 13 36q76 186 170 259q94 74 310 51
q19 -2 25 -8.5t3 -24.5q-2 -14 -10 -28t-20 -11zM289 938q42 -34 82 -87q17 -24 38 -39q12 -10 16.5 -15t3 -12t-10.5 -18q-4 -3 -9 -7.5t-13 -10t-14 -5.5t-10 4q-12 20 -26.5 52t-23.5 43q-18 21 -51 26q-34 6 -20 39q5 13 16.5 25.5t21.5 4.5z" />
    <glyph glyph-name="Eacute" unicode="&#xc9;" horiz-adv-x="714" 
d="M584 629q-126 39 -204 22q-79 -18 -143 -112q-52 -79 -83 -163q102 34 177 54q27 7 82 17.5t82 17.5q20 7 29 4.5t14 -21.5q3 -6 2.5 -27.5t-12.5 -21.5q-160 -2 -251 -29q-86 -26 -146 -67q-19 -82 -10 -150q3 -26 26.5 -48t57.5 -33q46 -16 132 -12q150 6 236 63
q6 5 14.5 12t11.5 8t8.5 -0.5t12.5 -8.5q4 -4 8 -8.5t9.5 -13t5.5 -14t-4 -10.5q-40 -26 -103 -50t-128 -30q-129 -12 -206 14q-56 19 -91 64t-42 101q-6 50 8 111q-1 1 -1 2q-4 6 -8 15t-3.5 19.5t8.5 13.5q10 4 20 7q6 18 13 36q76 186 170 259q94 74 310 51
q19 -2 25 -8.5t3 -24.5q-2 -14 -10 -28t-20 -11zM439 886q-60 -45 -80 -71q-14 -20 -26 -52q-4 -11 -6.5 -16t-7 -9t-10.5 -3t-16 6q-4 2 -9.5 5.5t-13.5 9.5t-10 11.5t1 11.5q16 17 42.5 43.5t36.5 39.5q25 32 37 60q14 31 42 9q12 -9 21 -23t-1 -22z" />
    <glyph glyph-name="Ecircumflex" unicode="&#xca;" horiz-adv-x="714" 
d="M584 629q-126 39 -204 22q-79 -18 -143 -112q-52 -79 -83 -163q102 34 177 54q27 7 82 17.5t82 17.5q20 7 29 4.5t14 -21.5q3 -6 2.5 -27.5t-12.5 -21.5q-160 -2 -251 -29q-86 -26 -146 -67q-19 -82 -10 -150q3 -26 26.5 -48t57.5 -33q46 -16 132 -12q150 6 236 63
q6 5 14.5 12t11.5 8t8.5 -0.5t12.5 -8.5q4 -4 8 -8.5t9.5 -13t5.5 -14t-4 -10.5q-40 -26 -103 -50t-128 -30q-129 -12 -206 14q-56 19 -91 64t-42 101q-6 50 8 111q-1 1 -1 2q-4 6 -8 15t-3.5 19.5t8.5 13.5q10 4 20 7q6 18 13 36q76 186 170 259q94 74 310 51
q19 -2 25 -8.5t3 -24.5q-2 -14 -10 -28t-20 -11zM213 817q17 9 37.5 28t37 36t43.5 31.5t57 16.5q15 2 42.5 -37.5t38.5 -45.5q3 -2 9.5 -5.5t8 -4.5t5 -4t3.5 -5t0.5 -5.5t-1.5 -7.5t-5 -9q-2 -5 -6 -10.5t-10.5 -13t-12 -9t-10.5 2.5q-9 9 -18 19.5t-16 19.5l-14 18
t-12.5 15.5t-11 12.5t-10 9.5t-9 6t-7.5 1.5t-6 -4q-11 -13 -38.5 -50.5t-46.5 -57.5q-23 -25 -43 4q-5 6 -8.5 14.5t-5 19.5t8.5 14z" />
    <glyph glyph-name="Edieresis" unicode="&#xcb;" horiz-adv-x="714" 
d="M584 629q-126 39 -204 22q-79 -18 -143 -112q-52 -79 -83 -163q102 34 177 54q27 7 82 17.5t82 17.5q20 7 29 4.5t14 -21.5q3 -6 2.5 -27.5t-12.5 -21.5q-160 -2 -251 -29q-86 -26 -146 -67q-19 -82 -10 -150q3 -26 26.5 -48t57.5 -33q46 -16 132 -12q150 6 236 63
q6 5 14.5 12t11.5 8t8.5 -0.5t12.5 -8.5q4 -4 8 -8.5t9.5 -13t5.5 -14t-4 -10.5q-40 -26 -103 -50t-128 -30q-129 -12 -206 14q-56 19 -91 64t-42 101q-6 50 8 111q-1 1 -1 2q-4 6 -8 15t-3.5 19.5t8.5 13.5q10 4 20 7q6 18 13 36q76 186 170 259q94 74 310 51
q19 -2 25 -8.5t3 -24.5q-2 -14 -10 -28t-20 -11zM318 874q-3 -12 -6.5 -20t-5.5 -11t-2 -5q1 -2 4.5 -5t5.5 -6q8 -17 4 -27t-25 -13q-7 -3 -28.5 -0.5t-19.5 14.5q3 13 7 22.5t6.5 13t1.5 5.5q0 1 -1.5 2.5t-4 5t-5.5 8.5q-8 16 -1 25t26 11q14 1 31 -3.5t13 -16.5z
M482 885q-2 -12 -5.5 -22t-5 -14.5t-1.5 -7.5t4 -8t5 -8q8 -18 4 -28t-24 -12q-7 -3 -28.5 -0.5t-19.5 14.5q3 13 7 23.5t6 15.5t2 8q0 2 -1.5 4t-4.5 6.5t-6 9.5q-18 32 23 37h18t20 -5t7 -13z" />
    <glyph glyph-name="Igrave" unicode="&#xcc;" horiz-adv-x="416" 
d="M-6 702q30 5 85.5 15t83.5 14q31 4 107 4q12 0 17.5 -0.5t11 -3t6.5 -8.5t0 -17q0 -5 -1.5 -11.5t-4 -15t-7 -13.5t-11.5 -3q-56 17 -92 20q0 -1 -1 -3q-45 -173 -43 -414q2 -151 31 -241l12 2q48 5 125 -8q23 -3 29.5 -9t0.5 -26q-2 -7 -5 -15.5t-10.5 -17.5t-15.5 -5
q-67 33 -123 34q-3 -6 -16 -12q-5 -2 -11.5 -4t-15.5 -4t-15.5 -0.5t-7.5 8.5v3q-56 -15 -97 -49q-15 -11 -24.5 -10t-18.5 17q-4 7 -7.5 16t-3.5 19.5t9 13.5q83 26 136 37q-19 149 -15 382q1 55 8 149.5t7 131.5q-47 -12 -87 -38q-16 -10 -25.5 -7t-16.5 20q-3 8 -5 17
t0 19.5t11 12.5zM104 944q29 -71 43 -89q12 -15 38 -28q14 -6 19.5 -10t6 -11.5t-7.5 -19.5q-3 -4 -7 -9.5t-11 -12.5t-12.5 -8.5t-10.5 2.5q-20 23 -41 54.5l-23 34.5q-21 29 -44 46q-27 20 1 43q7 5 15.5 9.5t19.5 6.5t14 -8z" />
    <glyph glyph-name="Iacute" unicode="&#xcd;" horiz-adv-x="416" 
d="M-6 702q30 5 85.5 15t83.5 14q31 4 107 4q12 0 17.5 -0.5t11 -3t6.5 -8.5t0 -17q0 -5 -1.5 -11.5t-4 -15t-7 -13.5t-11.5 -3q-56 17 -92 20q0 -1 -1 -3q-45 -173 -43 -414q2 -151 31 -241l12 2q48 5 125 -8q23 -3 29.5 -9t0.5 -26q-2 -7 -5 -15.5t-10.5 -17.5t-15.5 -5
q-67 33 -123 34q-3 -6 -16 -12q-5 -2 -11.5 -4t-15.5 -4t-15.5 -0.5t-7.5 8.5v3q-56 -15 -97 -49q-15 -11 -24.5 -10t-18.5 17q-4 7 -7.5 16t-3.5 19.5t9 13.5q83 26 136 37q-19 149 -15 382q1 55 8 149.5t7 131.5q-47 -12 -87 -38q-16 -10 -25.5 -7t-16.5 20q-3 8 -5 17
t0 19.5t11 12.5zM230 874q-4 -3 -17 -10.5t-16.5 -10t-12.5 -8t-13.5 -9t-10.5 -9t-10 -10.5q-14 -14 -14 -35q-1 -21 -6.5 -28t-26.5 -3q-4 1 -11 3t-15.5 5.5t-12.5 8.5t-1 11q8 15 18.5 29t17.5 21.5t19 19.5t17 16q25 26 36 49q16 31 43 6q6 -5 12 -13t9.5 -18.5
t-5.5 -14.5z" />
    <glyph glyph-name="Icircumflex" unicode="&#xce;" horiz-adv-x="416" 
d="M-6 702q30 5 85.5 15t83.5 14q31 4 107 4q12 0 17.5 -0.5t11 -3t6.5 -8.5t0 -17q0 -5 -1.5 -11.5t-4 -15t-7 -13.5t-11.5 -3q-56 17 -92 20q0 -1 -1 -3q-45 -173 -43 -414q2 -151 31 -241l12 2q48 5 125 -8q23 -3 29.5 -9t0.5 -26q-2 -7 -5 -15.5t-10.5 -17.5t-15.5 -5
q-67 33 -123 34q-3 -6 -16 -12q-5 -2 -11.5 -4t-15.5 -4t-15.5 -0.5t-7.5 8.5v3q-56 -15 -97 -49q-15 -11 -24.5 -10t-18.5 17q-4 7 -7.5 16t-3.5 19.5t9 13.5q83 26 136 37q-19 149 -15 382q1 55 8 149.5t7 131.5q-47 -12 -87 -38q-16 -10 -25.5 -7t-16.5 20q-3 8 -5 17
t0 19.5t11 12.5zM5 795q48 67 84.5 96t73.5 18q14 -5 40.5 -33.5t39.5 -39.5q2 -1 6.5 -4t5.5 -4t4.5 -3.5t4 -3.5t2 -3.5t1 -4t0 -4t-1 -5t-3.5 -5.5l-4 -6q-3 -4 -7.5 -9t-12 -11.5t-13 -7t-11.5 3.5q-18 23 -39.5 53.5t-31 42.5t-15.5 11q-10 -2 -25.5 -29.5t-29.5 -70.5
q-6 -18 -14 -22.5t-25 3.5q-13 6 -25 17t-4 21z" />
    <glyph glyph-name="Idieresis" unicode="&#xcf;" horiz-adv-x="416" 
d="M-6 702q30 5 85.5 15t83.5 14q31 4 107 4q12 0 17.5 -0.5t11 -3t6.5 -8.5t0 -17q0 -5 -1.5 -11.5t-4 -15t-7 -13.5t-11.5 -3q-56 17 -92 20q0 -1 -1 -3q-45 -173 -43 -414q2 -151 31 -241l12 2q48 5 125 -8q23 -3 29.5 -9t0.5 -26q-2 -7 -5 -15.5t-10.5 -17.5t-15.5 -5
q-67 33 -123 34q-3 -6 -16 -12q-5 -2 -11.5 -4t-15.5 -4t-15.5 -0.5t-7.5 8.5v3q-56 -15 -97 -49q-15 -11 -24.5 -10t-18.5 17q-4 7 -7.5 16t-3.5 19.5t9 13.5q83 26 136 37q-19 149 -15 382q1 55 8 149.5t7 131.5q-47 -12 -87 -38q-16 -10 -25.5 -7t-16.5 20q-3 8 -5 17
t0 19.5t11 12.5zM103 887q-3 -12 -6.5 -23t-5 -16t-0.5 -9q0 -4 4.5 -9.5t6.5 -8.5q11 -16 8.5 -26t-22.5 -17q-4 -1 -11 -2.5t-16 -2t-15.5 2t-6.5 8.5q0 21 4 38t3 21q0 3 -12 28q-15 32 25 36q14 1 30.5 -3t13.5 -17zM250 891q-1 -13 -3.5 -23.5t-3.5 -15.5t0 -8
q0 -4 4.5 -8.5t6.5 -8.5q10 -17 7.5 -27t-23.5 -15q-4 -1 -11 -2t-16.5 -1.5t-15.5 2t-5 9.5q0 14 3 25.5t4.5 17t0.5 8.5q0 3 -2 5t-5.5 6.5t-7.5 9.5q-20 30 20 39q8 4 28 2t19 -15z" />
    <glyph glyph-name="Eth" unicode="&#xd0;" horiz-adv-x="751" 
d="M124 -10q-36 0 -36 19q-1 39 -10 152.5t-11 180.5q-15 -7 -28 -16q-16 -10 -25 -7.5t-17 18.5q-3 7 -6 16.5t-1.5 20t10.5 12.5q37 7 65 13q-1 142 20 240q9 43 60.5 68t109.5 25q75 0 159 -45q141 -75 213 -187q33 -51 46.5 -112t1.5 -119q-15 -68 -55.5 -126t-88.5 -82
q-81 -40 -235 -84.5t-185 -56.5q-7 -2 -15 -6t-11.5 -5.5t-8 -1.5t-8 3.5t-7.5 11.5q-3 4 -5.5 10t-5.5 14.5t-2 15.5t7 9q22 7 69 19zM123 362q13 -198 33 -334q4 -23 -3 -30q180 46 257 69q75 23 126 61t78 105q26 72 11 146.5t-64 136.5q-49 61 -118 104.5t-141 60.5
q-58 13 -108 -5.5t-69 -59.5q-3 -8 -5.5 -18.5t-4 -19.5t-2 -24t-0.5 -25t1 -29t1.5 -28t2 -32t2.5 -32q50 9 94 12q23 3 66.5 3.5t60.5 1.5q14 1 22.5 0.5t12 -6.5t3.5 -20q0 -5 -0.5 -11.5t-2 -15.5t-6 -14.5t-10.5 -3.5q-124 27 -192 17q-24 -3 -45 -9z" />
    <glyph glyph-name="Ntilde" unicode="&#xd1;" horiz-adv-x="772" 
d="M105 48q-20 133 -20 283q0 141 22 241q25 115 82 130q31 9 68 -17.5t60 -71.5q51 -99 90.5 -187t84.5 -198.5t61 -147.5q0 24 -0.5 89.5t0.5 116.5t3 99q6 117 70 340q1 3 2.5 8.5t2 7t1.5 5.5t2 5t2.5 3.5t3 3t4 1.5t5 0.5t6 -1t7.5 -1.5q8 -2 16 -5.5t17 -11t5 -15.5
q-102 -238 -103 -467q0 -159 22 -293q3 -19 -2.5 -26t-23.5 -9q-16 -1 -29 3q-20 -6 -24 6q-20 55 -63.5 171t-55.5 151q-38 102 -49 129q-37 96 -54 127q-28 50 -58.5 85t-50.5 46t-24 1q-29 -65 -39.5 -166t-3.5 -205t27 -200q5 -18 2.5 -26.5t-19.5 -13.5q-7 -5 -26.5 -4
t-20.5 14zM205 778q69 98 127 91q30 -3 69 -29.5t50 -28.5q23 -2 85 83q1 2 4.5 6.5t4 5.5t3.5 4.5t4 4t3 2t3.5 1.5h4t5 -1.5t5.5 -3t7 -4.5t8.5 -7t11.5 -11.5t7.5 -13t-3.5 -11.5q-129 -110 -218 -71q-18 8 -32 11t-29 0.5t-28 -14.5t-24 -34q-9 -18 -15.5 -21.5
t-23.5 2.5q-13 6 -24.5 17.5t-4.5 21.5z" />
    <glyph glyph-name="Ograve" unicode="&#xd2;" horiz-adv-x="802" 
d="M458 741q42 -14 86 -42t90 -77t69 -105q28 -67 28.5 -146.5t-25.5 -147.5q-27 -74 -85 -130t-132 -74q-76 -18 -152.5 4t-139.5 71q-77 60 -119 168.5t-21 209.5q11 54 41 102.5t75 83.5q13 11 29.5 20t29.5 15t34 13l31.5 10.5t34 10t31.5 8.5q24 9 34 9t17 -19
q3 -7 5 -16t1 -20.5t-9 -12.5q-35 -6 -58.5 -11.5t-64 -18.5t-76 -35.5t-61.5 -53.5q-37 -43 -47.5 -110.5t6.5 -125.5q16 -66 55.5 -124t94.5 -94q54 -36 122 -44t135 15q42 15 76.5 50.5t56.5 81.5q40 86 29.5 191t-67.5 177q-29 37 -71 62t-85 34q-19 4 -25 10t-3 23
q3 14 10.5 28.5t19.5 9.5zM345 947q14 -19 30.5 -46.5t24.5 -37.5q12 -16 35 -33q13 -9 17 -14t3 -12.5t-11 -17.5q-3 -4 -8 -8t-13.5 -10t-14 -6t-10.5 5q-10 18 -23.5 47t-22.5 40q-15 20 -43 32q-32 14 -9 43q9 11 23.5 20t21.5 -2z" />
    <glyph glyph-name="Oacute" unicode="&#xd3;" horiz-adv-x="802" 
d="M458 741q42 -14 86 -42t90 -77t69 -105q28 -67 28.5 -146.5t-25.5 -147.5q-27 -74 -85 -130t-132 -74q-76 -18 -152.5 4t-139.5 71q-77 60 -119 168.5t-21 209.5q11 54 41 102.5t75 83.5q13 11 29.5 20t29.5 15t34 13l31.5 10.5t34 10t31.5 8.5q24 9 34 9t17 -19
q3 -7 5 -16t1 -20.5t-9 -12.5q-35 -6 -58.5 -11.5t-64 -18.5t-76 -35.5t-61.5 -53.5q-37 -43 -47.5 -110.5t6.5 -125.5q16 -66 55.5 -124t94.5 -94q54 -36 122 -44t135 15q42 15 76.5 50.5t56.5 81.5q40 86 29.5 191t-67.5 177q-29 37 -71 62t-85 34q-19 4 -25 10t-3 23
q3 14 10.5 28.5t19.5 9.5zM461 889q-3 -3 -11 -9.5t-10.5 -8.5t-8.5 -7l-9 -7.5t-7 -6.5t-6.5 -7t-5.5 -6.5t-6 -7.5q-9 -12 -18 -42q-7 -21 -13.5 -25.5t-26.5 3.5q-4 2 -9.5 5.5t-13.5 9.5t-10 11.5t1 11.5q14 15 36 36t30 32q15 21 25 50q11 33 41 11q12 -8 22 -21.5
t0 -21.5z" />
    <glyph glyph-name="Ocircumflex" unicode="&#xd4;" horiz-adv-x="802" 
d="M458 741q42 -14 86 -42t90 -77t69 -105q28 -67 28.5 -146.5t-25.5 -147.5q-27 -74 -85 -130t-132 -74q-76 -18 -152.5 4t-139.5 71q-77 60 -119 168.5t-21 209.5q11 54 41 102.5t75 83.5q13 11 29.5 20t29.5 15t34 13l31.5 10.5t34 10t31.5 8.5q24 9 34 9t17 -19
q3 -7 5 -16t1 -20.5t-9 -12.5q-35 -6 -58.5 -11.5t-64 -18.5t-76 -35.5t-61.5 -53.5q-37 -43 -47.5 -110.5t6.5 -125.5q16 -66 55.5 -124t94.5 -94q54 -36 122 -44t135 15q42 15 76.5 50.5t56.5 81.5q40 86 29.5 191t-67.5 177q-29 37 -71 62t-85 34q-19 4 -25 10t-3 23
q3 14 10.5 28.5t19.5 9.5zM251.5 819.5l25.5 28.5q24 26 36 38t29.5 27t33 19t32.5 1q12 -2 36 -30.5t39 -40.5q2 -2 7 -5.5t6 -4.5t4.5 -4t4 -4l2 -4t0.5 -4.5t-1.5 -4.5t-2.5 -6t-5 -7t-7.5 -9t-12 -11.5t-13 -7t-11.5 3.5q-23 29 -40.5 55t-24 37t-6.5 12
q-26 -23 -67 -108q-8 -17 -16.5 -20t-24.5 7q-12 7 -22 20t-1.5 22.5z" />
    <glyph glyph-name="Otilde" unicode="&#xd5;" horiz-adv-x="802" 
d="M458 741q42 -14 86 -42t90 -77t69 -105q28 -67 28.5 -146.5t-25.5 -147.5q-27 -74 -85 -130t-132 -74q-76 -18 -152.5 4t-139.5 71q-77 60 -119 168.5t-21 209.5q11 54 41 102.5t75 83.5q13 11 29.5 20t29.5 15t34 13l31.5 10.5t34 10t31.5 8.5q24 9 34 9t17 -19
q3 -7 5 -16t1 -20.5t-9 -12.5q-35 -6 -58.5 -11.5t-64 -18.5t-76 -35.5t-61.5 -53.5q-37 -43 -47.5 -110.5t6.5 -125.5q16 -66 55.5 -124t94.5 -94q54 -36 122 -44t135 15q42 15 76.5 50.5t56.5 81.5q40 86 29.5 191t-67.5 177q-29 37 -71 62t-85 34q-19 4 -25 10t-3 23
q3 14 10.5 28.5t19.5 9.5zM581 902q-21 -39 -50 -64.5t-60 -28.5q-21 -1 -42 3t-47 13.5t-36 11.5q-24 6 -31 3.5t-6.5 -16t0 -21.5t-6.5 -12t-20 -4q-5 0 -11.5 1t-15.5 3t-14.5 6.5t-3.5 10.5q10 39 31 62.5t46 22.5q18 -1 52.5 -14.5t48.5 -16.5q34 -8 60 4.5t36 45.5
q5 19 12 24t24 0q14 -4 27 -13.5t7 -20.5z" />
    <glyph glyph-name="Odieresis" unicode="&#xd6;" horiz-adv-x="802" 
d="M458 741q42 -14 86 -42t90 -77t69 -105q28 -67 28.5 -146.5t-25.5 -147.5q-27 -74 -85 -130t-132 -74q-76 -18 -152.5 4t-139.5 71q-77 60 -119 168.5t-21 209.5q11 54 41 102.5t75 83.5q13 11 29.5 20t29.5 15t34 13l31.5 10.5t34 10t31.5 8.5q24 9 34 9t17 -19
q3 -7 5 -16t1 -20.5t-9 -12.5q-35 -6 -58.5 -11.5t-64 -18.5t-76 -35.5t-61.5 -53.5q-37 -43 -47.5 -110.5t6.5 -125.5q16 -66 55.5 -124t94.5 -94q54 -36 122 -44t135 15q42 15 76.5 50.5t56.5 81.5q40 86 29.5 191t-67.5 177q-29 37 -71 62t-85 34q-19 4 -25 10t-3 23
q3 14 10.5 28.5t19.5 9.5zM346 897q-1 -13 -2.5 -22.5t-2.5 -13t-1 -5.5t4 -5.5t5 -6.5q8 -18 4 -27.5t-24 -12.5q-7 -3 -28.5 -0.5t-19.5 14.5q2 8 4 15t4 10t3.5 5t2.5 2l1 1q0 1 -2 2.5t-5.5 5.5t-7.5 9q-21 29 17 40q9 4 29 3t19 -14zM516 904q-3 -12 -6.5 -22t-5 -15
t-0.5 -9q0 -3 3.5 -8t5.5 -9q8 -18 4 -27.5t-25 -12.5q-7 -2 -28.5 0.5t-19.5 13.5q3 14 7 25t6.5 16t1.5 8q0 2 -1.5 4.5t-4.5 7t-6 9.5q-17 32 23 37h18t20.5 -4.5t7.5 -13.5z" />
    <glyph glyph-name="multiply" unicode="&#xd7;" horiz-adv-x="636" 
d="M257 298q-34 33 -57 53.5t-56.5 45.5t-63.5 41q-18 9 -21 17t6 24q8 12 20.5 23t21.5 2q34 -31 180 -174q2 2 4 5q27 28 81 81t77 78q2 2 6 6.5t5.5 5.5t4.5 4t4.5 3.5t4 1.5t4.5 0t5 -2t5.5 -3.5t6.5 -5.5t8 -8t9.5 -13t5.5 -13.5t-4 -11.5q-113 -81 -194 -160
q26 -25 48 -46q12 -12 40.5 -39.5t44.5 -42t39.5 -33t41.5 -29.5q6 -3 13 -5.5t9.5 -4t6.5 -4.5t2.5 -7.5t-2.5 -13.5q-3 -13 -12.5 -29.5t-18.5 -8.5q-41 34 -80.5 71.5t-90.5 89t-72 71.5q-14 -14 -27 -29q-100 -111 -142 -186q-10 -16 -18.5 -18.5t-23.5 7.5
q-12 8 -21.5 21t-0.5 23q54 53 201 213z" />
    <glyph glyph-name="Oslash" unicode="&#xd8;" horiz-adv-x="857" 
d="M610 577q-171 -152 -280 -264q-74 -77 -133 -155q29 -32 63 -55q54 -36 122 -44t135 15q42 15 76.5 50.5t56.5 81.5q40 86 29.5 191t-67.5 177q-1 1 -2 3zM573 613q-52 43 -117 57q-19 4 -25 10t-3 23q3 14 10.5 28.5t19.5 9.5q80 -28 151 -93q61 61 105 110q3 3 8.5 9.5
t7 8.5t5.5 5t7 2t7.5 -3t9.5 -6q4 -3 9 -7t11.5 -12t7 -13.5t-3.5 -10.5q-26 -24 -78 -69.5t-59 -52.5q37 -44 57 -92q28 -67 28.5 -146.5t-25.5 -147.5q-27 -74 -85 -130t-132 -74q-76 -18 -152.5 4t-139.5 71q-15 12 -29 26q-56 -79 -92 -153q-9 -18 -16 -21.5t-24 3.5
q-13 6 -24.5 17.5t-3.5 22.5q61 83 130 166q-37 47 -60 108q-42 108 -21 209q11 54 41 102.5t75 83.5q13 11 29.5 20t29.5 15t34 13l31.5 10.5t34 10t31.5 8.5q24 9 34 9t17 -19q3 -7 5 -16t1 -20.5t-9 -12.5q-35 -6 -58.5 -11.5t-64 -18.5t-76 -35.5t-61.5 -53.5
q-37 -43 -47.5 -110.5t6.5 -125.5q17 -69 59 -129q120 143 252 274q30 29 85 82t67 65z" />
    <glyph glyph-name="Ugrave" unicode="&#xd9;" horiz-adv-x="694" 
d="M165 717q-3 -26 -10 -69t-12 -76.5t-10.5 -78t-8.5 -82.5t-3 -81.5t4 -82.5q6 -53 37.5 -100.5t77.5 -83.5q48 -38 110 -41q69 -4 106 37q46 51 76 128t36 165q6 94 -14.5 177t-58.5 133q-5 7 -12 13.5t-9.5 9.5t-2 8.5t7.5 14.5q3 4 7 8.5t12 11t13.5 7.5t10.5 -3
q34 -41 63.5 -117.5t36.5 -166.5q8 -105 -24 -218q-46 -162 -129 -218q-50 -33 -117.5 -29t-132.5 40q-75 43 -117 142q-35 82 -32 183q1 64 13 184.5t12 173.5q0 20 5 26.5t22 7.5q8 0 17 -1.5t18.5 -7t7.5 -14.5zM331 929q8 -12 17.5 -28.5t15.5 -26.5t13 -18q1 -2 32 -35
q8 -8 11.5 -13t4.5 -10.5t-3 -10.5t-13 -11q-5 -3 -10.5 -6t-14.5 -6.5t-15.5 -3t-8.5 6.5q-4 11 -8 25.5t-6.5 21.5t-6 15.5t-8.5 13.5q-12 15 -39 27q-32 14 -7 42q5 6 13 12t18.5 10t14.5 -5z" />
    <glyph glyph-name="Uacute" unicode="&#xda;" horiz-adv-x="694" 
d="M165 717q-3 -26 -10 -69t-12 -76.5t-10.5 -78t-8.5 -82.5t-3 -81.5t4 -82.5q6 -53 37.5 -100.5t77.5 -83.5q48 -38 110 -41q69 -4 106 37q46 51 76 128t36 165q6 94 -14.5 177t-58.5 133q-5 7 -12 13.5t-9.5 9.5t-2 8.5t7.5 14.5q3 4 7 8.5t12 11t13.5 7.5t10.5 -3
q34 -41 63.5 -117.5t36.5 -166.5q8 -105 -24 -218q-46 -162 -129 -218q-50 -33 -117.5 -29t-132.5 40q-75 43 -117 142q-35 82 -32 183q1 64 13 184.5t12 173.5q0 20 5 26.5t22 7.5q8 0 17 -1.5t18.5 -7t7.5 -14.5zM475 892q-12 -10 -30 -25.5t-29 -25t-19 -18.5
q-13 -16 -18 -42q-5 -21 -11.5 -27t-25.5 0q-5 2 -11 4.5t-14.5 8t-11 10.5t0.5 11q17 24 44 51l30 30q22 25 30 53q11 33 42 13q12 -8 22.5 -21t0.5 -22z" />
    <glyph glyph-name="Ucircumflex" unicode="&#xdb;" horiz-adv-x="694" 
d="M165 717q-3 -26 -10 -69t-12 -76.5t-10.5 -78t-8.5 -82.5t-3 -81.5t4 -82.5q6 -53 37.5 -100.5t77.5 -83.5q48 -38 110 -41q69 -4 106 37q46 51 76 128t36 165q6 94 -14.5 177t-58.5 133q-5 7 -12 13.5t-9.5 9.5t-2 8.5t7.5 14.5q3 4 7 8.5t12 11t13.5 7.5t10.5 -3
q34 -41 63.5 -117.5t36.5 -166.5q8 -105 -24 -218q-46 -162 -129 -218q-50 -33 -117.5 -29t-132.5 40q-75 43 -117 142q-35 82 -32 183q1 64 13 184.5t12 173.5q0 20 5 26.5t22 7.5q8 0 17 -1.5t18.5 -7t7.5 -14.5zM227 795q8 9 26.5 31.5t28 32.5t24.5 24.5t29 21.5t29 10
q24 4 47.5 -18.5t52.5 -63.5q7 -11 9.5 -15.5t4 -10.5t-3 -10.5t-13.5 -10.5l-10 -5t-14.5 -6t-15.5 -2t-9 7q-19 52 -34 72t-29 11q-32 -23 -55 -93q-6 -17 -15 -21t-25 5q-13 7 -24.5 19t-2.5 22z" />
    <glyph glyph-name="Udieresis" unicode="&#xdc;" horiz-adv-x="694" 
d="M165 717q-3 -26 -10 -69t-12 -76.5t-10.5 -78t-8.5 -82.5t-3 -81.5t4 -82.5q6 -53 37.5 -100.5t77.5 -83.5q48 -38 110 -41q69 -4 106 37q46 51 76 128t36 165q6 94 -14.5 177t-58.5 133q-5 7 -12 13.5t-9.5 9.5t-2 8.5t7.5 14.5q3 4 7 8.5t12 11t13.5 7.5t10.5 -3
q34 -41 63.5 -117.5t36.5 -166.5q8 -105 -24 -218q-46 -162 -129 -218q-50 -33 -117.5 -29t-132.5 40q-75 43 -117 142q-35 82 -32 183q1 64 13 184.5t12 173.5q0 20 5 26.5t22 7.5q8 0 17 -1.5t18.5 -7t7.5 -14.5zM337 874q-2 -14 -4 -23.5t-3.5 -13t-1.5 -5.5q1 -2 4.5 -5
t5.5 -6q8 -18 4 -28t-25 -12q-7 -3 -28.5 -0.5t-19.5 13.5q2 9 4.5 16t4 10.5t3.5 5.5l3 3t0 1q0 1 -1.5 2.5t-5 6t-7.5 10.5q-19 30 20 38q8 4 28 1.5t19 -14.5zM494 887q-2 -12 -4.5 -22t-3.5 -14.5t-1 -8.5q0 -2 3.5 -8.5t4.5 -11.5q6 -19 1 -28t-26 -9q-5 0 -12 0.5
t-16 2.5t-14.5 6.5t-3.5 10.5q4 12 9 21.5t7.5 13t2.5 5.5q-1 2 -2.5 3.5t-5 5.5t-6.5 10q-20 29 20 38q9 3 29 0.5t18 -15.5z" />
    <glyph glyph-name="Yacute" unicode="&#xdd;" horiz-adv-x="716" 
d="M278 271q-12 63 -29 120q-25 86 -72.5 159t-108.5 117q-16 12 -18.5 19t6.5 23q8 12 21.5 22t21.5 1q138 -163 207 -393q55 125 122 219q25 36 80.5 98.5t65.5 75.5q2 2 6 7t5 6t4 4.5t4 3.5t4 1.5t5 1t4.5 -1.5t5.5 -3t7 -5.5t8.5 -7.5t11 -12t6.5 -13.5t-4 -11.5
q-76 -64 -131.5 -121t-96.5 -122q-65 -104 -75 -216q-1 -12 -4 -18q11 -56 24 -157.5t21 -141.5q6 -21 4 -30.5t-21 -14.5q-6 -3 -27 -2.5t-21 12.5q-8 209 -27 328q-26 9 -20.5 24t11.5 29zM429 874q-54 -34 -71 -57q-11 -15 -19 -45q-3 -15 -6 -20.5t-11 -8.5t-21 4l-10 5
t-14.5 8.5t-10.5 10.5t1 12q16 20 39 44t30 34q22 29 35 53q15 31 42 6q6 -5 12 -13t9.5 -18.5t-5.5 -14.5z" />
    <glyph glyph-name="Thorn" unicode="&#xde;" horiz-adv-x="659" 
d="M139 264q12 0 44.5 -1t50 -1.5t44.5 -1t51 0.5t47 4q82 8 140 70q23 24 27.5 66.5t-13.5 69.5q-23 34 -75 54t-118 26q-90 8 -196 -5q-4 -113 -2 -242v-19.5v-20.5zM92 541q-15 2 -17 25q-3 38 15 44q-3 49 -9 88q-3 19 1.5 26.5t22.5 9.5q8 0 17.5 -0.5t19 -5.5t8.5 -14
q-4 -51 -7 -105q181 -4 277 -23q51 -10 93 -37t61 -66q22 -43 11.5 -104t-50.5 -88q-28 -20 -62.5 -34.5t-60.5 -22.5t-71.5 -14t-64 -8t-72 -5t-64.5 -3q2 -99 9 -167q5 -22 2 -31t-23 -12q-6 -3 -27 -0.5t-20 14.5q7 109 10 191q-17 -4 -25 -2t-12 19q-2 5 -3 11.5
t-1.5 15.5t2.5 15.5t10 6.5h31q2 78 1 149q0 9 -0.5 55.5t-1.5 71.5z" />
    <glyph glyph-name="germandbls" unicode="&#xdf;" horiz-adv-x="604" 
d="M108 4q-10 174 3 484q5 126 64 179q37 34 88.5 48t100.5 5q52 -9 93 -47t48 -89q5 -46 -16.5 -88.5t-59.5 -73.5q42 -21 64 -47q34 -39 39.5 -99t-14.5 -109q-13 -35 -41 -64.5t-65 -47.5q-51 -25 -137 -13q-3 1 -7 1q-26 4 -32.5 9t-4.5 24q1 8 3.5 17t9 18.5t14.5 6.5
q14 -5 33 -8.5t51.5 -3t58.5 10.5q36 14 60 61q29 56 20 108q-6 28 -22 51.5t-41 34.5q-26 10 -63 21q-47 -2 -67 17h-4l-2 1q1 2 3 3q-7 10 6 22q18 18 64 10q23 10 36 16t29.5 17.5t26.5 25.5q13 19 15 49t-8 52q-9 24 -30 42.5t-47 23.5q-51 11 -103.5 -2.5t-82.5 -50.5
q-9 -12 -15.5 -26.5t-10 -30t-5.5 -33.5t-2 -35.5v-36.5v-37q-4 -267 17 -392q4 -18 0.5 -26.5t-20.5 -11.5q-8 -4 -27 -1.5t-20 15.5z" />
    <glyph glyph-name="agrave" unicode="&#xe0;" horiz-adv-x="550" 
d="M73 364q1 42 31.5 82.5t74.5 53.5q84 24 134 9q65 -18 99 -74.5t35 -128.5q0 -9 0.5 -41.5t1 -42.5t1 -38.5t1.5 -41t3 -36.5t4.5 -40t6.5 -36.5t9 -39.5q7 -20 5.5 -30t-20.5 -15q-7 -2 -16 -3.5t-20.5 0.5t-12.5 10q-3 32 -4 70q-85 -28 -191 -19q-2 1 -16 2t-17 1.5
t-15 2t-16.5 2.5t-14.5 3.5t-16 5t-13.5 6.5t-13.5 8q-29 20 -35.5 57.5t9.5 68.5q20 41 60.5 76.5t90.5 56.5q74 30 184 5q-6 74 -24 133q-6 23 -50.5 30t-85.5 -1q-46 -7 -74.5 -28t-26.5 -46q1 -20 -2 -27t-20 -10q-8 -4 -27.5 -1t-18.5 16zM397 225q-92 46 -180 14
q-53 -19 -88 -65q-21 -28 -28 -57.5t5 -34.5q48 -27 126 -28.5t138 22.5q7 3 15.5 8t10.5 6t9 -1q1 122 0 135q-4 -1 -8 1zM237 744q9 -18 22.5 -47t20.5 -41q11 -19 32 -34q11 -8 15 -12.5t3 -11.5t-10 -16q-3 -3 -7.5 -6.5t-12 -9t-12.5 -5.5t-9 5q-12 21 -24.5 50
t-18.5 38q-15 25 -38 40q-26 16 -3 39q5 4 12.5 9t17 7.5t12.5 -5.5z" />
    <glyph glyph-name="aacute" unicode="&#xe1;" horiz-adv-x="550" 
d="M73 364q1 42 31.5 82.5t74.5 53.5q84 24 134 9q65 -18 99 -74.5t35 -128.5q0 -9 0.5 -41.5t1 -42.5t1 -38.5t1.5 -41t3 -36.5t4.5 -40t6.5 -36.5t9 -39.5q7 -20 5.5 -30t-20.5 -15q-7 -2 -16 -3.5t-20.5 0.5t-12.5 10q-3 32 -4 70q-85 -28 -191 -19q-2 1 -16 2t-17 1.5
t-15 2t-16.5 2.5t-14.5 3.5t-16 5t-13.5 6.5t-13.5 8q-29 20 -35.5 57.5t9.5 68.5q20 41 60.5 76.5t90.5 56.5q74 30 184 5q-6 74 -24 133q-6 23 -50.5 30t-85.5 -1q-46 -7 -74.5 -28t-26.5 -46q1 -20 -2 -27t-20 -10q-8 -4 -27.5 -1t-18.5 16zM397 225q-92 46 -180 14
q-53 -19 -88 -65q-21 -28 -28 -57.5t5 -34.5q48 -27 126 -28.5t138 22.5q7 3 15.5 8t10.5 6t9 -1q1 122 0 135q-4 -1 -8 1zM344.5 721.5q-7.5 -8.5 -17.5 -21t-15.5 -19t-12 -15t-10.5 -15.5q-10 -16 -13 -41q-3 -20 -8.5 -25.5t-23.5 -0.5q-4 1 -9.5 3.5t-13 6t-11 8.5
t-0.5 10q13 20 31.5 43.5t24.5 32.5q14 24 18 50q4 31 34 18q12 -5 23 -15.5t3.5 -19z" />
    <glyph glyph-name="acircumflex" unicode="&#xe2;" horiz-adv-x="550" 
d="M73 364q1 42 31.5 82.5t74.5 53.5q84 24 134 9q65 -18 99 -74.5t35 -128.5q0 -9 0.5 -41.5t1 -42.5t1 -38.5t1.5 -41t3 -36.5t4.5 -40t6.5 -36.5t9 -39.5q7 -20 5.5 -30t-20.5 -15q-7 -2 -16 -3.5t-20.5 0.5t-12.5 10q-3 32 -4 70q-85 -28 -191 -19q-2 1 -16 2t-17 1.5
t-15 2t-16.5 2.5t-14.5 3.5t-16 5t-13.5 6.5t-13.5 8q-29 20 -35.5 57.5t9.5 68.5q20 41 60.5 76.5t90.5 56.5q74 30 184 5q-6 74 -24 133q-6 23 -50.5 30t-85.5 -1q-46 -7 -74.5 -28t-26.5 -46q1 -20 -2 -27t-20 -10q-8 -4 -27.5 -1t-18.5 16zM397 225q-92 46 -180 14
q-53 -19 -88 -65q-21 -28 -28 -57.5t5 -34.5q48 -27 126 -28.5t138 22.5q7 3 15.5 8t10.5 6t9 -1q1 122 0 135q-4 -1 -8 1zM144 625q13 15 35.5 42t33.5 39.5t28.5 23.5t35.5 11q11 0 24 -11.5t33 -32t36 -33.5q2 -1 7 -5t6 -5t4 -3.5t3 -4t1 -4t-0.5 -5t-3 -5.5t-4.5 -7
t-6.5 -8t-10.5 -10t-12 -6.5t-9 3.5q-15 17 -30 35.5t-23.5 29t-16 19.5t-11 12.5t-4.5 2.5q-20 -22 -59 -105q-7 -15 -15 -17.5t-22 5.5q-10 7 -19 18.5t-1 20.5z" />
    <glyph glyph-name="atilde" unicode="&#xe3;" horiz-adv-x="550" 
d="M73 364q1 42 31.5 82.5t74.5 53.5q84 24 134 9q65 -18 99 -74.5t35 -128.5q0 -9 0.5 -41.5t1 -42.5t1 -38.5t1.5 -41t3 -36.5t4.5 -40t6.5 -36.5t9 -39.5q7 -20 5.5 -30t-20.5 -15q-7 -2 -16 -3.5t-20.5 0.5t-12.5 10q-3 32 -4 70q-85 -28 -191 -19q-2 1 -16 2t-17 1.5
t-15 2t-16.5 2.5t-14.5 3.5t-16 5t-13.5 6.5t-13.5 8q-29 20 -35.5 57.5t9.5 68.5q20 41 60.5 76.5t90.5 56.5q74 30 184 5q-6 74 -24 133q-6 23 -50.5 30t-85.5 -1q-46 -7 -74.5 -28t-26.5 -46q1 -20 -2 -27t-20 -10q-8 -4 -27.5 -1t-18.5 16zM397 225q-92 46 -180 14
q-53 -19 -88 -65q-21 -28 -28 -57.5t5 -34.5q48 -27 126 -28.5t138 22.5q7 3 15.5 8t10.5 6t9 -1q1 122 0 135q-4 -1 -8 1zM111 604q7 47 35.5 78.5t64.5 27.5q24 -2 64 -20t50 -22q31 -8 63 58q1 1 3 6t2.5 6t2.5 4t3 3.5t2.5 2.5t3 2t3.5 0.5t4.5 0t5.5 -2t6 -2.5
q4 -2 9 -5t12 -9t8 -10.5t-1 -10.5q-5 -6 -18.5 -24t-21.5 -27.5t-21 -20t-27 -15.5q-14 -4 -31.5 0t-44 16t-37.5 15q-36 14 -58.5 5t-19.5 -42q1 -18 -3 -24t-19 -8q-7 0 -15.5 0.5t-17 5t-7.5 12.5z" />
    <glyph glyph-name="adieresis" unicode="&#xe4;" horiz-adv-x="550" 
d="M73 364q1 42 31.5 82.5t74.5 53.5q84 24 134 9q65 -18 99 -74.5t35 -128.5q0 -9 0.5 -41.5t1 -42.5t1 -38.5t1.5 -41t3 -36.5t4.5 -40t6.5 -36.5t9 -39.5q7 -20 5.5 -30t-20.5 -15q-7 -2 -16 -3.5t-20.5 0.5t-12.5 10q-3 32 -4 70q-85 -28 -191 -19q-2 1 -16 2t-17 1.5
t-15 2t-16.5 2.5t-14.5 3.5t-16 5t-13.5 6.5t-13.5 8q-29 20 -35.5 57.5t9.5 68.5q20 41 60.5 76.5t90.5 56.5q74 30 184 5q-6 74 -24 133q-6 23 -50.5 30t-85.5 -1q-46 -7 -74.5 -28t-26.5 -46q1 -20 -2 -27t-20 -10q-8 -4 -27.5 -1t-18.5 16zM397 225q-92 46 -180 14
q-53 -19 -88 -65q-21 -28 -28 -57.5t5 -34.5q48 -27 126 -28.5t138 22.5q7 3 15.5 8t10.5 6t9 -1q1 122 0 135q-4 -1 -8 1zM231 689v-14q10 -6 6 -13q-2 -5 -5 -9q7 -4 9 -7q10 -14 8 -23t-19 -15q-9 -3 -19 -5q-8 -3 -25 -2t-16 12q2 23 10 40q-1 1 -3 2q0 1 -1 1l-3 -1
q-2 4 -2 8q-10 17 16 30q7 2 16 4.5t18 1t10 -9.5zM392 697q0 -12 -1.5 -21t-2 -13.5t-0.5 -6.5q1 -2 4.5 -3.5t5.5 -3.5q12 -13 11 -22t-17 -18q-4 -2 -10 -4t-14 -4t-13.5 -0.5t-6.5 7.5q-2 19 -0.5 32t1.5 14q-1 2 -2.5 3.5t-4.5 5t-7 7.5q-20 24 15 35q7 4 25 3.5
t17 -11.5z" />
    <glyph glyph-name="aring" unicode="&#xe5;" horiz-adv-x="550" 
d="M297 744q-31 -3 -48.5 -10t-17.5 -17q1 -28 26 -53.5t52 -29.5q12 -1 25.5 17t17.5 47q2 11 -9.5 21.5t-33.5 19.5zM341 785q21 -18 34 -37.5t18 -46t-8 -51.5q-14 -28 -42.5 -39.5t-59 -5t-52.5 25.5q-26 22 -36 56.5t1 63.5q16 36 113 56q17 3 23.5 -1t8.5 -20v-1z
M73 364q1 42 31.5 82.5t74.5 53.5q84 24 134 9q65 -18 99 -74.5t35 -128.5q0 -9 0.5 -41.5t1 -42.5t1 -38.5t1.5 -41t3 -36.5t4.5 -40t6.5 -36.5t9 -39.5q7 -20 5.5 -30t-20.5 -15q-7 -2 -16 -3.5t-20.5 0.5t-12.5 10q-3 32 -4 70q-85 -28 -191 -19q-2 1 -16 2t-17 1.5
t-15 2t-16.5 2.5t-14.5 3.5t-16 5t-13.5 6.5t-13.5 8q-29 20 -35.5 57.5t9.5 68.5q20 41 60.5 76.5t90.5 56.5q74 30 184 5q-6 74 -24 133q-6 23 -50.5 30t-85.5 -1q-46 -7 -74.5 -28t-26.5 -46q1 -20 -2 -27t-20 -10q-8 -4 -27.5 -1t-18.5 16zM397 225q-92 46 -180 14
q-53 -19 -88 -65q-21 -28 -28 -57.5t5 -34.5q48 -27 126 -28.5t138 22.5q7 3 15.5 8t10.5 6t9 -1q1 122 0 135q-4 -1 -8 1z" />
    <glyph glyph-name="ae" unicode="&#xe6;" horiz-adv-x="920" 
d="M450 274q95 -25 166 -15q60 9 101 38.5t48 65.5q5 21 -12.5 48t-48.5 49q-59 42 -109 34q-47 -7 -90 -47t-53 -90q-8 -39 -2 -83zM397 225q-92 46 -180 14q-53 -19 -88 -65q-21 -28 -28 -57.5t5 -34.5q48 -27 126 -28.5t138 22.5q7 3 15.5 8t10.5 6t9 -1q1 120 1 127
q-3 3 -4 8q-2 0 -5 1zM847 128q-23 -33 -56.5 -63.5t-81.5 -52t-91 -14.5q-48 7 -91 42t-74 86q5 -74 21 -136q7 -20 5.5 -30t-20.5 -15q-7 -2 -16 -3.5t-20.5 0.5t-12.5 10q-3 32 -4 70q-85 -28 -191 -19q-2 1 -16 2t-17 1.5t-15 2t-16.5 2.5t-14.5 3.5t-16 5t-13.5 6.5
t-13.5 8q-29 20 -35.5 57.5t9.5 68.5q20 41 60.5 76.5t90.5 56.5q73 30 182 5q0 7 1 13q-7 66 -23 120q-6 23 -50.5 30t-85.5 -1q-46 -7 -74.5 -28t-26.5 -46q1 -20 -2 -27t-20 -10q-8 -4 -27.5 -1t-18.5 16q1 42 31.5 82.5t74.5 53.5q84 24 134 9q76 -22 112 -98
q29 59 89.5 95t123.5 31q41 -4 81.5 -28t62.5 -56q30 -42 27.5 -97t-38.5 -88q-85 -78 -302 -64q26 -67 77 -116q27 -26 66 -35.5t70 0.5q28 8 53.5 34.5t43.5 61.5q9 18 15.5 21.5t23.5 -3.5q14 -6 25 -17.5t4 -21.5z" />
    <glyph glyph-name="ccedilla" unicode="&#xe7;" 
d="M476 149q-17 -53 -64 -99.5t-107 -53.5q-4 0 -8 -1q3 -18 17.5 -53t13.5 -64q0 -24 -27 -42t-72 -37q-18 -10 -28 -8t-16 21q-2 8 -4 17t-0.5 20.5t9.5 12.5q32 3 55 10.5t32.5 16t4.5 15.5q-36 55 -52 88q-3 7 -4 11q-69 19 -116 70q-56 59 -51 181q5 106 55 169
q43 54 104.5 80t118.5 9q79 -24 145 -185q11 -22 10.5 -32.5t-18.5 -17.5q-8 -3 -16.5 -5.5t-20 -1.5t-13.5 9q-17 95 -53 140q-24 31 -59.5 44t-68.5 4t-63 -37.5t-51 -69.5q-36 -71 -25 -150q8 -58 44 -99.5t89 -59.5q59 -19 113 10q22 12 36.5 35.5t18.5 50.5q2 20 8 26
t23 4q14 -1 29 -8.5t11 -19.5z" />
    <glyph glyph-name="egrave" unicode="&#xe8;" horiz-adv-x="592" 
d="M122 285q95 -25 166 -15q59 9 100.5 38.5t48.5 65.5q4 21 -13 48t-48 49q-59 42 -109 34q-47 -7 -90 -47t-53 -90q-8 -40 -2 -83zM519 138q-23 -33 -56.5 -63t-81.5 -51.5t-92 -15.5q-57 9 -106.5 56.5t-79.5 112.5q-10 21 -17 44q-14 5 -12 27l2 14q-14 85 18 154
q27 61 89 99t126 32q41 -3 81.5 -27t63.5 -56q30 -42 27.5 -97.5t-38.5 -87.5q-86 -78 -302 -64q26 -67 77 -116q27 -26 65.5 -36t70.5 1q28 8 53.5 34.5t43.5 61.5q9 18 15.5 21.5t23.5 -3.5q13 -6 24.5 -17.5t4.5 -22.5zM232 766q17 -24 35.5 -56t19.5 -35q12 -18 33 -35
q12 -9 16.5 -14.5t3 -12.5t-11.5 -17q-4 -4 -9 -8t-13.5 -9.5t-14 -5.5t-10.5 5q-11 22 -23 52t-19 40q-14 22 -43 34q-31 13 -9 42q9 12 23 21t22 -1z" />
    <glyph glyph-name="eacute" unicode="&#xe9;" horiz-adv-x="592" 
d="M122 285q95 -25 166 -15q59 9 100.5 38.5t48.5 65.5q4 21 -13 48t-48 49q-59 42 -109 34q-47 -7 -90 -47t-53 -90q-8 -40 -2 -83zM519 138q-23 -33 -56.5 -63t-81.5 -51.5t-92 -15.5q-57 9 -106.5 56.5t-79.5 112.5q-10 21 -17 44q-14 5 -12 27l2 14q-14 85 18 154
q27 61 89 99t126 32q41 -3 81.5 -27t63.5 -56q30 -42 27.5 -97.5t-38.5 -87.5q-86 -78 -302 -64q26 -67 77 -116q27 -26 65.5 -36t70.5 1q28 8 53.5 34.5t43.5 61.5q9 18 15.5 21.5t23.5 -3.5q13 -6 24.5 -17.5t4.5 -22.5zM359 705q-6 -5 -19 -14t-18 -12.5t-13.5 -9.5
t-13.5 -11t-9 -10q-11 -14 -18 -41q-4 -15 -7 -20.5t-11 -8.5t-20 4q-5 2 -11 5t-14 9t-10.5 11t0.5 11q18 22 42.5 45t29.5 29q20 23 31 50q14 31 43 8q6 -5 12 -12.5t10.5 -18t-4.5 -14.5z" />
    <glyph glyph-name="ecircumflex" unicode="&#xea;" horiz-adv-x="592" 
d="M122 285q95 -25 166 -15q59 9 100.5 38.5t48.5 65.5q4 21 -13 48t-48 49q-59 42 -109 34q-47 -7 -90 -47t-53 -90q-8 -40 -2 -83zM519 138q-23 -33 -56.5 -63t-81.5 -51.5t-92 -15.5q-57 9 -106.5 56.5t-79.5 112.5q-10 21 -17 44q-14 5 -12 27l2 14q-14 85 18 154
q27 61 89 99t126 32q41 -3 81.5 -27t63.5 -56q30 -42 27.5 -97.5t-38.5 -87.5q-86 -78 -302 -64q26 -67 77 -116q27 -26 65.5 -36t70.5 1q28 8 53.5 34.5t43.5 61.5q9 18 15.5 21.5t23.5 -3.5q13 -6 24.5 -17.5t4.5 -22.5zM138 630q50 58 84 82.5t69 15.5q13 -4 38.5 -25.5
t42.5 -29.5q1 -1 6 -3.5t6.5 -3.5t5 -3t4 -3t3 -3t2 -3.5t0 -4t-0.5 -5t-2 -5.5t-3 -7q-2 -5 -5.5 -10t-10 -13t-12 -9.5t-11.5 1.5q-23 22 -46 47t-33 35.5t-15 9.5q-9 -1 -24.5 -25t-31.5 -63q-7 -18 -15.5 -21.5t-24.5 5.5q-13 7 -24 19t-2 22z" />
    <glyph glyph-name="edieresis" unicode="&#xeb;" horiz-adv-x="592" 
d="M122 285q95 -25 166 -15q59 9 100.5 38.5t48.5 65.5q4 21 -13 48t-48 49q-59 42 -109 34q-47 -7 -90 -47t-53 -90q-8 -40 -2 -83zM238 658q4 4 9 -1q14 -15 14.5 -24t-17.5 -21q-5 -3 -11 -5.5t-15 -6t-15.5 -2t-8.5 7.5q-3 16 -2.5 24t1.5 13.5t0.5 7t-2 3t-5 6
t-7.5 10.5q-19 29 19 39q9 4 28.5 2t18.5 -15q-2 -27 -7 -38zM519 138q-23 -33 -56.5 -63t-81.5 -51.5t-92 -15.5q-57 9 -106.5 56.5t-79.5 112.5q-10 21 -17 44q-14 5 -12 27l2 14q-14 85 18 154q27 61 89 99t126 32q41 -3 81.5 -27t63.5 -56q30 -42 27.5 -97.5
t-38.5 -87.5q-86 -78 -302 -64q26 -67 77 -116q27 -26 65.5 -36t70.5 1q28 8 53.5 34.5t43.5 61.5q9 18 15.5 21.5t23.5 -3.5q13 -6 24.5 -17.5t4.5 -22.5zM396.5 704.5q-1.5 -12.5 -4 -22.5t-4 -14t-0.5 -7q0 -2 4 -4.5t6 -4.5q11 -16 8.5 -26.5t-22.5 -16.5
q-5 -2 -11.5 -3t-16 -2t-15.5 1.5t-6 9.5q0 14 2.5 24.5t4.5 15.5t2 8q-1 2 -2.5 3.5l-5 5t-6.5 7.5q-20 30 20 39q8 4 28 1.5t18.5 -15z" />
    <glyph glyph-name="igrave" unicode="&#xec;" horiz-adv-x="355" 
d="M165 509q-29 -74 -38.5 -179t4.5 -217q2 -15 8 -27.5t11 -17t7 -3.5q21 9 53 57q2 4 6.5 11t6 9t5 5.5t6.5 3t7.5 -1.5t10.5 -5q5 -2 10 -5.5t12.5 -10t9 -12t-1.5 -11.5q-28 -32 -59.5 -53.5t-60.5 -28t-47 11.5q-17 17 -26 50.5t-11.5 62t-3.5 77.5q-1 32 0 65t4 68.5
t5 57t6 58.5t5 46q2 18 10.5 23.5t25.5 -0.5q14 -4 26.5 -13t8.5 -21zM84 751q12 -14 29.5 -38t27 -34t36.5 -31q11 -9 15.5 -14.5t3 -13t-12.5 -17.5q-3 -3 -8.5 -7t-14 -9.5t-14 -5t-10.5 5.5q-6 13 -14.5 31.5t-14 28t-12.5 17.5q-14 15 -43 24q-33 10 -12 41q8 12 22 22
t22 0z" />
    <glyph glyph-name="iacute" unicode="&#xed;" horiz-adv-x="355" 
d="M165 509q-29 -74 -38.5 -179t4.5 -217q2 -15 8 -27.5t11 -17t7 -3.5q21 9 53 57q2 4 6.5 11t6 9t5 5.5t6.5 3t7.5 -1.5t10.5 -5q5 -2 10 -5.5t12.5 -10t9 -12t-1.5 -11.5q-28 -32 -59.5 -53.5t-60.5 -28t-47 11.5q-17 17 -26 50.5t-11.5 62t-3.5 77.5q-1 32 0 65t4 68.5
t5 57t6 58.5t5 46q2 18 10.5 23.5t25.5 -0.5q14 -4 26.5 -13t8.5 -21zM229 680q-54 -19 -81 -50q-7 -8 -40 -55q-9 -12 -14 -16.5t-12.5 -3.5t-18.5 10q-3 4 -7.5 8.5t-10.5 13t-6 14t5 10.5q66 43 88 67q1 1 19.5 21.5t29.5 33.5q22 26 43 -4q4 -6 8 -15t5.5 -20t-8.5 -14z
" />
    <glyph glyph-name="icircumflex" unicode="&#xee;" horiz-adv-x="355" 
d="M165 509q-29 -74 -38.5 -179t4.5 -217q2 -15 8 -27.5t11 -17t7 -3.5q21 9 53 57q2 4 6.5 11t6 9t5 5.5t6.5 3t7.5 -1.5t10.5 -5q5 -2 10 -5.5t12.5 -10t9 -12t-1.5 -11.5q-28 -32 -59.5 -53.5t-60.5 -28t-47 11.5q-17 17 -26 50.5t-11.5 62t-3.5 77.5q-1 32 0 65t4 68.5
t5 57t6 58.5t5 46q2 18 10.5 23.5t25.5 -0.5q14 -4 26.5 -13t8.5 -21zM-7 638q19 13 47.5 42.5t52.5 47t51 16.5q17 0 33.5 -15.5t31 -35t23.5 -23.5q1 -1 4 -3q12 -6 16.5 -9.5t5 -10.5t-6.5 -19q-3 -4 -6.5 -9.5t-10.5 -13t-12.5 -8.5t-10.5 2q-19 20 -41.5 49t-33 40.5
t-14.5 7.5q-10 -9 -21 -24.5t-27 -39.5t-26.5 -39.5t-21 -15.5t-22.5 14q-5 6 -10 13.5t-7.5 18.5t6.5 15z" />
    <glyph glyph-name="idieresis" unicode="&#xef;" horiz-adv-x="355" 
d="M165 508q-29 -74 -38.5 -179.5t4.5 -217.5q2 -16 8 -28.5t11 -17t7 -3.5q21 9 53 57q2 4 6.5 11t6 9.5t5 5.5t6 3t7.5 -1.5t11 -4.5q5 -3 10 -6.5t12.5 -10t9 -12t-1.5 -11.5q-29 -32 -60 -53.5t-60 -28t-48 12.5q-16 16 -25.5 49.5t-11.5 62t-3 77.5q-1 33 0 66.5t4 69
t5 57t6 58.5t5 46q2 19 10.5 24.5t25.5 -0.5q14 -4 26.5 -13t8.5 -22zM22 610q2 7 4 12.5t3.5 8t3 3.5t2.5 2h1h-1q-7 -2 -9 1q-8 17 -4 27t25 13h5q0 29 35 21q14 -4 28.5 -13t7.5 -20q-15 -25 -24 -33q6 4 8 -1q8 -18 4 -27.5t-25 -12.5q-10 -1 -21 -1q-15 -1 -31 3.5
t-12 16.5zM255 695q-2 -14 -4.5 -24t-3.5 -13.5t-1 -5.5t4 -5t5 -7q8 -18 4 -27.5t-25 -12.5q-6 -3 -27.5 -0.5t-19.5 14.5q2 9 4 16t4 10.5t3.5 5.5t2.5 3l1 1q0 1 -2 3t-5.5 6.5t-6.5 10.5q-19 31 20 39q8 3 28 0.5t19 -14.5z" />
    <glyph glyph-name="eth" unicode="&#xf0;" horiz-adv-x="527" 
d="M384 416q-16 -3 -20 7q-13 38 -118 15q-46 -9 -76 -44q-66 -74 -63 -162q2 -52 26 -99t63 -76q22 -16 54 -21t63 2q27 6 49.5 26.5t30.5 48.5q18 60 16.5 141.5t-25.5 161.5zM177 704q-23 13 -46 21q-2 0 -7 1.5t-6.5 2t-5 2t-4 2.5t-3 2.5t-2.5 3.5t-1 4.5t-1 5.5t1 7
q2 15 9 29.5t20 10.5q47 -15 100 -54q72 49 89 63q13 11 18 14t12.5 1t15.5 -14q3 -4 6 -9.5t7 -14t3.5 -15.5t-6.5 -9q-78 -33 -107 -48q48 -42 82 -93q37 -56 62 -132q32 -22 14 -46q2 -10 5 -20q39 -161 16 -280q-9 -43 -33.5 -79t-59.5 -54q-32 -17 -77.5 -17t-82.5 18
q-44 20 -76.5 60t-48.5 89q-29 95 5 189q16 44 49 81t77 58q79 38 147 27q-52 105 -132 167l-1 -1q-54 -39 -79 -84q-10 -16 -19.5 -17.5t-23.5 9.5q-6 5 -12 12.5t-10.5 17.5t4.5 15q48 37 102 74z" />
    <glyph glyph-name="ntilde" unicode="&#xf1;" horiz-adv-x="559" 
d="M60 -22q-1 8 -4 62t-3.5 79.5t1 70.5t7.5 82v8q-2 21 -4 105t-7 128q-2 19 4 26t24 7q8 0 17 -1.5t18 -7t8 -14.5q-10 -62 -13 -127q22 35 56 78q48 62 97 74q34 8 70.5 -8t52.5 -48q20 -42 35 -88.5t25.5 -102t16 -93t13 -103t11.5 -90.5q5 -22 3.5 -31.5t-20.5 -14.5
q-6 -3 -27 -2.5t-22 12.5q-5 216 -16 306q-12 95 -49 169q-12 22 -29.5 37.5t-33.5 16.5q-18 1 -38.5 -11t-38.5 -32q-43 -52 -72 -105.5t-35 -97.5q1 -34 3 -69q7 -119 13 -173q2 -9 4 -20q4 -17 1 -25h1q4 -21 1.5 -30.5t-22.5 -11.5q-7 -3 -27.5 -0.5t-20 14.5t1.5 24
q-2 3 -2 7zM111 617q21 44 52 73t64 28q30 -1 75 -24t50 -25q4 1 6 0t6.5 3.5l7 7t7.5 11t9 14.5t11 17.5t13 20.5q12 19 20.5 21.5t25.5 -11.5q4 -3 8 -7.5t9.5 -13t5.5 -14t-4 -10.5q-13 -10 -36 -40t-42 -40q-11 -5 -22 -6t-24.5 2.5t-23 7.5t-25.5 11.5t-23 9.5
q-32 16 -60.5 5.5t-39.5 -49.5q-5 -20 -11.5 -25t-23.5 -1q-14 4 -27.5 13t-7.5 21z" />
    <glyph glyph-name="ograve" unicode="&#xf2;" 
d="M312 456q-43 6 -89 -8.5t-79 -53.5q-29 -34 -44 -81.5t-13 -95.5q3 -46 26 -85t61 -56q39 -19 90.5 -17.5t85.5 22.5q48 30 72.5 88.5t16.5 120.5q-8 54 -42.5 98t-84.5 68zM311 527q24 0 27 -15q95 -54 131 -134q23 -49 24 -107.5t-18 -107.5q-19 -51 -61.5 -89.5
t-96.5 -51.5q-54 -14 -114.5 -2.5t-93.5 44.5q-48 50 -58.5 132.5t14.5 157.5q22 74 89 126q44 34 115 44q8 17 19 13t23 -10zM235 758q5 -14 11 -31t9.5 -27t8.5 -17q6 -8 23 -15q20 -8 24 -15.5t-6 -26.5q-3 -4 -7 -9.5t-11 -12.5t-12.5 -8t-10.5 2q-13 16 -21.5 30
t-15 27.5t-9.5 19.5q-11 17 -32 31q-29 19 1 44q6 5 14.5 9.5t19.5 6.5t14 -8z" />
    <glyph glyph-name="oacute" unicode="&#xf3;" 
d="M312 456q-43 6 -89 -8.5t-79 -53.5q-29 -34 -44 -81.5t-13 -95.5q3 -46 26 -85t61 -56q39 -19 90.5 -17.5t85.5 22.5q48 30 72.5 88.5t16.5 120.5q-8 54 -42.5 98t-84.5 68zM311 527q24 0 27 -15q95 -54 131 -134q23 -49 24 -107.5t-18 -107.5q-19 -51 -61.5 -89.5
t-96.5 -51.5q-54 -14 -114.5 -2.5t-93.5 44.5q-48 50 -58.5 132.5t14.5 157.5q22 74 89 126q44 34 115 44q8 17 19 13t23 -10zM363 711q-11 -10 -27.5 -23.5t-25.5 -22t-16 -16.5q-9 -13 -14 -37q-4 -21 -10.5 -27t-25.5 1q-5 1 -11 4t-14.5 8t-11 10t-0.5 11q17 22 39.5 45
t26.5 28q17 21 25 47q9 34 40 14q13 -7 23.5 -20.5t1.5 -21.5z" />
    <glyph glyph-name="ocircumflex" unicode="&#xf4;" 
d="M312 456q-43 6 -89 -8.5t-79 -53.5q-29 -34 -44 -81.5t-13 -95.5q3 -46 26 -85t61 -56q39 -19 90.5 -17.5t85.5 22.5q48 30 72.5 88.5t16.5 120.5q-8 54 -42.5 98t-84.5 68zM311 527q24 0 27 -15q95 -54 131 -134q23 -49 24 -107.5t-18 -107.5q-19 -51 -61.5 -89.5
t-96.5 -51.5q-54 -14 -114.5 -2.5t-93.5 44.5q-48 50 -58.5 132.5t14.5 157.5q22 74 89 126q44 34 115 44q8 17 19 13t23 -10zM151 640q12 11 30 30.5t28 29t24 20.5t27.5 15t27.5 3q11 0 22 -10.5t26 -29t27 -29.5q2 -1 5 -3q10 -10 13.5 -14t2.5 -11t-10 -17
q-4 -3 -8.5 -7.5t-12.5 -10.5t-14 -6t-11 5q-18 28 -33 52t-20 33l-5 8q-26 -29 -55 -90q-8 -17 -17.5 -19.5t-24.5 7.5q-12 8 -21.5 21.5t-0.5 22.5z" />
    <glyph glyph-name="otilde" unicode="&#xf5;" 
d="M312 456q-43 6 -89 -8.5t-79 -53.5q-29 -34 -44 -81.5t-13 -95.5q3 -46 26 -85t61 -56q39 -19 90.5 -17.5t85.5 22.5q48 30 72.5 88.5t16.5 120.5q-8 54 -42.5 98t-84.5 68zM311 527q24 0 27 -15q95 -54 131 -134q23 -49 24 -107.5t-18 -107.5q-19 -51 -61.5 -89.5
t-96.5 -51.5q-54 -14 -114.5 -2.5t-93.5 44.5q-48 50 -58.5 132.5t14.5 157.5q22 74 89 126q44 34 115 44q8 17 19 13t23 -10zM104 641q86 70 200 42q42 -10 70 29q2 3 6 8.5t5.5 7t4.5 5t5 3.5h5.5t7.5 -2t9 -5q4 -3 9 -7.5t12 -11.5t8.5 -12.5t-3.5 -10.5
q-35 -26 -72 -35.5t-62.5 -7.5t-58.5 10q-53 13 -80 -41q-8 -17 -16 -20t-24 6q-13 7 -24 20t-2 22z" />
    <glyph glyph-name="odieresis" unicode="&#xf6;" 
d="M312 456q-43 6 -89 -8.5t-79 -53.5q-29 -34 -44 -81.5t-13 -95.5q3 -46 26 -85t61 -56q39 -19 90.5 -17.5t85.5 22.5q48 30 72.5 88.5t16.5 120.5q-8 54 -42.5 98t-84.5 68zM311 527q24 0 27 -15q95 -54 131 -134q23 -49 24 -107.5t-18 -107.5q-19 -51 -61.5 -89.5
t-96.5 -51.5q-54 -14 -114.5 -2.5t-93.5 44.5q-48 50 -58.5 132.5t14.5 157.5q22 74 89 126q44 34 115 44q8 17 19 13t23 -10zM321 652q-24 7 -9 31q6 10 16.5 18.5t17.5 0.5l6 -8q10 2 12 -4q4 -15 2 -25.5t-8 -16t-11 -3.5q-11 3 -18 5q-2 -4 -4 -2zM175 706
q50 -39 47 -49q-6 -18 -18 -24.5t-21 -4.5t-15 7q-14 11 -14 18q-16 6 -8 28q4 10 12.5 20.5t16.5 4.5z" />
    <glyph glyph-name="divide" unicode="&#xf7;" horiz-adv-x="637" 
d="M253 396q2 51 13 72q9 16 35.5 17t39.5 -11q17 -13 19 -21t-13 -24q-10 -9 -23 -15q6 -19 -23 -28q-8 -4 -28 -3.5t-20 13.5zM260 6q0 14 2 29.5t1 22.5q-1 23 8 41q10 19 17.5 22.5t25.5 -8.5q4 -3 9 -7.5t11.5 -12.5t7.5 -13.5t-4 -10.5q-6 -4 -11.5 -6.5t-9 -3.5
t-6 -1.5t-3.5 -1t0 -1.5q0 -2 2 -3.5t6 -5.5t8 -9q23 -28 -16 -40q-8 -5 -28 -4t-20 13zM23 307q105 -15 301 -1q78 5 206 -4q15 -1 19 -1.5t10.5 -3.5t7 -8.5t-0.5 -16.5q-1 -8 -3 -17t-8 -18.5t-14 -7.5q-142 39 -296 26q-23 -2 -66.5 -5t-79 -6t-66.5 -7q-19 -3 -26 3
t-7 25q0 8 1.5 17t7 18t14.5 7z" />
    <glyph glyph-name="oslash" unicode="&#xf8;" horiz-adv-x="659" 
d="M442 374q-113 -109 -171 -168q-64 -65 -100 -107q19 -26 45 -39q37 -20 89 -19.5t85 22.5q47 31 71.5 91.5t15.5 125.5q-6 50 -35 94zM412 412q-27 26 -59 43q-42 5 -87 -11t-77 -57q-28 -36 -41.5 -83.5t-11.5 -96.5q1 -33 12 -64q33 34 94.5 96t82.5 83q55 55 87 90z
M116 111q-40 99 -6 229q21 77 84 132q45 39 118 50q8 18 19 13.5t22 -9.5q25 0 28 -16q39 -24 69 -55q37 42 65 81q2 3 7 10t6.5 8.5t5.5 5t6.5 3t7.5 -2t11 -5.5q4 -3 9 -7t12 -11t8 -12.5t-2 -11.5q-40 -40 -102 -99q16 -22 25 -45q21 -49 22.5 -106.5t-15.5 -106.5
q-17 -53 -57 -94.5t-93 -55.5q-53 -17 -115 -5t-95 47q-8 8 -14 17q-40 -48 -67 -93q-10 -16 -18 -19t-23 7q-12 8 -22 21t-1 22q47 49 105 108z" />
    <glyph glyph-name="ugrave" unicode="&#xf9;" horiz-adv-x="544" 
d="M161 464q-50 -175 -20 -282q10 -39 34.5 -68.5t54.5 -40.5q31 -13 68.5 -6t63.5 33q30 29 46 79.5t15 102.5q-1 39 -15 115.5t-17 99.5q-5 23 -2.5 32.5t22.5 12.5q7 2 27.5 0t20.5 -14q-1 -32 7.5 -128.5t5.5 -155.5q-2 -42 -17 -82.5t-40 -69.5q-32 -39 -75.5 -59.5
t-84.5 -12.5q-59 11 -108 68.5t-70 139.5q-4 18 -5.5 38.5t-1.5 36.5t2.5 42.5t4.5 39t6.5 43t5.5 39.5q3 19 9.5 25t23.5 3q8 -1 16.5 -4t16.5 -10.5t6 -16.5zM232 761q8 -14 23.5 -42.5t24.5 -40.5q10 -15 33 -38q11 -10 14.5 -16t1 -13t-13.5 -16q-4 -3 -9.5 -6.5
t-14 -7.5t-15.5 -4t-9 6q-6 15 -12.5 35t-11.5 31.5t-11 20.5q-14 19 -41 32q-31 16 -6 43q6 6 14 11.5t18.5 9.5t14.5 -5z" />
    <glyph glyph-name="uacute" unicode="&#xfa;" horiz-adv-x="544" 
d="M161 464q-50 -175 -20 -282q10 -39 34.5 -68.5t54.5 -40.5q31 -13 68.5 -6t63.5 33q30 29 46 79.5t15 102.5q-1 39 -15 115.5t-17 99.5q-5 23 -2.5 32.5t22.5 12.5q7 2 27.5 0t20.5 -14q-1 -32 7.5 -128.5t5.5 -155.5q-2 -42 -17 -82.5t-40 -69.5q-32 -39 -75.5 -59.5
t-84.5 -12.5q-59 11 -108 68.5t-70 139.5q-4 18 -5.5 38.5t-1.5 36.5t2.5 42.5t4.5 39t6.5 43t5.5 39.5q3 19 9.5 25t23.5 3q8 -1 16.5 -4t16.5 -10.5t6 -16.5zM362 703q-7 -5 -21.5 -15.5t-20 -14.5t-12.5 -11l-13 -13q-8 -11 -18 -38q-7 -20 -13.5 -24.5t-26.5 3.5
q-5 3 -10 6.5t-13 10t-9.5 12t1.5 10.5q16 17 38.5 35.5t29.5 27.5q15 18 25 46q12 32 42 10q12 -9 21.5 -23t-0.5 -22z" />
    <glyph glyph-name="ucircumflex" unicode="&#xfb;" horiz-adv-x="544" 
d="M161 464q-50 -175 -20 -282q10 -39 34.5 -68.5t54.5 -40.5q31 -13 68.5 -6t63.5 33q30 29 46 79.5t15 102.5q-1 39 -15 115.5t-17 99.5q-5 23 -2.5 32.5t22.5 12.5q7 2 27.5 0t20.5 -14q-1 -32 7.5 -128.5t5.5 -155.5q-2 -42 -17 -82.5t-40 -69.5q-32 -39 -75.5 -59.5
t-84.5 -12.5q-59 11 -108 68.5t-70 139.5q-4 18 -5.5 38.5t-1.5 36.5t2.5 42.5t4.5 39t6.5 43t5.5 39.5q3 19 9.5 25t23.5 3q8 -1 16.5 -4t16.5 -10.5t6 -16.5zM148 634q7 7 21 22.5t21 22.5l19 19t20 17.5t19 12t21 8.5t21 1t23 -10t19 -18.5t21 -29.5t20 -28
q8 -11 10.5 -14.5t4.5 -10t-2 -11t-13 -10.5q-4 -3 -10 -6t-14.5 -7t-15.5 -3t-9 7q-22 54 -35 77.5t-20 19.5q-26 -16 -55 -87q-8 -18 -17 -21t-24 6q-13 8 -23.5 20.5t-1.5 22.5z" />
    <glyph glyph-name="udieresis" unicode="&#xfc;" horiz-adv-x="544" 
d="M161 464q-50 -175 -20 -282q10 -39 34.5 -68.5t54.5 -40.5q31 -13 68.5 -6t63.5 33q30 29 46 79.5t15 102.5q-1 39 -15 115.5t-17 99.5q-5 23 -2.5 32.5t22.5 12.5q7 2 27.5 0t20.5 -14q-1 -32 7.5 -128.5t5.5 -155.5q-2 -42 -17 -82.5t-40 -69.5q-32 -39 -75.5 -59.5
t-84.5 -12.5q-59 11 -108 68.5t-70 139.5q-4 18 -5.5 38.5t-1.5 36.5t2.5 42.5t4.5 39t6.5 43t5.5 39.5q3 19 9.5 25t23.5 3q8 -1 16.5 -4t16.5 -10.5t6 -16.5zM253 677q-6 -10 -11 -16.5t-7.5 -9t-2.5 -3.5t3.5 -4t3.5 -6q4 -20 -2 -28t-26 -6q-5 0 -12 1.5t-16 4t-14 7
t-2 10.5q5 12 11 19.5t9 10t3 3.5t-1.5 2.5t-3.5 5t-4 8.5q-4 17 4.5 24.5t27.5 4.5q14 -1 29.5 -9t10.5 -19zM402 689q-4 -12 -8 -21l-6 -13.5t-2 -7.5q0 -2 4 -6.5t5 -7.5q8 -18 4 -28t-25 -12q-6 -3 -27.5 -0.5t-19.5 14.5q3 14 7 24t6.5 15t1.5 8q0 3 -1 5t-4 7t-5 10
q-7 16 0 25t26 10q14 0 31 -5t13 -17z" />
    <glyph glyph-name="yacute" unicode="&#xfd;" horiz-adv-x="555" 
d="M120 545q1 -9 5.5 -46t6 -48.5t5.5 -42.5t7.5 -46t8.5 -39t10.5 -43t12.5 -37q27 -71 96 -126q15 37 29 78q69 197 109 359q3 11 3.5 13t3 8.5t4 7t5.5 2.5t8.5 1.5t11.5 -2.5q8 -3 16 -6.5t16.5 -11t5.5 -15.5q-23 -51 -84.5 -215t-93.5 -244q14 -9 16 -14t-6 -21
q-3 -6 -8 -13t-14 -14t-15 -5l-14 -34q-39 -95 -85 -138q-35 -31 -79 -27t-83 40q-13 13 -12.5 23t14.5 21q7 4 15 8t19 6t15 -7q19 -33 32.5 -44t26.5 -3q36 23 82 109q19 37 38 79q-98 112 -137 245q-5 19 -22 95t-33 115q-8 18 -4.5 26.5t20.5 14.5q7 4 26.5 4t21.5 -13z
M349 703q-11 -10 -29.5 -26t-29 -26t-18.5 -20q-16 -18 -29 -46q-7 -14 -11 -19.5t-11.5 -6t-19.5 7.5q-4 3 -9 6.5t-12.5 11t-8.5 12.5t2 11q15 13 43 35t38 34q21 24 30 55q10 33 41 14q13 -8 23.5 -21t0.5 -22z" />
    <glyph glyph-name="thorn" unicode="&#xfe;" horiz-adv-x="576" 
d="M128 162q27 7 30 -7q10 -38 41.5 -66t77.5 -28q41 0 81 19.5t68 50.5q17 19 26 58.5t7 83.5q-4 92 -49 141q-36 40 -86.5 57.5t-92.5 1.5q-37 -14 -61 -58t-30 -101q-2 -16 -4.5 -22.5t-11.5 -8.5q1 -62 3 -118q0 -1 1 -3zM77 343q0 18 -1.5 83t-2.5 94.5t-5.5 77.5
t-12.5 85q-5 18 -2 26.5t20 12.5q8 5 27.5 3.5t19.5 -14.5q1 -38 1 -81.5t0.5 -97t0.5 -82.5q11 15 23 27q38 35 91 46.5t100 -4.5q43 -13 79.5 -47t60.5 -81q39 -78 26 -170q-10 -68 -49 -118t-97 -78q-65 -30 -135 -16q-51 10 -90 54q5 -168 13 -256q4 -22 1 -31.5
t-22 -12.5q-7 -2 -27.5 0t-20.5 14q12 274 4 513q-12 7 -10 18q4 18 8 35z" />
    <glyph glyph-name="ydieresis" unicode="&#xff;" horiz-adv-x="555" 
d="M120 545q1 -9 5.5 -46t6 -48.5t5.5 -42.5t7.5 -46t8.5 -39t10.5 -43t12.5 -37q27 -71 96 -126q15 37 29 78q69 197 109 359q3 11 3.5 13t3 8.5t4 7t5.5 2.5t8.5 1.5t11.5 -2.5q8 -3 16 -6.5t16.5 -11t5.5 -15.5q-23 -51 -84.5 -215t-93.5 -244q14 -9 16 -14t-6 -21
q-3 -6 -8 -13t-14 -14t-15 -5l-14 -34q-39 -95 -85 -138q-35 -31 -79 -27t-83 40q-13 13 -12.5 23t14.5 21q7 4 15 8t19 6t15 -7q19 -33 32.5 -44t26.5 -3q36 23 82 109q19 37 38 79q-98 112 -137 245q-5 19 -22 95t-33 115q-8 18 -4.5 26.5t20.5 14.5q7 4 26.5 4t21.5 -13z
M132 690q25 4 45 -5q5 -1 7 -3q15 -10 20.5 -23.5t-1.5 -24.5q-7 -10 -26 -9t-33 13q-7 3 -12 14q-3 6 -5.5 13.5t-1.5 15.5t7 9zM334 696q15 -26 6.5 -52.5t-30.5 -21.5q-17 5 -29 38q-6 15 -3 22.5t19 9.5q4 0 10 1q21 15 27 3z" />
    <glyph glyph-name="quoteleft" unicode="&#x2018;" horiz-adv-x="279" 
d="M194 477q-9 -1 -25.5 -5t-29 -7t-28 -3t-27.5 6q-21 11 -28 33.5t-3.5 44.5t12.5 46q11 28 30.5 72t25.5 59q4 12 6.5 16.5t7 8.5t10.5 3t16 -5q4 -2 9.5 -5.5t13.5 -9.5t9.5 -11.5t-0.5 -11.5q-81 -102 -102 -183q-3 -10 31 -1q21 6 45 18q16 9 25 4.5t14 -22.5
q4 -8 2.5 -27t-14.5 -20z" />
    <glyph glyph-name="quoteright" unicode="&#x2019;" horiz-adv-x="252" 
d="M57 724q88 -15 110 -50q28 -45 1 -122q-6 -14 -16.5 -40t-17.5 -46t-11 -37q0 -3 -1 -8t-1.5 -6.5t-1 -5.5t-1.5 -5t-2 -3.5t-2.5 -3t-4 -1.5t-5 -1t-6 0.5t-7.5 1.5q-5 1 -11.5 3t-15 5.5t-13 8.5t-1.5 11q11 23 34.5 63.5t36.5 69t17 53.5q3 20 -16.5 32.5t-54.5 9.5
q-19 -1 -26 4.5t-7 23.5q0 8 1 17t7 18t15 8z" />
    <glyph glyph-name="quotedblleft" unicode="&#x201c;" horiz-adv-x="422" 
d="M175 684q-37 -19 -61.5 -52.5t-27.5 -72.5q-2 -16 8 -23.5t27 -5.5q20 5 29 2t12 -23q2 -6 0 -27t-14 -20q-81 8 -99 46q-19 40 2 105q17 53 74 122q22 27 43 -2q5 -7 9 -15t5.5 -19t-7.5 -15zM343 677q-35 -15 -60 -47t-31 -73q-2 -16 5.5 -23.5t21.5 -4.5q20 5 29 2
t12 -23q3 -7 0.5 -28t-14.5 -20q-80 9 -95 52q-14 39 9 102q22 58 78 118q23 26 43 -6q4 -7 7.5 -15.5t3 -19t-8.5 -14.5z" />
    <glyph glyph-name="quotedblright" unicode="&#x201d;" horiz-adv-x="383" 
d="M170 738q5 -1 26 -1.5t34 -2t32 -9.5t31 -23q36 -41 6 -133q-9 -27 -30.5 -70t-26.5 -54q-6 -13 -7.5 -16.5t-6 -8.5t-10.5 -4t-16 6q-4 2 -9.5 5t-13.5 9t-10 11.5t1 11.5q2 4 14.5 19t16 19.5l14 18t14 19.5t11 18t10.5 19.5t7.5 18.5t6 20.5t2.5 19.5q1 27 -21 37
t-59 0q-21 -5 -29 3q10 -31 8.5 -64.5t-11.5 -58.5q-9 -24 -29.5 -45t-48 -41t-36.5 -29q-2 -1 -7.5 -6.5l-6.5 -6.5t-5 -4t-6 -2.5t-5.5 1t-7 3.5t-7.5 7q-3 4 -7.5 9t-10 13.5t-5.5 14t5 10.5q35 19 54 31.5t41.5 31t32 38.5t8.5 43q-2 40 -22.5 50.5t-62.5 -1.5
q-18 -5 -26 0.5t-9 23.5q-1 8 -0.5 17.5t5.5 19t14 8.5q6 0 25 -0.5t31 -2t28.5 -5t29 -12.5t21.5 -23l4 -6q0 3 -1 8q0 8 0.5 17t5.5 18.5t14 9.5z" />
    <glyph glyph-name="Euro" unicode="&#x20ac;" horiz-adv-x="743" 
d="M71 330q66 -3 114 -1q-1 48 3 96q-64 -5 -100 -15q-18 -5 -26 0.5t-9 23.5q-1 8 0 17.5t5.5 19t13.5 8.5q68 -9 122 -8q14 81 53 138q23 35 60.5 61t78.5 33q83 14 164 -35q64 -38 115 -129q9 -16 7 -25t-18 -16q-8 -4 -16.5 -6.5t-19 -1t-13.5 10.5q-15 44 -51.5 86.5
t-88.5 60.5q-43 16 -94.5 1.5t-75.5 -52.5q-34 -52 -49 -124q53 5 96 16q20 6 29.5 3t12.5 -23q3 -6 1.5 -27t-13.5 -21q-100 7 -134 6q-5 -44 -4 -94q4 0 9 1q60 6 102 18q20 7 29 4.5t13 -22.5q4 -6 3 -27.5t-13 -20.5q-113 3 -141 2q4 -42 11 -85q6 -32 22.5 -62.5
t39.5 -50.5q52 -44 120 -39q68 6 114 57q39 42 42 113q1 12 0.5 20.5t0.5 13.5t6 7.5t16 3.5q5 1 11.5 1t15.5 -1t15 -5t5 -10q-4 -34 -15.5 -72t-39.5 -82.5t-66 -67.5q-52 -31 -118 -28.5t-117 37.5q-42 28 -68 82.5t-36 112.5q-4 25 -7 51q-57 -7 -94 -21
q-17 -7 -25.5 -2.5t-12.5 23.5q-3 8 -0.5 27.5t15.5 18.5z" />
    <glyph glyph-name="uni3000" unicode="&#x3000;" horiz-adv-x="1000" 
 />
    <glyph glyph-name="uniF8FF" unicode="&#xf8ff;" horiz-adv-x="1010" 
d="M102 -13q7 4 15 8q128 66 147 124q13 38 -9 65q-20 24 -66 38q-40 12 -91 15q-5 -126 4 -250zM375 255q40 8 99 11q15 0 46 1h5q6 1 10.5 -3.5t4.5 -10.5t-4 -10.5t-11 -4.5q-1 -1 -4 -1q-30 -1 -45 -1q-58 -3 -96 -11q-2 -27 -5 -54q3 1 6 1q2 1 9 2l8 1q11 2 18 3
q39 7 55 18q12 8 20.5 -4.5t-4.5 -20.5q-21 -14 -66 -23q-7 -1 -18 -3q-1 0 -8 -1t-9 -1q-9 -2 -14 -3h-2q-2 -9 -3 -19q-1 -2 -2 -9t-2 -8q-3 -18 -4 -26q-1 -9 0 -14l1 -1q1 -1 7 -1q9 0 25 3q24 5 95 25q6 2 11.5 -1t7 -9t-1.5 -11.5t-9 -7.5q-72 -20 -98 -25
q-38 -8 -53 2q-11 7 -14 20q-2 9 0 23q1 10 4 28q0 2 1.5 9t1.5 8q2 11 3 19q7 38 9 73q-5 -2 -11 -4t-11.5 1t-7.5 8.5t1 11.5t9 8q11 4 24 7q4 8 13 7q5 0 9 -2zM391 -56q4 -2 7 -4q9 -7 10 -17q1 -12 -7 -21q-6 -7 -17 -12q-3 -3 -6 -5q-11 -6 -21 2q-5 4 -10 12
q-15 27 3 42q6 6 16 7q3 4 8 5q13 3 17 -9zM541 -105q4 12 7 28q2 13 6 42v3q6 48 13 72q1 2 2 5q1 0 1 1v1q2 6 8 8.5t11.5 0.5t8 -8t0.5 -12l-1 -2q-1 -3 -1 -4q-7 -20 -12 -66v-3q-4 -29 -7 -44q-4 -24 -12 -42q-3 -9 -7 -14q-7 -9 -16 -10q-10 -1 -17 8q-4 4 -7 11
q-7 15 -16 65v2v2q-2 7 -2 12q-4 -36 -12 -70q-3 -12 -5 -19q-1 -4 -2.5 -7t-3.5 -4q-5 -6 -12 -5q-8 0 -13 7q-2 2 -2.5 5.5t-1.5 9.5v28q2 31 4 40q1 6 5 15q0 1 0.5 3t1.5 4l1 3q3 7 5 13q0 1 3 8.5t3 9.5l6 15q5 10 10 14q8 7 17 3q7 -3 11 -10q6 -16 16 -70
q0 -1 0.5 -2t0.5 -2q6 -32 9 -45zM51 463q83 77 146 181q8 12 14 18q5 4 10 6q9 2 16 -4t9 -19q0 -8 -1 -21q-2 -37 -21 -131q-2 -8 -3.5 -17.5t-4.5 -23.5l-2 -11q-2 -7 -3 -11l-8 -40q-7 -39 -7 -48q0 -6 -4.5 -10t-10.5 -4t-10.5 4t-4.5 10q0 12 8 54q3 14 8 40q1 4 2 11
q2 9 2 11q3 14 5 23.5t4 17.5q15 80 19 115q-62 -98 -142 -173q-11 -11 -21.5 0t0.5 22zM278 612q19 33 49 45q29 11 54 -2q26 -15 27.5 -46.5t-26.5 -68.5q-19 -24 -57 -73q-26 -34 -35 -47q-8 -12 -11 -17q20 -6 48 0q20 5 60 20q1 1 4 2q33 13 50 18q29 9 51 9
q7 0 11.5 -4.5t4.5 -11t-4.5 -10.5t-11.5 -4q-18 0 -42 -8q-16 -4 -48 -17q-3 -1 -4 -2q-42 -16 -64 -21q-38 -8 -67 1q-22 7 -19 29q2 12 17 33q10 14 37 48q38 49 56 73q21 28 20 49q0 15 -12 21q-12 7 -29 1q-20 -8 -33 -31q-8 -13 -21 -6t-5 20zM507 638q67 25 106 29
q20 2 32 -1q18 -4 23 -18q9 -21 -19 -55q-21 -26 -62 -61q18 -1 48 2q2 0 5 0.5t4 0.5q42 4 61 2h3h1h1q16 -1 24 -4q13 -5 21 -19q16 -26 -10 -55q-26 -30 -104 -64q-30 -13 -68 -27l-41 -15q-12 -4 -40 -14q-64 -22 -96 -38q-14 -6 -20.5 7.5t7.5 20.5q34 16 99 39
q28 9 40 14q28 9 41 14q36 14 65 27q73 31 95 56q11 12 7 19q-4 6 -7 7.5t-15 1.5h-1h-1q-2 0 -3 1q-17 1 -56 -3q-6 -1 -9 -1q-26 -2 -43 -2q-24 0 -43 6q-9 3 -11 13q-2 7 2 13q3 4 9 8l2 2l3 3q2 1 3 1q44 37 65 63q10 12 14 21q1 3 1 5h-2q-7 2 -22 0q-35 -4 -99 -27
q-6 -2 -11.5 0.5t-8 8.5t0.5 11.5t9 7.5zM19 263q32 6 80 4q55 -3 99 -17q55 -16 80 -47q32 -39 15 -94q-13 -39 -63 -79q-38 -30 -99 -62q-30 -15 -68 -33q-6 -2 -19 -8t-24.5 -11t-12.5 -6q-14 -6 -20 8t8 20q1 0 12.5 5t24 11t18.5 9q14 6 27 12q-5 4 -5 10
q-9 125 -4 252q-26 0 -44 -3q-6 -2 -11 1.5t-6 10t2.5 11.5t9.5 6zM582 317q3 -11 8 -35q0 -5 2.5 -20t4.5 -29t3 -16q11 -68 21 -87q2 -3 3 -4q1 1 3 2q5 6 11 17q14 28 38 77q14 28 18 37q32 65 54 104q32 56 65 96q10 12 21.5 2.5t2.5 -20.5q-32 -39 -63 -93
q-22 -38 -53 -102l-18 -37q-24 -49 -39 -78q-16 -31 -34 -35q-12 -3 -22 4q-7 5 -13 15q-13 24 -25 97q0 2 -2.5 16.5t-4.5 29t-3 19.5q-4 22 -7 29q-2 6 0.5 12t8.5 8t11.5 -0.5t8.5 -8.5zM633 20q2 1 4 1q5 1 15 4q61 15 92 21q6 2 11 -1.5t6.5 -9.5t-2 -11.5t-9.5 -6.5
q-30 -6 -88 -20l-8 -30q33 6 56 17q14 6 20.5 -7.5t-7.5 -20.5q-30 -13 -75 -20q-4 -29 -1 -44q1 -3 2 -4q0 -1 1 -1h3q18 6 54 46q10 11 21.5 1t0.5 -22q-41 -46 -68 -53q-16 -5 -27.5 2.5t-15.5 23.5q-9 36 12 107q-6 4 -8 10q-1 6 2 11.5t9 6.5zM786 42q24 -3 65 8
q2 1 7 2q20 5 31 8q19 3 35 3q6 0 10.5 -4t4.5 -10.5t-4.5 -11t-10.5 -4.5q-20 0 -58 -10q-5 -1 -7 -2q-10 -2 -17 -4q1 -2 0 -3v-41v-23q-1 -54 -13 -83q-6 -14 -20 -8.5t-8 19.5q10 24 11 72v23v39q-15 -1 -30 1q-6 0 -10 5t-3 11.5t6 10t11 2.5z" />
  </font>
</defs>
</svg>
