<?xml version="1.0" standalone="no"?>
<!DOCTYPE svg PUBLIC "-//W3C//DTD SVG 1.1//EN" "http://www.w3.org/Graphics/SVG/1.1/DTD/svg11.dtd" >
<svg xmlns="http://www.w3.org/2000/svg" xmlns:xlink="http://www.w3.org/1999/xlink" version="1.1">
<metadata>
Created by FontForge 20170731 at Fri May 25 22:45:12 2018
 By Aleksey,,,
Copyright (c) 2018 by Mans Greback. All rights reserved.
</metadata>
<defs>
<font id="Aliment-Black" horiz-adv-x="652" >
  <font-face 
    font-family="Aliment"
    font-weight="900"
    font-stretch="normal"
    units-per-em="1000"
    panose-1="0 0 0 0 0 0 0 0 0 0"
    ascent="800"
    descent="-200"
    x-height="697"
    cap-height="697"
    bbox="-129.578 -421 1469 1093"
    underline-thickness="50"
    underline-position="-150"
    unicode-range="U+000D-FB02"
  />
<missing-glyph horiz-adv-x="446" 
 />
    <glyph glyph-name=".notdef" horiz-adv-x="446" 
 />
    <glyph glyph-name=".null" horiz-adv-x="0" 
 />
    <glyph glyph-name="nonmarkingreturn" unicode="&#xd;" horiz-adv-x="446" 
 />
    <glyph glyph-name="NULL" horiz-adv-x="0" 
 />
    <glyph glyph-name="NULL" horiz-adv-x="0" 
 />
    <glyph glyph-name="space" unicode=" " horiz-adv-x="446" 
 />
    <glyph glyph-name="exclam" unicode="!" horiz-adv-x="395" 
d="M305 330h-215l-70 370h355zM349 151q0 -29 -9 -56t-27.5 -48t-47 -34t-67.5 -13q-38 0 -66 13t-46.5 34t-27.5 48t-9 56q0 28 8.5 55t26.5 48t46.5 33.5t67.5 12.5t67.5 -12.5t47 -33.5t27.5 -48t9 -55z" />
    <glyph glyph-name="quotedbl" unicode="&#x22;" horiz-adv-x="625" 
d="M311 600l-36 -258h-215l-40 358h585l-50 -358h-215z" />
    <glyph glyph-name="numbersign" unicode="#" horiz-adv-x="677" 
d="M310 86h-27l-9 -46h-215l9 46h-48l40 225h51l5 25h-57l40 225h60l12 60h215l-12 -60h27l12 60h215l-12 -60h41l-40 -225h-44l-5 -25h50l-40 -225h-53l-9 -46h-215zM331 336l-5 -25h27l5 25h-27z" />
    <glyph glyph-name="dollar" unicode="$" horiz-adv-x="748" 
d="M294 5q-67 8 -114.5 27.5t-80 46t-51.5 58.5t-28 66l224 64q18 -11 35.5 -20t40.5 -14l4 29q-48 4 -98 14t-90.5 33t-66.5 61.5t-26 99.5q0 36 21 75t62.5 72.5t103.5 56t144 25.5l10 85h145l-11 -96q72 -15 122.5 -42.5t76.5 -55.5l-145 -147q-38 14 -81 18l-1 -15
q42 -2 84.5 -11.5t76.5 -32t55.5 -61.5t21.5 -99q0 -48 -21 -89t-59 -73t-91 -52t-118 -26l-10 -86h-145zM492 248q0 6 -24 9l-3 -28q14 4 20.5 9t6.5 10zM317 449q0 -6 28 -6l2 18q-14 -2 -22 -5t-8 -7z" />
    <glyph glyph-name="percent" unicode="%" horiz-adv-x="957" 
d="M937 224q0 -51 -21 -92t-57 -70.5t-85 -45.5t-105 -16q-80 0 -134 26.5t-85 70.5l-72 -97h-339l187 253q-52 7 -90.5 27t-64 50t-38.5 67t-13 77q0 42 16 83t48 72.5t80 51t113 19.5q67 0 123.5 -23t92.5 -65l65 88h339l-187 -253q48 -6 89.5 -24t72 -46.5t48 -67.5
t17.5 -85zM695 224q0 10 -5 17t-18 7q-11 0 -15.5 -7t-4.5 -17q0 -8 4.5 -15t15.5 -7q13 0 18 7t5 15zM303 474q0 10 -5 17t-18 7q-11 0 -15.5 -7t-4.5 -17q0 -8 4.5 -15t15.5 -7q13 0 18 7t5 15z" />
    <glyph glyph-name="ampersand" unicode="&#x26;" horiz-adv-x="806" 
d="M718 408q7 -85 -25 -165q23 -10 46 -18.5t47 -16.5l-73 -208q-44 14 -84 31t-78 37q-48 -32 -106 -50t-127 -18q-80 0 -139.5 23t-97 59.5t-52 81.5t-5.5 89.5t42.5 84t92.5 63.5q-28 57 -22 111t36.5 95.5t82 67t113.5 25.5t107 -18.5t73.5 -48.5t40.5 -68.5t6.5 -79
t-27 -80t-60.5 -71.5l23 -13q21 20 38.5 41.5t29.5 45.5h118zM286 255q-16 -6 -10.5 -17t41.5 -10zM377 465q-10 0 -14.5 -6.5t8.5 -21.5q21 7 19.5 17.5t-13.5 10.5z" />
    <glyph glyph-name="quotesingle" unicode="'" horiz-adv-x="345" 
d="M20 700h305l-50 -358h-215z" />
    <glyph glyph-name="parenleft" unicode="(" horiz-adv-x="525" 
d="M355 350q0 -62 12.5 -116t33.5 -99t48 -80t56 -57l-158 -91q-59 22 -117.5 64.5t-105 100.5t-75.5 129t-29 149t29.5 147.5t76.5 126.5t105.5 100t115.5 69l158 -91q-29 -25 -56 -60t-48 -79.5t-33.5 -98t-12.5 -114.5z" />
    <glyph glyph-name="parenright" unicode=")" horiz-adv-x="525" 
d="M170 350q0 61 -12.5 115.5t-33.5 99.5t-48 80t-56 57l158 91q59 -22 117.5 -64.5t105 -100.5t75.5 -129t29 -149t-29.5 -147.5t-76.5 -126.5t-105.5 -100t-115.5 -69l-158 91q29 25 56 60t48 79.5t33.5 97.5t12.5 115z" />
    <glyph glyph-name="asterisk" unicode="*" horiz-adv-x="663" 
d="M134 715l97 -76l-17 124h235l-17 -120l90 72l121 -188l-123 -50l123 -49l-121 -188l-90 71l17 -119h-235l17 124l-97 -76l-114 188l120 49l-120 50z" />
    <glyph glyph-name="plus" unicode="+" horiz-adv-x="638" 
d="M440 464h178v-235h-178v-175h-235v175h-185v235h185v168h235v-168z" />
    <glyph glyph-name="comma" unicode="," horiz-adv-x="382" 
d="M47 238h315l-147 -362h-195z" />
    <glyph glyph-name="hyphen" unicode="-" horiz-adv-x="538" 
d="M20 196v285h498v-285h-498z" />
    <glyph glyph-name="period" unicode="." horiz-adv-x="340" 
d="M320 151q0 -29 -9 -56t-27.5 -48t-47 -34t-67.5 -13q-38 0 -66 13t-46.5 34t-27.5 48t-9 56q0 28 8.5 55t26.5 48t46.5 33.5t67.5 12.5t67.5 -12.5t47 -33.5t27.5 -48t9 -55z" />
    <glyph glyph-name="slash" unicode="/" horiz-adv-x="828" 
d="M456 700h352l-436 -840h-352z" />
    <glyph glyph-name="zero" unicode="0" horiz-adv-x="747" 
d="M421 350q0 26 -15.5 39.5t-32.5 13.5q-16 0 -31.5 -13t-15.5 -40t15.5 -40t31.5 -13q20 0 34 15t14 38zM727 350q0 -81 -27 -146t-74.5 -110.5t-113 -69.5t-142.5 -24q-81 0 -146 27t-110 74.5t-69.5 111t-24.5 137.5q0 73 24 137t69 111.5t110 74.5t147 27
q77 0 142.5 -25t113 -71t74.5 -110.5t27 -143.5z" />
    <glyph glyph-name="one" unicode="1" horiz-adv-x="488" 
d="M78 0v580l118 120h217v-700h-335z" />
    <glyph glyph-name="two" unicode="2" horiz-adv-x="734" 
d="M37 391q-11 55 5.5 110.5t59 99.5t111 71.5t162.5 27.5q81 0 139.5 -18.5t96 -50t55 -72.5t17 -86.5t-19 -92t-52.5 -87.5l-48 -58h151v-235h-710l349 378q28 31 27 51.5t-13 20.5q-14 0 -21.5 -16.5t0.5 -42.5h-309v0z" />
    <glyph glyph-name="three" unicode="3" horiz-adv-x="757" 
d="M52 454q-9 35 1 77.5t47 80t105.5 63t176.5 25.5q93 0 156 -15.5t102 -40.5t55.5 -57.5t16.5 -66.5q0 -39 -20 -76t-71 -64q57 -26 86.5 -68.5t29.5 -94.5q0 -38 -20 -77t-64 -70t-115.5 -50.5t-173.5 -19.5q-104 0 -174 26t-110 67t-52.5 93t-1.5 104h305q-2 -6 7 -10.5
t36 -4.5q22 0 30.5 4t8.5 10q0 8 -8 10.5t-35 2.5h-142v145h132q28 0 28 10q0 8 -26 8q-16 0 -21 -3t-4 -8h-285v0z" />
    <glyph glyph-name="four" unicode="4" horiz-adv-x="741" 
d="M650 846v-543h71v-205h-71v-98h-295v98h-405zM442 269v68l-41 -68h41z" />
    <glyph glyph-name="five" unicode="5" horiz-adv-x="730" 
d="M393 292q0 17 -17 21t-39 -4h-302l59 391h550v-239h-295l-4 -50q32 18 72 27.5t80.5 8.5t79 -12.5t68 -35.5t47.5 -61t18 -89q0 -53 -25.5 -98.5t-72 -79t-112 -52.5t-144.5 -19q-173 0 -254.5 77.5t-81.5 214.5h315q0 -11 8.5 -15.5t20.5 -4.5q29 0 29 20z" />
    <glyph glyph-name="six" unicode="6" horiz-adv-x="752" 
d="M397 277q0 11 -8.5 19.5t-25.5 -2.5q0 -21 4 -30t12 -9t13 6t5 16zM387 0q-80 0 -147.5 23t-116.5 66.5t-77 105.5t-28 141t28 145.5t80.5 115t127.5 76t168 27.5q29 0 67.5 -3.5t76 -10.5t69.5 -16t48 -19l-33 -227q-12 9 -35 19.5t-53 18t-64.5 9.5t-68.5 -6
q-32 -8 -48 -20t-18 -24q64 28 129.5 26.5t118.5 -28.5t87 -76.5t34 -116.5q0 -39 -19.5 -79t-61 -72.5t-107 -53.5t-157.5 -21z" />
    <glyph glyph-name="seven" unicode="7" horiz-adv-x="673" 
d="M365 -54l-253 124l203 365h-295v265h733z" />
    <glyph glyph-name="eight" unicode="8" horiz-adv-x="778" 
d="M20 215q0 48 26 91t86 72q-39 29 -54.5 62.5t-15.5 62.5q0 34 16 69t54.5 63.5t101 46.5t155.5 18t155.5 -18t101 -46.5t54.5 -63.5t16 -69q0 -32 -15 -65t-53 -61q58 -29 84 -71.5t26 -90.5q0 -39 -21 -77.5t-65.5 -69t-114.5 -49.5t-168 -19q-101 0 -171 19t-114 49.5
t-64 69t-20 77.5zM389 255q14 0 24 5t10 13t-10 12.5t-24 4.5t-24 -4.5t-10 -12.5q0 -18 34 -18zM389 465q-14 0 -23 -4.5t-9 -12.5t9 -11.5t23 -3.5t23 3.5t9 11.5t-9 12.5t-23 4.5z" />
    <glyph glyph-name="nine" unicode="9" horiz-adv-x="744" 
d="M349 423q0 -11 8.5 -19.5t25.5 2.5q0 21 -4 30t-12 9t-13 -6t-5 -16zM359 700q79 0 147 -23t117 -66.5t77 -105.5t28 -141t-28 -145.5t-80.5 -115t-127.5 -76t-168 -27.5q-29 0 -67.5 3.5t-76 10.5t-69.5 15.5t-48 19.5l33 227q12 -9 35 -19.5t53 -18t64.5 -9.5t68.5 6
q32 8 48 20t18 24q-64 -29 -129.5 -27t-119 29t-87 76.5t-33.5 116.5q0 39 19.5 79t61 72.5t107 53.5t157.5 21z" />
    <glyph glyph-name="colon" unicode=":" horiz-adv-x="340" 
d="M320 151q0 -29 -9 -56t-27.5 -48t-47 -34t-67.5 -13q-38 0 -66 13t-46.5 34t-27.5 48t-9 56q0 28 8.5 55t26.5 48t46.5 33.5t67.5 12.5t67.5 -12.5t47 -33.5t27.5 -48t9 -55zM320 461q0 -29 -9 -56t-27.5 -48t-47 -34t-67.5 -13q-38 0 -66 13t-46.5 34t-27.5 48t-9 56
q0 28 8.5 55t26.5 48t46.5 33.5t67.5 12.5t67.5 -12.5t47 -33.5t27.5 -48t9 -55z" />
    <glyph glyph-name="semicolon" unicode=";" horiz-adv-x="382" 
d="M47 238h315l-147 -362h-195zM360 461q0 -29 -9 -56t-27.5 -48t-47 -34t-67.5 -13q-38 0 -66 13t-46.5 34t-27.5 48t-9 56q0 28 8.5 55t26.5 48t46.5 33.5t67.5 12.5t67.5 -12.5t47 -33.5t27.5 -48t9 -55z" />
    <glyph glyph-name="less" unicode="&#x3c;" horiz-adv-x="539" 
d="M519 513l-147 -167l147 -166l-128 -148l-371 311l371 311z" />
    <glyph glyph-name="equal" unicode="=" horiz-adv-x="638" 
d="M20 377v205h598v-205h-598zM20 118v205h598v-205h-598z" />
    <glyph glyph-name="greater" unicode="&#x3e;" horiz-adv-x="539" 
d="M148 654l371 -311l-371 -311l-128 148l147 166l-147 167z" />
    <glyph glyph-name="question" unicode="?" horiz-adv-x="641" 
d="M23 462q-8 39 8.5 81.5t55 77t99 57t141.5 22.5q73 0 128 -19.5t92 -50t55.5 -69t18.5 -76.5q0 -48 -17 -79t-42 -51t-55 -31.5t-55.5 -20t-43.5 -18t-19 -25.5h-201q-8 51 -3 83t18 51t30.5 28.5t35 15t31.5 10.5t19 16q2 4 -2.5 9.5t-19.5 5.5q-16 0 -21 -6t-5 -11
h-248zM445 123q0 -24 -9 -46t-28 -39t-47.5 -27.5t-68.5 -10.5q-39 0 -67 10.5t-47 27.5t-28 39t-9 46q0 23 8.5 45t27 39t47 27.5t68.5 10.5t68.5 -10.5t47.5 -27.5t28 -39t9 -45z" />
    <glyph glyph-name="at" unicode="@" horiz-adv-x="1120" 
d="M341 497q26 52 80.5 82t138.5 30q55 0 101 -13.5t79.5 -39.5t52.5 -65.5t19 -91.5v-116q0 -14 1 -21t9 -7q4 0 8 3.5t6 15t3.5 33t1.5 57.5q0 64 -17 114t-52 85t-87.5 53.5t-124.5 18.5q-64 0 -115 -17t-86.5 -52t-54.5 -88.5t-19 -127.5q0 -143 63 -210.5t176 -67.5
q44 0 81 14.5t59 33.5l170 -109q-16 -14 -41 -33.5t-62.5 -36.5t-87.5 -29t-115 -12q-138 0 -234.5 36t-157 97.5t-88.5 143t-28 173.5q0 89 33 170.5t99.5 143.5t168 99t239.5 37q135 0 236 -34t168.5 -91t101.5 -132t34 -157q0 -68 -23.5 -121.5t-63.5 -91t-93.5 -57.5
t-113.5 -20q-42 0 -81.5 16t-69.5 45q-30 -27 -66 -39t-75 -12t-73.5 14.5t-60 38t-40.5 53.5t-15 62q0 29 11 57.5t34.5 51.5t60.5 37t90 14q18 0 36.5 -0.5t35.5 -1.5q-13 21 -57 21q-27 0 -52 -2t-56 -13zM561 261q22 0 29.5 8t9.5 24q-8 -1 -17 -1h-19q-14 0 -20.5 -2.5
t-6.5 -13.5q0 -15 24 -15z" />
    <glyph glyph-name="A" unicode="A" horiz-adv-x="960" 
d="M990 -2h-399l-35 54l-73 -96l-79 97l-35 -55h-399l510 797zM459 138h42l-21 33z" />
    <glyph glyph-name="B" unicode="B" horiz-adv-x="753" 
d="M566 450q83 -18 125 -73t42 -134q0 -57 -22 -102.5t-58 -77.5t-83.5 -49t-98.5 -17h-451v700h370q27 0 54 -4.5t52 -14.5t46 -26t36 -40q10 -17 13.5 -38.5t1.5 -43.5t-9 -43t-18 -37zM296 429h46q9 0 15 6.5t6 14.5t-6 14t-15 6h-46v-41zM388 251q18 0 30 12t12 30
q0 17 -12 29.5t-30 12.5h-92v-84h92z" />
    <glyph glyph-name="C" unicode="C" horiz-adv-x="791" 
d="M348 348q0 -24 16.5 -39.5t42.5 -15.5q16 0 29 9.5t21 22.5l324 -89q-18 -61 -54.5 -112.5t-86 -89t-110 -58.5t-126.5 -21q-82 0 -153.5 31t-125 84.5t-84.5 125.5t-31 153t31 153t84.5 125.5t125 84.5t153.5 31q66 0 126.5 -21t110 -58.5t86 -89t54.5 -112.5l-324 -90
q-7 16 -21.5 25.5t-31.5 9.5q-25 0 -40.5 -15t-15.5 -44z" />
    <glyph glyph-name="D" unicode="D" horiz-adv-x="740" 
d="M370 697q72 0 136 -27.5t111.5 -75t75 -111.5t27.5 -136t-27.5 -136t-75 -111.5t-111.5 -75t-136 -27.5h-350v700h350zM370 312q14 0 24.5 10t10.5 25q0 14 -10.5 24t-24.5 10h-35v-69h35z" />
    <glyph glyph-name="E" unicode="E" 
d="M356 444v-35h191v-125h-191v-35h276v-252h-612v700h612v-252z" />
    <glyph glyph-name="F" unicode="F" horiz-adv-x="686" 
d="M716 361q-91 0 -180 -0.5t-180 -0.5v-23h276v-177h-276v-163h-336v700h696v-336v0z" />
    <glyph glyph-name="G" unicode="G" horiz-adv-x="885" 
d="M875 324q0 -20 -0.5 -40t-0.5 -40h-91q-18 -62 -54 -114.5t-85.5 -91t-111 -60t-128.5 -21.5q-82 0 -153.5 31t-125 84.5t-84.5 125.5t-31 153t31 153t84.5 125.5t125 84.5t153.5 31q79 0 148.5 -29t122.5 -79.5t85.5 -118t37.5 -145.5h-339q-4 8 -18 20.5t-34 12.5
q-23 0 -40 -16t-17 -41q0 -28 16.5 -43.5t38.5 -15.5q18 0 28 5.5t16 13.5h-14v15h440v0z" />
    <glyph glyph-name="H" unicode="H" horiz-adv-x="823" 
d="M803 697v-700h-335v248h-112v-248h-336v700h336v-276h112v276h335z" />
    <glyph glyph-name="I" unicode="I" horiz-adv-x="376" 
d="M20 -3v700h336v-700h-336z" />
    <glyph glyph-name="J" unicode="J" horiz-adv-x="828" 
d="M808 695v-350q0 -82 -31 -153.5t-84 -125t-125 -84.5t-153 -31q-79 0 -149 29t-123 79t-86 117.5t-37 145.5h340q7 -15 21 -24.5t33 -9.5q24 0 41.5 17t17.5 42v350z" />
    <glyph glyph-name="K" unicode="K" horiz-adv-x="936" 
d="M691 -118l-335 365v-250h-336v700h336v-251l335 365l237 -237l-228 -227l228 -228z" />
    <glyph glyph-name="L" unicode="L" 
d="M632 333v-336h-612v700h336v-364h276z" />
    <glyph glyph-name="M" unicode="M" horiz-adv-x="944" 
d="M924 807v-810h-336v86l-116 -98l-116 98v-86h-336v810l452 -383z" />
    <glyph glyph-name="N" unicode="N" horiz-adv-x="902" 
d="M546 697q85 0 168 0.5t168 0.5v-844l-526 347v-203h-336v826l526 -347v220v0z" />
    <glyph glyph-name="O" unicode="O" horiz-adv-x="807" 
d="M404 742q81 0 153 -31t125 -84.5t84 -125.5t31 -153t-31 -153t-84 -125.5t-125 -84.5t-153 -31q-82 0 -153.5 31t-125 84.5t-84.5 125.5t-31 153t31 153t84.5 125.5t125 84.5t153.5 31zM404 289q24 0 41.5 17t17.5 42q0 24 -17.5 41.5t-41.5 17.5q-25 0 -42 -17.5
t-17 -41.5q0 -25 17 -42t42 -17z" />
    <glyph glyph-name="P" unicode="P" horiz-adv-x="759" 
d="M455 697q59 0 110.5 -22.5t90 -61t61 -90.5t22.5 -111t-22.5 -111t-61 -90.5t-90 -61t-110.5 -22.5h-99v-130h-336v700h435zM390 335q15 0 25 10t10 24q0 15 -10 25t-25 10h-34v-69h34z" />
    <glyph glyph-name="Q" unicode="Q" horiz-adv-x="815" 
d="M627 -117l-93 93q-63 -23 -130 -23q-82 0 -153.5 31t-125 84.5t-84.5 125.5t-31 153t31 153t84.5 125.5t125 84.5t153.5 31q81 0 153 -31t125 -84.5t84 -125.5t31 -153q0 -60 -16.5 -114t-47.5 -101l72 -72zM346 348q0 -25 17 -42t42 -17q24 0 41.5 17t17.5 42
q0 24 -17.5 41.5t-41.5 17.5q-25 0 -42 -17.5t-17 -41.5z" />
    <glyph glyph-name="R" unicode="R" horiz-adv-x="780" 
d="M386 146h-30v-150h-336v700h435q59 0 110.5 -22.5t90 -61t61 -90.5t22.5 -111q0 -39 -10 -75t-29 -68l139 -138l-218 -218zM425 368q0 15 -10.5 25t-24.5 10h-34v-69h34q14 0 24.5 10t10.5 24z" />
    <glyph glyph-name="S" unicode="S" horiz-adv-x="896" 
d="M876 697v-336h-244q-6 0 -9.5 -8.5t-5 -21t-2 -26t-1.5 -23.5q-6 -68 -31 -121t-71 -89.5t-115.5 -55.5t-164.5 -19h-212v336h248q7 0 9.5 8.5t3.5 21t0.5 26t0.5 23.5q10 132 88 208.5t222 76.5h284z" />
    <glyph glyph-name="T" unicode="T" horiz-adv-x="802" 
d="M783 361h-214v-364h-336v364h-214v336h764v-336z" />
    <glyph glyph-name="U" unicode="U" horiz-adv-x="827" 
d="M807 697v-350q0 -81 -31 -153t-84 -125.5t-125 -84.5t-153 -31q-82 0 -153.5 31t-125 84.5t-84.5 125.5t-31 153v350h336v-350q0 -25 17 -42t42 -17q24 0 41.5 17t17.5 42v350h333z" />
    <glyph glyph-name="V" unicode="V" horiz-adv-x="960" 
d="M990 697l-510 -797l-510 797h399l111 -174l111 174h399z" />
    <glyph glyph-name="W" unicode="W" horiz-adv-x="1244" 
d="M1274 697l-449 -801l-203 289l-203 -289l-449 801h385l95 -171l172 244l171 -244l96 171h385z" />
    <glyph glyph-name="X" unicode="X" horiz-adv-x="915" 
d="M670 347l275 -350h-399l-88 112l-89 -112h-399l275 350l-275 350h399l89 -113l88 113h399z" />
    <glyph glyph-name="Y" unicode="Y" horiz-adv-x="917" 
d="M626 256v-258h-336v258l-320 320l238 238l251 -251l250 251l238 -238z" />
    <glyph glyph-name="Z" unicode="Z" horiz-adv-x="954" 
d="M674 333h244v-336h-898l260 364h-244v336h898z" />
    <glyph glyph-name="bracketleft" unicode="[" horiz-adv-x="533" 
d="M20 -63v826h493v-215h-168v-396h168v-215h-493z" />
    <glyph glyph-name="backslash" unicode="\" horiz-adv-x="828" 
d="M808 -140h-352l-436 840h352z" />
    <glyph glyph-name="bracketright" unicode="]" horiz-adv-x="533" 
d="M513 763v-826h-493v215h168v396h-168v215h493z" />
    <glyph glyph-name="asciicircum" unicode="^" horiz-adv-x="638" 
d="M218 695h204l196 -279h-269l-30 22l-30 -22h-269z" />
    <glyph glyph-name="underscore" unicode="_" horiz-adv-x="698" 
d="M20 -170v235h658v-235h-658z" />
    <glyph glyph-name="grave" unicode="`" horiz-adv-x="511" 
d="M187 812l304 -266l-92 -133l-379 171z" />
    <glyph glyph-name="a" unicode="a" horiz-adv-x="960" 
d="M990 -2h-399l-35 54l-73 -96l-79 97l-35 -55h-399l510 797zM459 138h42l-21 33z" />
    <glyph glyph-name="b" unicode="b" horiz-adv-x="753" 
d="M566 450q83 -18 125 -73t42 -134q0 -57 -22 -102.5t-58 -77.5t-83.5 -49t-98.5 -17h-451v700h370q27 0 54 -4.5t52 -14.5t46 -26t36 -40q10 -17 13.5 -38.5t1.5 -43.5t-9 -43t-18 -37zM296 429h46q9 0 15 6.5t6 14.5t-6 14t-15 6h-46v-41zM388 251q18 0 30 12t12 30
q0 17 -12 29.5t-30 12.5h-92v-84h92z" />
    <glyph glyph-name="c" unicode="c" horiz-adv-x="791" 
d="M348 348q0 -24 16.5 -39.5t42.5 -15.5q16 0 29 9.5t21 22.5l324 -89q-18 -61 -54.5 -112.5t-86 -89t-110 -58.5t-126.5 -21q-82 0 -153.5 31t-125 84.5t-84.5 125.5t-31 153t31 153t84.5 125.5t125 84.5t153.5 31q66 0 126.5 -21t110 -58.5t86 -89t54.5 -112.5l-324 -90
q-7 16 -21.5 25.5t-31.5 9.5q-25 0 -40.5 -15t-15.5 -44z" />
    <glyph glyph-name="d" unicode="d" horiz-adv-x="740" 
d="M370 697q72 0 136 -27.5t111.5 -75t75 -111.5t27.5 -136t-27.5 -136t-75 -111.5t-111.5 -75t-136 -27.5h-350v700h350zM370 312q14 0 24.5 10t10.5 25q0 14 -10.5 24t-24.5 10h-35v-69h35z" />
    <glyph glyph-name="e" unicode="e" 
d="M356 444v-35h191v-125h-191v-35h276v-252h-612v700h612v-252z" />
    <glyph glyph-name="f" unicode="f" horiz-adv-x="686" 
d="M716 361q-91 0 -180 -0.5t-180 -0.5v-23h276v-177h-276v-163h-336v700h696v-336v0z" />
    <glyph glyph-name="g" unicode="g" horiz-adv-x="885" 
d="M875 324q0 -20 -0.5 -40t-0.5 -40h-91q-18 -62 -54 -114.5t-85.5 -91t-111 -60t-128.5 -21.5q-82 0 -153.5 31t-125 84.5t-84.5 125.5t-31 153t31 153t84.5 125.5t125 84.5t153.5 31q79 0 148.5 -29t122.5 -79.5t85.5 -118t37.5 -145.5h-339q-4 8 -18 20.5t-34 12.5
q-23 0 -40 -16t-17 -41q0 -28 16.5 -43.5t38.5 -15.5q18 0 28 5.5t16 13.5h-14v15h440v0z" />
    <glyph glyph-name="h" unicode="h" horiz-adv-x="823" 
d="M803 697v-700h-335v248h-112v-248h-336v700h336v-276h112v276h335z" />
    <glyph glyph-name="i" unicode="i" horiz-adv-x="376" 
d="M20 -3v700h336v-700h-336z" />
    <glyph glyph-name="j" unicode="j" horiz-adv-x="828" 
d="M808 695v-350q0 -82 -31 -153.5t-84 -125t-125 -84.5t-153 -31q-79 0 -149 29t-123 79t-86 117.5t-37 145.5h340q7 -15 21 -24.5t33 -9.5q24 0 41.5 17t17.5 42v350z" />
    <glyph glyph-name="k" unicode="k" horiz-adv-x="936" 
d="M691 -118l-335 365v-250h-336v700h336v-251l335 365l237 -237l-228 -227l228 -228z" />
    <glyph glyph-name="l" unicode="l" 
d="M632 333v-336h-612v700h336v-364h276z" />
    <glyph glyph-name="m" unicode="m" horiz-adv-x="944" 
d="M924 807v-810h-336v86l-116 -98l-116 98v-86h-336v810l452 -383z" />
    <glyph glyph-name="n" unicode="n" horiz-adv-x="902" 
d="M546 697q85 0 168 0.5t168 0.5v-844l-526 347v-203h-336v826l526 -347v220v0z" />
    <glyph glyph-name="o" unicode="o" horiz-adv-x="807" 
d="M404 742q81 0 153 -31t125 -84.5t84 -125.5t31 -153t-31 -153t-84 -125.5t-125 -84.5t-153 -31q-82 0 -153.5 31t-125 84.5t-84.5 125.5t-31 153t31 153t84.5 125.5t125 84.5t153.5 31zM404 289q24 0 41.5 17t17.5 42q0 24 -17.5 41.5t-41.5 17.5q-25 0 -42 -17.5
t-17 -41.5q0 -25 17 -42t42 -17z" />
    <glyph glyph-name="p" unicode="p" horiz-adv-x="759" 
d="M455 697q59 0 110.5 -22.5t90 -61t61 -90.5t22.5 -111t-22.5 -111t-61 -90.5t-90 -61t-110.5 -22.5h-99v-130h-336v700h435zM390 335q15 0 25 10t10 24q0 15 -10 25t-25 10h-34v-69h34z" />
    <glyph glyph-name="q" unicode="q" horiz-adv-x="815" 
d="M627 -117l-93 93q-63 -23 -130 -23q-82 0 -153.5 31t-125 84.5t-84.5 125.5t-31 153t31 153t84.5 125.5t125 84.5t153.5 31q81 0 153 -31t125 -84.5t84 -125.5t31 -153q0 -60 -16.5 -114t-47.5 -101l72 -72zM346 348q0 -25 17 -42t42 -17q24 0 41.5 17t17.5 42
q0 24 -17.5 41.5t-41.5 17.5q-25 0 -42 -17.5t-17 -41.5z" />
    <glyph glyph-name="r" unicode="r" horiz-adv-x="780" 
d="M386 146h-30v-150h-336v700h435q59 0 110.5 -22.5t90 -61t61 -90.5t22.5 -111q0 -39 -10 -75t-29 -68l139 -138l-218 -218zM425 368q0 15 -10.5 25t-24.5 10h-34v-69h34q14 0 24.5 10t10.5 24z" />
    <glyph glyph-name="s" unicode="s" horiz-adv-x="896" 
d="M876 697v-336h-244q-6 0 -9.5 -8.5t-5 -21t-2 -26t-1.5 -23.5q-6 -68 -31 -121t-71 -89.5t-115.5 -55.5t-164.5 -19h-212v336h248q7 0 9.5 8.5t3.5 21t0.5 26t0.5 23.5q10 132 88 208.5t222 76.5h284z" />
    <glyph glyph-name="t" unicode="t" horiz-adv-x="802" 
d="M783 361h-214v-364h-336v364h-214v336h764v-336z" />
    <glyph glyph-name="u" unicode="u" horiz-adv-x="827" 
d="M807 697v-350q0 -81 -31 -153t-84 -125.5t-125 -84.5t-153 -31q-82 0 -153.5 31t-125 84.5t-84.5 125.5t-31 153v350h336v-350q0 -25 17 -42t42 -17q24 0 41.5 17t17.5 42v350h333z" />
    <glyph glyph-name="v" unicode="v" horiz-adv-x="960" 
d="M990 697l-510 -797l-510 797h399l111 -174l111 174h399z" />
    <glyph glyph-name="w" unicode="w" horiz-adv-x="1244" 
d="M1274 697l-449 -801l-203 289l-203 -289l-449 801h385l95 -171l172 244l171 -244l96 171h385z" />
    <glyph glyph-name="x" unicode="x" horiz-adv-x="915" 
d="M670 347l275 -350h-399l-88 112l-89 -112h-399l275 350l-275 350h399l89 -113l88 113h399z" />
    <glyph glyph-name="y" unicode="y" horiz-adv-x="917" 
d="M626 256v-258h-336v258l-320 320l238 238l251 -251l250 251l238 -238z" />
    <glyph glyph-name="z" unicode="z" horiz-adv-x="954" 
d="M674 333h244v-336h-898l260 364h-244v336h898z" />
    <glyph glyph-name="braceleft" unicode="{" horiz-adv-x="475" 
d="M20 448q50 0 74.5 13.5t35.5 35.5t13.5 50.5t7 58t18 58t46 50.5t90 35.5t150.5 13.5v-235q-36 0 -53.5 -8.5t-25 -23t-9.5 -33t-6.5 -38t-16 -39.5t-38.5 -36q27 -16 38.5 -36t16 -39.5t6.5 -38t9.5 -32.5t25 -22.5t53.5 -8.5v-235q-93 0 -150.5 13.5t-90 35.5t-46 50.5
t-18 58t-7 58t-13.5 50.5t-35.5 35.5t-74.5 13.5v195z" />
    <glyph glyph-name="bar" unicode="|" horiz-adv-x="335" 
d="M20 749h295v-938h-295v938z" />
    <glyph glyph-name="braceright" unicode="}" horiz-adv-x="475" 
d="M455 253q-50 0 -74.5 -13.5t-35.5 -35.5t-13.5 -50.5t-7 -58t-18 -58t-46 -50.5t-90 -35.5t-150.5 -13.5v235q36 0 53.5 8.5t25 22.5t9.5 32.5t6.5 38t16 39t38.5 36.5q-27 16 -38.5 36t-16 39.5t-6.5 38t-9.5 33t-25 23t-53.5 8.5v235q93 0 150.5 -13.5t90 -35.5
t46 -50.5t18 -58t7 -58t13.5 -50.5t35.5 -35.5t74.5 -13.5v-195z" />
    <glyph glyph-name="asciitilde" unicode="~" horiz-adv-x="683" 
d="M616 478q42 -69 46 -135t-22 -117.5t-78.5 -83.5t-122.5 -32q-43 0 -71.5 10t-48 24.5t-31 32t-19 32t-13.5 24.5t-14 10q-10 0 -11 -12t8 -31t28 -43t49 -47h-251q-42 75 -43.5 141.5t26 117t79 80t115.5 29.5q44 0 74 -10t50.5 -24.5t32.5 -32t20.5 -32t14 -24.5
t13.5 -10q9 0 7 15t-12.5 36.5t-29 44t-42.5 37.5h246v0z" />
    <glyph glyph-name="uni00A0" unicode="&#xa0;" horiz-adv-x="446" 
 />
    <glyph glyph-name="exclamdown" unicode="&#xa1;" horiz-adv-x="395" 
d="M90 270h215l70 -370h-355zM46 449q0 29 9 56t27.5 48t47 34t67.5 13q38 0 66 -13t46.5 -34t27.5 -48t9 -56q0 -28 -8.5 -55t-26.5 -48t-46.5 -33.5t-67.5 -12.5t-67.5 12.5t-47 33.5t-27.5 48t-9 55z" />
    <glyph glyph-name="cent" unicode="&#xa2;" horiz-adv-x="645" 
d="M625 120q-57 -31 -115 -48t-111 -21l-32 -135h-135l34 144q-59 13 -105 40t-77.5 65t-47.5 85t-16 100q0 63 23.5 118t68.5 95.5t110 63.5t148 23q8 0 17 -0.5t18 -1.5l32 136h135l-39 -162q25 -8 48.5 -18.5t43.5 -23.5l-100 -180q-8 2 -19 4.5t-23 4.5l-29 -122
q21 2 39 6t26 9zM308 350q0 -25 17 -41l22 95q-21 -8 -30 -22t-9 -32z" />
    <glyph glyph-name="sterling" unicode="&#xa3;" horiz-adv-x="630" 
d="M356 418q3 32 -2.5 44.5t-13.5 12.5q-14 0 -18.5 -19.5t5.5 -70.5h152v-135h-166q-10 -11 -24 -18.5t-32 -14.5h353v-217h-590v185q33 5 50.5 19t20.5 46h-66v135h48q-10 73 4.5 131.5t49.5 99t88.5 62.5t122.5 22q58 0 108 -19.5t85 -56t51.5 -89t8.5 -117.5h-235v0z
" />
    <glyph glyph-name="currency" unicode="&#xa4;" horiz-adv-x="732" 
d="M622 350q0 -29 -4 -54.5t-11 -47.5l105 -83l-161 -168l-84 106q-48 -15 -102 -15q-26 0 -49.5 3t-44.5 11l-83 -105l-168 168l110 86q-7 22 -10 47t-3 52q0 50 12 92l-109 86l168 161l72 -96q49 19 105 19q60 0 113 -21l73 98l161 -161l-103 -86q6 -20 9.5 -43t3.5 -49z
M394 350q0 12 -6.5 19.5t-18.5 7.5q-25 0 -25 -27t25 -27q13 0 19 7.5t6 19.5z" />
    <glyph glyph-name="yen" unicode="&#xa5;" horiz-adv-x="821" 
d="M548 40v-40h-275v40h-88v135h88v21h-88v135h55l-220 369h342l48 -235l49 235h342l-217 -369h45v-135h-81v-21h81v-135h-81z" />
    <glyph glyph-name="brokenbar" unicode="&#xa6;" horiz-adv-x="325" 
d="M305 257v-446h-285v446h285zM20 303v446h285v-446h-285z" />
    <glyph glyph-name="section" unicode="&#xa7;" horiz-adv-x="726" 
d="M690 259q7 -14 11 -32.5t4 -41.5q0 -37 -22.5 -77.5t-67 -74.5t-110.5 -56t-154 -22q-60 0 -110.5 10t-91.5 26t-70.5 35.5t-47.5 38.5l149 114q35 -10 70.5 -14.5t88.5 -4.5q17 0 33.5 1t29.5 3t21 5t8 7q0 10 -17.5 11.5t-46.5 0t-66 -4t-75.5 -0.5t-75.5 11t-66 30.5
t-46.5 57t-17.5 91.5l19 18q-8 17 -13 38t-5 48q0 37 22.5 77.5t67 74.5t110.5 56t154 22q60 0 110.5 -10t91.5 -26t70.5 -35.5t47.5 -38.5l-151 -102q-30 10 -67 13.5t-90 3.5q-17 0 -33.5 -1t-29.5 -3t-21 -5t-8 -7q0 -8 17.5 -8.5t46.5 1.5t66 3.5t75.5 -1.5t75 -14.5
t65.5 -35.5t47 -63t18 -99zM453 322q-12 10 -31.5 13t-45 2t-54.5 -4.5t-60 -6.5q10 -11 29.5 -14.5t45 -2.5t55 5t61.5 8z" />
    <glyph glyph-name="dieresis" unicode="&#xa8;" horiz-adv-x="670" 
d="M320 571q0 -29 -9 -56t-27.5 -48t-47 -34t-67.5 -13q-38 0 -66 13t-46.5 34t-27.5 48t-9 56q0 28 8.5 55t26.5 48t46.5 33.5t67.5 12.5t67.5 -12.5t47 -33.5t27.5 -48t9 -55zM650 571q0 -29 -9 -56t-27.5 -48t-47 -34t-67.5 -13q-38 0 -66 13t-46.5 34t-27.5 48t-9 56
q0 28 8.5 55t26.5 48t46.5 33.5t67.5 12.5t67.5 -12.5t47 -33.5t27.5 -48t9 -55z" />
    <glyph glyph-name="copyright" unicode="&#xa9;" horiz-adv-x="1014" 
d="M825 350q0 67 -20.5 126.5t-60.5 104.5t-99.5 71t-137.5 26q-76 0 -135.5 -26t-100 -71t-61.5 -104.5t-21 -126.5t21 -126.5t61.5 -104.5t100 -71t135.5 -26q78 0 137.5 26t99.5 71t60.5 104.5t20.5 126.5zM994 350q0 -110 -36 -199.5t-101 -153.5t-154.5 -99t-195.5 -35
q-113 0 -203 38.5t-153 104.5t-97 154.5t-34 189.5q0 100 34 189t97 155t153 104.5t203 38.5q106 0 195.5 -35t154.5 -99t101 -154t36 -199zM735 150q-48 -56 -110.5 -78t-120.5 -22q-63 0 -115.5 23t-90 63.5t-58 95.5t-20.5 118t20.5 118t58 95.5t90 63.5t115.5 23
q29 0 61 -5.5t63 -18.5t58.5 -34t48.5 -52l-120 -140q-20 7 -31.5 11t-33.5 4q-20 0 -36 -17.5t-16 -47.5t16 -47.5t36 -17.5q27 0 37.5 5.5t21.5 11.5z" />
    <glyph glyph-name="ordfeminine" unicode="&#xaa;" horiz-adv-x="960" 
d="M990 -2h-399l-35 54l-73 -96l-79 97l-35 -55h-399l510 797zM459 138h42l-21 33z" />
    <glyph glyph-name="guillemotleft" unicode="&#xab;" horiz-adv-x="939" 
d="M391 32l-371 311l371 311l128 -148l-147 -166l147 -167zM791 32l-371 311l371 311l128 -148l-147 -166l147 -167z" />
    <glyph glyph-name="logicalnot" unicode="&#xac;" horiz-adv-x="638" 
d="M618 54h-235v175h-363v235h598v-410z" />
    <glyph glyph-name="uni00AD" unicode="&#xad;" horiz-adv-x="538" 
d="M20 196v285h498v-285h-498z" />
    <glyph glyph-name="registered" unicode="&#xae;" horiz-adv-x="1014" 
d="M994 350q0 -110 -36 -199.5t-101 -153.5t-154.5 -99t-195.5 -35q-113 0 -203 38.5t-153 104.5t-97 154.5t-34 189.5q0 100 34 189t97 155t153 104.5t203 38.5q106 0 195.5 -35t154.5 -99t101 -154t36 -199zM825 350q0 67 -20.5 126.5t-60.5 104.5t-99.5 71t-137.5 26
q-68 0 -121.5 -20.5t-93.5 -56.5h311q47 0 83 -16t60.5 -41.5t37 -58t12.5 -65.5q0 -38 -19 -75t-53 -65l62 -102q39 75 39 172zM518 234h-21v-125h-216q41 -41 97.5 -64t128.5 -23q74 0 131 23t97 64h-176zM189 350q0 -59 15.5 -112t47.5 -95v414q-32 -43 -47.5 -95.5
t-15.5 -111.5zM497 416v-37h16q30 0 30 19q0 9 -6.5 13.5t-23.5 4.5h-16z" />
    <glyph glyph-name="macron" unicode="&#xaf;" horiz-adv-x="518" 
d="M20 476v205h478v-205h-478z" />
    <glyph glyph-name="degree" unicode="&#xb0;" horiz-adv-x="454" 
d="M227 697q43 0 80.5 -16.5t65.5 -44.5t44.5 -65.5t16.5 -80.5t-16.5 -80.5t-44.5 -65.5t-65.5 -44.5t-80.5 -16.5t-80.5 16.5t-65.5 44.5t-44.5 65.5t-16.5 80.5t16.5 80.5t44.5 65.5t65.5 44.5t80.5 16.5zM227 468q9 0 15.5 6.5t6.5 15.5t-6.5 15.5t-15.5 6.5t-15.5 -6.5
t-6.5 -15.5t6.5 -15.5t15.5 -6.5z" />
    <glyph glyph-name="plusminus" unicode="&#xb1;" horiz-adv-x="638" 
d="M440 564h178v-235h-178v-175h-235v175h-185v235h185v168h235v-168zM20 -101v235h598v-235h-598z" />
    <glyph glyph-name="twosuperior" unicode="&#xb2;" horiz-adv-x="519" 
d="M27 471q-7 42 6 83.5t44.5 73.5t81 52t115.5 20q69 0 116 -24t71.5 -59t26.5 -75.5t-20 -74.5q-17 -27 -47.5 -47.5t-63.5 -34.5h142v-175h-479v175q60 20 100.5 34t67.5 25.5t43 21.5t27 22q10 11 5 24.5t-20 13.5q-10 0 -16 -5.5t-9.5 -13.5t-4.5 -17.5t1 -18.5h-187v0
z" />
    <glyph glyph-name="threesuperior" unicode="&#xb3;" horiz-adv-x="536" 
d="M40 531q0 31 15.5 61.5t44 54.5t70 38.5t92.5 14.5q62 0 103.5 -12t67 -30.5t36.5 -41t11 -44.5q0 -60 -59 -93q44 -13 67.5 -40t26.5 -65q3 -35 -13.5 -65t-50.5 -52t-83.5 -34.5t-112.5 -12.5q-60 0 -105 15.5t-75 42t-43.5 62t-10.5 74.5h199q-1 -11 4 -20t21 -9
q9 0 15.5 5.5t6.5 14.5q0 8 -5.5 13t-27.5 5h-76v107h81q20 0 29.5 2t9.5 10q0 5 -4.5 9t-20.5 4q-14 0 -16.5 -4.5t-2.5 -9.5h-194v0z" />
    <glyph glyph-name="acute" unicode="&#xb4;" horiz-adv-x="481" 
d="M461 614l-329 -221l-112 113l254 316z" />
    <glyph glyph-name="mu" unicode="&#xb5;" horiz-adv-x="827" 
d="M807 697v-350q0 -81 -31 -153t-84 -125.5t-125 -84.5t-153 -31q-82 0 -153.5 31t-125 84.5t-84.5 125.5t-31 153v350h336v-350q0 -25 17 -42t42 -17q24 0 41.5 17t17.5 42v350h333z" />
    <glyph glyph-name="paragraph" unicode="&#xb6;" horiz-adv-x="1061" 
d="M246 335q-45 0 -86 15t-72 42.5t-49.5 67t-18.5 87.5q0 49 18.5 87t49.5 63.5t72 38.5t86 13h795v-238h-100v-700h-295v700h-105v-700h-295v524z" />
    <glyph glyph-name="periodcentered" unicode="&#xb7;" horiz-adv-x="340" 
d="M320 351q0 -29 -9 -56t-27.5 -48t-47 -34t-67.5 -13q-38 0 -66 13t-46.5 34t-27.5 48t-9 56q0 28 8.5 55t26.5 48t46.5 33.5t67.5 12.5t67.5 -12.5t47 -33.5t27.5 -48t9 -55z" />
    <glyph glyph-name="cedilla" unicode="&#xb8;" horiz-adv-x="472" 
d="M293 9q43 0 73.5 -14.5t49.5 -36.5t27.5 -48t8.5 -50q0 -56 -34.5 -96t-93.5 -56t-137.5 -4.5t-166.5 58.5v107q66 -15 106 -14.5t40 15.5q0 13 -23.5 17t-82.5 1v80l98 138h185z" />
    <glyph glyph-name="onesuperior" unicode="&#xb9;" horiz-adv-x="384" 
d="M139 210v192h-119v185q61 0 89 24t30 83v6h225v-490h-225z" />
    <glyph glyph-name="ordmasculine" unicode="&#xba;" horiz-adv-x="592" 
d="M320 455q0 11 -6.5 19.5t-17.5 8.5t-17.5 -8t-6.5 -20t6.5 -20.5t17.5 -8.5t17.5 9t6.5 20zM572 455q0 -60 -24.5 -106t-63.5 -77t-88.5 -46.5t-99.5 -15.5q-57 0 -107 18.5t-87.5 51.5t-59.5 77.5t-22 97.5q0 52 21 97t57.5 78t87 51.5t110.5 18.5q50 0 99.5 -16.5
t88.5 -48t63.5 -77t24.5 -103.5z" />
    <glyph glyph-name="guillemotright" unicode="&#xbb;" horiz-adv-x="939" 
d="M148 654l371 -311l-371 -311l-128 148l147 166l-147 167zM548 654l371 -311l-371 -311l-128 148l147 166l-147 167z" />
    <glyph glyph-name="onequarter" unicode="&#xbc;" horiz-adv-x="1092" 
d="M355 210h-216v192h-119v185q63 0 91 25t28 88h225v-480l390 480h229l-569 -700h-229zM1038 490v-267h34v-155h-34v-68h-185v68h-252v118l244 304h193zM867 223l21 99l-60 -99h39z" />
    <glyph glyph-name="onehalf" unicode="&#xbd;" horiz-adv-x="1199" 
d="M364 245l370 455h229l-569 -700h-229l170 210h-196v192h-119v185q63 0 91 25t28 88h225v-455zM707 261q-7 42 6 83.5t44.5 73.5t81 52t115.5 20q69 0 116 -24t71.5 -59t26.5 -75.5t-20 -74.5q-17 -27 -47.5 -47.5t-63.5 -34.5h142v-175h-479v175q60 20 100.5 34
t67.5 25.5t43 21.5t27 22q10 11 5 24.5t-20 13.5q-10 0 -16 -5.5t-9.5 -13.5t-4.5 -17.5t1 -18.5h-187z" />
    <glyph glyph-name="threequarters" unicode="&#xbe;" horiz-adv-x="1172" 
d="M40 531q0 31 15.5 61.5t44 54.5t70 38.5t92.5 14.5q62 0 103.5 -12t67 -30.5t36.5 -41t11 -44.5q0 -60 -59 -93q44 -13 67.5 -40t26.5 -65q3 -35 -13.5 -65t-50.5 -52t-83.5 -34.5t-112.5 -12.5q-60 0 -105 15.5t-75 42t-43.5 62t-10.5 74.5h199q-1 -11 4 -20t21 -9
q9 0 15.5 5.5t6.5 14.5q0 8 -5.5 13t-27.5 5h-76v107h81q20 0 29.5 2t9.5 10q0 5 -4.5 9t-20.5 4q-14 0 -16.5 -4.5t-2.5 -9.5h-194zM1118 490v-267h34v-155h-34v-68h-185v68h-252v118l244 304h193zM834 700h229l-569 -700h-229zM947 223l21 99l-60 -99h39z" />
    <glyph glyph-name="questiondown" unicode="&#xbf;" horiz-adv-x="641" 
d="M618 138q7 -39 -9 -81.5t-54.5 -77t-99 -57t-141.5 -22.5q-73 0 -128 19.5t-92 50t-55.5 69t-18.5 76.5q0 48 17 79t42 51t55 31.5t55.5 20t43.5 18t19 25.5h201q8 -51 3 -83t-18 -51t-30.5 -28.5t-35 -15t-31.5 -11t-19 -15.5q-2 -4 2.5 -9.5t19.5 -5.5q16 0 21 6t5 11
h248zM196 477q0 24 9 46t27.5 39t47.5 27.5t69 10.5q39 0 67 -10.5t47 -27.5t28 -39t9 -46q0 -23 -8.5 -45t-27 -39t-47 -27.5t-68.5 -10.5t-69 10.5t-47.5 27.5t-27.5 39t-9 45z" />
    <glyph glyph-name="Agrave" unicode="&#xc0;" horiz-adv-x="960" 
d="M381 1000l304 -266l-86 -125l391 -611h-399l-35 54l-73 -96l-79 97l-35 -55h-399l439 686l-195 88zM459 138h42l-21 33z" />
    <glyph glyph-name="Aacute" unicode="&#xc1;" horiz-adv-x="960" 
d="M700 814l-163 -109l453 -707h-399l-35 54l-73 -96l-79 97l-35 -55h-399l388 607l-99 101l254 316zM459 138h42l-21 33z" />
    <glyph glyph-name="Acircumflex" unicode="&#xc2;" horiz-adv-x="960" 
d="M990 -2h-399l-35 54l-73 -96l-79 97l-35 -55h-399l510 797zM377 1034h202l195 -242h-267l-30 19l-29 -19h-267zM459 138h42l-21 33z" />
    <glyph glyph-name="Atilde" unicode="&#xc3;" horiz-adv-x="960" 
d="M756 1024q42 -69 46 -135t-22 -117.5t-78.5 -83.5t-122.5 -32h-10l421 -658h-399l-35 54l-73 -96l-79 97l-35 -55h-399l421 658h-186q-42 75 -43.5 141.5t26 117t79 80t115.5 29.5q44 0 74 -10t50.5 -24.5t32.5 -32t20.5 -32t14 -24.5t13.5 -10q9 0 7 15t-12.5 36.5
t-29 44t-42.5 37.5h246zM382 789q-8 0 -10 -8t2 -21.5t14 -30.5t27 -36l16 26q-10 13 -16.5 25.5t-12 22.5t-10 16t-10.5 6zM459 138h42l-21 33z" />
    <glyph glyph-name="Adieresis" unicode="&#xc4;" horiz-adv-x="960" 
d="M990 -2h-399l-35 54l-73 -96l-79 97l-35 -55h-399l510 797zM465 861q0 -29 -9 -56t-27.5 -48t-47 -34t-67.5 -13q-38 0 -66 13t-46.5 34t-27.5 48t-9 56q0 28 8.5 55t26.5 48t46.5 33.5t67.5 12.5t67.5 -12.5t47 -33.5t27.5 -48t9 -55zM795 861q0 -29 -9 -56t-27.5 -48
t-47 -34t-67.5 -13q-38 0 -66 13t-46.5 34t-27.5 48t-9 56q0 28 8.5 55t26.5 48t46.5 33.5t67.5 12.5t67.5 -12.5t47 -33.5t27.5 -48t9 -55zM459 138h42l-21 33z" />
    <glyph glyph-name="Aring" unicode="&#xc5;" horiz-adv-x="960" 
d="M480 1000q43 0 80.5 -16.5t65.5 -44.5t44.5 -65.5t16.5 -80.5q0 -55 -26 -100.5t-69 -73.5l398 -621h-399l-35 54l-73 -96l-79 97l-35 -55h-399l397 621q-43 28 -68.5 73.5t-25.5 100.5q0 43 16.5 80.5t44.5 65.5t65.5 44.5t80.5 16.5zM493 775q9 7 9 18q0 9 -6.5 15.5
t-15.5 6.5t-15.5 -6.5t-6.5 -15.5q0 -12 9 -18l13 20zM459 138h42l-21 33z" />
    <glyph glyph-name="AE" unicode="&#xc6;" horiz-adv-x="1301" 
d="M1009 444v-35h191v-125h-191v-35h276v-252h-612v36h-126l-28 -35h-459l613 699h612v-252zM673 165v25l-21 -25h21z" />
    <glyph glyph-name="Ccedilla" unicode="&#xc7;" horiz-adv-x="791" 
d="M348 348q0 -24 16.5 -39.5t42.5 -15.5q16 0 29 9.5t21 22.5l324 -89q-16 -52 -45 -97.5t-68 -81t-86.5 -60t-101.5 -34.5l-12 -24q43 0 73.5 -14.5t49.5 -36.5t27.5 -48t8.5 -50q0 -56 -34.5 -96t-93.5 -56t-137.5 -4.5t-166.5 58.5v107q66 -15 106 -14.5t40 15.5
q0 13 -23.5 17t-82.5 1v80l53 75q-60 18 -111 54.5t-88 85.5t-58 109.5t-21 126.5q0 81 31 153t84.5 125.5t125 84.5t153.5 31q66 0 126.5 -21t110 -58.5t86 -89t54.5 -112.5l-324 -90q-7 16 -21.5 25.5t-31.5 9.5q-25 0 -40.5 -15t-15.5 -44z" />
    <glyph glyph-name="Egrave" unicode="&#xc8;" 
d="M257 952l291 -255h84v-252l-276 -1v-35h191v-125h-191v-35h276v-252h-612v700h130l-60 27z" />
    <glyph glyph-name="Eacute" unicode="&#xc9;" 
d="M546 799l-152 -102h238v-252l-276 -1v-35h191v-125h-191v-35h276v-252h-612v700h90l249 310z" />
    <glyph glyph-name="Ecircumflex" unicode="&#xca;" 
d="M356 444v-35h191v-125h-191v-35h276v-252h-612v700h612v-252zM225 988h204l196 -279h-269l-30 22l-30 -22h-269z" />
    <glyph glyph-name="Edieresis" unicode="&#xcb;" 
d="M641 771q0 -40 -17 -74h8v-252l-276 -1v-35h191v-125h-191v-35h276v-252h-612v700h7q-8 17 -12 35.5t-4 38.5q0 28 8.5 55t26.5 48t46.5 33.5t67.5 12.5t67.5 -12.5t47 -33.5t27.5 -48t9 -55q0 -40 -17 -74h63q-8 17 -12 35.5t-4 38.5q0 28 8.5 55t26.5 48t46.5 33.5
t67.5 12.5t67.5 -12.5t47 -33.5t27.5 -48t9 -55z" />
    <glyph glyph-name="Igrave" unicode="&#xcc;" horiz-adv-x="376" 
d="M20 -3v700h126l-193 87l167 228l304 -266l-68 -99v-650h-336z" />
    <glyph glyph-name="Iacute" unicode="&#xcd;" horiz-adv-x="376" 
d="M409 814l-174 -117h121v-700h-336v656l-52 53l254 316z" />
    <glyph glyph-name="Icircumflex" unicode="&#xce;" horiz-adv-x="376" 
d="M20 -3v700h336v-700h-336zM87 996h204l196 -279h-269l-30 22l-30 -22h-269z" />
    <glyph glyph-name="Idieresis" unicode="&#xcf;" horiz-adv-x="376" 
d="M20 -3v593q-38 0 -65.5 13t-45.5 34t-27 48t-9 56q0 28 8.5 55t26.5 48t46.5 33.5t67.5 12.5t67.5 -12.5t47 -33.5t27.5 -48t9 -55q0 -21 -5 -44h40q-3 11 -4 22t-1 22q0 28 8.5 55t26.5 48t46.5 33.5t67.5 12.5t67.5 -12.5t47 -33.5t27.5 -48t9 -55q0 -29 -9 -55.5
t-27 -47.5t-45.5 -34t-65.5 -14v-593h-336z" />
    <glyph glyph-name="Eth" unicode="&#xd0;" horiz-adv-x="740" 
d="M370 697q72 0 136 -27.5t111.5 -75t75 -111.5t27.5 -136t-27.5 -136t-75 -111.5t-111.5 -75t-136 -27.5h-350v309h-61v85h61v306h350zM370 272q30 0 52.5 22t22.5 53q0 30 -22.5 52t-52.5 22h-35v-30h72v-85h-72v-34h35z" />
    <glyph glyph-name="Ntilde" unicode="&#xd1;" horiz-adv-x="902" 
d="M727 978q24 -39 35 -78t11 -75t-10.5 -68t-29.5 -59h149v-844l-526 347v-203h-336v826l112 -74q-3 49 13.5 91t46.5 72.5t71.5 47.5t89.5 17q44 0 74 -10t50.5 -24.5t32.5 -32t20.5 -32t14 -24.5t13.5 -10q9 0 7 15t-12.5 36.5t-29 44t-42.5 37.5h246zM546 477v133
q-42 0 -70 10.5t-47 25t-30 31.5t-19 32t-13.5 24.5t-13.5 9.5q-10 0 -11 -12t8 -31t28 -43t49 -47h-83z" />
    <glyph glyph-name="Ograve" unicode="&#xd2;" horiz-adv-x="807" 
d="M299 957l304 -266l-2 -3q44 -26 80 -61.5t62 -79.5t40 -94.5t14 -104.5q0 -81 -31 -153t-84 -125.5t-125 -84.5t-153 -31q-82 0 -153.5 31t-125 84.5t-84.5 125.5t-31 153q0 55 14.5 106.5t41.5 96t64.5 80.5t82.5 61l-81 37zM404 289q24 0 41.5 17t17.5 42
q0 24 -17.5 41.5t-41.5 17.5q-25 0 -42 -17.5t-17 -41.5q0 -25 17 -42t42 -17z" />
    <glyph glyph-name="Oacute" unicode="&#xd3;" horiz-adv-x="807" 
d="M646 791l-108 -73q57 -21 104.5 -57.5t82 -84.5t53.5 -106t19 -122q0 -81 -31 -153t-84 -125.5t-125 -84.5t-153 -31q-82 0 -153.5 31t-125 84.5t-84.5 125.5t-31 153q0 55 14.5 106t41 95.5t64 80.5t82.5 62l247 307zM404 289q24 0 41.5 17t17.5 42q0 24 -17.5 41.5
t-41.5 17.5q-25 0 -42 -17.5t-17 -41.5q0 -25 17 -42t42 -17z" />
    <glyph glyph-name="Ocircumflex" unicode="&#xd4;" horiz-adv-x="807" 
d="M302 1011h204l196 -279h-210q65 -15 121 -50.5t97 -86.5t64 -114t23 -133q0 -81 -31 -153t-84 -125.5t-125 -84.5t-153 -31q-82 0 -153.5 31t-125 84.5t-84.5 125.5t-31 153q0 70 23 133t64 114t96.5 86.5t121.5 50.5h-211zM404 289q24 0 41.5 17t17.5 42
q0 24 -17.5 41.5t-41.5 17.5q-25 0 -42 -17.5t-17 -41.5q0 -25 17 -42t42 -17zM404 742q4 0 7.5 -0.5t8.5 -0.5l-17 13l-17 -13q5 1 9 1h9z" />
    <glyph glyph-name="Otilde" unicode="&#xd5;" horiz-adv-x="807" 
d="M680 1029q33 -54 42 -107t-1.5 -99t-39.5 -82t-72 -57q42 -26 77 -62t59.5 -79.5t38 -92.5t13.5 -102q0 -81 -31 -153t-84 -125.5t-125 -84.5t-153 -31q-82 0 -153.5 31t-125 84.5t-84.5 125.5t-31 153q0 96 41.5 177.5t112.5 135.5h-35q-42 75 -43.5 141.5t26 117t79 80
t115.5 29.5q44 0 74 -10t50.5 -24.5t32.5 -32t20.5 -32t14 -24.5t13.5 -10q9 0 7 15t-12.5 36.5t-29 44t-42.5 37.5h246zM404 289q24 0 41.5 17t17.5 42q0 24 -17.5 41.5t-41.5 17.5q-25 0 -42 -17.5t-17 -41.5q0 -25 17 -42t42 -17zM314 731q8 2 16 3.5t16 3.5
q-14 22 -21.5 39t-18.5 17q-12 0 -10.5 -18t18.5 -45z" />
    <glyph glyph-name="Odieresis" unicode="&#xd6;" horiz-adv-x="807" 
d="M388 781q0 -23 -4 -40q5 1 10 1h10h9t9 -1q-4 17 -4 40q0 28 8.5 55t26.5 48t46.5 33.5t67.5 12.5t67.5 -12.5t47 -33.5t27.5 -48t9 -55q0 -38 -16 -73t-49 -56q66 -54 105 -133t39 -171q0 -81 -31 -153t-84 -125.5t-125 -84.5t-153 -31q-82 0 -153.5 31t-125 84.5
t-84.5 125.5t-31 153q0 92 38.5 170.5t104.5 133.5q-33 20 -49 55t-16 74q0 28 8.5 55t26.5 48t46.5 33.5t67.5 12.5t67.5 -12.5t47 -33.5t27.5 -48t9 -55zM404 289q24 0 41.5 17t17.5 42q0 24 -17.5 41.5t-41.5 17.5q-25 0 -42 -17.5t-17 -41.5q0 -25 17 -42t42 -17z" />
    <glyph glyph-name="multiply" unicode="&#xd7;" horiz-adv-x="672" 
d="M509 343l143 -140l-178 -168l-136 137l-137 -137l-181 188l135 135l-135 138l171 161l132 -131l131 131l188 -181z" />
    <glyph glyph-name="Oslash" unicode="&#xd8;" horiz-adv-x="807" 
d="M404 742q9 0 17.5 -0.5t17.5 -1.5l37 70l285 -130l-48 -90q39 -51 61.5 -112t22.5 -130q0 -81 -31 -153t-84 -125.5t-125 -84.5t-153 -31q-6 0 -12 0.5t-12 0.5l-28 -55l-293 118l41 79q-42 51 -66 115t-24 136q0 81 31 153t84.5 125.5t125 84.5t153.5 31zM404 289
q24 0 41.5 17t17.5 42q0 24 -17.5 41.5t-41.5 17.5q-25 0 -42 -17.5t-17 -41.5q0 -25 17 -42t42 -17z" />
    <glyph glyph-name="Ugrave" unicode="&#xd9;" horiz-adv-x="827" 
d="M290 1017l304 -266l-38 -54h251v-350q0 -81 -31 -153t-84 -125.5t-125 -84.5t-153 -31q-82 0 -153.5 31t-125 84.5t-84.5 125.5t-31 153v350h307l-204 92zM415 288q24 0 41.5 17t17.5 42v283l-118 54v-337q0 -25 17 -42t42 -17z" />
    <glyph glyph-name="Uacute" unicode="&#xda;" horiz-adv-x="827" 
d="M666 846l-310 -208v-291q0 -25 17 -42t42 -17q24 0 41.5 17t17.5 42v350h333v-350q0 -81 -31 -153t-84 -125.5t-125 -84.5t-153 -31q-82 0 -153.5 31t-125 84.5t-84.5 125.5t-31 153v350h245l-40 41l254 316z" />
    <glyph glyph-name="Ucircumflex" unicode="&#xdb;" horiz-adv-x="827" 
d="M807 697v-350q0 -81 -31 -153t-84 -125.5t-125 -84.5t-153 -31q-82 0 -153.5 31t-125 84.5t-84.5 125.5t-31 153v350h336v-350q0 -25 17 -42t42 -17q24 0 41.5 17t17.5 42v350h333zM312 1006h204l196 -279h-269l-30 22l-30 -22h-269z" />
    <glyph glyph-name="Udieresis" unicode="&#xdc;" horiz-adv-x="827" 
d="M807 697v-350q0 -81 -31 -153t-84 -125.5t-125 -84.5t-153 -31q-82 0 -153.5 31t-125 84.5t-84.5 125.5t-31 153v350h336v-350q0 -25 17 -42t42 -17q24 0 41.5 17t17.5 42v350h333zM398 861q0 -29 -9 -56t-27.5 -48t-47 -34t-67.5 -13q-38 0 -66 13t-46.5 34t-27.5 48
t-9 56q0 28 8.5 55t26.5 48t46.5 33.5t67.5 12.5t67.5 -12.5t47 -33.5t27.5 -48t9 -55zM728 861q0 -29 -9 -56t-27.5 -48t-47 -34t-67.5 -13q-38 0 -66 13t-46.5 34t-27.5 48t-9 56q0 28 8.5 55t26.5 48t46.5 33.5t67.5 12.5t67.5 -12.5t47 -33.5t27.5 -48t9 -55z" />
    <glyph glyph-name="Yacute" unicode="&#xdd;" horiz-adv-x="917" 
d="M626 256v-258h-336v258l-320 320l238 238l251 -251l250 251l238 -238zM747 885l-329 -221l-112 113l254 316z" />
    <glyph glyph-name="Thorn" unicode="&#xde;" horiz-adv-x="805" 
d="M495 633q59 0 110.5 -22.5t90 -61t61 -90.5t22.5 -111t-22.5 -111t-61 -90.5t-90 -61t-110.5 -22.5h-139v-66h-336v700h336v-64h139zM390 311q15 0 25 10t10 24q0 15 -10 25t-25 10h-34v-69h34z" />
    <glyph glyph-name="germandbls" unicode="&#xdf;" horiz-adv-x="753" 
d="M296 -3h-276v462q0 52 18 99t54 82.5t90 56t126 20.5q61 0 105.5 -9.5t76 -25t52.5 -36t34 -41.5q10 -17 14 -37.5t2.5 -41.5t-8.5 -40.5t-18 -35.5q83 -18 125 -73t42 -134q0 -57 -22 -102.5t-58 -77.5t-83.5 -49t-98.5 -17h-143v254h60q18 0 30 12t12 30q0 17 -12 29.5
t-30 12.5h-60v94h14q9 0 15 6.5t6 14.5q0 14 -8.5 22t-24.5 8t-25 -9.5t-9 -23.5v-450z" />
    <glyph glyph-name="agrave" unicode="&#xe0;" horiz-adv-x="960" 
d="M381 1000l304 -266l-86 -125l391 -611h-399l-35 54l-73 -96l-79 97l-35 -55h-399l439 686l-195 88zM459 138h42l-21 33z" />
    <glyph glyph-name="aacute" unicode="&#xe1;" horiz-adv-x="960" 
d="M700 814l-163 -109l453 -707h-399l-35 54l-73 -96l-79 97l-35 -55h-399l388 607l-99 101l254 316zM459 138h42l-21 33z" />
    <glyph glyph-name="acircumflex" unicode="&#xe2;" horiz-adv-x="960" 
d="M990 -2h-399l-35 54l-73 -96l-79 97l-35 -55h-399l510 797zM377 1034h202l195 -242h-267l-30 19l-29 -19h-267zM459 138h42l-21 33z" />
    <glyph glyph-name="atilde" unicode="&#xe3;" horiz-adv-x="960" 
d="M756 1024q42 -69 46 -135t-22 -117.5t-78.5 -83.5t-122.5 -32h-10l421 -658h-399l-35 54l-73 -96l-79 97l-35 -55h-399l421 658h-186q-42 75 -43.5 141.5t26 117t79 80t115.5 29.5q44 0 74 -10t50.5 -24.5t32.5 -32t20.5 -32t14 -24.5t13.5 -10q9 0 7 15t-12.5 36.5
t-29 44t-42.5 37.5h246zM382 789q-8 0 -10 -8t2 -21.5t14 -30.5t27 -36l16 26q-10 13 -16.5 25.5t-12 22.5t-10 16t-10.5 6zM459 138h42l-21 33z" />
    <glyph glyph-name="adieresis" unicode="&#xe4;" horiz-adv-x="960" 
d="M990 -2h-399l-35 54l-73 -96l-79 97l-35 -55h-399l510 797zM465 861q0 -29 -9 -56t-27.5 -48t-47 -34t-67.5 -13q-38 0 -66 13t-46.5 34t-27.5 48t-9 56q0 28 8.5 55t26.5 48t46.5 33.5t67.5 12.5t67.5 -12.5t47 -33.5t27.5 -48t9 -55zM795 861q0 -29 -9 -56t-27.5 -48
t-47 -34t-67.5 -13q-38 0 -66 13t-46.5 34t-27.5 48t-9 56q0 28 8.5 55t26.5 48t46.5 33.5t67.5 12.5t67.5 -12.5t47 -33.5t27.5 -48t9 -55zM459 138h42l-21 33z" />
    <glyph glyph-name="aring" unicode="&#xe5;" horiz-adv-x="960" 
d="M480 1000q43 0 80.5 -16.5t65.5 -44.5t44.5 -65.5t16.5 -80.5q0 -55 -26 -100.5t-69 -73.5l398 -621h-399l-35 54l-73 -96l-79 97l-35 -55h-399l397 621q-43 28 -68.5 73.5t-25.5 100.5q0 43 16.5 80.5t44.5 65.5t65.5 44.5t80.5 16.5zM493 775q9 7 9 18q0 9 -6.5 15.5
t-15.5 6.5t-15.5 -6.5t-6.5 -15.5q0 -12 9 -18l13 20zM459 138h42l-21 33z" />
    <glyph glyph-name="ae" unicode="&#xe6;" horiz-adv-x="1301" 
d="M1009 444v-35h191v-125h-191v-35h276v-252h-612v36h-126l-28 -35h-459l613 699h612v-252zM673 165v25l-21 -25h21z" />
    <glyph glyph-name="ccedilla" unicode="&#xe7;" horiz-adv-x="791" 
d="M348 348q0 -24 16.5 -39.5t42.5 -15.5q16 0 29 9.5t21 22.5l324 -89q-16 -52 -45 -97.5t-68 -81t-86.5 -60t-101.5 -34.5l-12 -24q43 0 73.5 -14.5t49.5 -36.5t27.5 -48t8.5 -50q0 -56 -34.5 -96t-93.5 -56t-137.5 -4.5t-166.5 58.5v107q66 -15 106 -14.5t40 15.5
q0 13 -23.5 17t-82.5 1v80l53 75q-60 18 -111 54.5t-88 85.5t-58 109.5t-21 126.5q0 81 31 153t84.5 125.5t125 84.5t153.5 31q66 0 126.5 -21t110 -58.5t86 -89t54.5 -112.5l-324 -90q-7 16 -21.5 25.5t-31.5 9.5q-25 0 -40.5 -15t-15.5 -44z" />
    <glyph glyph-name="egrave" unicode="&#xe8;" 
d="M257 952l291 -255h84v-252l-276 -1v-35h191v-125h-191v-35h276v-252h-612v700h130l-60 27z" />
    <glyph glyph-name="eacute" unicode="&#xe9;" 
d="M546 799l-152 -102h238v-252l-276 -1v-35h191v-125h-191v-35h276v-252h-612v700h90l249 310z" />
    <glyph glyph-name="ecircumflex" unicode="&#xea;" 
d="M356 444v-35h191v-125h-191v-35h276v-252h-612v700h612v-252zM225 988h204l196 -279h-269l-30 22l-30 -22h-269z" />
    <glyph glyph-name="edieresis" unicode="&#xeb;" 
d="M641 771q0 -40 -17 -74h8v-252l-276 -1v-35h191v-125h-191v-35h276v-252h-612v700h7q-8 17 -12 35.5t-4 38.5q0 28 8.5 55t26.5 48t46.5 33.5t67.5 12.5t67.5 -12.5t47 -33.5t27.5 -48t9 -55q0 -40 -17 -74h63q-8 17 -12 35.5t-4 38.5q0 28 8.5 55t26.5 48t46.5 33.5
t67.5 12.5t67.5 -12.5t47 -33.5t27.5 -48t9 -55z" />
    <glyph glyph-name="igrave" unicode="&#xec;" horiz-adv-x="376" 
d="M20 -3v700h126l-193 87l167 228l304 -266l-68 -99v-650h-336z" />
    <glyph glyph-name="iacute" unicode="&#xed;" horiz-adv-x="376" 
d="M409 814l-174 -117h121v-700h-336v656l-52 53l254 316z" />
    <glyph glyph-name="icircumflex" unicode="&#xee;" horiz-adv-x="376" 
d="M20 -3v700h336v-700h-336zM87 996h204l196 -279h-269l-30 22l-30 -22h-269z" />
    <glyph glyph-name="idieresis" unicode="&#xef;" horiz-adv-x="376" 
d="M20 -3v593q-38 0 -65.5 13t-45.5 34t-27 48t-9 56q0 28 8.5 55t26.5 48t46.5 33.5t67.5 12.5t67.5 -12.5t47 -33.5t27.5 -48t9 -55q0 -21 -5 -44h40q-3 11 -4 22t-1 22q0 28 8.5 55t26.5 48t46.5 33.5t67.5 12.5t67.5 -12.5t47 -33.5t27.5 -48t9 -55q0 -29 -9 -55.5
t-27 -47.5t-45.5 -34t-65.5 -14v-593h-336z" />
    <glyph glyph-name="eth" unicode="&#xf0;" horiz-adv-x="740" 
d="M370 697q72 0 136 -27.5t111.5 -75t75 -111.5t27.5 -136t-27.5 -136t-75 -111.5t-111.5 -75t-136 -27.5h-350v309h-61v85h61v306h350zM370 272q30 0 52.5 22t22.5 53q0 30 -22.5 52t-52.5 22h-35v-30h72v-85h-72v-34h35z" />
    <glyph glyph-name="ntilde" unicode="&#xf1;" horiz-adv-x="902" 
d="M727 978q24 -39 35 -78t11 -75t-10.5 -68t-29.5 -59h149v-844l-526 347v-203h-336v826l112 -74q-3 49 13.5 91t46.5 72.5t71.5 47.5t89.5 17q44 0 74 -10t50.5 -24.5t32.5 -32t20.5 -32t14 -24.5t13.5 -10q9 0 7 15t-12.5 36.5t-29 44t-42.5 37.5h246zM546 477v133
q-42 0 -70 10.5t-47 25t-30 31.5t-19 32t-13.5 24.5t-13.5 9.5q-10 0 -11 -12t8 -31t28 -43t49 -47h-83z" />
    <glyph glyph-name="ograve" unicode="&#xf2;" horiz-adv-x="807" 
d="M299 957l304 -266l-2 -3q44 -26 80 -61.5t62 -79.5t40 -94.5t14 -104.5q0 -81 -31 -153t-84 -125.5t-125 -84.5t-153 -31q-82 0 -153.5 31t-125 84.5t-84.5 125.5t-31 153q0 55 14.5 106.5t41.5 96t64.5 80.5t82.5 61l-81 37zM404 289q24 0 41.5 17t17.5 42
q0 24 -17.5 41.5t-41.5 17.5q-25 0 -42 -17.5t-17 -41.5q0 -25 17 -42t42 -17z" />
    <glyph glyph-name="oacute" unicode="&#xf3;" horiz-adv-x="807" 
d="M646 791l-108 -73q57 -21 104.5 -57.5t82 -84.5t53.5 -106t19 -122q0 -81 -31 -153t-84 -125.5t-125 -84.5t-153 -31q-82 0 -153.5 31t-125 84.5t-84.5 125.5t-31 153q0 55 14.5 106t41 95.5t64 80.5t82.5 62l247 307zM404 289q24 0 41.5 17t17.5 42q0 24 -17.5 41.5
t-41.5 17.5q-25 0 -42 -17.5t-17 -41.5q0 -25 17 -42t42 -17z" />
    <glyph glyph-name="ocircumflex" unicode="&#xf4;" horiz-adv-x="807" 
d="M302 1011h204l196 -279h-210q65 -15 121 -50.5t97 -86.5t64 -114t23 -133q0 -81 -31 -153t-84 -125.5t-125 -84.5t-153 -31q-82 0 -153.5 31t-125 84.5t-84.5 125.5t-31 153q0 70 23 133t64 114t96.5 86.5t121.5 50.5h-211zM404 289q24 0 41.5 17t17.5 42
q0 24 -17.5 41.5t-41.5 17.5q-25 0 -42 -17.5t-17 -41.5q0 -25 17 -42t42 -17zM404 742q4 0 7.5 -0.5t8.5 -0.5l-17 13l-17 -13q5 1 9 1h9z" />
    <glyph glyph-name="otilde" unicode="&#xf5;" horiz-adv-x="807" 
d="M680 1029q33 -54 42 -107t-1.5 -99t-39.5 -82t-72 -57q42 -26 77 -62t59.5 -79.5t38 -92.5t13.5 -102q0 -81 -31 -153t-84 -125.5t-125 -84.5t-153 -31q-82 0 -153.5 31t-125 84.5t-84.5 125.5t-31 153q0 96 41.5 177.5t112.5 135.5h-35q-42 75 -43.5 141.5t26 117t79 80
t115.5 29.5q44 0 74 -10t50.5 -24.5t32.5 -32t20.5 -32t14 -24.5t13.5 -10q9 0 7 15t-12.5 36.5t-29 44t-42.5 37.5h246zM404 289q24 0 41.5 17t17.5 42q0 24 -17.5 41.5t-41.5 17.5q-25 0 -42 -17.5t-17 -41.5q0 -25 17 -42t42 -17zM314 731q8 2 16 3.5t16 3.5
q-14 22 -21.5 39t-18.5 17q-12 0 -10.5 -18t18.5 -45z" />
    <glyph glyph-name="odieresis" unicode="&#xf6;" horiz-adv-x="807" 
d="M388 781q0 -23 -4 -40q5 1 10 1h10h9t9 -1q-4 17 -4 40q0 28 8.5 55t26.5 48t46.5 33.5t67.5 12.5t67.5 -12.5t47 -33.5t27.5 -48t9 -55q0 -38 -16 -73t-49 -56q66 -54 105 -133t39 -171q0 -81 -31 -153t-84 -125.5t-125 -84.5t-153 -31q-82 0 -153.5 31t-125 84.5
t-84.5 125.5t-31 153q0 92 38.5 170.5t104.5 133.5q-33 20 -49 55t-16 74q0 28 8.5 55t26.5 48t46.5 33.5t67.5 12.5t67.5 -12.5t47 -33.5t27.5 -48t9 -55zM404 289q24 0 41.5 17t17.5 42q0 24 -17.5 41.5t-41.5 17.5q-25 0 -42 -17.5t-17 -41.5q0 -25 17 -42t42 -17z" />
    <glyph glyph-name="divide" unicode="&#xf7;" horiz-adv-x="638" 
d="M469 511q0 -21 -4 -37h153v-235h-153q4 -17 4 -38q0 -29 -9 -56t-27.5 -48t-47 -34t-67.5 -13q-38 0 -66 13t-46.5 34t-27.5 48t-9 56q0 21 4 38h-153v235h152q-3 18 -3 37q0 28 8.5 55t26.5 48t46.5 33.5t67.5 12.5t67.5 -12.5t47 -33.5t27.5 -48t9 -55z" />
    <glyph glyph-name="oslash" unicode="&#xf8;" horiz-adv-x="807" 
d="M404 742q9 0 17.5 -0.5t17.5 -1.5l37 70l285 -130l-48 -90q39 -51 61.5 -112t22.5 -130q0 -81 -31 -153t-84 -125.5t-125 -84.5t-153 -31q-6 0 -12 0.5t-12 0.5l-28 -55l-293 118l41 79q-42 51 -66 115t-24 136q0 81 31 153t84.5 125.5t125 84.5t153.5 31zM404 289
q24 0 41.5 17t17.5 42q0 24 -17.5 41.5t-41.5 17.5q-25 0 -42 -17.5t-17 -41.5q0 -25 17 -42t42 -17z" />
    <glyph glyph-name="ugrave" unicode="&#xf9;" horiz-adv-x="827" 
d="M290 1017l304 -266l-38 -54h251v-350q0 -81 -31 -153t-84 -125.5t-125 -84.5t-153 -31q-82 0 -153.5 31t-125 84.5t-84.5 125.5t-31 153v350h307l-204 92zM415 288q24 0 41.5 17t17.5 42v283l-118 54v-337q0 -25 17 -42t42 -17z" />
    <glyph glyph-name="uacute" unicode="&#xfa;" horiz-adv-x="827" 
d="M666 846l-310 -208v-291q0 -25 17 -42t42 -17q24 0 41.5 17t17.5 42v350h333v-350q0 -81 -31 -153t-84 -125.5t-125 -84.5t-153 -31q-82 0 -153.5 31t-125 84.5t-84.5 125.5t-31 153v350h245l-40 41l254 316z" />
    <glyph glyph-name="ucircumflex" unicode="&#xfb;" horiz-adv-x="827" 
d="M807 697v-350q0 -81 -31 -153t-84 -125.5t-125 -84.5t-153 -31q-82 0 -153.5 31t-125 84.5t-84.5 125.5t-31 153v350h336v-350q0 -25 17 -42t42 -17q24 0 41.5 17t17.5 42v350h333zM312 1006h204l196 -279h-269l-30 22l-30 -22h-269z" />
    <glyph glyph-name="udieresis" unicode="&#xfc;" horiz-adv-x="827" 
d="M807 697v-350q0 -81 -31 -153t-84 -125.5t-125 -84.5t-153 -31q-82 0 -153.5 31t-125 84.5t-84.5 125.5t-31 153v350h336v-350q0 -25 17 -42t42 -17q24 0 41.5 17t17.5 42v350h333zM398 861q0 -29 -9 -56t-27.5 -48t-47 -34t-67.5 -13q-38 0 -66 13t-46.5 34t-27.5 48
t-9 56q0 28 8.5 55t26.5 48t46.5 33.5t67.5 12.5t67.5 -12.5t47 -33.5t27.5 -48t9 -55zM728 861q0 -29 -9 -56t-27.5 -48t-47 -34t-67.5 -13q-38 0 -66 13t-46.5 34t-27.5 48t-9 56q0 28 8.5 55t26.5 48t46.5 33.5t67.5 12.5t67.5 -12.5t47 -33.5t27.5 -48t9 -55z" />
    <glyph glyph-name="yacute" unicode="&#xfd;" horiz-adv-x="917" 
d="M626 256v-258h-336v258l-320 320l238 238l251 -251l250 251l238 -238zM747 885l-329 -221l-112 113l254 316z" />
    <glyph glyph-name="thorn" unicode="&#xfe;" horiz-adv-x="805" 
d="M495 633q59 0 110.5 -22.5t90 -61t61 -90.5t22.5 -111t-22.5 -111t-61 -90.5t-90 -61t-110.5 -22.5h-139v-66h-336v700h336v-64h139zM390 311q15 0 25 10t10 24q0 15 -10 25t-25 10h-34v-69h34z" />
    <glyph glyph-name="ydieresis" unicode="&#xff;" horiz-adv-x="917" 
d="M763 801q0 -22 -4 -38l188 -187l-321 -320v-258h-336v258l-320 320l187 187q-4 16 -4 38q0 28 8.5 55t26.5 48t46.5 33.5t67.5 12.5t67.5 -12.5t47 -33.5t27.5 -48t9 -55q0 -45 -22 -84.5t-69 -56.5l97 -97l96 96q-48 17 -70 56.5t-22 85.5q0 28 8.5 55t26.5 48
t46.5 33.5t67.5 12.5t67.5 -12.5t47 -33.5t27.5 -48t9 -55z" />
    <glyph glyph-name="Amacron" unicode="&#x100;" horiz-adv-x="960" 
d="M556 676l434 -678h-399l-35 54l-73 -96l-79 97l-35 -55h-399l434 678h-163v205h478v-205h-163zM459 138h42l-21 33z" />
    <glyph glyph-name="amacron" unicode="&#x101;" horiz-adv-x="960" 
d="M556 676l434 -678h-399l-35 54l-73 -96l-79 97l-35 -55h-399l434 678h-163v205h478v-205h-163zM459 138h42l-21 33z" />
    <glyph glyph-name="Abreve" unicode="&#x102;" horiz-adv-x="960" 
d="M778 895q16 -47 13 -89.5t-27 -77t-69 -58.5t-114 -34l409 -638h-399l-35 54l-73 -96l-79 97l-35 -55h-399l408 638q-66 11 -110.5 35.5t-68 59t-25.5 76.5t17 88h275q-8 -29 -4 -35t19 -6q16 0 22.5 6t-0.5 35h275zM459 138h42l-21 33z" />
    <glyph glyph-name="abreve" unicode="&#x103;" horiz-adv-x="960" 
d="M778 895q16 -47 13 -89.5t-27 -77t-69 -58.5t-114 -34l409 -638h-399l-35 54l-73 -96l-79 97l-35 -55h-399l408 638q-66 11 -110.5 35.5t-68 59t-25.5 76.5t17 88h275q-8 -29 -4 -35t19 -6q16 0 22.5 6t-0.5 35h275zM459 138h42l-21 33z" />
    <glyph glyph-name="Aogonek" unicode="&#x104;" horiz-adv-x="960" 
d="M790 -100q1 -20 32.5 -24.5t91.5 25.5v-166q-90 -47 -173 -58.5t-146.5 5t-101 57t-35.5 97.5q1 35 11.5 62t28 47t40.5 35t47 26l-29 46l-73 -96l-79 97l-35 -55h-399l510 797l510 -797h-79q-17 -26 -38.5 -40t-40 -22.5t-30.5 -16t-12 -19.5zM459 138h42l-21 33z" />
    <glyph glyph-name="aogonek" unicode="&#x105;" horiz-adv-x="960" 
d="M790 -100q1 -20 32.5 -24.5t91.5 25.5v-166q-90 -47 -173 -58.5t-146.5 5t-101 57t-35.5 97.5q1 35 11.5 62t28 47t40.5 35t47 26l-29 46l-73 -96l-79 97l-35 -55h-399l510 797l510 -797h-79q-17 -26 -38.5 -40t-40 -22.5t-30.5 -16t-12 -19.5zM459 138h42l-21 33z" />
    <glyph glyph-name="Cacute" unicode="&#x106;" horiz-adv-x="791" 
d="M683 811l-140 -94q86 -33 148.5 -100t89.5 -155l-324 -90q-7 16 -21.5 25.5t-31.5 9.5q-25 0 -40.5 -15t-15.5 -44q0 -24 16.5 -39.5t42.5 -15.5q16 0 29 9.5t21 22.5l324 -89q-18 -61 -54.5 -112.5t-86 -89t-110 -58.5t-126.5 -21q-82 0 -153.5 31t-125 84.5
t-84.5 125.5t-31 153q0 61 17.5 116.5t49 102.5t75 83.5t96.5 59.5l248 308z" />
    <glyph glyph-name="cacute" unicode="&#x107;" horiz-adv-x="791" 
d="M683 811l-140 -94q86 -33 148.5 -100t89.5 -155l-324 -90q-7 16 -21.5 25.5t-31.5 9.5q-25 0 -40.5 -15t-15.5 -44q0 -24 16.5 -39.5t42.5 -15.5q16 0 29 9.5t21 22.5l324 -89q-18 -61 -54.5 -112.5t-86 -89t-110 -58.5t-126.5 -21q-82 0 -153.5 31t-125 84.5
t-84.5 125.5t-31 153q0 61 17.5 116.5t49 102.5t75 83.5t96.5 59.5l248 308z" />
    <glyph glyph-name="Ccircumflex" unicode="&#x108;" horiz-adv-x="791" 
d="M348 348q0 -24 16.5 -39.5t42.5 -15.5q16 0 29 9.5t21 22.5l324 -89q-18 -61 -54.5 -112.5t-86 -89t-110 -58.5t-126.5 -21q-82 0 -153.5 31t-125 84.5t-84.5 125.5t-31 153t31 153t84.5 125.5t125 84.5t153.5 31q66 0 126.5 -21t110 -58.5t86 -89t54.5 -112.5l-324 -90
q-7 16 -21.5 25.5t-31.5 9.5q-25 0 -40.5 -15t-15.5 -44zM325 1035h204l196 -279h-269l-30 22l-30 -22h-269z" />
    <glyph glyph-name="ccircumflex" unicode="&#x109;" horiz-adv-x="791" 
d="M348 348q0 -24 16.5 -39.5t42.5 -15.5q16 0 29 9.5t21 22.5l324 -89q-18 -61 -54.5 -112.5t-86 -89t-110 -58.5t-126.5 -21q-82 0 -153.5 31t-125 84.5t-84.5 125.5t-31 153t31 153t84.5 125.5t125 84.5t153.5 31q66 0 126.5 -21t110 -58.5t86 -89t54.5 -112.5l-324 -90
q-7 16 -21.5 25.5t-31.5 9.5q-25 0 -40.5 -15t-15.5 -44zM325 1035h204l196 -279h-269l-30 22l-30 -22h-269z" />
    <glyph glyph-name="Cdotaccent" unicode="&#x10a;" horiz-adv-x="791" 
d="M570 814q0 -26 -7.5 -51t-22.5 -45q87 -32 150.5 -99.5t90.5 -156.5l-324 -90q-7 16 -21.5 25.5t-31.5 9.5q-25 0 -40.5 -15t-15.5 -44q0 -24 16.5 -39.5t42.5 -15.5q16 0 29 9.5t21 22.5l324 -89q-18 -61 -54.5 -112.5t-86 -89t-110 -58.5t-126.5 -21q-82 0 -153.5 31
t-125 84.5t-84.5 125.5t-31 153q0 67 21 127.5t59 110t89.5 86t113.5 54.5q-12 19 -17.5 41.5t-5.5 45.5q0 28 8.5 55t26.5 48t46.5 33.5t67.5 12.5t67.5 -12.5t47 -33.5t27.5 -48t9 -55z" />
    <glyph glyph-name="cdotaccent" unicode="&#x10b;" horiz-adv-x="791" 
d="M570 814q0 -26 -7.5 -51t-22.5 -45q87 -32 150.5 -99.5t90.5 -156.5l-324 -90q-7 16 -21.5 25.5t-31.5 9.5q-25 0 -40.5 -15t-15.5 -44q0 -24 16.5 -39.5t42.5 -15.5q16 0 29 9.5t21 22.5l324 -89q-18 -61 -54.5 -112.5t-86 -89t-110 -58.5t-126.5 -21q-82 0 -153.5 31
t-125 84.5t-84.5 125.5t-31 153q0 67 21 127.5t59 110t89.5 86t113.5 54.5q-12 19 -17.5 41.5t-5.5 45.5q0 28 8.5 55t26.5 48t46.5 33.5t67.5 12.5t67.5 -12.5t47 -33.5t27.5 -48t9 -55z" />
    <glyph glyph-name="Ccaron" unicode="&#x10c;" horiz-adv-x="791" 
d="M564 708q78 -35 135 -99.5t82 -146.5l-324 -90q-7 16 -21.5 25.5t-31.5 9.5q-25 0 -40.5 -15t-15.5 -44q0 -24 16.5 -39.5t42.5 -15.5q16 0 29 9.5t21 22.5l324 -89q-18 -61 -54.5 -112.5t-86 -89t-110 -58.5t-126.5 -21q-82 0 -153.5 31t-125 84.5t-84.5 125.5t-31 153
q0 63 18.5 120t52.5 105t80 85t102 58l-144 206h269l30 -22l30 22h269z" />
    <glyph glyph-name="ccaron" unicode="&#x10d;" horiz-adv-x="791" 
d="M564 708q78 -35 135 -99.5t82 -146.5l-324 -90q-7 16 -21.5 25.5t-31.5 9.5q-25 0 -40.5 -15t-15.5 -44q0 -24 16.5 -39.5t42.5 -15.5q16 0 29 9.5t21 22.5l324 -89q-18 -61 -54.5 -112.5t-86 -89t-110 -58.5t-126.5 -21q-82 0 -153.5 31t-125 84.5t-84.5 125.5t-31 153
q0 63 18.5 120t52.5 105t80 85t102 58l-144 206h269l30 -22l30 22h269z" />
    <glyph glyph-name="Dcaron" unicode="&#x10e;" horiz-adv-x="740" 
d="M497 673q49 -19 90 -51.5t70.5 -75t46 -93.5t16.5 -106q0 -72 -27.5 -136t-75 -111.5t-111.5 -75t-136 -27.5h-350v700h157l-130 185h269l30 -22l30 22h269zM370 312q14 0 24.5 10t10.5 25q0 14 -10.5 24t-24.5 10h-35v-69h35z" />
    <glyph glyph-name="dcaron" unicode="&#x10f;" horiz-adv-x="740" 
d="M497 673q49 -19 90 -51.5t70.5 -75t46 -93.5t16.5 -106q0 -72 -27.5 -136t-75 -111.5t-111.5 -75t-136 -27.5h-350v700h157l-130 185h269l30 -22l30 22h269zM370 312q14 0 24.5 10t10.5 25q0 14 -10.5 24t-24.5 10h-35v-69h35z" />
    <glyph glyph-name="Dcroat" unicode="&#x110;" horiz-adv-x="740" 
d="M370 697q72 0 136 -27.5t111.5 -75t75 -111.5t27.5 -136t-27.5 -136t-75 -111.5t-111.5 -75t-136 -27.5h-350v322h-57v57h57v321h350zM370 312q14 0 24.5 10t10.5 25q0 14 -10.5 24t-24.5 10h-35v-5h37v-57h-37v-7h35z" />
    <glyph glyph-name="dcroat" unicode="&#x111;" horiz-adv-x="740" 
d="M370 697q72 0 136 -27.5t111.5 -75t75 -111.5t27.5 -136t-27.5 -136t-75 -111.5t-111.5 -75t-136 -27.5h-350v322h-57v57h57v321h350zM370 312q14 0 24.5 10t10.5 25q0 14 -10.5 24t-24.5 10h-35v-5h37v-57h-37v-7h35z" />
    <glyph glyph-name="Emacron" unicode="&#x112;" 
d="M356 444v-35h191v-125h-191v-35h276v-252h-612v700h612v-252zM87 725v205h478v-205h-478z" />
    <glyph glyph-name="emacron" unicode="&#x113;" 
d="M356 444v-35h191v-125h-191v-35h276v-252h-612v700h612v-252zM87 725v205h478v-205h-478z" />
    <glyph glyph-name="Edotaccent" unicode="&#x116;" 
d="M476 813q0 -33 -12 -63.5t-36 -52.5h204v-252l-276 -1v-35h191v-125h-191v-35h276v-252h-612v700h203q-24 22 -35.5 52.5t-11.5 63.5q0 28 8.5 55t26.5 48t46.5 33.5t67.5 12.5t67.5 -12.5t47 -33.5t27.5 -48t9 -55z" />
    <glyph glyph-name="edotaccent" unicode="&#x117;" 
d="M476 813q0 -33 -12 -63.5t-36 -52.5h204v-252l-276 -1v-35h191v-125h-191v-35h276v-252h-612v700h203q-24 22 -35.5 52.5t-11.5 63.5q0 28 8.5 55t26.5 48t46.5 33.5t67.5 12.5t67.5 -12.5t47 -33.5t27.5 -48t9 -55z" />
    <glyph glyph-name="Eogonek" unicode="&#x118;" 
d="M428 -100q1 -20 32.5 -24.5t91.5 25.5v-166q-90 -47 -173 -58.5t-146.5 5t-101 57t-35.5 97.5q1 31 10 56t23.5 44.5t34 34.5t40.5 26h-184v700h612v-252l-276 -1v-35h191v-125h-191v-35h276v-252h-84q-17 -26 -38 -39.5t-39.5 -22t-30.5 -16t-12 -19.5z" />
    <glyph glyph-name="eogonek" unicode="&#x119;" 
d="M428 -100q1 -20 32.5 -24.5t91.5 25.5v-166q-90 -47 -173 -58.5t-146.5 5t-101 57t-35.5 97.5q1 31 10 56t23.5 44.5t34 34.5t40.5 26h-184v700h612v-252l-276 -1v-35h191v-125h-191v-35h276v-252h-84q-17 -26 -38 -39.5t-39.5 -22t-30.5 -16t-12 -19.5z" />
    <glyph glyph-name="Ecaron" unicode="&#x11a;" 
d="M519 697h113v-252l-276 -1v-35h191v-125h-191v-35h276v-252h-612v700h161l-129 184h269l30 -22l30 22h269z" />
    <glyph glyph-name="ecaron" unicode="&#x11b;" 
d="M519 697h113v-252l-276 -1v-35h191v-125h-191v-35h276v-252h-612v700h161l-129 184h269l30 -22l30 22h269z" />
    <glyph glyph-name="Gcircumflex" unicode="&#x11c;" horiz-adv-x="885" 
d="M314 996h204l196 -279h-164q52 -21 96 -55.5t76.5 -79t52.5 -98t23 -111.5h-339q-4 8 -18 20.5t-34 12.5q-23 0 -40 -16t-17 -41q0 -28 16.5 -43.5t38.5 -15.5q18 0 28 5.5t16 13.5h-14v15h440q0 -20 -0.5 -40t-0.5 -40h-91q-18 -62 -54 -114.5t-85.5 -91t-111 -60
t-128.5 -21.5q-82 0 -153.5 31t-125 84.5t-84.5 125.5t-31 153q0 62 18.5 118.5t51.5 104.5t78.5 84.5t99.5 58.5h-142z" />
    <glyph glyph-name="gcircumflex" unicode="&#x11d;" horiz-adv-x="885" 
d="M314 996h204l196 -279h-164q52 -21 96 -55.5t76.5 -79t52.5 -98t23 -111.5h-339q-4 8 -18 20.5t-34 12.5q-23 0 -40 -16t-17 -41q0 -28 16.5 -43.5t38.5 -15.5q18 0 28 5.5t16 13.5h-14v15h440q0 -20 -0.5 -40t-0.5 -40h-91q-18 -62 -54 -114.5t-85.5 -91t-111 -60
t-128.5 -21.5q-82 0 -153.5 31t-125 84.5t-84.5 125.5t-31 153q0 62 18.5 118.5t51.5 104.5t78.5 84.5t99.5 58.5h-142z" />
    <glyph glyph-name="Gbreve" unicode="&#x11e;" horiz-adv-x="885" 
d="M714 841q20 -60 10 -111t-55 -88q56 -51 90 -120t39 -149h-339q-4 8 -18 20.5t-34 12.5q-23 0 -40 -16t-17 -41q0 -28 16.5 -43.5t38.5 -15.5q18 0 28 5.5t16 13.5h-14v15h440q0 -20 -0.5 -40t-0.5 -40h-91q-18 -62 -54 -114.5t-85.5 -91t-111 -60t-128.5 -21.5
q-82 0 -153.5 31t-125 84.5t-84.5 125.5t-31 153q0 92 39 170.5t105 133.5q-36 36 -42.5 84t15.5 102h275q-8 -29 -4 -35t19 -6q16 0 22.5 6t-0.5 35h275v0z" />
    <glyph glyph-name="gbreve" unicode="&#x11f;" horiz-adv-x="885" 
d="M714 841q20 -60 10 -111t-55 -88q56 -51 90 -120t39 -149h-339q-4 8 -18 20.5t-34 12.5q-23 0 -40 -16t-17 -41q0 -28 16.5 -43.5t38.5 -15.5q18 0 28 5.5t16 13.5h-14v15h440q0 -20 -0.5 -40t-0.5 -40h-91q-18 -62 -54 -114.5t-85.5 -91t-111 -60t-128.5 -21.5
q-82 0 -153.5 31t-125 84.5t-84.5 125.5t-31 153q0 92 39 170.5t105 133.5q-36 36 -42.5 84t15.5 102h275q-8 -29 -4 -35t19 -6q16 0 22.5 6t-0.5 35h275v0z" />
    <glyph glyph-name="Gdotaccent" unicode="&#x120;" horiz-adv-x="885" 
d="M564 836q0 -31 -10.5 -59.5t-31.5 -50.5q57 -18 106 -52t85.5 -80t58.5 -102.5t26 -118.5h-339q-4 8 -18 20.5t-34 12.5q-23 0 -40 -16t-17 -41q0 -28 16.5 -43.5t38.5 -15.5q18 0 28 5.5t16 13.5h-14v15h440q0 -20 -0.5 -40t-0.5 -40h-91q-18 -62 -54 -114.5t-85.5 -91
t-111 -60t-128.5 -21.5q-82 0 -153.5 31t-125 84.5t-84.5 125.5t-31 153q0 68 22 129.5t60.5 111.5t91.5 86t116 53q-18 21 -27 48.5t-9 56.5q0 28 8.5 55t26.5 48t46.5 33.5t67.5 12.5t67.5 -12.5t47 -33.5t27.5 -48t9 -55z" />
    <glyph glyph-name="gdotaccent" unicode="&#x121;" horiz-adv-x="885" 
d="M564 836q0 -31 -10.5 -59.5t-31.5 -50.5q57 -18 106 -52t85.5 -80t58.5 -102.5t26 -118.5h-339q-4 8 -18 20.5t-34 12.5q-23 0 -40 -16t-17 -41q0 -28 16.5 -43.5t38.5 -15.5q18 0 28 5.5t16 13.5h-14v15h440q0 -20 -0.5 -40t-0.5 -40h-91q-18 -62 -54 -114.5t-85.5 -91
t-111 -60t-128.5 -21.5q-82 0 -153.5 31t-125 84.5t-84.5 125.5t-31 153q0 68 22 129.5t60.5 111.5t91.5 86t116 53q-18 21 -27 48.5t-9 56.5q0 28 8.5 55t26.5 48t46.5 33.5t67.5 12.5t67.5 -12.5t47 -33.5t27.5 -48t9 -55z" />
    <glyph glyph-name="uni0122" unicode="&#x122;" horiz-adv-x="885" 
d="M875 324q0 -20 -0.5 -40t-0.5 -40h-91q-18 -62 -54 -114.5t-85.5 -91t-111 -60t-128.5 -21.5q-82 0 -153.5 31t-125 84.5t-84.5 125.5t-31 153t31 153t84.5 125.5t125 84.5t153.5 31q79 0 148.5 -29t122.5 -79.5t85.5 -118t37.5 -145.5h-339q-4 8 -18 20.5t-34 12.5
q-23 0 -40 -16t-17 -41q0 -28 16.5 -43.5t38.5 -15.5q18 0 28 5.5t16 13.5h-14v15h440zM241 -59h315l-147 -362h-195z" />
    <glyph glyph-name="uni0123" unicode="&#x123;" horiz-adv-x="885" 
d="M875 324q0 -20 -0.5 -40t-0.5 -40h-91q-18 -62 -54 -114.5t-85.5 -91t-111 -60t-128.5 -21.5q-82 0 -153.5 31t-125 84.5t-84.5 125.5t-31 153t31 153t84.5 125.5t125 84.5t153.5 31q79 0 148.5 -29t122.5 -79.5t85.5 -118t37.5 -145.5h-339q-4 8 -18 20.5t-34 12.5
q-23 0 -40 -16t-17 -41q0 -28 16.5 -43.5t38.5 -15.5q18 0 28 5.5t16 13.5h-14v15h440zM241 -59h315l-147 -362h-195z" />
    <glyph glyph-name="Hcircumflex" unicode="&#x124;" horiz-adv-x="823" 
d="M803 697v-700h-335v248h-112v-248h-336v700h336v-276h112v276h335zM315 992h204l196 -279h-269l-30 22l-30 -22h-269z" />
    <glyph glyph-name="hcircumflex" unicode="&#x125;" horiz-adv-x="823" 
d="M803 697v-700h-335v248h-112v-248h-336v700h336v-276h112v276h335zM315 992h204l196 -279h-269l-30 22l-30 -22h-269z" />
    <glyph glyph-name="Hbar" unicode="&#x126;" horiz-adv-x="823" 
d="M803 697v-700h-335v248h-112v-248h-336v700h336v-54h112v54h335zM468 421v43h-112v-43h112z" />
    <glyph glyph-name="hbar" unicode="&#x127;" horiz-adv-x="823" 
d="M803 697v-700h-335v248h-112v-248h-336v700h336v-54h112v54h335zM468 421v43h-112v-43h112z" />
    <glyph glyph-name="Itilde" unicode="&#x128;" horiz-adv-x="376" 
d="M20 -3v648h-106q-42 75 -43.5 141.5t26 117t79 80t115.5 29.5q44 0 74 -10t50.5 -24.5t32.5 -32t20.5 -32t14 -24.5t13.5 -10q9 0 7 15t-12.5 36.5t-29 44t-42.5 37.5h246q36 -60 43.5 -118t-8.5 -107t-53.5 -84t-90.5 -50v-657h-336zM91 778q-14 0 -9.5 -24t30.5 -57h37
q-13 14 -21 28.5t-14 26t-11 19t-12 7.5z" />
    <glyph glyph-name="itilde" unicode="&#x129;" horiz-adv-x="376" 
d="M20 -3v648h-106q-42 75 -43.5 141.5t26 117t79 80t115.5 29.5q44 0 74 -10t50.5 -24.5t32.5 -32t20.5 -32t14 -24.5t13.5 -10q9 0 7 15t-12.5 36.5t-29 44t-42.5 37.5h246q36 -60 43.5 -118t-8.5 -107t-53.5 -84t-90.5 -50v-657h-336zM91 778q-14 0 -9.5 -24t30.5 -57h37
q-13 14 -21 28.5t-14 26t-11 19t-12 7.5z" />
    <glyph glyph-name="Imacron" unicode="&#x12a;" horiz-adv-x="376" 
d="M20 -3v700h336v-700h-336zM-51 743v205h478v-205h-478z" />
    <glyph glyph-name="imacron" unicode="&#x12b;" horiz-adv-x="376" 
d="M20 -3v700h336v-700h-336zM-51 743v205h478v-205h-478z" />
    <glyph glyph-name="Iogonek" unicode="&#x12e;" horiz-adv-x="376" 
d="M215 -105q1 -20 32.5 -24.5t91.5 25.5v-166q-90 -47 -173 -58.5t-146.5 5t-101 57t-35.5 97.5q1 36 13 64t31 49t43 36t50 26v691h336v-700h-18q-17 -27 -38.5 -42t-40.5 -24t-31.5 -16.5t-12.5 -19.5z" />
    <glyph glyph-name="iogonek" unicode="&#x12f;" horiz-adv-x="376" 
d="M215 -105q1 -20 32.5 -24.5t91.5 25.5v-166q-90 -47 -173 -58.5t-146.5 5t-101 57t-35.5 97.5q1 36 13 64t31 49t43 36t50 26v691h336v-700h-18q-17 -27 -38.5 -42t-40.5 -24t-31.5 -16.5t-12.5 -19.5z" />
    <glyph glyph-name="Idotaccent" unicode="&#x130;" horiz-adv-x="376" 
d="M338 823q0 -38 -15 -71.5t-46 -54.5h79v-700h-336v700h78q-31 21 -45.5 54.5t-14.5 71.5q0 28 8.5 55t26.5 48t46.5 33.5t67.5 12.5t67.5 -12.5t47 -33.5t27.5 -48t9 -55z" />
    <glyph glyph-name="dotlessi" unicode="&#x131;" horiz-adv-x="376" 
d="M20 -3v700h336v-700h-336z" />
    <glyph glyph-name="Jcircumflex" unicode="&#x134;" horiz-adv-x="828" 
d="M808 695v-350q0 -82 -31 -153.5t-84 -125t-125 -84.5t-153 -31q-79 0 -149 29t-123 79t-86 117.5t-37 145.5h340q7 -15 21 -24.5t33 -9.5q24 0 41.5 17t17.5 42v350zM479 992h204l196 -279h-269l-30 22l-30 -22h-269z" />
    <glyph glyph-name="jcircumflex" unicode="&#x135;" horiz-adv-x="828" 
d="M808 695v-350q0 -82 -31 -153.5t-84 -125t-125 -84.5t-153 -31q-79 0 -149 29t-123 79t-86 117.5t-37 145.5h340q7 -15 21 -24.5t33 -9.5q24 0 41.5 17t17.5 42v350zM479 992h204l196 -279h-269l-30 22l-30 -22h-269z" />
    <glyph glyph-name="uni0136" unicode="&#x136;" horiz-adv-x="936" 
d="M691 -118l-335 365v-250h-336v700h336v-251l335 365l237 -237l-228 -227l228 -228zM241 -31h315l-147 -362h-195z" />
    <glyph glyph-name="uni0137" unicode="&#x137;" horiz-adv-x="936" 
d="M691 -118l-335 365v-250h-336v700h336v-251l335 365l237 -237l-228 -227l228 -228zM241 -31h315l-147 -362h-195z" />
    <glyph glyph-name="kgreenlandic" unicode="&#x138;" horiz-adv-x="936" 
d="M691 -118l-335 365v-250h-336v700h336v-251l335 365l237 -237l-228 -227l228 -228z" />
    <glyph glyph-name="Lacute" unicode="&#x139;" 
d="M632 333v-336h-612v700h210l239 297l187 -208l-300 -202v-251h276z" />
    <glyph glyph-name="lacute" unicode="&#x13a;" 
d="M632 333v-336h-612v700h210l239 297l187 -208l-300 -202v-251h276z" />
    <glyph glyph-name="uni013B" unicode="&#x13b;" 
d="M632 333v-336h-612v700h336v-364h276zM241 -31h315l-147 -362h-195z" />
    <glyph glyph-name="uni013C" unicode="&#x13c;" 
d="M632 333v-336h-612v700h336v-364h276zM241 -31h315l-147 -362h-195z" />
    <glyph glyph-name="Lcaron" unicode="&#x13d;" 
d="M632 333v-336h-612v700h336v-364h276zM473 816h335l-164 -348h-235z" />
    <glyph glyph-name="lcaron" unicode="&#x13e;" 
d="M632 333v-336h-612v700h336v-364h276zM473 816h335l-164 -348h-235z" />
    <glyph glyph-name="Lslash" unicode="&#x141;" 
d="M632 333v-336h-612v230l-77 -31v285l77 31v185h336v-50l85 34v-285l-85 -34v-29h276z" />
    <glyph glyph-name="lslash" unicode="&#x142;" 
d="M632 333v-336h-612v230l-77 -31v285l77 31v185h336v-50l85 34v-285l-85 -34v-29h276z" />
    <glyph glyph-name="Nacute" unicode="&#x143;" horiz-adv-x="902" 
d="M546 697q85 0 168 0.5t168 0.5v-844l-526 347v-203h-336v826l526 -347v220zM724 846l-329 -221l-112 113l254 316z" />
    <glyph glyph-name="nacute" unicode="&#x144;" horiz-adv-x="902" 
d="M546 697q85 0 168 0.5t168 0.5v-844l-526 347v-203h-336v826l526 -347v220zM724 846l-329 -221l-112 113l254 316z" />
    <glyph glyph-name="uni0145" unicode="&#x145;" horiz-adv-x="902" 
d="M546 697q85 0 168 0.5t168 0.5v-844l-526 347v-203h-336v826l526 -347v220zM241 -31h315l-147 -362h-195z" />
    <glyph glyph-name="uni0146" unicode="&#x146;" horiz-adv-x="902" 
d="M546 697q85 0 168 0.5t168 0.5v-844l-526 347v-203h-336v826l526 -347v220zM241 -31h315l-147 -362h-195z" />
    <glyph glyph-name="Ncaron" unicode="&#x147;" horiz-adv-x="902" 
d="M546 697q85 0 168 0.5t168 0.5v-844l-526 347v-203h-336v826l526 -347v220zM527 679h-204l-196 279h269l30 -22l30 22h269z" />
    <glyph glyph-name="ncaron" unicode="&#x148;" horiz-adv-x="902" 
d="M546 697q85 0 168 0.5t168 0.5v-844l-526 347v-203h-336v826l526 -347v220zM527 679h-204l-196 279h269l30 -22l30 22h269z" />
    <glyph glyph-name="Eng" unicode="&#x14a;" horiz-adv-x="902" 
d="M546 697q85 0 168 0.5t168 0.5v-721q0 -82 -31 -153.5t-84 -125t-125 -84.5t-153 -31q-79 0 -149 29t-123 79t-86 117.5t-37 145.5h340q7 -15 21 -24.5t33 -9.5q24 0 41.5 17t17.5 42v96l-191 126v-203h-336v826l526 -347v220v0z" />
    <glyph glyph-name="eng" unicode="&#x14b;" horiz-adv-x="902" 
d="M546 697q85 0 168 0.5t168 0.5v-721q0 -82 -31 -153.5t-84 -125t-125 -84.5t-153 -31q-79 0 -149 29t-123 79t-86 117.5t-37 145.5h340q7 -15 21 -24.5t33 -9.5q24 0 41.5 17t17.5 42v96l-191 126v-203h-336v826l526 -347v220v0z" />
    <glyph glyph-name="Omacron" unicode="&#x14c;" horiz-adv-x="807" 
d="M483 734q67 -14 124.5 -49.5t99.5 -86.5t66 -115t24 -135q0 -81 -31 -153t-84 -125.5t-125 -84.5t-153 -31q-82 0 -153.5 31t-125 84.5t-84.5 125.5t-31 153q0 71 24 135t66 115t99.5 86.5t124.5 49.5h-160v205h478v-205h-159zM404 289q24 0 41.5 17t17.5 42
q0 24 -17.5 41.5t-41.5 17.5q-25 0 -42 -17.5t-17 -41.5q0 -25 17 -42t42 -17z" />
    <glyph glyph-name="omacron" unicode="&#x14d;" horiz-adv-x="807" 
d="M483 734q67 -14 124.5 -49.5t99.5 -86.5t66 -115t24 -135q0 -81 -31 -153t-84 -125.5t-125 -84.5t-153 -31q-82 0 -153.5 31t-125 84.5t-84.5 125.5t-31 153q0 71 24 135t66 115t99.5 86.5t124.5 49.5h-160v205h478v-205h-159zM404 289q24 0 41.5 17t17.5 42
q0 24 -17.5 41.5t-41.5 17.5q-25 0 -42 -17.5t-17 -41.5q0 -25 17 -42t42 -17z" />
    <glyph glyph-name="Ohungarumlaut" unicode="&#x150;" horiz-adv-x="807" 
d="M859 834l-237 -159q79 -54 127 -139t48 -188q0 -81 -31 -153t-84 -125.5t-125 -84.5t-153 -31q-82 0 -153.5 31t-125 84.5t-84.5 125.5t-31 153q0 52 13 100.5t37 91.5t58 78.5t75 61.5l-45 46l254 316l142 -159l128 159zM404 289q24 0 41.5 17t17.5 42q0 24 -17.5 41.5
t-41.5 17.5q-25 0 -42 -17.5t-17 -41.5q0 -25 17 -42t42 -17z" />
    <glyph glyph-name="ohungarumlaut" unicode="&#x151;" horiz-adv-x="807" 
d="M859 834l-237 -159q79 -54 127 -139t48 -188q0 -81 -31 -153t-84 -125.5t-125 -84.5t-153 -31q-82 0 -153.5 31t-125 84.5t-84.5 125.5t-31 153q0 52 13 100.5t37 91.5t58 78.5t75 61.5l-45 46l254 316l142 -159l128 159zM404 289q24 0 41.5 17t17.5 42q0 24 -17.5 41.5
t-41.5 17.5q-25 0 -42 -17.5t-17 -41.5q0 -25 17 -42t42 -17z" />
    <glyph glyph-name="OE" unicode="&#x152;" horiz-adv-x="1098" 
d="M806 444v-35h191v-125h-191v-35h276v-252h-500q-40 -20 -85 -31.5t-93 -11.5q-82 0 -153.5 31t-125 84.5t-84.5 125.5t-31 153t31 153t84.5 125.5t125 84.5t153.5 31q50 0 95.5 -11.5t86.5 -33.5h496v-252zM404 289q24 0 41.5 17t17.5 42q0 24 -17.5 41.5t-41.5 17.5
q-25 0 -42 -17.5t-17 -41.5q0 -25 17 -42t42 -17z" />
    <glyph glyph-name="oe" unicode="&#x153;" horiz-adv-x="1098" 
d="M806 444v-35h191v-125h-191v-35h276v-252h-500q-40 -20 -85 -31.5t-93 -11.5q-82 0 -153.5 31t-125 84.5t-84.5 125.5t-31 153t31 153t84.5 125.5t125 84.5t153.5 31q50 0 95.5 -11.5t86.5 -33.5h496v-252zM404 289q24 0 41.5 17t17.5 42q0 24 -17.5 41.5t-41.5 17.5
q-25 0 -42 -17.5t-17 -41.5q0 -25 17 -42t42 -17z" />
    <glyph glyph-name="Racute" unicode="&#x154;" horiz-adv-x="780" 
d="M639 791l-145 -98q52 -7 96.5 -32t77.5 -62.5t52 -85.5t19 -102q0 -39 -10 -75t-29 -68l139 -138l-218 -218l-235 234h-30v-150h-336v700h188l244 303zM425 368q0 15 -10.5 25t-24.5 10h-34v-69h34q14 0 24.5 10t10.5 24z" />
    <glyph glyph-name="racute" unicode="&#x155;" horiz-adv-x="780" 
d="M639 791l-145 -98q52 -7 96.5 -32t77.5 -62.5t52 -85.5t19 -102q0 -39 -10 -75t-29 -68l139 -138l-218 -218l-235 234h-30v-150h-336v700h188l244 303zM425 368q0 15 -10.5 25t-24.5 10h-34v-69h34q14 0 24.5 10t10.5 24z" />
    <glyph glyph-name="uni0156" unicode="&#x156;" horiz-adv-x="780" 
d="M386 146h-30v-150h-336v700h435q59 0 110.5 -22.5t90 -61t61 -90.5t22.5 -111q0 -39 -10 -75t-29 -68l139 -138l-218 -218zM425 368q0 15 -10.5 25t-24.5 10h-34v-69h34q14 0 24.5 10t10.5 24zM241 -31h315l-147 -362h-195z" />
    <glyph glyph-name="uni0157" unicode="&#x157;" horiz-adv-x="780" 
d="M386 146h-30v-150h-336v700h435q59 0 110.5 -22.5t90 -61t61 -90.5t22.5 -111q0 -39 -10 -75t-29 -68l139 -138l-218 -218zM425 368q0 15 -10.5 25t-24.5 10h-34v-69h34q14 0 24.5 10t10.5 24zM241 -31h315l-147 -362h-195z" />
    <glyph glyph-name="Rcaron" unicode="&#x158;" horiz-adv-x="780" 
d="M478 695q55 -5 102.5 -28.5t82.5 -62t55.5 -88t20.5 -105.5q0 -39 -10 -75t-29 -68l139 -138l-218 -218l-235 234h-30v-150h-336v700h161l-149 213h269l30 -22l30 22h269zM425 368q0 15 -10.5 25t-24.5 10h-34v-69h34q14 0 24.5 10t10.5 24z" />
    <glyph glyph-name="rcaron" unicode="&#x159;" horiz-adv-x="780" 
d="M478 695q55 -5 102.5 -28.5t82.5 -62t55.5 -88t20.5 -105.5q0 -39 -10 -75t-29 -68l139 -138l-218 -218l-235 234h-30v-150h-336v700h161l-149 213h269l30 -22l30 22h269zM425 368q0 15 -10.5 25t-24.5 10h-34v-69h34q14 0 24.5 10t10.5 24z" />
    <glyph glyph-name="Sacute" unicode="&#x15a;" horiz-adv-x="896" 
d="M934 795l-146 -98h88v-336h-244q-6 0 -9.5 -8.5t-5 -21t-2 -26t-1.5 -23.5q-6 -68 -31 -121t-71 -89.5t-115.5 -55.5t-164.5 -19h-212v336h248q7 0 9.5 8.5t3.5 21t0.5 26t0.5 23.5q8 108 61 179t151 95l-1 1l254 316z" />
    <glyph glyph-name="sacute" unicode="&#x15b;" horiz-adv-x="896" 
d="M934 795l-146 -98h88v-336h-244q-6 0 -9.5 -8.5t-5 -21t-2 -26t-1.5 -23.5q-6 -68 -31 -121t-71 -89.5t-115.5 -55.5t-164.5 -19h-212v336h248q7 0 9.5 8.5t3.5 21t0.5 26t0.5 23.5q8 108 61 179t151 95l-1 1l254 316z" />
    <glyph glyph-name="Scircumflex" unicode="&#x15c;" horiz-adv-x="896" 
d="M876 697v-336h-244q-6 0 -9.5 -8.5t-5 -21t-2 -26t-1.5 -23.5q-6 -68 -31 -121t-71 -89.5t-115.5 -55.5t-164.5 -19h-212v336h248q7 0 9.5 8.5t3.5 21t0.5 26t0.5 23.5q10 132 88 208.5t222 76.5h284zM538 1001h204l196 -279h-269l-30 22l-30 -22h-269z" />
    <glyph glyph-name="scircumflex" unicode="&#x15d;" horiz-adv-x="896" 
d="M876 697v-336h-244q-6 0 -9.5 -8.5t-5 -21t-2 -26t-1.5 -23.5q-6 -68 -31 -121t-71 -89.5t-115.5 -55.5t-164.5 -19h-212v336h248q7 0 9.5 8.5t3.5 21t0.5 26t0.5 23.5q10 132 88 208.5t222 76.5h284zM538 1001h204l196 -279h-269l-30 22l-30 -22h-269z" />
    <glyph glyph-name="Scedilla" unicode="&#x15e;" horiz-adv-x="896" 
d="M876 697v-336h-244q-6 0 -9.5 -8.5t-5 -21t-2 -26t-1.5 -23.5q-11 -121 -83 -193.5t-220 -87.5l-25 -50q43 0 73.5 -14.5t49.5 -36.5t27.5 -48t8.5 -50q0 -56 -34.5 -96t-93.5 -56t-137.5 -4.5t-166.5 58.5v107q66 -15 106 -14.5t40 15.5q0 13 -23.5 17t-82.5 1v80l62 87
h-95v336h248q7 0 9.5 8.5t3.5 21t0.5 26t0.5 23.5q10 132 88 208.5t222 76.5h284z" />
    <glyph glyph-name="scedilla" unicode="&#x15f;" horiz-adv-x="896" 
d="M876 697v-336h-244q-6 0 -9.5 -8.5t-5 -21t-2 -26t-1.5 -23.5q-11 -121 -83 -193.5t-220 -87.5l-25 -50q43 0 73.5 -14.5t49.5 -36.5t27.5 -48t8.5 -50q0 -56 -34.5 -96t-93.5 -56t-137.5 -4.5t-166.5 58.5v107q66 -15 106 -14.5t40 15.5q0 13 -23.5 17t-82.5 1v80l62 87
h-95v336h248q7 0 9.5 8.5t3.5 21t0.5 26t0.5 23.5q10 132 88 208.5t222 76.5h284z" />
    <glyph glyph-name="Scaron" unicode="&#x160;" horiz-adv-x="896" 
d="M753 697h123v-336h-244q-6 0 -9.5 -8.5t-5 -21t-2 -26t-1.5 -23.5q-6 -68 -31 -121t-71 -89.5t-115.5 -55.5t-164.5 -19h-212v336h248q7 0 9.5 8.5t3.5 21t0.5 26t0.5 23.5q8 113 66 185.5t164 92.5l-180 256h269l30 -22l30 22h269z" />
    <glyph glyph-name="scaron" unicode="&#x161;" horiz-adv-x="896" 
d="M753 697h123v-336h-244q-6 0 -9.5 -8.5t-5 -21t-2 -26t-1.5 -23.5q-6 -68 -31 -121t-71 -89.5t-115.5 -55.5t-164.5 -19h-212v336h248q7 0 9.5 8.5t3.5 21t0.5 26t0.5 23.5q8 113 66 185.5t164 92.5l-180 256h269l30 -22l30 22h269z" />
    <glyph glyph-name="uni0162" unicode="&#x162;" horiz-adv-x="802" 
d="M783 361h-214v-364h-336v364h-214v336h764v-336zM241 -31h315l-147 -362h-195z" />
    <glyph glyph-name="uni0163" unicode="&#x163;" horiz-adv-x="802" 
d="M783 361h-214v-364h-336v364h-214v336h764v-336zM241 -31h315l-147 -362h-195z" />
    <glyph glyph-name="Tcaron" unicode="&#x164;" horiz-adv-x="802" 
d="M536 697h247v-336h-214v-364h-336v364h-214v336h231l-155 221h269l30 -22l30 22h269z" />
    <glyph glyph-name="tcaron" unicode="&#x165;" horiz-adv-x="802" 
d="M536 697h247v-336h-214v-364h-336v364h-214v336h231l-155 221h269l30 -22l30 22h269z" />
    <glyph glyph-name="Tbar" unicode="&#x166;" horiz-adv-x="802" 
d="M569 92v-95h-336v95h-71v205h71v64h-214v336h764v-336h-214v-64h71v-205h-71z" />
    <glyph glyph-name="tbar" unicode="&#x167;" horiz-adv-x="802" 
d="M569 92v-95h-336v95h-71v205h71v64h-214v336h764v-336h-214v-64h71v-205h-71z" />
    <glyph glyph-name="Utilde" unicode="&#x168;" horiz-adv-x="827" 
d="M690 1037q32 -53 41.5 -104.5t0 -96.5t-36.5 -81t-67 -58h179v-350q0 -81 -31 -153t-84 -125.5t-125 -84.5t-153 -31q-82 0 -153.5 31t-125 84.5t-84.5 125.5t-31 153v350h104q-33 70 -29.5 131.5t32.5 108t78.5 73.5t110.5 27q44 0 74 -10t50.5 -24.5t32.5 -32t20.5 -32
t14 -24.5t13.5 -10q9 0 7 15t-12.5 36.5t-29 44t-42.5 37.5h246zM415 288q24 0 41.5 17t17.5 42v324q-49 7 -76 28.5t-41.5 44t-22 40.5t-18.5 18q-10 0 -11 -12t8 -31t28 -43t49 -47h-34v-322q0 -25 17 -42t42 -17z" />
    <glyph glyph-name="utilde" unicode="&#x169;" horiz-adv-x="827" 
d="M690 1037q32 -53 41.5 -104.5t0 -96.5t-36.5 -81t-67 -58h179v-350q0 -81 -31 -153t-84 -125.5t-125 -84.5t-153 -31q-82 0 -153.5 31t-125 84.5t-84.5 125.5t-31 153v350h104q-33 70 -29.5 131.5t32.5 108t78.5 73.5t110.5 27q44 0 74 -10t50.5 -24.5t32.5 -32t20.5 -32
t14 -24.5t13.5 -10q9 0 7 15t-12.5 36.5t-29 44t-42.5 37.5h246zM415 288q24 0 41.5 17t17.5 42v324q-49 7 -76 28.5t-41.5 44t-22 40.5t-18.5 18q-10 0 -11 -12t8 -31t28 -43t49 -47h-34v-322q0 -25 17 -42t42 -17z" />
    <glyph glyph-name="Umacron" unicode="&#x16a;" horiz-adv-x="827" 
d="M807 697v-350q0 -81 -31 -153t-84 -125.5t-125 -84.5t-153 -31q-82 0 -153.5 31t-125 84.5t-84.5 125.5t-31 153v350h336v-350q0 -25 17 -42t42 -17q24 0 41.5 17t17.5 42v350h333zM174 723v205h478v-205h-478z" />
    <glyph glyph-name="umacron" unicode="&#x16b;" horiz-adv-x="827" 
d="M807 697v-350q0 -81 -31 -153t-84 -125.5t-125 -84.5t-153 -31q-82 0 -153.5 31t-125 84.5t-84.5 125.5t-31 153v350h336v-350q0 -25 17 -42t42 -17q24 0 41.5 17t17.5 42v350h333zM174 723v205h478v-205h-478z" />
    <glyph glyph-name="Ubreve" unicode="&#x16c;" horiz-adv-x="827" 
d="M709 948q14 -44 12.5 -83.5t-20 -72t-55 -57.5t-92.5 -38h253v-350q0 -81 -31 -153t-84 -125.5t-125 -84.5t-153 -31q-82 0 -153.5 31t-125 84.5t-84.5 125.5t-31 153v350h254q-56 14 -93 39t-56 58t-19.5 72t16.5 82h275q-8 -29 -4 -35t19 -6q16 0 22.5 6t-0.5 35h275z
M415 288q24 0 41.5 17t17.5 42v337q-15 -1 -30 -1.5t-32 -0.5h-28.5t-27.5 2v-337q0 -25 17 -42t42 -17z" />
    <glyph glyph-name="ubreve" unicode="&#x16d;" horiz-adv-x="827" 
d="M709 948q14 -44 12.5 -83.5t-20 -72t-55 -57.5t-92.5 -38h253v-350q0 -81 -31 -153t-84 -125.5t-125 -84.5t-153 -31q-82 0 -153.5 31t-125 84.5t-84.5 125.5t-31 153v350h254q-56 14 -93 39t-56 58t-19.5 72t16.5 82h275q-8 -29 -4 -35t19 -6q16 0 22.5 6t-0.5 35h275z
M415 288q24 0 41.5 17t17.5 42v337q-15 -1 -30 -1.5t-32 -0.5h-28.5t-27.5 2v-337q0 -25 17 -42t42 -17z" />
    <glyph glyph-name="Uring" unicode="&#x16e;" horiz-adv-x="827" 
d="M413 965q43 0 80.5 -16.5t65.5 -44.5t44.5 -65.5t16.5 -80.5q0 -33 -9 -61h196v-350q0 -81 -31 -153t-84 -125.5t-125 -84.5t-153 -31q-82 0 -153.5 31t-125 84.5t-84.5 125.5t-31 153v350h195q-9 28 -9 61q0 43 16.5 80.5t44.5 65.5t65.5 44.5t80.5 16.5zM415 288
q24 0 41.5 17t17.5 42v213q-30 -9 -61 -9q-28 0 -57 8v-212q0 -25 17 -42t42 -17zM413 736q9 0 15.5 6.5t6.5 15.5t-6.5 15.5t-15.5 6.5t-15.5 -6.5t-6.5 -15.5t6.5 -15.5t15.5 -6.5z" />
    <glyph glyph-name="uring" unicode="&#x16f;" horiz-adv-x="827" 
d="M413 965q43 0 80.5 -16.5t65.5 -44.5t44.5 -65.5t16.5 -80.5q0 -33 -9 -61h196v-350q0 -81 -31 -153t-84 -125.5t-125 -84.5t-153 -31q-82 0 -153.5 31t-125 84.5t-84.5 125.5t-31 153v350h195q-9 28 -9 61q0 43 16.5 80.5t44.5 65.5t65.5 44.5t80.5 16.5zM415 288
q24 0 41.5 17t17.5 42v213q-30 -9 -61 -9q-28 0 -57 8v-212q0 -25 17 -42t42 -17zM413 736q9 0 15.5 6.5t6.5 15.5t-6.5 15.5t-15.5 6.5t-15.5 -6.5t-6.5 -15.5t6.5 -15.5t15.5 -6.5z" />
    <glyph glyph-name="Uhungarumlaut" unicode="&#x170;" horiz-adv-x="827" 
d="M849 804l-160 -107h118v-350q0 -81 -31 -153t-84 -125.5t-125 -84.5t-153 -31q-82 0 -153.5 31t-125 84.5t-84.5 125.5t-31 153v350h119l253 315l142 -159l128 159zM415 288q24 0 41.5 17t17.5 42v282l-62 63l-56 -38v-307q0 -25 17 -42t42 -17z" />
    <glyph glyph-name="uhungarumlaut" unicode="&#x171;" horiz-adv-x="827" 
d="M849 804l-160 -107h118v-350q0 -81 -31 -153t-84 -125.5t-125 -84.5t-153 -31q-82 0 -153.5 31t-125 84.5t-84.5 125.5t-31 153v350h119l253 315l142 -159l128 159zM415 288q24 0 41.5 17t17.5 42v282l-62 63l-56 -38v-307q0 -25 17 -42t42 -17z" />
    <glyph glyph-name="Uogonek" unicode="&#x172;" horiz-adv-x="827" 
d="M452 -116q1 -20 32.5 -24.5t91.5 25.5v-166q-90 -47 -173 -58.5t-146.5 5t-101 57t-35.5 97.5q1 35 11.5 62t28 47.5t40.5 35.5t47 26q-50 23 -92 59.5t-72 82.5t-46.5 100.5t-16.5 113.5v350h336v-350q0 -25 17 -42t42 -17q24 0 41.5 17t17.5 42v350h333v-350
q0 -60 -17 -114.5t-47 -101t-72.5 -83t-93.5 -59.5q-17 -29 -38.5 -44t-41 -24.5t-32.5 -16.5t-13 -20z" />
    <glyph glyph-name="uogonek" unicode="&#x173;" horiz-adv-x="827" 
d="M452 -116q1 -20 32.5 -24.5t91.5 25.5v-166q-90 -47 -173 -58.5t-146.5 5t-101 57t-35.5 97.5q1 35 11.5 62t28 47.5t40.5 35.5t47 26q-50 23 -92 59.5t-72 82.5t-46.5 100.5t-16.5 113.5v350h336v-350q0 -25 17 -42t42 -17q24 0 41.5 17t17.5 42v350h333v-350
q0 -60 -17 -114.5t-47 -101t-72.5 -83t-93.5 -59.5q-17 -29 -38.5 -44t-41 -24.5t-32.5 -16.5t-13 -20z" />
    <glyph glyph-name="Wcircumflex" unicode="&#x174;" horiz-adv-x="1244" 
d="M521 1003h204l196 -279h-267l139 -198l96 171h385l-449 -801l-203 289l-203 -289l-449 801h385l95 -171l139 198h-266z" />
    <glyph glyph-name="wcircumflex" unicode="&#x175;" horiz-adv-x="1244" 
d="M521 1003h204l196 -279h-267l139 -198l96 171h385l-449 -801l-203 289l-203 -289l-449 801h385l95 -171l139 198h-266z" />
    <glyph glyph-name="Ycircumflex" unicode="&#x176;" horiz-adv-x="917" 
d="M626 256v-258h-336v258l-320 320l238 238l32 -32l117 165h204l116 -165l32 32l238 -238zM459 563l104 105h-75l-30 22l-30 -22h-74z" />
    <glyph glyph-name="ycircumflex" unicode="&#x177;" horiz-adv-x="917" 
d="M626 256v-258h-336v258l-320 320l238 238l32 -32l117 165h204l116 -165l32 32l238 -238zM459 563l104 105h-75l-30 22l-30 -22h-74z" />
    <glyph glyph-name="Ydieresis" unicode="&#x178;" horiz-adv-x="917" 
d="M763 801q0 -22 -4 -38l188 -187l-321 -320v-258h-336v258l-320 320l187 187q-4 16 -4 38q0 28 8.5 55t26.5 48t46.5 33.5t67.5 12.5t67.5 -12.5t47 -33.5t27.5 -48t9 -55q0 -45 -22 -84.5t-69 -56.5l97 -97l96 96q-48 17 -70 56.5t-22 85.5q0 28 8.5 55t26.5 48
t46.5 33.5t67.5 12.5t67.5 -12.5t47 -33.5t27.5 -48t9 -55z" />
    <glyph glyph-name="Zacute" unicode="&#x179;" horiz-adv-x="954" 
d="M815 800l-154 -103h273l-260 -364h244v-336h-898l260 364h-244v336h342l250 311z" />
    <glyph glyph-name="zacute" unicode="&#x17a;" horiz-adv-x="954" 
d="M815 800l-154 -103h273l-260 -364h244v-336h-898l260 364h-244v336h342l250 311z" />
    <glyph glyph-name="Zdotaccent" unicode="&#x17b;" horiz-adv-x="954" 
d="M620 805q0 -30 -10 -58.5t-30 -49.5h354l-260 -364h244v-336h-898l260 364h-244v336h323q-20 21 -29.5 49.5t-9.5 58.5q0 28 8.5 55t26.5 48t46.5 33.5t67.5 12.5t67.5 -12.5t47 -33.5t27.5 -48t9 -55z" />
    <glyph glyph-name="zdotaccent" unicode="&#x17c;" horiz-adv-x="954" 
d="M620 805q0 -30 -10 -58.5t-30 -49.5h354l-260 -364h244v-336h-898l260 364h-244v336h323q-20 21 -29.5 49.5t-9.5 58.5q0 28 8.5 55t26.5 48t46.5 33.5t67.5 12.5t67.5 -12.5t47 -33.5t27.5 -48t9 -55z" />
    <glyph glyph-name="Zcaron" unicode="&#x17d;" horiz-adv-x="954" 
d="M609 697h325l-260 -364h244v-336h-898l260 364h-244v336h293l-158 225h269l30 -22l30 22h269z" />
    <glyph glyph-name="zcaron" unicode="&#x17e;" horiz-adv-x="954" 
d="M609 697h325l-260 -364h244v-336h-898l260 364h-244v336h293l-158 225h269l30 -22l30 22h269z" />
    <glyph glyph-name="florin" unicode="&#x192;" horiz-adv-x="548" 
d="M56 11q30 0 46 14t22.5 39t5.5 59t-5 74h-105v215h87q0 67 14 130.5t57 112.5t120 78.5t203 29.5v-235q-50 0 -67.5 -32t-16.5 -84h111v-215h-90q5 -50 5 -101t-11 -98t-35 -87.5t-68 -70.5t-111 -47t-162 -17v235z" />
    <glyph glyph-name="circumflex" unicode="&#x2c6;" horiz-adv-x="638" 
d="M218 695h204l196 -279h-269l-30 22l-30 -22h-269z" />
    <glyph glyph-name="caron" unicode="&#x2c7;" horiz-adv-x="638" 
d="M420 416h-204l-196 279h269l30 -22l30 22h269z" />
    <glyph glyph-name="breve" unicode="&#x2d8;" horiz-adv-x="658" 
d="M624 695q18 -55 11 -103.5t-43 -84.5t-101.5 -57t-163.5 -21q-96 0 -161 21.5t-101 58t-43 84.5t15 102h275q-8 -29 -4 -35t19 -6q16 0 22.5 6t-0.5 35h275v0z" />
    <glyph glyph-name="dotaccent" unicode="&#x2d9;" horiz-adv-x="340" 
d="M320 571q0 -29 -9 -56t-27.5 -48t-47 -34t-67.5 -13q-38 0 -66 13t-46.5 34t-27.5 48t-9 56q0 28 8.5 55t26.5 48t46.5 33.5t67.5 12.5t67.5 -12.5t47 -33.5t27.5 -48t9 -55z" />
    <glyph glyph-name="ring" unicode="&#x2da;" horiz-adv-x="454" 
d="M227 697q43 0 80.5 -16.5t65.5 -44.5t44.5 -65.5t16.5 -80.5t-16.5 -80.5t-44.5 -65.5t-65.5 -44.5t-80.5 -16.5t-80.5 16.5t-65.5 44.5t-44.5 65.5t-16.5 80.5t16.5 80.5t44.5 65.5t65.5 44.5t80.5 16.5zM227 468q9 0 15.5 6.5t6.5 15.5t-6.5 15.5t-15.5 6.5t-15.5 -6.5
t-6.5 -15.5t6.5 -15.5t15.5 -6.5z" />
    <glyph glyph-name="ogonek" unicode="&#x2db;" horiz-adv-x="504" 
d="M353 -100q1 -20 32.5 -24.5t91.5 25.5v-166q-90 -47 -173 -58.5t-146.5 5t-101 57t-35.5 97.5q1 46 19.5 78t46 54.5t60.5 37t64.5 25.5t57.5 20t39 21l176 -57q-16 -33 -38.5 -50t-43.5 -27t-35 -17.5t-14 -20.5z" />
    <glyph glyph-name="tilde" unicode="&#x2dc;" horiz-adv-x="683" 
d="M616 778q42 -69 46 -135t-22 -117.5t-78.5 -83.5t-122.5 -32q-43 0 -71.5 10t-48 24.5t-31 32t-19 32t-13.5 24.5t-14 10q-10 0 -11 -12t8 -31t28 -43t49 -47h-251q-42 75 -43.5 141.5t26 117t79 80t115.5 29.5q44 0 74 -10t50.5 -24.5t32.5 -32t20.5 -32t14 -24.5
t13.5 -10q9 0 7 15t-12.5 36.5t-29 44t-42.5 37.5h246v0z" />
    <glyph glyph-name="hungarumlaut" unicode="&#x2dd;" horiz-adv-x="751" 
d="M731 614l-329 -221l-108 109l-162 -109l-112 113l254 316l142 -159l128 159z" />
    <glyph glyph-name="uni1E02" unicode="&#x1e02;" horiz-adv-x="753" 
d="M414 776q0 -44 -19 -79q26 0 52.5 -5t50.5 -15t45 -26t35 -39q10 -17 13.5 -38.5t1.5 -43.5t-9 -43t-18 -37q83 -18 125 -73t42 -134q0 -57 -22 -102.5t-58 -77.5t-83.5 -49t-98.5 -17h-451v700h113q-19 35 -19 79q0 28 8.5 55t26.5 48t46.5 33.5t67.5 12.5t67.5 -12.5
t47 -33.5t27.5 -48t9 -55zM388 251q18 0 30 12t12 30q0 17 -12 29.5t-30 12.5h-92v-84h92zM296 429h46q9 0 15 6.5t6 14.5t-6 14t-15 6h-46v-41z" />
    <glyph glyph-name="uni1E03" unicode="&#x1e03;" horiz-adv-x="753" 
d="M414 776q0 -44 -19 -79q26 0 52.5 -5t50.5 -15t45 -26t35 -39q10 -17 13.5 -38.5t1.5 -43.5t-9 -43t-18 -37q83 -18 125 -73t42 -134q0 -57 -22 -102.5t-58 -77.5t-83.5 -49t-98.5 -17h-451v700h113q-19 35 -19 79q0 28 8.5 55t26.5 48t46.5 33.5t67.5 12.5t67.5 -12.5
t47 -33.5t27.5 -48t9 -55zM388 251q18 0 30 12t12 30q0 17 -12 29.5t-30 12.5h-92v-84h92zM296 429h46q9 0 15 6.5t6 14.5t-6 14t-15 6h-46v-41z" />
    <glyph glyph-name="uni1E0A" unicode="&#x1e0a;" horiz-adv-x="740" 
d="M454 756q0 -34 -13 -66q60 -12 111 -43.5t88.5 -77t58.5 -102.5t21 -120q0 -72 -27.5 -136t-75 -111.5t-111.5 -75t-136 -27.5h-350v700h144q-10 26 -10 59q0 28 8.5 55t26.5 48t46.5 33.5t67.5 12.5t67.5 -12.5t47 -33.5t27.5 -48t9 -55zM370 312q14 0 24.5 10t10.5 25
q0 14 -10.5 24t-24.5 10h-35v-69h35z" />
    <glyph glyph-name="uni1E0B" unicode="&#x1e0b;" horiz-adv-x="740" 
d="M454 756q0 -34 -13 -66q60 -12 111 -43.5t88.5 -77t58.5 -102.5t21 -120q0 -72 -27.5 -136t-75 -111.5t-111.5 -75t-136 -27.5h-350v700h144q-10 26 -10 59q0 28 8.5 55t26.5 48t46.5 33.5t67.5 12.5t67.5 -12.5t47 -33.5t27.5 -48t9 -55zM370 312q14 0 24.5 10t10.5 25
q0 14 -10.5 24t-24.5 10h-35v-69h35z" />
    <glyph glyph-name="uni1E1E" unicode="&#x1e1e;" horiz-adv-x="686" 
d="M520 823q0 -38 -15 -71.5t-46 -54.5h257v-336q-91 0 -180 -0.5t-180 -0.5v-23h276v-177h-276v-163h-336v700h260q-31 21 -45.5 54.5t-14.5 71.5q0 28 8.5 55t26.5 48t46.5 33.5t67.5 12.5t67.5 -12.5t47 -33.5t27.5 -48t9 -55z" />
    <glyph glyph-name="uni1E1F" unicode="&#x1e1f;" horiz-adv-x="686" 
d="M520 823q0 -38 -15 -71.5t-46 -54.5h257v-336q-91 0 -180 -0.5t-180 -0.5v-23h276v-177h-276v-163h-336v700h260q-31 21 -45.5 54.5t-14.5 71.5q0 28 8.5 55t26.5 48t46.5 33.5t67.5 12.5t67.5 -12.5t47 -33.5t27.5 -48t9 -55z" />
    <glyph glyph-name="uni1E40" unicode="&#x1e40;" horiz-adv-x="944" 
d="M924 807v-810h-336v86l-116 -98l-116 98v-86h-336v810l452 -383zM619 707q0 -29 -9 -56t-27.5 -48t-47 -34t-67.5 -13q-38 0 -66 13t-46.5 34t-27.5 48t-9 56q0 28 8.5 55t26.5 48t46.5 33.5t67.5 12.5t67.5 -12.5t47 -33.5t27.5 -48t9 -55z" />
    <glyph glyph-name="uni1E41" unicode="&#x1e41;" horiz-adv-x="944" 
d="M924 807v-810h-336v86l-116 -98l-116 98v-86h-336v810l452 -383zM619 707q0 -29 -9 -56t-27.5 -48t-47 -34t-67.5 -13q-38 0 -66 13t-46.5 34t-27.5 48t-9 56q0 28 8.5 55t26.5 48t46.5 33.5t67.5 12.5t67.5 -12.5t47 -33.5t27.5 -48t9 -55z" />
    <glyph glyph-name="uni1E56" unicode="&#x1e56;" horiz-adv-x="759" 
d="M522 805q0 -31 -10.5 -59.5t-30.5 -49.5q54 -5 101.5 -29t82 -62.5t54.5 -88t20 -104.5q0 -59 -22.5 -111t-61 -90.5t-90 -61t-110.5 -22.5h-99v-130h-336v700h241q-20 21 -29.5 49.5t-9.5 58.5q0 28 8.5 55t26.5 48t46.5 33.5t67.5 12.5t67.5 -12.5t47 -33.5t27.5 -48
t9 -55zM390 335q15 0 25 10t10 24q0 15 -10 25t-25 10h-34v-69h34z" />
    <glyph glyph-name="uni1E57" unicode="&#x1e57;" horiz-adv-x="759" 
d="M522 805q0 -31 -10.5 -59.5t-30.5 -49.5q54 -5 101.5 -29t82 -62.5t54.5 -88t20 -104.5q0 -59 -22.5 -111t-61 -90.5t-90 -61t-110.5 -22.5h-99v-130h-336v700h241q-20 21 -29.5 49.5t-9.5 58.5q0 28 8.5 55t26.5 48t46.5 33.5t67.5 12.5t67.5 -12.5t47 -33.5t27.5 -48
t9 -55zM390 335q15 0 25 10t10 24q0 15 -10 25t-25 10h-34v-69h34z" />
    <glyph glyph-name="uni1E60" unicode="&#x1e60;" horiz-adv-x="896" 
d="M809 820q0 -36 -14 -69t-43 -54h124v-336h-244q-6 0 -9.5 -8.5t-5 -21t-2 -26t-1.5 -23.5q-6 -68 -31 -121t-71 -89.5t-115.5 -55.5t-164.5 -19h-212v336h248q7 0 9.5 8.5t3.5 21t0.5 26t0.5 23.5q9 127 80.5 201.5t203.5 82.5q-29 21 -43 54t-14 70q0 28 8.5 55t26.5 48
t46.5 33.5t67.5 12.5t67.5 -12.5t47 -33.5t27.5 -48t9 -55z" />
    <glyph glyph-name="uni1E61" unicode="&#x1e61;" horiz-adv-x="896" 
d="M809 820q0 -36 -14 -69t-43 -54h124v-336h-244q-6 0 -9.5 -8.5t-5 -21t-2 -26t-1.5 -23.5q-6 -68 -31 -121t-71 -89.5t-115.5 -55.5t-164.5 -19h-212v336h248q7 0 9.5 8.5t3.5 21t0.5 26t0.5 23.5q9 127 80.5 201.5t203.5 82.5q-29 21 -43 54t-14 70q0 28 8.5 55t26.5 48
t46.5 33.5t67.5 12.5t67.5 -12.5t47 -33.5t27.5 -48t9 -55z" />
    <glyph glyph-name="uni1E6A" unicode="&#x1e6a;" horiz-adv-x="802" 
d="M551 819q0 -36 -13.5 -68.5t-42.5 -53.5h288v-336h-214v-364h-336v364h-214v336h287q-29 21 -42 53.5t-13 68.5q0 28 8.5 55t26.5 48t46.5 33.5t67.5 12.5t67.5 -12.5t47 -33.5t27.5 -48t9 -55z" />
    <glyph glyph-name="uni1E6B" unicode="&#x1e6b;" horiz-adv-x="802" 
d="M551 819q0 -36 -13.5 -68.5t-42.5 -53.5h288v-336h-214v-364h-336v364h-214v336h287q-29 21 -42 53.5t-13 68.5q0 28 8.5 55t26.5 48t46.5 33.5t67.5 12.5t67.5 -12.5t47 -33.5t27.5 -48t9 -55z" />
    <glyph glyph-name="Wgrave" unicode="&#x1e80;" horiz-adv-x="1244" 
d="M504 1091l304 -266l-92 -133l-58 26l135 -192l96 171h385l-449 -801l-203 289l-203 -289l-449 801h385l95 -171l153 217l-266 120z" />
    <glyph glyph-name="wgrave" unicode="&#x1e81;" horiz-adv-x="1244" 
d="M504 1091l304 -266l-92 -133l-58 26l135 -192l96 171h385l-449 -801l-203 289l-203 -289l-449 801h385l95 -171l153 217l-266 120z" />
    <glyph glyph-name="Wacute" unicode="&#x1e82;" horiz-adv-x="1244" 
d="M897 841l-221 -149l117 -166l96 171h385l-449 -801l-203 289l-203 -289l-449 801h385l95 -171l88 124l-82 83l254 316z" />
    <glyph glyph-name="wacute" unicode="&#x1e83;" horiz-adv-x="1244" 
d="M897 841l-221 -149l117 -166l96 171h385l-449 -801l-203 289l-203 -289l-449 801h385l95 -171l88 124l-82 83l254 316z" />
    <glyph glyph-name="Wdieresis" unicode="&#x1e84;" horiz-adv-x="1244" 
d="M1274 697l-449 -801l-203 289l-203 -289l-449 801h385l95 -171l172 244l171 -244l96 171h385zM607 841q0 -29 -9 -56t-27.5 -48t-47 -34t-67.5 -13q-38 0 -66 13t-46.5 34t-27.5 48t-9 56q0 28 8.5 55t26.5 48t46.5 33.5t67.5 12.5t67.5 -12.5t47 -33.5t27.5 -48t9 -55z
M937 841q0 -29 -9 -56t-27.5 -48t-47 -34t-67.5 -13q-38 0 -66 13t-46.5 34t-27.5 48t-9 56q0 28 8.5 55t26.5 48t46.5 33.5t67.5 12.5t67.5 -12.5t47 -33.5t27.5 -48t9 -55z" />
    <glyph glyph-name="wdieresis" unicode="&#x1e85;" horiz-adv-x="1244" 
d="M1274 697l-449 -801l-203 289l-203 -289l-449 801h385l95 -171l172 244l171 -244l96 171h385zM607 841q0 -29 -9 -56t-27.5 -48t-47 -34t-67.5 -13q-38 0 -66 13t-46.5 34t-27.5 48t-9 56q0 28 8.5 55t26.5 48t46.5 33.5t67.5 12.5t67.5 -12.5t47 -33.5t27.5 -48t9 -55z
M937 841q0 -29 -9 -56t-27.5 -48t-47 -34t-67.5 -13q-38 0 -66 13t-46.5 34t-27.5 48t-9 56q0 28 8.5 55t26.5 48t46.5 33.5t67.5 12.5t67.5 -12.5t47 -33.5t27.5 -48t9 -55z" />
    <glyph glyph-name="Ygrave" unicode="&#x1ef2;" horiz-adv-x="917" 
d="M283 1064l304 -266l-92 -133l-252 113l216 -215l250 251l238 -238l-321 -320v-258h-336v258l-320 320l224 224l-78 36z" />
    <glyph glyph-name="ygrave" unicode="&#x1ef3;" horiz-adv-x="917" 
d="M283 1064l304 -266l-92 -133l-252 113l216 -215l250 251l238 -238l-321 -320v-258h-336v258l-320 320l224 224l-78 36z" />
    <glyph glyph-name="endash" unicode="&#x2013;" horiz-adv-x="787" 
d="M20 196v285h747v-285h-747z" />
    <glyph glyph-name="emdash" unicode="&#x2014;" horiz-adv-x="1036" 
d="M20 196v285h996v-285h-996z" />
    <glyph glyph-name="quoteleft" unicode="&#x2018;" horiz-adv-x="439" 
d="M355 372h-335l164 348h235z" />
    <glyph glyph-name="quoteright" unicode="&#x2019;" horiz-adv-x="439" 
d="M84 720h335l-164 -348h-235z" />
    <glyph glyph-name="quotesinglbase" unicode="&#x201a;" horiz-adv-x="439" 
d="M84 220h335l-164 -348h-235z" />
    <glyph glyph-name="quotedblleft" unicode="&#x201c;" horiz-adv-x="749" 
d="M665 372h-645l164 348h235l-48 -261l123 261h235z" />
    <glyph glyph-name="quotedblright" unicode="&#x201d;" horiz-adv-x="749" 
d="M378 633l-123 -261h-235l64 348h645l-164 -348h-235z" />
    <glyph glyph-name="quotedblbase" unicode="&#x201e;" horiz-adv-x="749" 
d="M378 133l-123 -261h-235l64 348h645l-164 -348h-235z" />
    <glyph glyph-name="dagger" unicode="&#x2020;" horiz-adv-x="588" 
d="M408 368v-557h-235v557h-153v235h153v146h235v-146h160v-235h-160z" />
    <glyph glyph-name="daggerdbl" unicode="&#x2021;" horiz-adv-x="588" 
d="M408 -29v-160h-235v160h-153v235h153v162h-153v235h153v146h235v-146h160v-235h-160v-162h160v-235h-160z" />
    <glyph glyph-name="bullet" unicode="&#x2022;" horiz-adv-x="492" 
d="M472 367q0 -48 -16.5 -87.5t-46.5 -67t-71.5 -42.5t-91.5 -15q-45 0 -86 15t-72 42.5t-49.5 67t-18.5 87.5q0 49 18.5 87t49.5 63.5t72 38.5t86 13q50 0 91.5 -13t71.5 -38.5t46.5 -63.5t16.5 -87z" />
    <glyph glyph-name="ellipsis" unicode="&#x2026;" horiz-adv-x="1040" 
d="M1020 151q0 -29 -9 -56t-27.5 -48t-47 -34t-67.5 -13q-38 0 -66 13t-46.5 34t-27.5 48t-9 56q0 28 8.5 55t26.5 48t46.5 33.5t67.5 12.5t67.5 -12.5t47 -33.5t27.5 -48t9 -55zM320 151q0 -29 -9 -56t-27.5 -48t-47 -34t-67.5 -13q-38 0 -66 13t-46.5 34t-27.5 48t-9 56
q0 28 8.5 55t26.5 48t46.5 33.5t67.5 12.5t67.5 -12.5t47 -33.5t27.5 -48t9 -55zM670 151q0 -29 -9 -56t-27.5 -48t-47 -34t-67.5 -13q-38 0 -66 13t-46.5 34t-27.5 48t-9 56q0 28 8.5 55t26.5 48t46.5 33.5t67.5 12.5t67.5 -12.5t47 -33.5t27.5 -48t9 -55z" />
    <glyph glyph-name="perthousand" unicode="&#x2030;" horiz-adv-x="1240" 
d="M226 253q-52 7 -90.5 27t-64 50t-38.5 67t-13 77q0 42 16 83t48 72.5t80 51t113 19.5q67 0 123.5 -23t92.5 -65l65 88h339l-187 -253q54 -6 102 -29q28 15 63 23.5t77 8.5q56 0 105 -16t85 -45.5t57 -71.5t21 -93t-21 -92t-57 -70.5t-85 -45.5t-105 -16q-83 0 -142 31
q-64 -31 -141 -31q-80 0 -134 26.5t-85 70.5l-72 -97h-339zM303 474q0 10 -5 17t-18 7q-11 0 -15.5 -7t-4.5 -17q0 -8 4.5 -15t15.5 -7q13 0 18 7t5 15zM980 224q0 10 -5 17t-18 7q-11 0 -15.5 -7t-4.5 -17q0 -8 4.5 -15t15.5 -7q13 0 18 7t5 15zM695 224q0 10 -5 17t-18 7
q-11 0 -15.5 -7t-4.5 -17q0 -8 4.5 -15t15.5 -7q13 0 18 7t5 15z" />
    <glyph glyph-name="guilsinglleft" unicode="&#x2039;" horiz-adv-x="539" 
d="M391 32l-371 311l371 311l128 -148l-147 -166l147 -167z" />
    <glyph glyph-name="guilsinglright" unicode="&#x203a;" horiz-adv-x="539" 
d="M148 654l371 -311l-371 -311l-128 148l147 166l-147 167z" />
    <glyph glyph-name="fraction" unicode="&#x2044;" horiz-adv-x="828" 
d="M456 700h352l-436 -840h-352z" />
    <glyph glyph-name="Euro" unicode="&#x20ac;" horiz-adv-x="708" 
d="M388 359v-9v-6h149v-91h-111q15 -11 34.5 -14.5t42.5 -3.5q27 0 47.5 5.5t31.5 11.5l106 -182q-16 -16 -42 -29t-57 -22t-64 -14t-62 -5q-71 0 -131.5 16.5t-108.5 49t-81 79.5t-48 108h-74v91h63v6v9h-63v91h75q15 60 48 106.5t81 78.5t108.5 48.5t130.5 16.5
q29 0 62 -5t64 -14t57 -22t42 -29l-100 -180q-20 7 -41.5 11t-43.5 4q-21 0 -39 -3.5t-33 -11.5h106v-91h-149z" />
    <glyph glyph-name="trademark" unicode="&#x2122;" horiz-adv-x="1489" 
d="M1234 217v179l-116 -174h-121l-109 167v-172h-235v532h252l156 -224l156 224h252v-532h-235zM453 504v-287h-285v287h-148v245h590v-245h-157z" />
    <glyph glyph-name="minus" unicode="&#x2212;" horiz-adv-x="638" 
d="M20 229v235h598v-235h-598z" />
    <glyph glyph-name="fi" unicode="&#xfb01;" horiz-adv-x="1062" 
d="M705 -3v364q-88 0 -174.5 -0.5t-174.5 -0.5v-23h276v-177h-276v-163h-336v700h1021v-700h-336z" />
    <glyph glyph-name="fl" unicode="&#xfb02;" horiz-adv-x="1338" 
d="M712 361q-91 0 -180 -0.5t-180 -0.5v-23h276v-177h-276v-163h-336v700h696v-336zM1330 333v-336h-612v700h336v-364h276z" />
    </font>
</defs>
</svg>
