<?xml version="1.0" standalone="no"?>
<!DOCTYPE svg PUBLIC "-//W3C//DTD SVG 1.1//EN" "http://www.w3.org/Graphics/SVG/1.1/DTD/svg11.dtd" >
<svg xmlns="http://www.w3.org/2000/svg" xmlns:xlink="http://www.w3.org/1999/xlink" version="1.1">
<metadata>
Created by FontForge 20170731 at Fri May 25 22:45:12 2018
 By Aleksey,,,
Copyright (c) 2018 by Mans Greback. All rights reserved.
</metadata>
<defs>
<font id="Aliment-Thin" horiz-adv-x="769" >
  <font-face 
    font-family="Aliment"
    font-weight="250"
    font-stretch="normal"
    units-per-em="1000"
    panose-1="0 0 0 0 0 0 0 0 0 0"
    ascent="800"
    descent="-200"
    x-height="685"
    cap-height="685"
    bbox="-188 -329.059 1333 986"
    underline-thickness="50"
    underline-position="-150"
    unicode-range="U+000D-FB02"
  />
<missing-glyph horiz-adv-x="341" 
 />
    <glyph glyph-name=".notdef" horiz-adv-x="341" 
 />
    <glyph glyph-name=".null" horiz-adv-x="0" 
 />
    <glyph glyph-name="nonmarkingreturn" unicode="&#xd;" horiz-adv-x="341" 
 />
    <glyph glyph-name="NULL" horiz-adv-x="0" 
 />
    <glyph glyph-name="NULL" horiz-adv-x="0" 
 />
    <glyph glyph-name="space" unicode=" " horiz-adv-x="341" 
 />
    <glyph glyph-name="exclam" unicode="!" horiz-adv-x="236" 
d="M148 230h-65l-12 470h89zM179 61q0 -23 -17.5 -42t-43.5 -19t-43 19t-17 42t17 41.5t43 18.5t43.5 -18.5t17.5 -41.5z" />
    <glyph glyph-name="quotedbl" unicode="&#x22;" horiz-adv-x="401" 
d="M53 700h81l-8 -317h-66zM267 700h81l-8 -317h-66z" />
    <glyph glyph-name="numbersign" unicode="#" horiz-adv-x="690" 
d="M406 152h-185l-21 -112h-65l21 112h-103l12 68h104l40 207h-109l12 68h110l25 126h65l-25 -126h185l25 126h65l-25 -126h100l-11 -68h-102l-40 -207h106l-11 -68h-108l-21 -112h-65zM234 220h185l40 207h-185z" />
    <glyph glyph-name="dollar" unicode="$" horiz-adv-x="651" 
d="M278 2q-93 9 -147.5 47.5t-77.5 89.5l67 23q20 -38 61 -62t104 -31l32 275q-38 9 -75 21t-66.5 31t-49 48t-22.5 72q-3 37 12 70t47 58.5t79 40.5t108 15h8l10 84h54l-10 -89q46 -8 84 -26t59 -46l-48 -42q-36 35 -103 46l-26 -227q40 -9 79.5 -22t71 -34.5t50.5 -55
t19 -84.5q0 -39 -16.5 -75.5t-49.5 -65t-83 -45.5t-118 -18l-9 -84h-54zM529 205q0 30 -13 50.5t-34.5 34.5t-50.5 24t-61 18l-31 -265q91 4 140.5 43t49.5 95zM179 512q2 -23 14.5 -38.5t32 -27t45 -19t54.5 -14.5l25 218q-85 -1 -130.5 -33t-40.5 -86z" />
    <glyph glyph-name="percent" unicode="%" horiz-adv-x="881" 
d="M685 700h98l-593 -700h-99zM345 499q0 25 -6 49.5t-19.5 44t-35.5 32t-53 12.5q-29 0 -49.5 -12.5t-33.5 -32t-19 -44t-6 -49.5t6 -49.5t19 -44t33.5 -31.5t49.5 -12q31 0 53 12t35.5 31.5t19.5 44t6 49.5zM416 499q0 -46 -14 -83t-39 -63.5t-58.5 -40.5t-73.5 -14
q-46 0 -79.5 16.5t-55.5 44t-32.5 64t-10.5 76.5q0 37 10.5 73.5t32.5 64.5t55.5 45.5t79.5 17.5q40 0 73.5 -14.5t58.5 -40.5t39 -63t14 -83zM757 201q0 25 -6 49.5t-19.5 44t-35.5 31.5t-53 12q-29 0 -49.5 -12t-33.5 -31.5t-19 -44t-6 -49.5t6 -49.5t19 -44t33.5 -32
t49.5 -12.5q31 0 53 12.5t35.5 32t19.5 44t6 49.5zM827 201q0 -46 -14 -83t-38.5 -63.5t-58.5 -40.5t-74 -14q-46 0 -79.5 16t-55 44t-32 64t-10.5 77q0 37 10.5 73.5t32 64.5t55 45.5t79.5 17.5q40 0 74 -14.5t58.5 -40.5t38.5 -63t14 -83z" />
    <glyph glyph-name="ampersand" unicode="&#x26;" 
d="M658 383q1 -69 -16 -130.5t-50 -110.5q31 -23 62 -44t61 -39l-29 -59q-34 20 -68 42.5t-68 48.5q-44 -43 -102.5 -67t-130.5 -24t-126.5 24t-88 62t-44.5 84.5t4 91.5t57 83.5t114 60.5q-38 57 -45 110.5t11 94t57 65t93 24.5q51 0 86.5 -20t54.5 -51.5t20 -69.5
t-17.5 -74.5t-57 -67t-99.5 -46.5q40 -48 92.5 -96t110.5 -93q31 41 49 91.5t21 109.5h49zM320 68q50 1 94 18t81 49q-66 54 -124.5 111t-100.5 110q-56 -16 -88.5 -44t-44 -60t-4 -65t31.5 -59.5t63.5 -43t91.5 -16.5zM298 421q1 0 1.5 0.5t1.5 0.5q46 8 76 26.5t46.5 41.5
t19.5 48t-6.5 45.5t-31.5 34t-55 13.5q-36 0 -59.5 -15.5t-32.5 -41.5t-3 -60.5t30 -72.5z" />
    <glyph glyph-name="quotesingle" unicode="'" horiz-adv-x="187" 
d="M53 700h81l-8 -317h-66z" />
    <glyph glyph-name="parenleft" unicode="(" horiz-adv-x="334" 
d="M139 350q0 -63 10.5 -122t29.5 -110t45 -90.5t57 -62.5l-50 -33q-36 25 -68.5 67.5t-57 97t-38.5 119t-14 134.5t14.5 134.5t38.5 118.5t56.5 96.5t68.5 68.5l50 -33q-31 -26 -57 -66t-45 -90t-29.5 -108t-10.5 -121z" />
    <glyph glyph-name="parenright" unicode=")" horiz-adv-x="334" 
d="M195 350q0 63 -10.5 122t-29.5 110t-45 90.5t-57 62.5l50 33q36 -26 68.5 -68t57 -96.5t38.5 -119t14 -134.5t-14.5 -134.5t-38.5 -118.5t-56.5 -96.5t-68.5 -68.5l-50 33q31 26 57 66t45 90t29.5 108t10.5 121z" />
    <glyph glyph-name="asterisk" unicode="*" horiz-adv-x="613" 
d="M84 673l194 -124l-6 214h69l-6 -211l187 121l38 -55l-205 -116l205 -116l-38 -55l-187 121l6 -210h-69l5 212l-193 -123l-31 55l201 116l-201 116z" />
    <glyph glyph-name="plus" unicode="+" horiz-adv-x="638" 
d="M357 381h228v-69h-228v-233h-69v233h-235v69h235v226h69v-226z" />
    <glyph glyph-name="comma" unicode="," horiz-adv-x="257" 
d="M122 180h82l-89 -271h-62z" />
    <glyph glyph-name="hyphen" unicode="-" horiz-adv-x="563" 
d="M53 254v78h457v-78h-457z" />
    <glyph glyph-name="period" unicode="." horiz-adv-x="227" 
d="M174 61q0 -23 -17.5 -42t-43.5 -19t-43 19t-17 42t17 41.5t43 18.5t43.5 -18.5t17.5 -41.5z" />
    <glyph glyph-name="slash" unicode="/" horiz-adv-x="670" 
d="M522 700h95l-469 -840h-95z" />
    <glyph glyph-name="zero" unicode="0" horiz-adv-x="704" 
d="M561 350q0 56 -14.5 106.5t-42 89t-67 61t-88.5 22.5q-47 0 -85 -21.5t-65 -59t-41.5 -88.5t-14.5 -110t14.5 -110t41.5 -88.5t65 -59t85 -21.5q49 0 88.5 22.5t67 61t42 89t14.5 106.5zM647 350q0 -81 -24 -146t-64.5 -110.5t-95 -69.5t-115.5 -24q-66 0 -119.5 27
t-92 74.5t-59 111t-20.5 137.5q0 73 20.5 137t59 111.5t92 74.5t119.5 27q61 0 115.5 -25t95 -71t64.5 -110.5t24 -143.5z" />
    <glyph glyph-name="one" unicode="1" horiz-adv-x="322" 
d="M123 0v659l40 41h46v-700h-86z" />
    <glyph glyph-name="two" unicode="2" horiz-adv-x="643" 
d="M62 432q-10 54 4 102.5t47.5 85.5t84.5 58.5t115 21.5q67 0 116.5 -19.5t80.5 -52t44.5 -74.5t8.5 -87t-28.5 -90t-65.5 -83l-248 -225h368v-69h-546l371 343q50 46 64 96.5t-1.5 92.5t-57.5 69t-103 27q-46 0 -82 -15.5t-59 -42.5t-32 -62.5t0 -75.5h-81v0z" />
    <glyph glyph-name="three" unicode="3" horiz-adv-x="656" 
d="M97 506q-8 32 0.5 66.5t36 63t75 46.5t118.5 18q60 0 103.5 -13t72 -35t42 -52t13.5 -64q0 -45 -29.5 -86.5t-95.5 -64.5q84 -14 127 -58.5t43 -109.5q0 -39 -17 -78t-52 -69.5t-90 -50t-131 -19.5q-72 0 -124.5 22t-84 57t-43.5 79t-3 88h80q-6 -38 3.5 -70t32.5 -56
t58.5 -37.5t81.5 -13.5q52 0 90.5 12.5t63.5 33.5t37.5 48.5t12.5 58.5q0 22 -11 44.5t-36 40.5t-66.5 29t-102.5 11h-71v65h58q51 0 86.5 11.5t57 29.5t31 38.5t9.5 38.5q0 20 -8 39t-26 34t-46.5 24t-68.5 9q-45 0 -75.5 -10.5t-48.5 -28t-24 -41t-2 -50.5h-77v0z" />
    <glyph glyph-name="four" unicode="4" horiz-adv-x="646" 
d="M508 725v-505h85v-67h-85v-153h-82v153h-391zM429 220v309l-247 -309h247z" />
    <glyph glyph-name="five" unicode="5" horiz-adv-x="653" 
d="M517 254q0 69 -34 109t-86 50t-114 -10t-118 -71h-80l50 368h408v-66h-341l-27 -221q78 48 154.5 58.5t136.5 -11.5t97 -74t37 -129q0 -57 -21 -104.5t-57.5 -81t-87 -52.5t-109.5 -19q-56 0 -105.5 14t-86.5 40.5t-58.5 65t-21.5 87.5h83q0 -32 16.5 -57t43 -43
t61 -27.5t70.5 -9.5q40 0 75 13.5t60.5 38t40 58.5t14.5 74z" />
    <glyph glyph-name="six" unicode="6" horiz-adv-x="644" 
d="M505 251q0 55 -28 92.5t-77.5 49.5t-116 -4t-144.5 -67q0 -69 15.5 -117.5t41.5 -79t60 -44.5t72 -14q36 0 68.5 14.5t56.5 40t38 58.5t14 71zM329 0q-57 0 -107.5 20.5t-88 62t-59 104.5t-21.5 149q0 79 23 145.5t64 115t98.5 76t125.5 27.5q58 0 102 -14t76 -35
l-21 -60q-27 22 -66 35t-84 10q-49 -1 -89.5 -19.5t-70.5 -51.5t-48.5 -79t-23.5 -101q91 56 173.5 70t144 -6.5t98 -71.5t36.5 -126q0 -50 -20 -95.5t-55 -80t-83 -55t-104 -20.5z" />
    <glyph glyph-name="seven" unicode="7" horiz-adv-x="615" 
d="M289 -16l-73 29l267 613h-430v74h554z" />
    <glyph glyph-name="eight" unicode="8" horiz-adv-x="658" 
d="M51 205q0 62 39.5 112t114.5 74q-58 21 -85 58t-27 78q0 34 14.5 65.5t44 55.5t74 38t103.5 14q60 0 104 -14t73.5 -38t44 -55.5t14.5 -65.5q0 -45 -26.5 -80.5t-84.5 -55.5q75 -24 114 -74t39 -112q0 -39 -19 -76t-55 -65.5t-87.5 -46t-116.5 -17.5q-67 0 -119 17.5
t-87 46t-53.5 65.5t-18.5 76zM329 69q47 0 83 13t60 33.5t36.5 46t12.5 49.5q0 31 -14 58.5t-39.5 47.5t-60.5 31.5t-78 11.5q-42 0 -77.5 -11.5t-61 -31.5t-39.5 -47.5t-14 -58.5q0 -24 11.5 -49.5t35.5 -46t60 -33.5t85 -13zM329 634q-42 0 -72 -9t-48.5 -25t-27 -36.5
t-8.5 -42.5q0 -45 42 -73t114 -28t114.5 28t42.5 73q0 22 -9.5 42.5t-28.5 36.5t-49 25t-70 9z" />
    <glyph glyph-name="nine" unicode="9" horiz-adv-x="644" 
d="M139 449q0 -56 28 -93t77.5 -49t116 4t144.5 67q0 69 -15.5 117.5t-41.5 79t-60 44.5t-72 14q-36 0 -68.5 -14.5t-56.5 -40t-38 -59t-14 -70.5zM315 700q57 0 107.5 -20.5t88 -62t59 -105t21.5 -148.5q0 -79 -23 -145.5t-64.5 -115t-98.5 -76t-125 -27.5q-58 0 -102 14
t-76 35l21 60q27 -22 66 -35t84 -10q49 1 89.5 19.5t70.5 51.5t48.5 78.5t23.5 101.5q-92 -56 -174 -70t-143.5 6.5t-98 71.5t-36.5 126q0 50 20 95.5t55 80t83 55t104 20.5z" />
    <glyph glyph-name="colon" unicode=":" horiz-adv-x="227" 
d="M174 61q0 -23 -17.5 -42t-43.5 -19t-43 19t-17 42t17 41.5t43 18.5t43.5 -18.5t17.5 -41.5zM174 454q0 -23 -17.5 -42t-43.5 -19t-43 19t-17 42t17 41.5t43 18.5t43.5 -18.5t17.5 -41.5z" />
    <glyph glyph-name="semicolon" unicode=";" horiz-adv-x="259" 
d="M122 180h82l-89 -271h-62zM206 454q0 -23 -17.5 -42t-43.5 -19t-43 19t-17 42t17 41.5t43 18.5t43.5 -18.5t17.5 -41.5z" />
    <glyph glyph-name="less" unicode="&#x3c;" horiz-adv-x="470" 
d="M417 546l-255 -202l255 -197l-43 -49l-321 245l321 245z" />
    <glyph glyph-name="equal" unicode="=" horiz-adv-x="638" 
d="M53 418v64h532v-64h-532zM53 218v63h532v-63h-532z" />
    <glyph glyph-name="greater" unicode="&#x3e;" horiz-adv-x="470" 
d="M96 588l321 -245l-321 -245l-43 49l255 197l-255 202z" />
    <glyph glyph-name="question" unicode="?" horiz-adv-x="601" 
d="M56 495q-7 36 6 72.5t44.5 66t80 48t113.5 18.5q58 0 105 -16.5t79.5 -44.5t49 -65.5t13.5 -78.5q-3 -46 -23 -75.5t-48.5 -50t-60 -35.5t-58 -32t-42 -39t-11.5 -56h-63q-6 46 8 76t38.5 50.5t54.5 35.5t57 31.5t46.5 39t21.5 57.5q1 29 -11.5 54t-35.5 43t-55 28.5
t-70 10.5q-49 0 -83 -14t-54.5 -34.5t-28 -44.5t-2.5 -45h-71zM332 56q0 -21 -17 -38.5t-44 -17.5q-26 0 -43 17.5t-17 38.5t17 38t43 17q27 0 44 -17t17 -38z" />
    <glyph glyph-name="at" unicode="@" horiz-adv-x="987" 
d="M311 485q9 18 25 35t40 30.5t54.5 21.5t68.5 8q94 0 147 -46.5t53 -134.5v-148q0 -12 2.5 -25t10 -24t20.5 -18t33 -7q41 0 68.5 48t27.5 139q0 81 -26.5 146t-75 111.5t-116 71.5t-149.5 25q-81 0 -148 -26.5t-116 -75t-76 -116.5t-27 -150q0 -89 26.5 -157t74.5 -115
t114 -71t145 -24q30 0 54 2t46.5 7.5t44.5 15t48 24.5l40 -42q-36 -26 -96.5 -45.5t-135.5 -19.5q-104 0 -185 32t-136.5 88.5t-84.5 134.5t-29 170q0 89 30 166.5t86.5 135t138.5 90.5t186 33q101 0 182.5 -30t138.5 -83.5t88 -128.5t31 -165q0 -60 -13 -106t-36.5 -77.5
t-55 -47.5t-67.5 -16q-47 0 -77.5 21t-42.5 58q-26 -38 -69.5 -57.5t-98.5 -19.5q-39 0 -73.5 10.5t-60 30t-40.5 45.5t-15 58q0 29 11 54t34.5 44t60.5 29.5t90 10.5q48 0 87 -1.5t65 6.5q-3 57 -38.5 85.5t-99.5 28.5q-44 0 -83.5 -17t-62.5 -49zM488 178q39 0 66 11
t44.5 28.5t26 39.5t9.5 44v64q-24 -8 -58 -10.5t-82 -2.5q-80 0 -112 -23.5t-32 -60.5q0 -41 37.5 -65.5t100.5 -24.5z" />
    <glyph glyph-name="A" unicode="A" horiz-adv-x="799" 
d="M800 -1h-94l-74 135l-229 -16l-236 15l-73 -134h-94l399 730zM201 195h397l-198 363z" />
    <glyph glyph-name="B" unicode="B" horiz-adv-x="752" 
d="M458 467q52 0 96.5 -18.5t77 -50.5t51 -74.5t18.5 -90.5t-18.5 -91t-50 -74.5t-74.5 -50t-91 -18.5h-417v686h276q31 0 58 -12t47 -32t32 -47t12 -58q0 -18 -4.5 -36t-12.5 -33zM132 467h194q28 0 47.5 19.5t19.5 47.5q0 23 -9.5 36.5t-24.5 20t-34 8.5t-38 2h-155v-134z
M467 81q31 0 59 12.5t48.5 34.5t32.5 50t12 60q0 31 -12 59.5t-32.5 50.5t-48.5 34.5t-59 12.5h-335v-315z" />
    <glyph glyph-name="C" unicode="C" horiz-adv-x="832" 
d="M123 341q0 -69 25.5 -123.5t67 -92t95 -58t109.5 -22.5q46 -2 91.5 10t84.5 37.5t69.5 65.5t46.5 95l79 -24q-18 -59 -53.5 -109t-83.5 -86.5t-107 -57t-124 -20.5q-80 0 -149.5 30t-122 82.5t-82.5 122t-30 149.5q0 79 30 149t82.5 122.5t122 82.5t149.5 30
q65 0 124 -20.5t107 -57t83.5 -86.5t53.5 -109l-79 -22q-14 46 -42 85t-65.5 67.5t-83.5 44.5t-97 16q-58 0 -112.5 -23t-96.5 -63t-67 -95.5t-25 -119.5z" />
    <glyph glyph-name="D" unicode="D" 
d="M376 685q71 0 133.5 -27t109 -73.5t73.5 -109t27 -133.5t-27 -133.5t-73.5 -109t-109 -73.5t-133.5 -27h-326v686h326zM376 80q54 0 101.5 20.5t83 56t56 83t20.5 101.5t-20.5 101.5t-56 83t-83 56t-101.5 20.5h-244v-521z" />
    <glyph glyph-name="E" unicode="E" horiz-adv-x="664" 
d="M132 601v-219h388v-82h-388v-219h482v-82h-564v686h564v-82z" />
    <glyph glyph-name="F" unicode="F" horiz-adv-x="695" 
d="M695 603q-142 0 -281.5 -0.5t-281.5 -0.5v-257h467v-82h-467v-264h-82v686h645v-82v0z" />
    <glyph glyph-name="G" unicode="G" horiz-adv-x="884" 
d="M844 347q0 -20 -0.5 -41t-0.5 -41h-127q-13 -57 -44 -105.5t-75 -84.5t-98.5 -56t-115.5 -20q-71 0 -133.5 27t-109 73.5t-73.5 109t-27 133.5t27 133.5t73.5 109t109 73.5t133.5 27q54 0 104 -16t91.5 -45t73 -68.5t50.5 -87.5h-91q-33 61 -93.5 98.5t-134.5 37.5
q-54 0 -101.5 -20.5t-83 -56t-56 -83t-20.5 -101.5q0 -51 19.5 -98t54.5 -83t83 -58t104 -22q44 0 83.5 13.5t72.5 38t57 58t36 73.5h-150v82h362v0z" />
    <glyph glyph-name="H" unicode="H" horiz-adv-x="704" 
d="M653 685v-686h-82v288h-439v-288h-82v686h82v-315h439v315h82z" />
    <glyph glyph-name="I" unicode="I" horiz-adv-x="182" 
d="M50 -1v686h82v-686h-82z" />
    <glyph glyph-name="J" unicode="J" horiz-adv-x="688" 
d="M636 686v-391q0 -61 -23 -114.5t-63 -93.5t-93.5 -63t-114.5 -23q-58 0 -109 21t-90.5 57t-64 85t-29.5 105h83q5 -39 23.5 -73.5t46.5 -59.5t64 -39.5t77 -14.5q44 0 82.5 16.5t67.5 45.5t45.5 67.5t16.5 82.5v391z" />
    <glyph glyph-name="K" unicode="K" horiz-adv-x="651" 
d="M539 -65l-407 407v-335h-82v686h82v-335l407 407l54 -54l-361 -361l361 -361z" />
    <glyph glyph-name="L" unicode="L" horiz-adv-x="679" 
d="M629 81v-82h-579v686h82v-604h497z" />
    <glyph glyph-name="M" unicode="M" horiz-adv-x="973" 
d="M922 740v-741h-82v505l-354 -447l-354 447v-505h-82v741l436 -551z" />
    <glyph glyph-name="N" unicode="N" horiz-adv-x="795" 
d="M745 685v-743l-613 604v-546h-82v743l613 -604v546h82z" />
    <glyph glyph-name="O" unicode="O" horiz-adv-x="848" 
d="M424 726q79 0 149 -30t122.5 -82.5t82.5 -122.5t30 -149q0 -80 -30 -149.5t-82.5 -122t-122.5 -82.5t-149 -30q-80 0 -149.5 30t-122 82.5t-82.5 122t-30 149.5q0 79 30 149t82.5 122.5t122 82.5t149.5 30zM424 40q62 0 117 23.5t96 64.5t64.5 96t23.5 117t-23.5 117
t-64.5 96t-96 64.5t-117 23.5t-117 -23.5t-96 -64.5t-64.5 -96t-23.5 -117t23.5 -117t64.5 -96t96 -64.5t117 -23.5z" />
    <glyph glyph-name="P" unicode="P" horiz-adv-x="726" 
d="M437 684q53 0 97 -18.5t75.5 -50.5t49 -75.5t17.5 -94.5q0 -50 -18 -93.5t-50 -75.5t-75.5 -51t-95.5 -19h-305v-207h-82v686h127.5t96.5 -0.5t69 -0.5h46h48zM437 289q75 0 116.5 43t41.5 111q0 82 -43 120t-121 38h-299v-314z" />
    <glyph glyph-name="Q" unicode="Q" horiz-adv-x="796" 
d="M697 -78l-132 132q-40 -26 -86 -40t-97 -14q-71 0 -133.5 27t-109 73.5t-73.5 109t-27 133.5t27 133.5t73.5 109t109 73.5t133.5 27t133.5 -27t109 -73.5t73.5 -109t27 -133.5q0 -69 -25.5 -130t-70.5 -108l127 -127zM121 344q0 -54 20.5 -101.5t56 -83t83 -56
t101.5 -20.5t101.5 20.5t83 56t56 83t20.5 101.5t-20.5 101.5t-56 83t-83 56t-101.5 20.5t-101.5 -20.5t-83 -56t-56 -83t-20.5 -101.5z" />
    <glyph glyph-name="R" unicode="R" horiz-adv-x="732" 
d="M388 205h-255v-207h-82v686h387q49 0 93 -19t76 -51t51 -76t19 -93q0 -42 -14 -80.5t-39 -69t-58.5 -52.5t-73.5 -31l190 -211l-61 -55zM596 444q0 48 -18.5 78.5t-49 48t-70 24.5t-81.5 7h-244v-316h244q42 0 81.5 7t70 24.5t49 48t18.5 78.5z" />
    <glyph glyph-name="S" unicode="S" horiz-adv-x="1008" 
d="M988 685v-82h-216q-42 0 -83 -8.5t-73 -35.5t-51.5 -78.5t-19.5 -138.5q0 -75 -16 -138t-51.5 -108.5t-91.5 -71t-136 -25.5h-230v82h219q41 0 81.5 8.5t72 35.5t51 78.5t19.5 138.5q0 75 15.5 138t50.5 108.5t91 71t138 25.5h230z" />
    <glyph glyph-name="T" unicode="T" horiz-adv-x="778" 
d="M766 685q0 -20 -0.5 -41t-0.5 -41h-333v-604h-82v604h-333v82h749v0z" />
    <glyph glyph-name="U" unicode="U" 
d="M718 685v-351q0 -69 -26.5 -130t-71.5 -106t-106 -71.5t-130 -26.5t-130 26.5t-106 71.5t-71.5 106t-26.5 130v351h82v-351q0 -52 20 -98t54 -80t80 -54t98 -20t98 20t80 54t54 80t20 98v351h82z" />
    <glyph glyph-name="V" unicode="V" horiz-adv-x="820" 
d="M820 685l-410 -729l-410 729h94l316 -561l316 561h94z" />
    <glyph glyph-name="W" unicode="W" horiz-adv-x="1190" 
d="M1190 685l-329 -745l-266 580l-266 -580l-329 745h90l240 -544l265 577l265 -577l240 544h90z" />
    <glyph glyph-name="X" unicode="X" horiz-adv-x="802" 
d="M459 342l343 -343h-116l-285 285l-285 -285h-116l343 343l-343 343h116l285 -285l285 285h116z" />
    <glyph glyph-name="Y" unicode="Y" horiz-adv-x="783" 
d="M433 304v-305h-82v305l-350 350l58 58l333 -333l333 333l58 -58z" />
    <glyph glyph-name="Z" unicode="Z" horiz-adv-x="947" 
d="M246 81h651v-82h-847l593 604h-552v82h748z" />
    <glyph glyph-name="bracketleft" unicode="[" horiz-adv-x="359" 
d="M53 -63v826h252v-66h-168v-694h168v-66h-252z" />
    <glyph glyph-name="backslash" unicode="\" horiz-adv-x="670" 
d="M617 -140h-95l-469 840h95z" />
    <glyph glyph-name="bracketright" unicode="]" horiz-adv-x="359" 
d="M306 763v-826h-252v66h168v694h-168v66h252z" />
    <glyph glyph-name="asciicircum" unicode="^" horiz-adv-x="522" 
d="M228 670h66l175 -213h-87l-121 139l-121 -139h-87z" />
    <glyph glyph-name="underscore" unicode="_" horiz-adv-x="648" 
d="M53 -87v69h542v-69h-542z" />
    <glyph glyph-name="grave" unicode="`" horiz-adv-x="430" 
d="M105 713l272 -254l-33 -46l-291 238z" />
    <glyph glyph-name="a" unicode="a" horiz-adv-x="799" 
d="M800 -1h-94l-74 135l-229 -16l-236 15l-73 -134h-94l399 730zM201 195h397l-198 363z" />
    <glyph glyph-name="b" unicode="b" horiz-adv-x="752" 
d="M458 467q52 0 96.5 -18.5t77 -50.5t51 -74.5t18.5 -90.5t-18.5 -91t-50 -74.5t-74.5 -50t-91 -18.5h-417v686h276q31 0 58 -12t47 -32t32 -47t12 -58q0 -18 -4.5 -36t-12.5 -33zM132 467h194q28 0 47.5 19.5t19.5 47.5q0 23 -9.5 36.5t-24.5 20t-34 8.5t-38 2h-155v-134z
M467 81q31 0 59 12.5t48.5 34.5t32.5 50t12 60q0 31 -12 59.5t-32.5 50.5t-48.5 34.5t-59 12.5h-335v-315z" />
    <glyph glyph-name="c" unicode="c" horiz-adv-x="832" 
d="M123 341q0 -69 25.5 -123.5t67 -92t95 -58t109.5 -22.5q46 -2 91.5 10t84.5 37.5t69.5 65.5t46.5 95l79 -24q-18 -59 -53.5 -109t-83.5 -86.5t-107 -57t-124 -20.5q-80 0 -149.5 30t-122 82.5t-82.5 122t-30 149.5q0 79 30 149t82.5 122.5t122 82.5t149.5 30
q65 0 124 -20.5t107 -57t83.5 -86.5t53.5 -109l-79 -22q-14 46 -42 85t-65.5 67.5t-83.5 44.5t-97 16q-58 0 -112.5 -23t-96.5 -63t-67 -95.5t-25 -119.5z" />
    <glyph glyph-name="d" unicode="d" 
d="M376 685q71 0 133.5 -27t109 -73.5t73.5 -109t27 -133.5t-27 -133.5t-73.5 -109t-109 -73.5t-133.5 -27h-326v686h326zM376 80q54 0 101.5 20.5t83 56t56 83t20.5 101.5t-20.5 101.5t-56 83t-83 56t-101.5 20.5h-244v-521z" />
    <glyph glyph-name="e" unicode="e" horiz-adv-x="664" 
d="M132 601v-219h388v-82h-388v-219h482v-82h-564v686h564v-82z" />
    <glyph glyph-name="f" unicode="f" horiz-adv-x="695" 
d="M695 603q-142 0 -281.5 -0.5t-281.5 -0.5v-257h467v-82h-467v-264h-82v686h645v-82v0z" />
    <glyph glyph-name="g" unicode="g" horiz-adv-x="884" 
d="M844 347q0 -20 -0.5 -41t-0.5 -41h-127q-13 -57 -44 -105.5t-75 -84.5t-98.5 -56t-115.5 -20q-71 0 -133.5 27t-109 73.5t-73.5 109t-27 133.5t27 133.5t73.5 109t109 73.5t133.5 27q54 0 104 -16t91.5 -45t73 -68.5t50.5 -87.5h-91q-33 61 -93.5 98.5t-134.5 37.5
q-54 0 -101.5 -20.5t-83 -56t-56 -83t-20.5 -101.5q0 -51 19.5 -98t54.5 -83t83 -58t104 -22q44 0 83.5 13.5t72.5 38t57 58t36 73.5h-150v82h362v0z" />
    <glyph glyph-name="h" unicode="h" horiz-adv-x="704" 
d="M653 685v-686h-82v288h-439v-288h-82v686h82v-315h439v315h82z" />
    <glyph glyph-name="i" unicode="i" horiz-adv-x="182" 
d="M50 -1v686h82v-686h-82z" />
    <glyph glyph-name="j" unicode="j" horiz-adv-x="688" 
d="M636 686v-391q0 -61 -23 -114.5t-63 -93.5t-93.5 -63t-114.5 -23q-58 0 -109 21t-90.5 57t-64 85t-29.5 105h83q5 -39 23.5 -73.5t46.5 -59.5t64 -39.5t77 -14.5q44 0 82.5 16.5t67.5 45.5t45.5 67.5t16.5 82.5v391z" />
    <glyph glyph-name="k" unicode="k" horiz-adv-x="651" 
d="M539 -65l-407 407v-335h-82v686h82v-335l407 407l54 -54l-361 -361l361 -361z" />
    <glyph glyph-name="l" unicode="l" horiz-adv-x="679" 
d="M629 81v-82h-579v686h82v-604h497z" />
    <glyph glyph-name="m" unicode="m" horiz-adv-x="973" 
d="M922 740v-741h-82v505l-354 -447l-354 447v-505h-82v741l436 -551z" />
    <glyph glyph-name="n" unicode="n" horiz-adv-x="795" 
d="M745 685v-743l-613 604v-546h-82v743l613 -604v546h82z" />
    <glyph glyph-name="o" unicode="o" horiz-adv-x="848" 
d="M424 726q79 0 149 -30t122.5 -82.5t82.5 -122.5t30 -149q0 -80 -30 -149.5t-82.5 -122t-122.5 -82.5t-149 -30q-80 0 -149.5 30t-122 82.5t-82.5 122t-30 149.5q0 79 30 149t82.5 122.5t122 82.5t149.5 30zM424 40q62 0 117 23.5t96 64.5t64.5 96t23.5 117t-23.5 117
t-64.5 96t-96 64.5t-117 23.5t-117 -23.5t-96 -64.5t-64.5 -96t-23.5 -117t23.5 -117t64.5 -96t96 -64.5t117 -23.5z" />
    <glyph glyph-name="p" unicode="p" horiz-adv-x="726" 
d="M437 684q53 0 97 -18.5t75.5 -50.5t49 -75.5t17.5 -94.5q0 -50 -18 -93.5t-50 -75.5t-75.5 -51t-95.5 -19h-305v-207h-82v686h127.5t96.5 -0.5t69 -0.5h46h48zM437 289q75 0 116.5 43t41.5 111q0 82 -43 120t-121 38h-299v-314z" />
    <glyph glyph-name="q" unicode="q" horiz-adv-x="796" 
d="M697 -78l-132 132q-40 -26 -86 -40t-97 -14q-71 0 -133.5 27t-109 73.5t-73.5 109t-27 133.5t27 133.5t73.5 109t109 73.5t133.5 27t133.5 -27t109 -73.5t73.5 -109t27 -133.5q0 -69 -25.5 -130t-70.5 -108l127 -127zM121 344q0 -54 20.5 -101.5t56 -83t83 -56
t101.5 -20.5t101.5 20.5t83 56t56 83t20.5 101.5t-20.5 101.5t-56 83t-83 56t-101.5 20.5t-101.5 -20.5t-83 -56t-56 -83t-20.5 -101.5z" />
    <glyph glyph-name="r" unicode="r" horiz-adv-x="732" 
d="M388 205h-255v-207h-82v686h387q49 0 93 -19t76 -51t51 -76t19 -93q0 -42 -14 -80.5t-39 -69t-58.5 -52.5t-73.5 -31l190 -211l-61 -55zM596 444q0 48 -18.5 78.5t-49 48t-70 24.5t-81.5 7h-244v-316h244q42 0 81.5 7t70 24.5t49 48t18.5 78.5z" />
    <glyph glyph-name="s" unicode="s" horiz-adv-x="1008" 
d="M988 685v-82h-216q-42 0 -83 -8.5t-73 -35.5t-51.5 -78.5t-19.5 -138.5q0 -75 -16 -138t-51.5 -108.5t-91.5 -71t-136 -25.5h-230v82h219q41 0 81.5 8.5t72 35.5t51 78.5t19.5 138.5q0 75 15.5 138t50.5 108.5t91 71t138 25.5h230z" />
    <glyph glyph-name="t" unicode="t" horiz-adv-x="778" 
d="M766 685q0 -20 -0.5 -41t-0.5 -41h-333v-604h-82v604h-333v82h749v0z" />
    <glyph glyph-name="u" unicode="u" 
d="M718 685v-351q0 -69 -26.5 -130t-71.5 -106t-106 -71.5t-130 -26.5t-130 26.5t-106 71.5t-71.5 106t-26.5 130v351h82v-351q0 -52 20 -98t54 -80t80 -54t98 -20t98 20t80 54t54 80t20 98v351h82z" />
    <glyph glyph-name="v" unicode="v" horiz-adv-x="820" 
d="M820 685l-410 -729l-410 729h94l316 -561l316 561h94z" />
    <glyph glyph-name="w" unicode="w" horiz-adv-x="1190" 
d="M1190 685l-329 -745l-266 580l-266 -580l-329 745h90l240 -544l265 577l265 -577l240 544h90z" />
    <glyph glyph-name="x" unicode="x" horiz-adv-x="802" 
d="M459 342l343 -343h-116l-285 285l-285 -285h-116l343 343l-343 343h116l285 -285l285 285h116z" />
    <glyph glyph-name="y" unicode="y" horiz-adv-x="783" 
d="M433 304v-305h-82v305l-350 350l58 58l333 -333l333 333l58 -58z" />
    <glyph glyph-name="z" unicode="z" horiz-adv-x="947" 
d="M246 81h651v-82h-847l593 604h-552v82h748z" />
    <glyph glyph-name="braceleft" unicode="{" horiz-adv-x="433" 
d="M53 382q65 0 96.5 16.5t42.5 43t7 61t-9 70t-5.5 70t16.5 61t58.5 43t120.5 16.5v-69q-52 1 -80 -9.5t-40 -29.5t-11.5 -44.5t4.5 -54.5t8 -59t-0.5 -57.5t-22 -51t-55.5 -38.5q38 -15 55.5 -38t22 -50.5t0.5 -57.5t-8 -59t-4.5 -54.5t11.5 -44.5t40 -30t80 -9v-69
q-79 0 -120.5 16.5t-58.5 43t-16.5 61t5.5 70t9 70t-7 61t-42.5 43t-96.5 16.5v63z" />
    <glyph glyph-name="bar" unicode="|" horiz-adv-x="186" 
d="M53 749h79v-938h-79v938z" />
    <glyph glyph-name="braceright" unicode="}" horiz-adv-x="433" 
d="M380 319q-65 0 -96.5 -16.5t-42.5 -43t-7 -61t9 -70t5.5 -70t-16.5 -61t-58.5 -43t-120.5 -16.5v69q52 -2 80 9t39.5 30t11 44.5t-4.5 54.5t-8 59t0.5 57.5t22 50.5t55.5 38q-38 15 -55.5 38.5t-22 51t-0.5 57.5t8 59t4.5 54.5t-11 44.5t-39.5 29.5t-80 9.5v69
q79 0 120.5 -16.5t58.5 -43t16.5 -61t-5.5 -70t-9 -70t7 -61t42.5 -43t96.5 -16.5v-63z" />
    <glyph glyph-name="asciitilde" unicode="~" horiz-adv-x="540" 
d="M471 378q16 -42 16 -79t-13.5 -64t-38 -43t-58.5 -16q-28 0 -49 10t-38.5 24.5t-32.5 32t-29.5 32t-30 24.5t-34.5 10q-38 0 -44 -36t22 -97h-72q-16 45 -15.5 82.5t14 64t38 41t57.5 14.5q28 0 50 -10t40 -24.5t33.5 -32t30 -32t29.5 -24.5t32 -10t26.5 11t12 29.5
t-2 42.5t-14.5 50h71v0z" />
    <glyph glyph-name="uni00A0" unicode="&#xa0;" horiz-adv-x="341" 
 />
    <glyph glyph-name="exclamdown" unicode="&#xa1;" horiz-adv-x="236" 
d="M88 370h65l12 -470h-89zM57 539q0 23 17.5 42t43.5 19t43 -19t17 -42t-17 -41.5t-43 -18.5t-43.5 18.5t-17.5 41.5z" />
    <glyph glyph-name="cent" unicode="&#xa2;" horiz-adv-x="587" 
d="M534 120q-38 -32 -84.5 -51t-104.5 -19q-31 0 -54 4l-32 -138h-52l35 150q-44 15 -79 42.5t-59.5 64.5t-37.5 82t-13 95q0 63 20.5 118t59 95.5t92.5 63.5t120 23q9 0 17.5 -0.5t17.5 -1.5l32 136h52l-35 -146q60 -18 105 -58l-41 -48q-32 29 -79 41l-107 -450
q11 -2 23 -3t24 -1q44 0 79.5 13t58.5 36zM131 350q0 -73 34 -129.5t94 -82.5l105 443h-10q-51 0 -92 -18t-70.5 -49t-45 -73t-15.5 -91z" />
    <glyph glyph-name="sterling" unicode="&#xa3;" horiz-adv-x="671" 
d="M505 501q3 24 -5 48t-25.5 42.5t-45.5 30t-66 11.5q-45 0 -78.5 -19t-53.5 -54.5t-24 -87t10 -115.5l6 -30h181v-52h-173q11 -81 -3.5 -135t-64.5 -74h455v-66h-565v60q33 4 56.5 18.5t36.5 40.5t16 64.5t-4 91.5h-75v52h67l-6 30q-17 81 -7.5 145t39.5 108t78 67t109 23
q51 0 92 -15.5t68.5 -42.5t41 -63t9.5 -78h-69v0z" />
    <glyph glyph-name="currency" unicode="&#xa4;" horiz-adv-x="666" 
d="M551 350q0 -45 -10 -79.5t-27 -60.5l98 -95l-44 -52l-98 101q-28 -23 -63.5 -33.5t-73.5 -10.5q-83 0 -133 43l-95 -100l-52 52l103 99q-34 52 -34 136q0 76 31 132l-100 96l52 45l89 -93q53 50 139 50q42 0 78.5 -13t65.5 -39l91 95l44 -45l-94 -98q15 -25 24 -57.5
t9 -72.5zM483 350q0 72 -39 116.5t-111 44.5q-68 0 -105.5 -42t-37.5 -119t35.5 -119t107.5 -42q77 0 113.5 44.5t36.5 116.5z" />
    <glyph glyph-name="yen" unicode="&#xa5;" horiz-adv-x="721" 
d="M399 65v-65h-76v65h-155v52h155v79h-155v52h155v24l-270 428h93l214 -373l215 373h93l-269 -437v-15h147v-52h-147v-79h147v-52h-147z" />
    <glyph glyph-name="brokenbar" unicode="&#xa6;" horiz-adv-x="184" 
d="M131 224v-413h-78v413h78zM53 336v413h78v-413h-78z" />
    <glyph glyph-name="section" unicode="&#xa7;" horiz-adv-x="598" 
d="M521 206q15 -26 18 -61q2 -29 -11 -57t-44 -51t-80 -37t-119 -14q-65 0 -121.5 19.5t-84.5 57.5l49 36q23 -23 62.5 -36t92.5 -13q51 0 86.5 7.5t57 20.5t30 30t6.5 36q-3 30 -22 46.5t-48.5 25t-66 12t-74 7t-73.5 10t-64 21.5t-45 41t-17 68l25 70q-8 13 -12.5 28.5
t-6.5 35.5q-2 28 11 56.5t44 51t80.5 37t119.5 14.5q64 0 120.5 -19.5t84.5 -57.5l-49 -35q-47 50 -154 50q-52 0 -87 -8t-56.5 -21t-30.5 -30t-7 -35q3 -30 22 -46t48.5 -25t66 -12.5t74 -7t73.5 -10.5t64 -22.5t45 -42t17 -69.5zM461 239q17 44 7 68.5t-36.5 36.5
t-66 16.5t-81 8.5t-81.5 13t-68 30q-17 -45 -7 -69.5t36.5 -36.5t65.5 -16t81 -8.5t81.5 -13t68.5 -29.5z" />
    <glyph glyph-name="dieresis" unicode="&#xa8;" horiz-adv-x="532" 
d="M174 605q0 -23 -17.5 -42t-43.5 -19t-43 19t-17 42t17 41.5t43 18.5t43.5 -18.5t17.5 -41.5zM479 605q0 -23 -17.5 -42t-43.5 -19t-43 19t-17 42t17 41.5t43 18.5t43.5 -18.5t17.5 -41.5z" />
    <glyph glyph-name="copyright" unicode="&#xa9;" horiz-adv-x="969" 
d="M858 350q0 77 -25 145t-72.5 119t-117 81t-158.5 30q-87 0 -156.5 -30t-117.5 -81t-74 -119t-26 -145t26 -145t74 -119t117.5 -81t156.5 -30q89 0 158.5 30t117 81t72.5 119t25 145zM916 350q0 -97 -32 -176.5t-89.5 -136t-136.5 -87.5t-173 -31q-100 0 -180 34
t-136 92.5t-86 137t-30 167.5t30 167.5t86 137t136 92.5t180 34q94 0 173 -31t136.5 -87.5t89.5 -136t32 -176.5zM674 175q-35 -36 -81 -55.5t-104 -19.5q-46 0 -89 18.5t-76.5 51.5t-53.5 79t-20 101t20 101t53.5 79t76.5 51.5t89 18.5q58 0 104.5 -20t80.5 -57l-44 -41
q-26 23 -58 36t-75 13q-31 0 -61.5 -13t-55 -37t-39.5 -57.5t-15 -73.5t15 -73.5t39.5 -57.5t55 -37t61.5 -13q44 0 76 13t56 36z" />
    <glyph glyph-name="ordfeminine" unicode="&#xaa;" horiz-adv-x="799" 
d="M800 -1h-94l-74 135l-229 -16l-236 15l-73 -134h-94l399 730zM201 195h397l-198 363z" />
    <glyph glyph-name="guillemotleft" unicode="&#xab;" horiz-adv-x="780" 
d="M374 98l-321 245l321 245l43 -49l-255 -197l255 -202zM691 98l-321 245l321 245l43 -49l-255 -197l255 -202z" />
    <glyph glyph-name="logicalnot" unicode="&#xac;" horiz-adv-x="638" 
d="M585 79h-69v233h-463v69h532v-302z" />
    <glyph glyph-name="uni00AD" unicode="&#xad;" horiz-adv-x="563" 
d="M53 254v78h457v-78h-457z" />
    <glyph glyph-name="registered" unicode="&#xae;" horiz-adv-x="969" 
d="M916 350q0 -97 -32 -176.5t-89.5 -136t-136.5 -87.5t-173 -31q-100 0 -180 34t-136 92.5t-86 137t-30 167.5t30 167.5t86 137t136 92.5t180 34q94 0 173 -31t136.5 -87.5t89.5 -136t32 -176.5zM858 350q0 77 -25 145t-72.5 119t-117 81t-158.5 30q-87 0 -156.5 -30
t-117.5 -81t-74 -119t-26 -145t26 -145t74 -119t117.5 -81t156.5 -30q89 0 158.5 30t117 81t72.5 119t25 145zM508 284h-141v-167h-71v467h251q47 0 81 -12.5t55.5 -33.5t31.5 -48.5t10 -57.5q0 -24 -8.5 -48t-25.5 -44t-44 -34.5t-64 -19.5l148 -169h-87zM367 524v-187h165
q34 0 57 8t37.5 21t20.5 29.5t6 32.5q0 20 -5.5 37.5t-19 30.5t-37 20.5t-59.5 7.5h-165z" />
    <glyph glyph-name="macron" unicode="&#xaf;" horiz-adv-x="501" 
d="M53 534v64h395v-64h-395z" />
    <glyph glyph-name="degree" unicode="&#xb0;" horiz-adv-x="409" 
d="M205 699q31 0 58.5 -12t48 -32.5t32.5 -48t12 -58.5t-12 -58.5t-32.5 -48t-48 -32.5t-58.5 -12q-32 0 -59.5 12t-48 32.5t-32.5 48t-12 58.5t12 58.5t32.5 48t48 32.5t59.5 12zM205 457q18 0 34.5 7.5t28.5 20t19.5 29t7.5 34.5t-7.5 34.5t-19.5 29t-28.5 20t-34.5 7.5
t-34.5 -7.5t-29 -20t-20 -29t-7.5 -34.5t7.5 -34.5t20 -29t29 -20t34.5 -7.5z" />
    <glyph glyph-name="plusminus" unicode="&#xb1;" horiz-adv-x="638" 
d="M357 481h228v-69h-228v-233h-69v233h-235v69h235v226h69v-226zM53 7v69h532v-69h-532z" />
    <glyph glyph-name="twosuperior" unicode="&#xb2;" horiz-adv-x="519" 
d="M60 504q-5 38 6.5 73.5t37.5 62.5t65.5 43.5t89.5 16.5q55 0 98 -22t67 -58t25 -82t-28 -93q-17 -28 -47 -54.5t-65 -49.5t-72 -41.5t-68 -30.5h297v-59h-413v59q47 19 94 41t87.5 46t71.5 49.5t48 49.5q25 37 26.5 71t-15 59.5t-46 40.5t-65.5 15q-35 0 -60.5 -12
t-42.5 -31t-24.5 -44t-5.5 -50h-61v0z" />
    <glyph glyph-name="threesuperior" unicode="&#xb3;" horiz-adv-x="552" 
d="M98 572q0 23 12.5 46t36.5 41t59 29.5t81 11.5q48 0 81.5 -11t54.5 -28t30.5 -39t9.5 -43q0 -34 -23 -62t-70 -43q57 -8 92 -35.5t36 -78.5q1 -26 -9.5 -52.5t-36 -48t-67.5 -35.5t-105 -14q-54 0 -97 13t-72.5 34.5t-44.5 51t-12 62.5h63q-2 -21 9 -39.5t33 -33
t52.5 -23t66.5 -8.5q80 0 114.5 27.5t34.5 68.5q0 16 -7 31.5t-25.5 27.5t-51 19t-84.5 7h-60v47h55q69 0 107.5 23t38.5 55q0 13 -5 26t-18 23.5t-35.5 16.5t-56.5 6q-63 0 -94 -23t-31 -50h-62v0z" />
    <glyph glyph-name="acute" unicode="&#xb4;" horiz-adv-x="430" 
d="M369 656l-283 -246l-36 42l264 263z" />
    <glyph glyph-name="mu" unicode="&#xb5;" 
d="M718 685v-351q0 -69 -26.5 -130t-71.5 -106t-106 -71.5t-130 -26.5t-130 26.5t-106 71.5t-71.5 106t-26.5 130v351h82v-351q0 -52 20 -98t54 -80t80 -54t98 -20t98 20t80 54t54 80t20 98v351h82z" />
    <glyph glyph-name="paragraph" unicode="&#xb6;" horiz-adv-x="689" 
d="M185 515q-23 0 -44.5 8.5t-38 24t-26 38t-9.5 49.5q0 28 9.5 49t26 35.5t38 22t44.5 7.5h413v-69h-100v-869h-79v869h-155v-869h-79v704z" />
    <glyph glyph-name="periodcentered" unicode="&#xb7;" horiz-adv-x="227" 
d="M174 344q0 -23 -17.5 -42t-43.5 -19t-43 19t-17 42t17 41.5t43 18.5t43.5 -18.5t17.5 -41.5z" />
    <glyph glyph-name="cedilla" unicode="&#xb8;" horiz-adv-x="395" 
d="M187 -28q40 2 69 -6t48 -24t28.5 -37t9.5 -45q0 -36 -16.5 -65t-52 -45t-90 -15t-130.5 27v47q60 -17 100.5 -18.5t65 7.5t35 26t10.5 38q0 16 -8.5 29t-26.5 21t-45.5 10t-65.5 -5v43l40 104h60z" />
    <glyph glyph-name="onesuperior" unicode="&#xb9;" horiz-adv-x="293" 
d="M172 210v300h-119v60q34 0 56.5 4t36 16t19.5 34.5t7 59.5v16h67v-490h-67z" />
    <glyph glyph-name="ordmasculine" unicode="&#xba;" horiz-adv-x="584" 
d="M459 455q0 36 -12.5 68.5t-35 57t-53 39t-66.5 14.5t-66.5 -14t-53 -38t-35 -56.5t-12.5 -70.5t12.5 -70.5t35 -56.5t53 -38t66.5 -14t66.5 14.5t53 39t35 57t12.5 68.5zM530 455q0 -60 -21 -106t-54.5 -77t-76.5 -46.5t-86 -15.5q-49 0 -92.5 18.5t-76 51.5t-51.5 77.5
t-19 97.5q0 52 18 97t50 78t75.5 51.5t95.5 18.5q43 0 86 -16.5t76.5 -48t54.5 -77t21 -103.5z" />
    <glyph glyph-name="guillemotright" unicode="&#xbb;" horiz-adv-x="781" 
d="M96 588l321 -245l-321 -245l-43 49l255 197l-255 202zM413 588l321 -245l-321 -245l-43 49l255 197l-255 202z" />
    <glyph glyph-name="onequarter" unicode="&#xbc;" horiz-adv-x="983" 
d="M855 490v-342h75v-55h-75v-93h-61v93h-310v43l303 354h68zM779 700h79l-602 -700h-79zM172 210v300h-119v60q34 0 56.5 4t36 16t19.5 34.5t7 59.5v16h67v-490h-67zM795 148l9 289l-230 -289h221z" />
    <glyph glyph-name="onehalf" unicode="&#xbd;" horiz-adv-x="1016" 
d="M558 294q-6 38 5.5 73.5t37.5 62.5t65.5 43.5t89.5 16.5q55 0 98.5 -22t67.5 -58t24.5 -82t-28.5 -93q-17 -28 -47 -54.5t-65 -49.5t-72 -41.5t-68 -30.5h297v-59h-412v59q47 19 93.5 41t87 46t72 49.5t48.5 49.5q25 37 26 71t-15 59.5t-46 40.5t-66 15q-34 0 -60 -12
t-43 -31t-24.5 -44t-5.5 -50h-60zM701 700h79l-602 -700h-79zM172 210v300h-119v60q36 0 59 4.5t36.5 18t18.5 39.5t5 68h67v-490h-67z" />
    <glyph glyph-name="threequarters" unicode="&#xbe;" horiz-adv-x="1056" 
d="M927 490v-342h76v-55h-76v-93h-60v93h-311v43l303 354h68zM98 572q0 23 12.5 46t36.5 41t59 29.5t81 11.5q48 0 81.5 -11t54.5 -28t30.5 -39t9.5 -43q0 -34 -23 -62t-70 -43q57 -8 92 -35.5t36 -78.5q1 -26 -9.5 -52.5t-36 -48t-67.5 -35.5t-105 -14q-54 0 -97 13
t-72.5 34.5t-44.5 51t-12 62.5h63q-2 -21 9 -39.5t33 -33t52.5 -23t66.5 -8.5q80 0 114.5 27.5t34.5 68.5q0 16 -7 31.5t-25.5 27.5t-51 19t-84.5 7h-60v47h55q69 0 107.5 23t38.5 55q0 13 -5 26t-18 23.5t-35.5 16.5t-56.5 6q-63 0 -94 -23t-31 -50h-62zM867 700h80
l-602 -700h-80zM868 148l8 288l-229 -288h221z" />
    <glyph glyph-name="questiondown" unicode="&#xbf;" horiz-adv-x="601" 
d="M536 105q7 -36 -6 -72.5t-44.5 -66t-80 -48t-113.5 -18.5q-58 0 -105 16.5t-79.5 44.5t-49 65.5t-13.5 78.5q3 46 23 75.5t48.5 50t60 35.5t58 32t42 38.5t11.5 56.5h63q6 -47 -8 -76.5t-38.5 -50t-54.5 -35.5t-57 -31.5t-46.5 -39t-21.5 -57.5q-1 -29 11.5 -54t35.5 -43
t55 -28.5t70 -10.5q49 0 83 14t54.5 34.5t28 44.5t2.5 45h71zM260 544q0 21 17 38.5t44 17.5q26 0 43 -17.5t17 -38.5t-17 -38t-43 -17q-27 0 -44 17t-17 38z" />
    <glyph glyph-name="Agrave" unicode="&#xc0;" horiz-adv-x="799" 
d="M224 908l272 -254l-32 -44l336 -611h-94l-74 135l-229 -16l-236 15l-73 -134h-94l373 682l-201 165zM201 195h397l-198 363z" />
    <glyph glyph-name="Aacute" unicode="&#xc1;" horiz-adv-x="799" 
d="M604 834l-178 -155l374 -680h-94l-74 135l-229 -16l-236 15l-73 -134h-94l323 590l-2 -1l-36 42l264 263zM201 195h397l-198 363z" />
    <glyph glyph-name="Acircumflex" unicode="&#xc2;" horiz-adv-x="799" 
d="M800 -1h-94l-74 135l-229 -16l-236 15l-73 -134h-94l399 730zM201 195h397l-198 363zM366 878h66l175 -213h-87l-121 139l-121 -139h-87z" />
    <glyph glyph-name="Atilde" unicode="&#xc3;" horiz-adv-x="799" 
d="M800 -1h-94l-74 135l-229 -16l-236 15l-73 -134h-94l399 730zM201 195h397l-198 363zM600 911q16 -42 16 -79t-13.5 -64t-38 -43t-58.5 -16q-28 0 -49 10t-38.5 24.5t-32.5 32t-29.5 32t-30 24.5t-34.5 10q-38 0 -44 -36t22 -97h-72q-16 45 -15.5 82.5t14 64t38 41
t57.5 14.5q28 0 50 -10t40 -24.5t33.5 -32t30 -32t29.5 -24.5t32 -10t26.5 11t12 29.5t-2 42.5t-14.5 50h71z" />
    <glyph glyph-name="Adieresis" unicode="&#xc4;" horiz-adv-x="799" 
d="M800 -1h-94l-74 135l-229 -16l-236 15l-73 -134h-94l399 730zM201 195h397l-198 363zM307 805q0 -23 -17.5 -42t-43.5 -19t-43 19t-17 42t17 41.5t43 18.5t43.5 -18.5t17.5 -41.5zM612 805q0 -23 -17.5 -42t-43.5 -19t-43 19t-17 42t17 41.5t43 18.5t43.5 -18.5
t17.5 -41.5z" />
    <glyph glyph-name="Aring" unicode="&#xc5;" horiz-adv-x="799" 
d="M400 899q31 0 58.5 -12t48 -32.5t32.5 -48t12 -58.5q0 -46 -24.5 -82.5t-63.5 -54.5l337 -612h-94l-74 135l-229 -16l-236 15l-73 -134h-94l335 613q-39 18 -63 54.5t-24 81.5q0 31 12 58.5t32.5 48t48 32.5t59.5 12zM201 195h397l-198 363zM434 664q24 11 40 34t16 50
q0 18 -7.5 34.5t-19.5 29t-28.5 20t-34.5 7.5t-34.5 -7.5t-29 -20t-20 -29t-7.5 -34.5q0 -27 15.5 -49.5t39.5 -33.5l35 64z" />
    <glyph glyph-name="AE" unicode="&#xc6;" horiz-adv-x="1193" 
d="M673 601v-219h388v-82h-388v-219h482v-82h-564v144h-368l-124 -144h-99l591 686h564v-82zM591 215v352l-305 -352h305z" />
    <glyph glyph-name="Ccedilla" unicode="&#xc7;" horiz-adv-x="832" 
d="M123 341q0 -69 25.5 -123.5t67 -92t95 -58t109.5 -22.5q46 -2 91.5 10t84.5 37.5t69.5 65.5t46.5 95l79 -24q-18 -59 -53 -108.5t-83 -86t-106.5 -57t-122.5 -21.5l-16 -48q40 2 69 -6t48 -24t28.5 -37t9.5 -45q0 -36 -16.5 -65t-52 -45t-90 -15t-130.5 27v47
q60 -17 100.5 -18.5t65 7.5t35 26t10.5 38q0 16 -8.5 29t-26.5 21t-45.5 10t-65.5 -5v43l24 65q-69 10 -129 43.5t-103.5 84t-68.5 115t-25 136.5q0 79 30 149t82.5 122.5t122 82.5t149.5 30q65 0 124 -20.5t107 -57t83.5 -86.5t53.5 -109l-79 -22q-14 46 -42 85t-65.5 67.5
t-83.5 44.5t-97 16q-58 0 -112.5 -23t-96.5 -63t-67 -95.5t-25 -119.5z" />
    <glyph glyph-name="Egrave" unicode="&#xc8;" horiz-adv-x="664" 
d="M222 934l266 -249h126v-82l-482 -2v-219h388v-82h-388v-219h482v-82h-564v686h348l-228 187z" />
    <glyph glyph-name="Eacute" unicode="&#xc9;" horiz-adv-x="664" 
d="M513 868l-211 -183h312v-82l-482 -2v-219h388v-82h-388v-219h482v-82h-564v686h165l243 242z" />
    <glyph glyph-name="Ecircumflex" unicode="&#xca;" horiz-adv-x="664" 
d="M132 601v-219h388v-82h-388v-219h482v-82h-564v686h564v-82zM299 917h66l175 -213h-87l-121 139l-121 -139h-87z" />
    <glyph glyph-name="Edieresis" unicode="&#xcb;" horiz-adv-x="664" 
d="M545 735q0 -15 -7.5 -28.5t-19.5 -21.5h96v-82l-482 -2v-219h388v-82h-388v-219h482v-82h-564v686h95q-26 18 -26 50q0 23 17 41.5t43 18.5t43.5 -18.5t17.5 -41.5q0 -15 -7.5 -28.5t-19.5 -21.5h237q-26 18 -26 50q0 23 17 41.5t43 18.5t43.5 -18.5t17.5 -41.5z" />
    <glyph glyph-name="Igrave" unicode="&#xcc;" horiz-adv-x="182" 
d="M50 -1v686h32l-209 171l52 62l272 -254l-33 -46l-32 26v-645h-82z" />
    <glyph glyph-name="Iacute" unicode="&#xcd;" horiz-adv-x="182" 
d="M333 899l-246 -214h45v-686h-82v654l-36 42l264 263z" />
    <glyph glyph-name="Icircumflex" unicode="&#xce;" horiz-adv-x="182" 
d="M50 -1v686h82v-686h-82zM58 870h66l175 -213h-87l-121 139l-121 -139h-87z" />
    <glyph glyph-name="Idieresis" unicode="&#xcf;" horiz-adv-x="182" 
d="M50 -1v686h82v-686h-82zM-1 805q0 -23 -17.5 -42t-43.5 -19t-43 19t-17 42t17 41.5t43 18.5t43.5 -18.5t17.5 -41.5zM304 805q0 -23 -17.5 -42t-43.5 -19t-43 19t-17 42t17 41.5t43 18.5t43.5 -18.5t17.5 -41.5z" />
    <glyph glyph-name="Eth" unicode="&#xd0;" 
d="M376 685q71 0 133.5 -27t109 -73.5t73.5 -109t27 -133.5t-27 -133.5t-73.5 -109t-109 -73.5t-133.5 -27h-326v309h-96v78h96v299h326zM376 80q54 0 101.5 20.5t83 56t56 83t20.5 101.5t-20.5 101.5t-56 83t-83 56t-101.5 20.5h-244v-216h179v-78h-179v-227z" />
    <glyph glyph-name="Ntilde" unicode="&#xd1;" horiz-adv-x="795" 
d="M745 685v-743l-613 604v-546h-82v743l613 -604v546h82zM598 911q16 -42 16 -79t-13.5 -64t-38 -43t-58.5 -16q-28 0 -49 10t-38.5 24.5t-32.5 32t-29.5 32t-30 24.5t-34.5 10q-38 0 -44 -36t22 -97h-72q-16 45 -15.5 82.5t14 64t38 41t57.5 14.5q28 0 50 -10t40 -24.5
t33.5 -32t30 -32t29.5 -24.5t32 -10t26.5 11t12 29.5t-2 42.5t-14.5 50h71z" />
    <glyph glyph-name="Ograve" unicode="&#xd2;" horiz-adv-x="848" 
d="M291 944l254 -238q57 -19 105.5 -54t83.5 -83t54.5 -105.5t19.5 -121.5q0 -80 -30 -149.5t-82.5 -122t-122.5 -82.5t-149 -30q-80 0 -149.5 30t-122 82.5t-82.5 122t-30 149.5q0 79 30 149t82.5 122.5t122 82.5t149.5 30h6l-191 156zM424 40q62 0 117 23.5t96 64.5
t64.5 96t23.5 117t-23.5 117t-64.5 96t-96 64.5t-117 23.5t-117 -23.5t-96 -64.5t-64.5 -96t-23.5 -117t23.5 -117t64.5 -96t96 -64.5t117 -23.5z" />
    <glyph glyph-name="Oacute" unicode="&#xd3;" horiz-adv-x="848" 
d="M600 890l-189 -165q3 0 6 0.5t7 0.5q79 0 149 -30t122.5 -82.5t82.5 -122.5t30 -149q0 -80 -30 -149.5t-82.5 -122t-122.5 -82.5t-149 -30q-80 0 -149.5 30t-122 82.5t-82.5 122t-30 149.5q0 63 19.5 120.5t54 105t82.5 83t105 55.5l244 243zM424 40q62 0 117 23.5
t96 64.5t64.5 96t23.5 117t-23.5 117t-64.5 96t-96 64.5t-117 23.5t-117 -23.5t-96 -64.5t-64.5 -96t-23.5 -117t23.5 -117t64.5 -96t96 -64.5t117 -23.5z" />
    <glyph glyph-name="Ocircumflex" unicode="&#xd4;" horiz-adv-x="848" 
d="M424 726q79 0 149 -30t122.5 -82.5t82.5 -122.5t30 -149q0 -80 -30 -149.5t-82.5 -122t-122.5 -82.5t-149 -30q-80 0 -149.5 30t-122 82.5t-82.5 122t-30 149.5q0 79 30 149t82.5 122.5t122 82.5t149.5 30zM424 40q62 0 117 23.5t96 64.5t64.5 96t23.5 117t-23.5 117
t-64.5 96t-96 64.5t-117 23.5t-117 -23.5t-96 -64.5t-64.5 -96t-23.5 -117t23.5 -117t64.5 -96t96 -64.5t117 -23.5zM391 950h66l175 -213h-87l-121 139l-121 -139h-87z" />
    <glyph glyph-name="Otilde" unicode="&#xd5;" horiz-adv-x="848" 
d="M424 726q79 0 149 -30t122.5 -82.5t82.5 -122.5t30 -149q0 -80 -30 -149.5t-82.5 -122t-122.5 -82.5t-149 -30q-80 0 -149.5 30t-122 82.5t-82.5 122t-30 149.5q0 79 30 149t82.5 122.5t122 82.5t149.5 30zM424 40q62 0 117 23.5t96 64.5t64.5 96t23.5 117t-23.5 117
t-64.5 96t-96 64.5t-117 23.5t-117 -23.5t-96 -64.5t-64.5 -96t-23.5 -117t23.5 -117t64.5 -96t96 -64.5t117 -23.5zM635 955q16 -42 16 -79t-13.5 -64t-38 -43t-58.5 -16q-28 0 -49 10t-38.5 24.5t-32.5 32t-29.5 32t-30 24.5t-34.5 10q-38 0 -44 -36t22 -97h-72
q-16 45 -15.5 82.5t14 64t38 41t57.5 14.5q28 0 50 -10t40 -24.5t33.5 -32t30 -32t29.5 -24.5t32 -10t26.5 11t12 29.5t-2 42.5t-14.5 50h71z" />
    <glyph glyph-name="Odieresis" unicode="&#xd6;" horiz-adv-x="848" 
d="M332 755q0 -29 -22 -46q56 17 114 17q57 0 113 -17q-21 18 -21 46q0 23 17 41.5t43 18.5t43.5 -18.5t17.5 -41.5t-17 -41.5t-43 -19.5q51 -23 93.5 -58.5t73 -81t47.5 -99.5t17 -113q0 -80 -30 -149.5t-82.5 -122t-122.5 -82.5t-149 -30q-80 0 -149.5 30t-122 82.5
t-82.5 122t-30 149.5q0 59 17 113t47.5 99.5t72.5 81t93 58.5q-25 0 -42 19t-17 42t17 41.5t43 18.5t43.5 -18.5t17.5 -41.5zM424 40q62 0 117 23.5t96 64.5t64.5 96t23.5 117t-23.5 117t-64.5 96t-96 64.5t-117 23.5t-117 -23.5t-96 -64.5t-64.5 -96t-23.5 -117t23.5 -117
t64.5 -96t96 -64.5t117 -23.5z" />
    <glyph glyph-name="multiply" unicode="&#xd7;" horiz-adv-x="597" 
d="M347 345l197 -194l-53 -52l-194 196l-196 -196l-48 55l193 193l-193 196l47 45l195 -192l192 192l55 -48z" />
    <glyph glyph-name="Oslash" unicode="&#xd8;" horiz-adv-x="848" 
d="M424 726q35 0 68.5 -6.5t65.5 -17.5l49 88l79 -40l-53 -86q79 -52 127 -136.5t48 -185.5q0 -80 -30 -149.5t-82.5 -122t-122.5 -82.5t-149 -30q-66 0 -127 22l-50 -100l-79 30l54 105q-41 25 -74.5 60t-57.5 77t-37 90t-13 100q0 79 30 149t82.5 122.5t122 82.5t149.5 30
zM424 40q62 0 117 23.5t96 64.5t64.5 96t23.5 117t-23.5 117t-64.5 96t-96 64.5t-117 23.5t-117 -23.5t-96 -64.5t-64.5 -96t-23.5 -117t23.5 -117t64.5 -96t96 -64.5t117 -23.5z" />
    <glyph glyph-name="Ugrave" unicode="&#xd9;" 
d="M718 685v-351q0 -69 -26.5 -130t-71.5 -106t-106 -71.5t-130 -26.5t-130 26.5t-106 71.5t-71.5 106t-26.5 130v351h82v-351q0 -52 20 -98t54 -80t80 -54t98 -20t98 20t80 54t54 80t20 98v351h82zM274 940l272 -254l-33 -46l-291 238z" />
    <glyph glyph-name="Uacute" unicode="&#xda;" 
d="M718 685v-351q0 -69 -26.5 -130t-71.5 -106t-106 -71.5t-130 -26.5t-130 26.5t-106 71.5t-71.5 106t-26.5 130v351h82v-351q0 -52 20 -98t54 -80t80 -54t98 -20t98 20t80 54t54 80t20 98v351h82zM567 887l-283 -246l-36 42l264 263z" />
    <glyph glyph-name="Ucircumflex" unicode="&#xdb;" 
d="M718 685v-351q0 -69 -26.5 -130t-71.5 -106t-106 -71.5t-130 -26.5t-130 26.5t-106 71.5t-71.5 106t-26.5 130v351h82v-351q0 -52 20 -98t54 -80t80 -54t98 -20t98 20t80 54t54 80t20 98v351h82zM351 936h66l175 -213h-87l-121 139l-121 -139h-87z" />
    <glyph glyph-name="Udieresis" unicode="&#xdc;" 
d="M718 685v-351q0 -69 -26.5 -130t-71.5 -106t-106 -71.5t-130 -26.5t-130 26.5t-106 71.5t-71.5 106t-26.5 130v351h82v-351q0 -52 20 -98t54 -80t80 -54t98 -20t98 20t80 54t54 80t20 98v351h82zM292 805q0 -23 -17.5 -42t-43.5 -19t-43 19t-17 42t17 41.5t43 18.5
t43.5 -18.5t17.5 -41.5zM597 805q0 -23 -17.5 -42t-43.5 -19t-43 19t-17 42t17 41.5t43 18.5t43.5 -18.5t17.5 -41.5z" />
    <glyph glyph-name="Yacute" unicode="&#xdd;" horiz-adv-x="783" 
d="M433 304v-305h-82v305l-350 350l58 58l333 -333l333 333l58 -58zM551 867l-283 -246l-36 42l264 263z" />
    <glyph glyph-name="Thorn" unicode="&#xde;" horiz-adv-x="726" 
d="M437 591q51 0 94.5 -19t75.5 -51.5t50.5 -76.5t18.5 -93q0 -50 -19 -93.5t-51 -75.5t-76 -51t-93 -19h-305v-113h-82v686h82v-95zM437 191q33 0 61.5 12.5t50 34t34 50t12.5 61.5q0 158 -174 158h-289v-314q76 0 128.5 -0.5t86.5 -0.5h52h26.5t10 -0.5z" />
    <glyph glyph-name="germandbls" unicode="&#xdf;" horiz-adv-x="752" 
d="M132 -1h-82v486q0 39 14 77t42.5 67.5t71 47.5t99.5 18q45 0 81.5 -13t62.5 -34.5t40 -50.5t14 -61q0 -18 -4.5 -36t-12.5 -33q52 0 96.5 -18.5t77 -50.5t51 -74.5t18.5 -90.5t-18.5 -91t-50 -74.5t-74.5 -50t-91 -18.5h-190v82h190q31 0 59 12.5t48.5 34.5t32.5 50
t12 60q0 31 -12 59.5t-32.5 50.5t-48.5 34.5t-59 12.5h-201v72h60q30 0 48.5 16t18.5 44q0 14 -6.5 29t-22 27t-41 20t-62.5 8q-31 0 -55 -11t-40.5 -28.5t-25 -39t-8.5 -41.5v-492z" />
    <glyph glyph-name="agrave" unicode="&#xe0;" horiz-adv-x="799" 
d="M224 908l272 -254l-32 -44l336 -611h-94l-74 135l-229 -16l-236 15l-73 -134h-94l373 682l-201 165zM201 195h397l-198 363z" />
    <glyph glyph-name="aacute" unicode="&#xe1;" horiz-adv-x="799" 
d="M604 834l-178 -155l374 -680h-94l-74 135l-229 -16l-236 15l-73 -134h-94l323 590l-2 -1l-36 42l264 263zM201 195h397l-198 363z" />
    <glyph glyph-name="acircumflex" unicode="&#xe2;" horiz-adv-x="799" 
d="M800 -1h-94l-74 135l-229 -16l-236 15l-73 -134h-94l399 730zM201 195h397l-198 363zM366 878h66l175 -213h-87l-121 139l-121 -139h-87z" />
    <glyph glyph-name="atilde" unicode="&#xe3;" horiz-adv-x="799" 
d="M800 -1h-94l-74 135l-229 -16l-236 15l-73 -134h-94l399 730zM201 195h397l-198 363zM600 911q16 -42 16 -79t-13.5 -64t-38 -43t-58.5 -16q-28 0 -49 10t-38.5 24.5t-32.5 32t-29.5 32t-30 24.5t-34.5 10q-38 0 -44 -36t22 -97h-72q-16 45 -15.5 82.5t14 64t38 41
t57.5 14.5q28 0 50 -10t40 -24.5t33.5 -32t30 -32t29.5 -24.5t32 -10t26.5 11t12 29.5t-2 42.5t-14.5 50h71z" />
    <glyph glyph-name="adieresis" unicode="&#xe4;" horiz-adv-x="799" 
d="M800 -1h-94l-74 135l-229 -16l-236 15l-73 -134h-94l399 730zM201 195h397l-198 363zM307 805q0 -23 -17.5 -42t-43.5 -19t-43 19t-17 42t17 41.5t43 18.5t43.5 -18.5t17.5 -41.5zM612 805q0 -23 -17.5 -42t-43.5 -19t-43 19t-17 42t17 41.5t43 18.5t43.5 -18.5
t17.5 -41.5z" />
    <glyph glyph-name="aring" unicode="&#xe5;" horiz-adv-x="799" 
d="M400 899q31 0 58.5 -12t48 -32.5t32.5 -48t12 -58.5q0 -46 -24.5 -82.5t-63.5 -54.5l337 -612h-94l-74 135l-229 -16l-236 15l-73 -134h-94l335 613q-39 18 -63 54.5t-24 81.5q0 31 12 58.5t32.5 48t48 32.5t59.5 12zM201 195h397l-198 363zM434 664q24 11 40 34t16 50
q0 18 -7.5 34.5t-19.5 29t-28.5 20t-34.5 7.5t-34.5 -7.5t-29 -20t-20 -29t-7.5 -34.5q0 -27 15.5 -49.5t39.5 -33.5l35 64z" />
    <glyph glyph-name="ae" unicode="&#xe6;" horiz-adv-x="1193" 
d="M673 601v-219h388v-82h-388v-219h482v-82h-564v144h-368l-124 -144h-99l591 686h564v-82zM591 215v352l-305 -352h305z" />
    <glyph glyph-name="ccedilla" unicode="&#xe7;" horiz-adv-x="832" 
d="M123 341q0 -69 25.5 -123.5t67 -92t95 -58t109.5 -22.5q46 -2 91.5 10t84.5 37.5t69.5 65.5t46.5 95l79 -24q-18 -59 -53 -108.5t-83 -86t-106.5 -57t-122.5 -21.5l-16 -48q40 2 69 -6t48 -24t28.5 -37t9.5 -45q0 -36 -16.5 -65t-52 -45t-90 -15t-130.5 27v47
q60 -17 100.5 -18.5t65 7.5t35 26t10.5 38q0 16 -8.5 29t-26.5 21t-45.5 10t-65.5 -5v43l24 65q-69 10 -129 43.5t-103.5 84t-68.5 115t-25 136.5q0 79 30 149t82.5 122.5t122 82.5t149.5 30q65 0 124 -20.5t107 -57t83.5 -86.5t53.5 -109l-79 -22q-14 46 -42 85t-65.5 67.5
t-83.5 44.5t-97 16q-58 0 -112.5 -23t-96.5 -63t-67 -95.5t-25 -119.5z" />
    <glyph glyph-name="egrave" unicode="&#xe8;" horiz-adv-x="664" 
d="M222 934l266 -249h126v-82l-482 -2v-219h388v-82h-388v-219h482v-82h-564v686h348l-228 187z" />
    <glyph glyph-name="eacute" unicode="&#xe9;" horiz-adv-x="664" 
d="M513 868l-211 -183h312v-82l-482 -2v-219h388v-82h-388v-219h482v-82h-564v686h165l243 242z" />
    <glyph glyph-name="ecircumflex" unicode="&#xea;" horiz-adv-x="664" 
d="M132 601v-219h388v-82h-388v-219h482v-82h-564v686h564v-82zM299 917h66l175 -213h-87l-121 139l-121 -139h-87z" />
    <glyph glyph-name="edieresis" unicode="&#xeb;" horiz-adv-x="664" 
d="M545 735q0 -15 -7.5 -28.5t-19.5 -21.5h96v-82l-482 -2v-219h388v-82h-388v-219h482v-82h-564v686h95q-26 18 -26 50q0 23 17 41.5t43 18.5t43.5 -18.5t17.5 -41.5q0 -15 -7.5 -28.5t-19.5 -21.5h237q-26 18 -26 50q0 23 17 41.5t43 18.5t43.5 -18.5t17.5 -41.5z" />
    <glyph glyph-name="igrave" unicode="&#xec;" horiz-adv-x="182" 
d="M50 -1v686h32l-209 171l52 62l272 -254l-33 -46l-32 26v-645h-82z" />
    <glyph glyph-name="iacute" unicode="&#xed;" horiz-adv-x="182" 
d="M333 899l-246 -214h45v-686h-82v654l-36 42l264 263z" />
    <glyph glyph-name="icircumflex" unicode="&#xee;" horiz-adv-x="182" 
d="M50 -1v686h82v-686h-82zM58 870h66l175 -213h-87l-121 139l-121 -139h-87z" />
    <glyph glyph-name="idieresis" unicode="&#xef;" horiz-adv-x="182" 
d="M50 -1v686h82v-686h-82zM-1 805q0 -23 -17.5 -42t-43.5 -19t-43 19t-17 42t17 41.5t43 18.5t43.5 -18.5t17.5 -41.5zM304 805q0 -23 -17.5 -42t-43.5 -19t-43 19t-17 42t17 41.5t43 18.5t43.5 -18.5t17.5 -41.5z" />
    <glyph glyph-name="eth" unicode="&#xf0;" 
d="M376 685q71 0 133.5 -27t109 -73.5t73.5 -109t27 -133.5t-27 -133.5t-73.5 -109t-109 -73.5t-133.5 -27h-326v309h-96v78h96v299h326zM376 80q54 0 101.5 20.5t83 56t56 83t20.5 101.5t-20.5 101.5t-56 83t-83 56t-101.5 20.5h-244v-216h179v-78h-179v-227z" />
    <glyph glyph-name="ntilde" unicode="&#xf1;" horiz-adv-x="795" 
d="M745 685v-743l-613 604v-546h-82v743l613 -604v546h82zM598 911q16 -42 16 -79t-13.5 -64t-38 -43t-58.5 -16q-28 0 -49 10t-38.5 24.5t-32.5 32t-29.5 32t-30 24.5t-34.5 10q-38 0 -44 -36t22 -97h-72q-16 45 -15.5 82.5t14 64t38 41t57.5 14.5q28 0 50 -10t40 -24.5
t33.5 -32t30 -32t29.5 -24.5t32 -10t26.5 11t12 29.5t-2 42.5t-14.5 50h71z" />
    <glyph glyph-name="ograve" unicode="&#xf2;" horiz-adv-x="848" 
d="M291 944l254 -238q57 -19 105.5 -54t83.5 -83t54.5 -105.5t19.5 -121.5q0 -80 -30 -149.5t-82.5 -122t-122.5 -82.5t-149 -30q-80 0 -149.5 30t-122 82.5t-82.5 122t-30 149.5q0 79 30 149t82.5 122.5t122 82.5t149.5 30h6l-191 156zM424 40q62 0 117 23.5t96 64.5
t64.5 96t23.5 117t-23.5 117t-64.5 96t-96 64.5t-117 23.5t-117 -23.5t-96 -64.5t-64.5 -96t-23.5 -117t23.5 -117t64.5 -96t96 -64.5t117 -23.5z" />
    <glyph glyph-name="oacute" unicode="&#xf3;" horiz-adv-x="848" 
d="M600 890l-189 -165q3 0 6 0.5t7 0.5q79 0 149 -30t122.5 -82.5t82.5 -122.5t30 -149q0 -80 -30 -149.5t-82.5 -122t-122.5 -82.5t-149 -30q-80 0 -149.5 30t-122 82.5t-82.5 122t-30 149.5q0 63 19.5 120.5t54 105t82.5 83t105 55.5l244 243zM424 40q62 0 117 23.5
t96 64.5t64.5 96t23.5 117t-23.5 117t-64.5 96t-96 64.5t-117 23.5t-117 -23.5t-96 -64.5t-64.5 -96t-23.5 -117t23.5 -117t64.5 -96t96 -64.5t117 -23.5z" />
    <glyph glyph-name="ocircumflex" unicode="&#xf4;" horiz-adv-x="848" 
d="M424 726q79 0 149 -30t122.5 -82.5t82.5 -122.5t30 -149q0 -80 -30 -149.5t-82.5 -122t-122.5 -82.5t-149 -30q-80 0 -149.5 30t-122 82.5t-82.5 122t-30 149.5q0 79 30 149t82.5 122.5t122 82.5t149.5 30zM424 40q62 0 117 23.5t96 64.5t64.5 96t23.5 117t-23.5 117
t-64.5 96t-96 64.5t-117 23.5t-117 -23.5t-96 -64.5t-64.5 -96t-23.5 -117t23.5 -117t64.5 -96t96 -64.5t117 -23.5zM391 950h66l175 -213h-87l-121 139l-121 -139h-87z" />
    <glyph glyph-name="otilde" unicode="&#xf5;" horiz-adv-x="848" 
d="M424 726q79 0 149 -30t122.5 -82.5t82.5 -122.5t30 -149q0 -80 -30 -149.5t-82.5 -122t-122.5 -82.5t-149 -30q-80 0 -149.5 30t-122 82.5t-82.5 122t-30 149.5q0 79 30 149t82.5 122.5t122 82.5t149.5 30zM424 40q62 0 117 23.5t96 64.5t64.5 96t23.5 117t-23.5 117
t-64.5 96t-96 64.5t-117 23.5t-117 -23.5t-96 -64.5t-64.5 -96t-23.5 -117t23.5 -117t64.5 -96t96 -64.5t117 -23.5zM635 955q16 -42 16 -79t-13.5 -64t-38 -43t-58.5 -16q-28 0 -49 10t-38.5 24.5t-32.5 32t-29.5 32t-30 24.5t-34.5 10q-38 0 -44 -36t22 -97h-72
q-16 45 -15.5 82.5t14 64t38 41t57.5 14.5q28 0 50 -10t40 -24.5t33.5 -32t30 -32t29.5 -24.5t32 -10t26.5 11t12 29.5t-2 42.5t-14.5 50h71z" />
    <glyph glyph-name="odieresis" unicode="&#xf6;" horiz-adv-x="848" 
d="M332 755q0 -29 -22 -46q56 17 114 17q57 0 113 -17q-21 18 -21 46q0 23 17 41.5t43 18.5t43.5 -18.5t17.5 -41.5t-17 -41.5t-43 -19.5q51 -23 93.5 -58.5t73 -81t47.5 -99.5t17 -113q0 -80 -30 -149.5t-82.5 -122t-122.5 -82.5t-149 -30q-80 0 -149.5 30t-122 82.5
t-82.5 122t-30 149.5q0 59 17 113t47.5 99.5t72.5 81t93 58.5q-25 0 -42 19t-17 42t17 41.5t43 18.5t43.5 -18.5t17.5 -41.5zM424 40q62 0 117 23.5t96 64.5t64.5 96t23.5 117t-23.5 117t-64.5 96t-96 64.5t-117 23.5t-117 -23.5t-96 -64.5t-64.5 -96t-23.5 -117t23.5 -117
t64.5 -96t96 -64.5t117 -23.5z" />
    <glyph glyph-name="divide" unicode="&#xf7;" horiz-adv-x="227" 
d="M-152 314v69h532v-69h-532zM174 152q0 -23 -17.5 -42t-43.5 -19t-43 19t-17 42t17 41.5t43 18.5t43.5 -18.5t17.5 -41.5zM174 545q0 -23 -17.5 -42t-43.5 -19t-43 19t-17 42t17 41.5t43 18.5t43.5 -18.5t17.5 -41.5z" />
    <glyph glyph-name="oslash" unicode="&#xf8;" horiz-adv-x="848" 
d="M424 726q35 0 68.5 -6.5t65.5 -17.5l49 88l79 -40l-53 -86q79 -52 127 -136.5t48 -185.5q0 -80 -30 -149.5t-82.5 -122t-122.5 -82.5t-149 -30q-66 0 -127 22l-50 -100l-79 30l54 105q-41 25 -74.5 60t-57.5 77t-37 90t-13 100q0 79 30 149t82.5 122.5t122 82.5t149.5 30
zM424 40q62 0 117 23.5t96 64.5t64.5 96t23.5 117t-23.5 117t-64.5 96t-96 64.5t-117 23.5t-117 -23.5t-96 -64.5t-64.5 -96t-23.5 -117t23.5 -117t64.5 -96t96 -64.5t117 -23.5z" />
    <glyph glyph-name="ugrave" unicode="&#xf9;" 
d="M718 685v-351q0 -69 -26.5 -130t-71.5 -106t-106 -71.5t-130 -26.5t-130 26.5t-106 71.5t-71.5 106t-26.5 130v351h82v-351q0 -52 20 -98t54 -80t80 -54t98 -20t98 20t80 54t54 80t20 98v351h82zM274 940l272 -254l-33 -46l-291 238z" />
    <glyph glyph-name="uacute" unicode="&#xfa;" 
d="M718 685v-351q0 -69 -26.5 -130t-71.5 -106t-106 -71.5t-130 -26.5t-130 26.5t-106 71.5t-71.5 106t-26.5 130v351h82v-351q0 -52 20 -98t54 -80t80 -54t98 -20t98 20t80 54t54 80t20 98v351h82zM567 887l-283 -246l-36 42l264 263z" />
    <glyph glyph-name="ucircumflex" unicode="&#xfb;" 
d="M718 685v-351q0 -69 -26.5 -130t-71.5 -106t-106 -71.5t-130 -26.5t-130 26.5t-106 71.5t-71.5 106t-26.5 130v351h82v-351q0 -52 20 -98t54 -80t80 -54t98 -20t98 20t80 54t54 80t20 98v351h82zM351 936h66l175 -213h-87l-121 139l-121 -139h-87z" />
    <glyph glyph-name="udieresis" unicode="&#xfc;" 
d="M718 685v-351q0 -69 -26.5 -130t-71.5 -106t-106 -71.5t-130 -26.5t-130 26.5t-106 71.5t-71.5 106t-26.5 130v351h82v-351q0 -52 20 -98t54 -80t80 -54t98 -20t98 20t80 54t54 80t20 98v351h82zM292 805q0 -23 -17.5 -42t-43.5 -19t-43 19t-17 42t17 41.5t43 18.5
t43.5 -18.5t17.5 -41.5zM597 805q0 -23 -17.5 -42t-43.5 -19t-43 19t-17 42t17 41.5t43 18.5t43.5 -18.5t17.5 -41.5z" />
    <glyph glyph-name="yacute" unicode="&#xfd;" horiz-adv-x="783" 
d="M433 304v-305h-82v305l-350 350l58 58l333 -333l333 333l58 -58zM551 867l-283 -246l-36 42l264 263z" />
    <glyph glyph-name="thorn" unicode="&#xfe;" horiz-adv-x="726" 
d="M437 591q51 0 94.5 -19t75.5 -51.5t50.5 -76.5t18.5 -93q0 -50 -19 -93.5t-51 -75.5t-76 -51t-93 -19h-305v-113h-82v686h82v-95zM437 191q33 0 61.5 12.5t50 34t34 50t12.5 61.5q0 158 -174 158h-289v-314q76 0 128.5 -0.5t86.5 -0.5h52h26.5t10 -0.5z" />
    <glyph glyph-name="ydieresis" unicode="&#xff;" horiz-adv-x="783" 
d="M433 304v-305h-82v305l-350 350l58 58l333 -333l333 333l58 -58zM299 805q0 -23 -17.5 -42t-43.5 -19t-43 19t-17 42t17 41.5t43 18.5t43.5 -18.5t17.5 -41.5zM604 805q0 -23 -17.5 -42t-43.5 -19t-43 19t-17 42t17 41.5t43 18.5t43.5 -18.5t17.5 -41.5z" />
    <glyph glyph-name="Amacron" unicode="&#x100;" horiz-adv-x="799" 
d="M411 707l389 -708h-94l-74 135l-229 -16l-236 15l-73 -134h-94l387 708h-185v64h395v-64h-186zM201 195h397l-198 363z" />
    <glyph glyph-name="amacron" unicode="&#x101;" horiz-adv-x="799" 
d="M411 707l389 -708h-94l-74 135l-229 -16l-236 15l-73 -134h-94l387 708h-185v64h395v-64h-186zM201 195h397l-198 363z" />
    <glyph glyph-name="Abreve" unicode="&#x102;" horiz-adv-x="799" 
d="M613 885q24 -91 -21 -146.5t-165 -61.5l373 -678h-94l-74 135l-229 -16l-236 15l-73 -134h-94l371 679q-115 6 -161.5 61t-17.5 146h76q-41 -141 131 -141q92 0 123 35.5t16 105.5h75zM201 195h397l-198 363z" />
    <glyph glyph-name="abreve" unicode="&#x103;" horiz-adv-x="799" 
d="M613 885q24 -91 -21 -146.5t-165 -61.5l373 -678h-94l-74 135l-229 -16l-236 15l-73 -134h-94l371 679q-115 6 -161.5 61t-17.5 146h76q-41 -141 131 -141q92 0 123 35.5t16 105.5h75zM201 195h397l-198 363z" />
    <glyph glyph-name="Aogonek" unicode="&#x104;" horiz-adv-x="799" 
d="M554 -181q0 -23 18 -40t49 -24.5t73 -3.5t89 22v-57q-66 -23 -123 -26.5t-100 9.5t-67.5 41t-24.5 68q0 41 23.5 67t58.5 46t76 38t77 44l-71 131l-229 -16l-236 15l-73 -134h-94l399 730l401 -730h-21q-31 -35 -70 -57t-73.5 -40.5t-58 -37t-23.5 -45.5zM201 195h397
l-198 363z" />
    <glyph glyph-name="aogonek" unicode="&#x105;" horiz-adv-x="799" 
d="M554 -181q0 -23 18 -40t49 -24.5t73 -3.5t89 22v-57q-66 -23 -123 -26.5t-100 9.5t-67.5 41t-24.5 68q0 41 23.5 67t58.5 46t76 38t77 44l-71 131l-229 -16l-236 15l-73 -134h-94l399 730l401 -730h-21q-31 -35 -70 -57t-73.5 -40.5t-58 -37t-23.5 -45.5zM201 195h397
l-198 363z" />
    <glyph glyph-name="Cacute" unicode="&#x106;" horiz-adv-x="832" 
d="M618 893l-195 -169q65 0 124 -20.5t107 -57t83.5 -86.5t53.5 -109l-79 -22q-14 46 -42 85t-65.5 67.5t-83.5 44.5t-97 16q-58 0 -112.5 -23t-96.5 -63t-67 -95.5t-25 -119.5q0 -69 25.5 -123.5t67 -92t95 -58t109.5 -22.5q46 -2 91.5 10t84.5 37.5t69.5 65.5t46.5 95
l79 -24q-18 -59 -53.5 -109t-83.5 -86.5t-107 -57t-124 -20.5q-80 0 -149.5 30t-122 82.5t-82.5 122t-30 149.5q0 66 21 125.5t58.5 108.5t89 84t112.5 52l243 242z" />
    <glyph glyph-name="cacute" unicode="&#x107;" horiz-adv-x="832" 
d="M618 893l-195 -169q65 0 124 -20.5t107 -57t83.5 -86.5t53.5 -109l-79 -22q-14 46 -42 85t-65.5 67.5t-83.5 44.5t-97 16q-58 0 -112.5 -23t-96.5 -63t-67 -95.5t-25 -119.5q0 -69 25.5 -123.5t67 -92t95 -58t109.5 -22.5q46 -2 91.5 10t84.5 37.5t69.5 65.5t46.5 95
l79 -24q-18 -59 -53.5 -109t-83.5 -86.5t-107 -57t-124 -20.5q-80 0 -149.5 30t-122 82.5t-82.5 122t-30 149.5q0 66 21 125.5t58.5 108.5t89 84t112.5 52l243 242z" />
    <glyph glyph-name="Ccircumflex" unicode="&#x108;" horiz-adv-x="832" 
d="M123 341q0 -69 25.5 -123.5t67 -92t95 -58t109.5 -22.5q46 -2 91.5 10t84.5 37.5t69.5 65.5t46.5 95l79 -24q-18 -59 -53.5 -109t-83.5 -86.5t-107 -57t-124 -20.5q-80 0 -149.5 30t-122 82.5t-82.5 122t-30 149.5q0 79 30 149t82.5 122.5t122 82.5t149.5 30
q65 0 124 -20.5t107 -57t83.5 -86.5t53.5 -109l-79 -22q-14 46 -42 85t-65.5 67.5t-83.5 44.5t-97 16q-58 0 -112.5 -23t-96.5 -63t-67 -95.5t-25 -119.5zM401 937h66l175 -213h-87l-121 139l-121 -139h-87z" />
    <glyph glyph-name="ccircumflex" unicode="&#x109;" horiz-adv-x="832" 
d="M123 341q0 -69 25.5 -123.5t67 -92t95 -58t109.5 -22.5q46 -2 91.5 10t84.5 37.5t69.5 65.5t46.5 95l79 -24q-18 -59 -53.5 -109t-83.5 -86.5t-107 -57t-124 -20.5q-80 0 -149.5 30t-122 82.5t-82.5 122t-30 149.5q0 79 30 149t82.5 122.5t122 82.5t149.5 30
q65 0 124 -20.5t107 -57t83.5 -86.5t53.5 -109l-79 -22q-14 46 -42 85t-65.5 67.5t-83.5 44.5t-97 16q-58 0 -112.5 -23t-96.5 -63t-67 -95.5t-25 -119.5zM401 937h66l175 -213h-87l-121 139l-121 -139h-87z" />
    <glyph glyph-name="Cdotaccent" unicode="&#x10a;" horiz-adv-x="832" 
d="M492 775q0 -16 -8.5 -30.5t-22.5 -22.5q58 -6 111 -28.5t96 -58t74.5 -82.5t48.5 -102l-79 -22q-14 46 -42 85t-65.5 67.5t-83.5 44.5t-97 16q-58 0 -112.5 -23t-96.5 -63t-67 -95.5t-25 -119.5q0 -69 25.5 -123.5t67 -92t95 -58t109.5 -22.5q46 -2 91.5 10t84.5 37.5
t69.5 65.5t46.5 95l79 -24q-18 -59 -53.5 -109t-83.5 -86.5t-107 -57t-124 -20.5q-80 0 -149.5 30t-122 82.5t-82.5 122t-30 149.5q0 76 28 144t76.5 119.5t114.5 83t142 36.5q-29 18 -29 52q0 23 17 41.5t43 18.5t43.5 -18.5t17.5 -41.5z" />
    <glyph glyph-name="cdotaccent" unicode="&#x10b;" horiz-adv-x="832" 
d="M492 775q0 -16 -8.5 -30.5t-22.5 -22.5q58 -6 111 -28.5t96 -58t74.5 -82.5t48.5 -102l-79 -22q-14 46 -42 85t-65.5 67.5t-83.5 44.5t-97 16q-58 0 -112.5 -23t-96.5 -63t-67 -95.5t-25 -119.5q0 -69 25.5 -123.5t67 -92t95 -58t109.5 -22.5q46 -2 91.5 10t84.5 37.5
t69.5 65.5t46.5 95l79 -24q-18 -59 -53.5 -109t-83.5 -86.5t-107 -57t-124 -20.5q-80 0 -149.5 30t-122 82.5t-82.5 122t-30 149.5q0 76 28 144t76.5 119.5t114.5 83t142 36.5q-29 18 -29 52q0 23 17 41.5t43 18.5t43.5 -18.5t17.5 -41.5z" />
    <glyph glyph-name="Ccaron" unicode="&#x10c;" horiz-adv-x="832" 
d="M486 719q54 -9 102.5 -32.5t88.5 -58.5t69 -80t45 -97l-79 -22q-14 46 -42 85t-65.5 67.5t-83.5 44.5t-97 16q-58 0 -112.5 -23t-96.5 -63t-67 -95.5t-25 -119.5q0 -69 25.5 -123.5t67 -92t95 -58t109.5 -22.5q46 -2 91.5 10t84.5 37.5t69.5 65.5t46.5 95l79 -24
q-18 -59 -53.5 -109t-83.5 -86.5t-107 -57t-124 -20.5q-80 0 -149.5 30t-122 82.5t-82.5 122t-30 149.5q0 73 25.5 138t70 115.5t105 84t130.5 42.5l-149 182h87l121 -139l121 139h87z" />
    <glyph glyph-name="ccaron" unicode="&#x10d;" horiz-adv-x="832" 
d="M486 719q54 -9 102.5 -32.5t88.5 -58.5t69 -80t45 -97l-79 -22q-14 46 -42 85t-65.5 67.5t-83.5 44.5t-97 16q-58 0 -112.5 -23t-96.5 -63t-67 -95.5t-25 -119.5q0 -69 25.5 -123.5t67 -92t95 -58t109.5 -22.5q46 -2 91.5 10t84.5 37.5t69.5 65.5t46.5 95l79 -24
q-18 -59 -53.5 -109t-83.5 -86.5t-107 -57t-124 -20.5q-80 0 -149.5 30t-122 82.5t-82.5 122t-30 149.5q0 73 25.5 138t70 115.5t105 84t130.5 42.5l-149 182h87l121 -139l121 139h87z" />
    <glyph glyph-name="Dcaron" unicode="&#x10e;" 
d="M389 684q69 -3 129 -30.5t104.5 -74t70.5 -107.5t26 -130q0 -71 -27 -133.5t-73.5 -109t-109 -73.5t-133.5 -27h-326v686h220l-148 180h87l121 -139l121 139h87zM376 80q54 0 101.5 20.5t83 56t56 83t20.5 101.5t-20.5 101.5t-56 83t-83 56t-101.5 20.5h-244v-521z" />
    <glyph glyph-name="dcaron" unicode="&#x10f;" 
d="M389 684q69 -3 129 -30.5t104.5 -74t70.5 -107.5t26 -130q0 -71 -27 -133.5t-73.5 -109t-109 -73.5t-133.5 -27h-326v686h220l-148 180h87l121 -139l121 139h87zM376 80q54 0 101.5 20.5t83 56t56 83t20.5 101.5t-20.5 101.5t-56 83t-83 56t-101.5 20.5h-244v-521z" />
    <glyph glyph-name="Dcroat" unicode="&#x110;" 
d="M376 685q71 0 133.5 -27t109 -73.5t73.5 -109t27 -133.5t-27 -133.5t-73.5 -109t-109 -73.5t-133.5 -27h-326v314h-78v64h78v308h326zM376 80q54 0 101.5 20.5t83 56t56 83t20.5 101.5t-20.5 101.5t-56 83t-83 56t-101.5 20.5h-244v-225h235v-64h-235v-232z" />
    <glyph glyph-name="dcroat" unicode="&#x111;" 
d="M376 685q71 0 133.5 -27t109 -73.5t73.5 -109t27 -133.5t-27 -133.5t-73.5 -109t-109 -73.5t-133.5 -27h-326v314h-78v64h78v308h326zM376 80q54 0 101.5 20.5t83 56t56 83t20.5 101.5t-20.5 101.5t-56 83t-83 56t-101.5 20.5h-244v-225h235v-64h-235v-232z" />
    <glyph glyph-name="Emacron" unicode="&#x112;" horiz-adv-x="664" 
d="M132 601v-219h388v-82h-388v-219h482v-82h-564v686h564v-82zM134 734v64h395v-64h-395z" />
    <glyph glyph-name="emacron" unicode="&#x113;" horiz-adv-x="664" 
d="M132 601v-219h388v-82h-388v-219h482v-82h-564v686h564v-82zM134 734v64h395v-64h-395z" />
    <glyph glyph-name="Edotaccent" unicode="&#x116;" horiz-adv-x="664" 
d="M392 737q0 -16 -8 -30t-22 -22h252v-82l-482 -2v-219h388v-82h-388v-219h482v-82h-564v686h250q-29 18 -29 52q0 23 17 41.5t43 18.5t43.5 -18.5t17.5 -41.5z" />
    <glyph glyph-name="edotaccent" unicode="&#x117;" horiz-adv-x="664" 
d="M392 737q0 -16 -8 -30t-22 -22h252v-82l-482 -2v-219h388v-82h-388v-219h482v-82h-564v686h250q-29 18 -29 52q0 23 17 41.5t43 18.5t43.5 -18.5t17.5 -41.5z" />
    <glyph glyph-name="Eogonek" unicode="&#x118;" horiz-adv-x="664" 
d="M227 -163q0 -23 18 -40t49 -24.5t73 -3.5t89 22v-57q-66 -23 -123 -26.5t-100 9.5t-67.5 41t-24.5 68q0 36 18.5 60.5t47.5 43t64.5 34.5t70.5 35h-292v686h564v-82l-482 -2v-219h388v-82h-388v-219h482v-82h-179q-32 -29 -68 -48.5t-67.5 -36t-52 -34.5t-20.5 -43z" />
    <glyph glyph-name="eogonek" unicode="&#x119;" horiz-adv-x="664" 
d="M227 -163q0 -23 18 -40t49 -24.5t73 -3.5t89 22v-57q-66 -23 -123 -26.5t-100 9.5t-67.5 41t-24.5 68q0 36 18.5 60.5t47.5 43t64.5 34.5t70.5 35h-292v686h564v-82l-482 -2v-219h388v-82h-388v-219h482v-82h-179q-32 -29 -68 -48.5t-67.5 -36t-52 -34.5t-20.5 -43z" />
    <glyph glyph-name="Ecaron" unicode="&#x11a;" horiz-adv-x="664" 
d="M394 685h220v-82l-482 -2v-219h388v-82h-388v-219h482v-82h-564v686h225l-148 181h87l121 -139l121 139h87z" />
    <glyph glyph-name="ecaron" unicode="&#x11b;" horiz-adv-x="664" 
d="M394 685h220v-82l-482 -2v-219h388v-82h-388v-219h482v-82h-564v686h225l-148 181h87l121 -139l121 139h87z" />
    <glyph glyph-name="Gcircumflex" unicode="&#x11c;" horiz-adv-x="884" 
d="M844 347q0 -20 -0.5 -41t-0.5 -41h-127q-13 -57 -44 -105.5t-75 -84.5t-98.5 -56t-115.5 -20q-71 0 -133.5 27t-109 73.5t-73.5 109t-27 133.5t27 133.5t73.5 109t109 73.5t133.5 27q54 0 104 -16t91.5 -45t73 -68.5t50.5 -87.5h-91q-33 61 -93.5 98.5t-134.5 37.5
q-54 0 -101.5 -20.5t-83 -56t-56 -83t-20.5 -101.5q0 -51 19.5 -98t54.5 -83t83 -58t104 -22q44 0 83.5 13.5t72.5 38t57 58t36 73.5h-150v82h362zM365 942h66l175 -213h-87l-121 139l-121 -139h-87z" />
    <glyph glyph-name="gcircumflex" unicode="&#x11d;" horiz-adv-x="884" 
d="M844 347q0 -20 -0.5 -41t-0.5 -41h-127q-13 -57 -44 -105.5t-75 -84.5t-98.5 -56t-115.5 -20q-71 0 -133.5 27t-109 73.5t-73.5 109t-27 133.5t27 133.5t73.5 109t109 73.5t133.5 27q54 0 104 -16t91.5 -45t73 -68.5t50.5 -87.5h-91q-33 61 -93.5 98.5t-134.5 37.5
q-54 0 -101.5 -20.5t-83 -56t-56 -83t-20.5 -101.5q0 -51 19.5 -98t54.5 -83t83 -58t104 -22q44 0 83.5 13.5t72.5 38t57 58t36 73.5h-150v82h362zM365 942h66l175 -213h-87l-121 139l-121 -139h-87z" />
    <glyph glyph-name="Gbreve" unicode="&#x11e;" horiz-adv-x="884" 
d="M601 830q17 -63 1 -108.5t-67 -71.5q57 -29 100.5 -75.5t66.5 -106.5h-91q-33 61 -93.5 98.5t-134.5 37.5q-54 0 -101.5 -20.5t-83 -56t-56 -83t-20.5 -101.5q0 -51 19.5 -98t54.5 -83t83 -58t104 -22q44 0 83.5 13.5t72.5 38t57 58t36 73.5h-150v82h362q0 -20 -0.5 -41
t-0.5 -41h-127q-13 -57 -44 -105.5t-75 -84.5t-98.5 -56t-115.5 -20q-71 0 -133.5 27t-109 73.5t-73.5 109t-27 133.5q0 51 14.5 98.5t40.5 87.5t62 71.5t80 52.5q-47 26 -62 71.5t5 106.5h76q-41 -141 131 -141q92 0 123 35.5t16 105.5h75v0z" />
    <glyph glyph-name="gbreve" unicode="&#x11f;" horiz-adv-x="884" 
d="M601 830q17 -63 1 -108.5t-67 -71.5q57 -29 100.5 -75.5t66.5 -106.5h-91q-33 61 -93.5 98.5t-134.5 37.5q-54 0 -101.5 -20.5t-83 -56t-56 -83t-20.5 -101.5q0 -51 19.5 -98t54.5 -83t83 -58t104 -22q44 0 83.5 13.5t72.5 38t57 58t36 73.5h-150v82h362q0 -20 -0.5 -41
t-0.5 -41h-127q-13 -57 -44 -105.5t-75 -84.5t-98.5 -56t-115.5 -20q-71 0 -133.5 27t-109 73.5t-73.5 109t-27 133.5q0 51 14.5 98.5t40.5 87.5t62 71.5t80 52.5q-47 26 -62 71.5t5 106.5h76q-41 -141 131 -141q92 0 123 35.5t16 105.5h75v0z" />
    <glyph glyph-name="Gdotaccent" unicode="&#x120;" horiz-adv-x="884" 
d="M437 738q0 -17 -9 -31.5t-23 -22.5q51 -3 97 -20.5t84.5 -46t68 -66.5t47.5 -83h-91q-33 61 -93.5 98.5t-134.5 37.5q-54 0 -101.5 -20.5t-83 -56t-56 -83t-20.5 -101.5q0 -51 19.5 -98t54.5 -83t83 -58t104 -22q44 0 83.5 13.5t72.5 38t57 58t36 73.5h-150v82h362
q0 -20 -0.5 -41t-0.5 -41h-127q-13 -57 -44 -105.5t-75 -84.5t-98.5 -56t-115.5 -20q-71 0 -133.5 27t-109 73.5t-73.5 109t-27 133.5q0 66 24 125.5t65.5 105t98 75t121.5 35.5q-15 8 -24 23t-9 32q0 23 17 41.5t43 18.5t43.5 -18.5t17.5 -41.5z" />
    <glyph glyph-name="gdotaccent" unicode="&#x121;" horiz-adv-x="884" 
d="M437 738q0 -17 -9 -31.5t-23 -22.5q51 -3 97 -20.5t84.5 -46t68 -66.5t47.5 -83h-91q-33 61 -93.5 98.5t-134.5 37.5q-54 0 -101.5 -20.5t-83 -56t-56 -83t-20.5 -101.5q0 -51 19.5 -98t54.5 -83t83 -58t104 -22q44 0 83.5 13.5t72.5 38t57 58t36 73.5h-150v82h362
q0 -20 -0.5 -41t-0.5 -41h-127q-13 -57 -44 -105.5t-75 -84.5t-98.5 -56t-115.5 -20q-71 0 -133.5 27t-109 73.5t-73.5 109t-27 133.5q0 66 24 125.5t65.5 105t98 75t121.5 35.5q-15 8 -24 23t-9 32q0 23 17 41.5t43 18.5t43.5 -18.5t17.5 -41.5z" />
    <glyph glyph-name="uni0122" unicode="&#x122;" horiz-adv-x="884" 
d="M844 347q0 -20 -0.5 -41t-0.5 -41h-127q-13 -57 -44 -105.5t-75 -84.5t-98.5 -56t-115.5 -20q-71 0 -133.5 27t-109 73.5t-73.5 109t-27 133.5t27 133.5t73.5 109t109 73.5t133.5 27q54 0 104 -16t91.5 -45t73 -68.5t50.5 -87.5h-91q-33 61 -93.5 98.5t-134.5 37.5
q-54 0 -101.5 -20.5t-83 -56t-56 -83t-20.5 -101.5q0 -51 19.5 -98t54.5 -83t83 -58t104 -22q44 0 83.5 13.5t72.5 38t57 58t36 73.5h-150v82h362zM347 -30h82l-89 -271h-62z" />
    <glyph glyph-name="uni0123" unicode="&#x123;" horiz-adv-x="884" 
d="M844 347q0 -20 -0.5 -41t-0.5 -41h-127q-13 -57 -44 -105.5t-75 -84.5t-98.5 -56t-115.5 -20q-71 0 -133.5 27t-109 73.5t-73.5 109t-27 133.5t27 133.5t73.5 109t109 73.5t133.5 27q54 0 104 -16t91.5 -45t73 -68.5t50.5 -87.5h-91q-33 61 -93.5 98.5t-134.5 37.5
q-54 0 -101.5 -20.5t-83 -56t-56 -83t-20.5 -101.5q0 -51 19.5 -98t54.5 -83t83 -58t104 -22q44 0 83.5 13.5t72.5 38t57 58t36 73.5h-150v82h362zM347 -30h82l-89 -271h-62z" />
    <glyph glyph-name="Hcircumflex" unicode="&#x124;" horiz-adv-x="704" 
d="M653 685v-686h-82v288h-439v-288h-82v686h82v-315h439v315h82zM319 922h66l175 -213h-87l-121 139l-121 -139h-87z" />
    <glyph glyph-name="hcircumflex" unicode="&#x125;" horiz-adv-x="704" 
d="M653 685v-686h-82v288h-439v-288h-82v686h82v-315h439v315h82zM319 922h66l175 -213h-87l-121 139l-121 -139h-87z" />
    <glyph glyph-name="Hbar" unicode="&#x126;" horiz-adv-x="704" 
d="M653 685v-686h-82v288h-439v-288h-82v686h82v-162h439v162h82zM571 370v80h-439v-80h439z" />
    <glyph glyph-name="hbar" unicode="&#x127;" horiz-adv-x="704" 
d="M653 685v-686h-82v288h-439v-288h-82v686h82v-162h439v162h82zM571 370v80h-439v-80h439z" />
    <glyph glyph-name="Itilde" unicode="&#x128;" horiz-adv-x="182" 
d="M50 -1v686h82v-686h-82zM292 911q16 -42 16 -79t-13.5 -64t-38 -43t-58.5 -16q-27 0 -48.5 10t-39 24.5t-32.5 32t-29.5 32t-30 24.5t-34.5 10q-38 0 -44 -36t22 -97h-72q-16 45 -15.5 82.5t14 64t38 41t57.5 14.5q28 0 50 -10t40 -24.5t33.5 -32t30 -32t29.5 -24.5
t32 -10t26.5 11t12 29.5t-2 42.5t-14.5 50h71z" />
    <glyph glyph-name="itilde" unicode="&#x129;" horiz-adv-x="182" 
d="M50 -1v686h82v-686h-82zM292 911q16 -42 16 -79t-13.5 -64t-38 -43t-58.5 -16q-27 0 -48.5 10t-39 24.5t-32.5 32t-29.5 32t-30 24.5t-34.5 10q-38 0 -44 -36t22 -97h-72q-16 45 -15.5 82.5t14 64t38 41t57.5 14.5q28 0 50 -10t40 -24.5t33.5 -32t30 -32t29.5 -24.5
t32 -10t26.5 11t12 29.5t-2 42.5t-14.5 50h71z" />
    <glyph glyph-name="Imacron" unicode="&#x12a;" horiz-adv-x="182" 
d="M50 -1v686h82v-686h-82zM-106 734v64h395v-64h-395z" />
    <glyph glyph-name="imacron" unicode="&#x12b;" horiz-adv-x="182" 
d="M50 -1v686h82v-686h-82zM-106 734v64h395v-64h-395z" />
    <glyph glyph-name="Iogonek" unicode="&#x12e;" horiz-adv-x="182" 
d="M-102 -176q0 -23 18 -40t49 -24.5t73 -3.5t89 22v-57q-66 -23 -123 -26.5t-100 9.5t-67.5 41t-24.5 68q0 42 24 68t59.5 46t77 38t77.5 44v676h82v-686h-14q-31 -33 -69.5 -54.5t-72 -39t-56 -36t-22.5 -45.5z" />
    <glyph glyph-name="iogonek" unicode="&#x12f;" horiz-adv-x="182" 
d="M-102 -176q0 -23 18 -40t49 -24.5t73 -3.5t89 22v-57q-66 -23 -123 -26.5t-100 9.5t-67.5 41t-24.5 68q0 42 24 68t59.5 46t77 38t77.5 44v676h82v-686h-14q-31 -33 -69.5 -54.5t-72 -39t-56 -36t-22.5 -45.5z" />
    <glyph glyph-name="Idotaccent" unicode="&#x130;" horiz-adv-x="182" 
d="M50 -1v686h82v-686h-82zM152 805q0 -23 -17.5 -42t-43.5 -19t-43 19t-17 42t17 41.5t43 18.5t43.5 -18.5t17.5 -41.5z" />
    <glyph glyph-name="dotlessi" unicode="&#x131;" horiz-adv-x="182" 
d="M50 -1v686h82v-686h-82z" />
    <glyph glyph-name="Jcircumflex" unicode="&#x134;" horiz-adv-x="688" 
d="M636 686v-391q0 -61 -23 -114.5t-63 -93.5t-93.5 -63t-114.5 -23q-58 0 -109 21t-90.5 57t-64 85t-29.5 105h83q5 -39 23.5 -73.5t46.5 -59.5t64 -39.5t77 -14.5q44 0 82.5 16.5t67.5 45.5t45.5 67.5t16.5 82.5v391zM543 910h66l175 -213h-87l-121 139l-121 -139h-87z
" />
    <glyph glyph-name="jcircumflex" unicode="&#x135;" horiz-adv-x="688" 
d="M636 686v-391q0 -61 -23 -114.5t-63 -93.5t-93.5 -63t-114.5 -23q-58 0 -109 21t-90.5 57t-64 85t-29.5 105h83q5 -39 23.5 -73.5t46.5 -59.5t64 -39.5t77 -14.5q44 0 82.5 16.5t67.5 45.5t45.5 67.5t16.5 82.5v391zM543 910h66l175 -213h-87l-121 139l-121 -139h-87z
" />
    <glyph glyph-name="uni0136" unicode="&#x136;" horiz-adv-x="651" 
d="M539 -65l-407 407v-335h-82v686h82v-335l407 407l54 -54l-361 -361l361 -361zM227 -30h82l-89 -271h-62z" />
    <glyph glyph-name="uni0137" unicode="&#x137;" horiz-adv-x="651" 
d="M539 -65l-407 407v-335h-82v686h82v-335l407 407l54 -54l-361 -361l361 -361zM227 -30h82l-89 -271h-62z" />
    <glyph glyph-name="kgreenlandic" unicode="&#x138;" horiz-adv-x="651" 
d="M539 -65l-407 407v-335h-82v686h82v-335l407 407l54 -54l-361 -361l361 -361z" />
    <glyph glyph-name="Lacute" unicode="&#x139;" horiz-adv-x="679" 
d="M629 81v-82h-579v686h82v-604h497zM550 853l-283 -246l-36 42l264 263z" />
    <glyph glyph-name="lacute" unicode="&#x13a;" horiz-adv-x="679" 
d="M629 81v-82h-579v686h82v-604h497zM550 853l-283 -246l-36 42l264 263z" />
    <glyph glyph-name="uni013B" unicode="&#x13b;" horiz-adv-x="679" 
d="M629 81v-82h-579v686h82v-604h497zM347 -30h82l-89 -271h-62z" />
    <glyph glyph-name="uni013C" unicode="&#x13c;" horiz-adv-x="679" 
d="M629 81v-82h-579v686h82v-604h497zM347 -30h82l-89 -271h-62z" />
    <glyph glyph-name="Lcaron" unicode="&#x13d;" horiz-adv-x="679" 
d="M629 81v-82h-579v686h82v-604h497zM474 801h86l-98 -314h-69z" />
    <glyph glyph-name="lcaron" unicode="&#x13e;" horiz-adv-x="679" 
d="M629 81v-82h-579v686h82v-604h497zM474 801h86l-98 -314h-69z" />
    <glyph glyph-name="Lslash" unicode="&#x141;" horiz-adv-x="679" 
d="M629 81v-82h-579v289l-79 -34v78l79 34v319h82v-283l296 130v-78l-296 -130v-243h497z" />
    <glyph glyph-name="lslash" unicode="&#x142;" horiz-adv-x="679" 
d="M629 81v-82h-579v289l-79 -34v78l79 34v319h82v-283l296 130v-78l-296 -130v-243h497z" />
    <glyph glyph-name="Nacute" unicode="&#x143;" horiz-adv-x="795" 
d="M745 685v-743l-613 604v-546h-82v743l613 -604v546h82zM654 900l-283 -246l-36 42l264 263z" />
    <glyph glyph-name="nacute" unicode="&#x144;" horiz-adv-x="795" 
d="M745 685v-743l-613 604v-546h-82v743l613 -604v546h82zM654 900l-283 -246l-36 42l264 263z" />
    <glyph glyph-name="uni0145" unicode="&#x145;" horiz-adv-x="795" 
d="M745 685v-743l-613 604v-546h-82v743l613 -604v546h82zM347 -30h82l-89 -271h-62z" />
    <glyph glyph-name="uni0146" unicode="&#x146;" horiz-adv-x="795" 
d="M745 685v-743l-613 604v-546h-82v743l613 -604v546h82zM347 -30h82l-89 -271h-62z" />
    <glyph glyph-name="Ncaron" unicode="&#x147;" horiz-adv-x="795" 
d="M745 685v-743l-613 604v-546h-82v743l613 -604v546h82zM452 686h-66l-175 213h87l121 -139l121 139h87z" />
    <glyph glyph-name="ncaron" unicode="&#x148;" horiz-adv-x="795" 
d="M745 685v-743l-613 604v-546h-82v743l613 -604v546h82zM452 686h-66l-175 213h87l121 -139l121 139h87z" />
    <glyph glyph-name="Eng" unicode="&#x14a;" horiz-adv-x="795" 
d="M745 685v-709q0 -61 -23 -114.5t-63 -93.5t-93.5 -63t-114.5 -23q-58 0 -109 21t-90.5 57t-64 85t-29.5 105h83q5 -39 23.5 -73.5t46.5 -59.5t64 -39.5t77 -14.5q44 0 82.5 16.5t67.5 45.5t45.5 67.5t16.5 82.5v56l-532 515v-546h-82v743l613 -604v546h82z" />
    <glyph glyph-name="eng" unicode="&#x14b;" horiz-adv-x="795" 
d="M745 685v-709q0 -61 -23 -114.5t-63 -93.5t-93.5 -63t-114.5 -23q-58 0 -109 21t-90.5 57t-64 85t-29.5 105h83q5 -39 23.5 -73.5t46.5 -59.5t64 -39.5t77 -14.5q44 0 82.5 16.5t67.5 45.5t45.5 67.5t16.5 82.5v56l-532 515v-546h-82v743l613 -604v546h82z" />
    <glyph glyph-name="Omacron" unicode="&#x14c;" horiz-adv-x="848" 
d="M424 726q79 0 149 -30t122.5 -82.5t82.5 -122.5t30 -149q0 -80 -30 -149.5t-82.5 -122t-122.5 -82.5t-149 -30q-80 0 -149.5 30t-122 82.5t-82.5 122t-30 149.5q0 79 30 149t82.5 122.5t122 82.5t149.5 30zM424 40q62 0 117 23.5t96 64.5t64.5 96t23.5 117t-23.5 117
t-64.5 96t-96 64.5t-117 23.5t-117 -23.5t-96 -64.5t-64.5 -96t-23.5 -117t23.5 -117t64.5 -96t96 -64.5t117 -23.5zM226 766v64h395v-64h-395z" />
    <glyph glyph-name="omacron" unicode="&#x14d;" horiz-adv-x="848" 
d="M424 726q79 0 149 -30t122.5 -82.5t82.5 -122.5t30 -149q0 -80 -30 -149.5t-82.5 -122t-122.5 -82.5t-149 -30q-80 0 -149.5 30t-122 82.5t-82.5 122t-30 149.5q0 79 30 149t82.5 122.5t122 82.5t149.5 30zM424 40q62 0 117 23.5t96 64.5t64.5 96t23.5 117t-23.5 117
t-64.5 96t-96 64.5t-117 23.5t-117 -23.5t-96 -64.5t-64.5 -96t-23.5 -117t23.5 -117t64.5 -96t96 -64.5t117 -23.5zM226 766v64h395v-64h-395z" />
    <glyph glyph-name="Ohungarumlaut" unicode="&#x150;" horiz-adv-x="848" 
d="M582 889l-189 -165q8 1 15.5 1.5t15.5 0.5q64 0 122 -20l243 242l55 -59l-240 -208q45 -24 82.5 -59.5t64.5 -79t42 -94.5t15 -106q0 -80 -30 -149.5t-82.5 -122t-122.5 -82.5t-149 -30q-80 0 -149.5 30t-122 82.5t-82.5 122t-30 149.5q0 59 17 113.5t48 100.5t74 81.5
t94 57.5l254 253zM424 40q62 0 117 23.5t96 64.5t64.5 96t23.5 117t-23.5 117t-64.5 96t-96 64.5t-117 23.5t-117 -23.5t-96 -64.5t-64.5 -96t-23.5 -117t23.5 -117t64.5 -96t96 -64.5t117 -23.5z" />
    <glyph glyph-name="ohungarumlaut" unicode="&#x151;" horiz-adv-x="848" 
d="M582 889l-189 -165q8 1 15.5 1.5t15.5 0.5q64 0 122 -20l243 242l55 -59l-240 -208q45 -24 82.5 -59.5t64.5 -79t42 -94.5t15 -106q0 -80 -30 -149.5t-82.5 -122t-122.5 -82.5t-149 -30q-80 0 -149.5 30t-122 82.5t-82.5 122t-30 149.5q0 59 17 113.5t48 100.5t74 81.5
t94 57.5l254 253zM424 40q62 0 117 23.5t96 64.5t64.5 96t23.5 117t-23.5 117t-64.5 96t-96 64.5t-117 23.5t-117 -23.5t-96 -64.5t-64.5 -96t-23.5 -117t23.5 -117t64.5 -96t96 -64.5t117 -23.5z" />
    <glyph glyph-name="OE" unicode="&#x152;" horiz-adv-x="1324" 
d="M810 601v-219h388v-82h-388v-219h482v-82h-564v108q-53 -69 -132 -109t-172 -40q-80 0 -149.5 30t-122 82.5t-82.5 122t-30 149.5q0 79 30 149t82.5 122.5t122 82.5t149.5 30q93 0 172 -40.5t132 -109.5v109h564v-82zM424 40q62 0 117 23.5t96 64.5t64.5 96t23.5 117
t-23.5 117t-64.5 96t-96 64.5t-117 23.5t-117 -23.5t-96 -64.5t-64.5 -96t-23.5 -117t23.5 -117t64.5 -96t96 -64.5t117 -23.5z" />
    <glyph glyph-name="oe" unicode="&#x153;" horiz-adv-x="1324" 
d="M810 601v-219h388v-82h-388v-219h482v-82h-564v108q-53 -69 -132 -109t-172 -40q-80 0 -149.5 30t-122 82.5t-82.5 122t-30 149.5q0 79 30 149t82.5 122.5t122 82.5t149.5 30q93 0 172 -40.5t132 -109.5v109h564v-82zM424 40q62 0 117 23.5t96 64.5t64.5 96t23.5 117
t-23.5 117t-64.5 96t-96 64.5t-117 23.5t-117 -23.5t-96 -64.5t-64.5 -96t-23.5 -117t23.5 -117t64.5 -96t96 -64.5t117 -23.5z" />
    <glyph glyph-name="Racute" unicode="&#x154;" horiz-adv-x="732" 
d="M545 879l-225 -195h118q49 0 93 -19t76 -51t51 -76t19 -93q0 -42 -14 -80.5t-39 -69t-58.5 -52.5t-73.5 -31l190 -211l-61 -55l-233 259h-255v-207h-82v686h184l255 254zM596 444q0 48 -18.5 78.5t-49 48t-70 24.5t-81.5 7h-244v-316h244q42 0 81.5 7t70 24.5t49 48
t18.5 78.5z" />
    <glyph glyph-name="racute" unicode="&#x155;" horiz-adv-x="732" 
d="M545 879l-225 -195h118q49 0 93 -19t76 -51t51 -76t19 -93q0 -42 -14 -80.5t-39 -69t-58.5 -52.5t-73.5 -31l190 -211l-61 -55l-233 259h-255v-207h-82v686h184l255 254zM596 444q0 48 -18.5 78.5t-49 48t-70 24.5t-81.5 7h-244v-316h244q42 0 81.5 7t70 24.5t49 48
t18.5 78.5z" />
    <glyph glyph-name="uni0156" unicode="&#x156;" horiz-adv-x="732" 
d="M388 205h-255v-207h-82v686h387q49 0 93 -19t76 -51t51 -76t19 -93q0 -42 -14 -80.5t-39 -69t-58.5 -52.5t-73.5 -31l190 -211l-61 -55zM596 444q0 48 -18.5 78.5t-49 48t-70 24.5t-81.5 7h-244v-316h244q42 0 81.5 7t70 24.5t49 48t18.5 78.5zM347 -30h82l-89 -271h-62z
" />
    <glyph glyph-name="uni0157" unicode="&#x157;" horiz-adv-x="732" 
d="M388 205h-255v-207h-82v686h387q49 0 93 -19t76 -51t51 -76t19 -93q0 -42 -14 -80.5t-39 -69t-58.5 -52.5t-73.5 -31l190 -211l-61 -55zM596 444q0 48 -18.5 78.5t-49 48t-70 24.5t-81.5 7h-244v-316h244q42 0 81.5 7t70 24.5t49 48t18.5 78.5zM347 -30h82l-89 -271h-62z
" />
    <glyph glyph-name="Rcaron" unicode="&#x158;" horiz-adv-x="732" 
d="M374 684h64q49 0 93 -19t76 -51t51 -76t19 -93q0 -42 -14 -80.5t-39 -69t-58.5 -52.5t-73.5 -31l190 -211l-61 -55l-233 259h-255v-207h-82v686h236l-164 200h87l121 -139l121 139h87zM596 444q0 48 -18.5 78.5t-49 48t-70 24.5t-81.5 7h-244v-316h244q42 0 81.5 7
t70 24.5t49 48t18.5 78.5z" />
    <glyph glyph-name="rcaron" unicode="&#x159;" horiz-adv-x="732" 
d="M374 684h64q49 0 93 -19t76 -51t51 -76t19 -93q0 -42 -14 -80.5t-39 -69t-58.5 -52.5t-73.5 -31l190 -211l-61 -55l-233 259h-255v-207h-82v686h236l-164 200h87l121 -139l121 139h87zM596 444q0 48 -18.5 78.5t-49 48t-70 24.5t-81.5 7h-244v-316h244q42 0 81.5 7
t70 24.5t49 48t18.5 78.5z" />
    <glyph glyph-name="Sacute" unicode="&#x15a;" horiz-adv-x="1008" 
d="M981 860l-202 -175h209v-82h-216q-42 0 -83 -8.5t-73 -35.5t-51.5 -78.5t-19.5 -138.5q0 -75 -16 -138t-51.5 -108.5t-91.5 -71t-136 -25.5h-230v82h219q41 0 81.5 8.5t72 35.5t51 78.5t19.5 138.5q0 66 12 123t38 101t68.5 73t103.5 40l241 240z" />
    <glyph glyph-name="sacute" unicode="&#x15b;" horiz-adv-x="1008" 
d="M981 860l-202 -175h209v-82h-216q-42 0 -83 -8.5t-73 -35.5t-51.5 -78.5t-19.5 -138.5q0 -75 -16 -138t-51.5 -108.5t-91.5 -71t-136 -25.5h-230v82h219q41 0 81.5 8.5t72 35.5t51 78.5t19.5 138.5q0 66 12 123t38 101t68.5 73t103.5 40l241 240z" />
    <glyph glyph-name="Scircumflex" unicode="&#x15c;" horiz-adv-x="1008" 
d="M988 685v-82h-216q-42 0 -83 -8.5t-73 -35.5t-51.5 -78.5t-19.5 -138.5q0 -75 -16 -138t-51.5 -108.5t-91.5 -71t-136 -25.5h-230v82h219q41 0 81.5 8.5t72 35.5t51 78.5t19.5 138.5q0 75 15.5 138t50.5 108.5t91 71t138 25.5h230zM747 926h66l175 -213h-87l-121 139
l-121 -139h-87z" />
    <glyph glyph-name="scircumflex" unicode="&#x15d;" horiz-adv-x="1008" 
d="M988 685v-82h-216q-42 0 -83 -8.5t-73 -35.5t-51.5 -78.5t-19.5 -138.5q0 -75 -16 -138t-51.5 -108.5t-91.5 -71t-136 -25.5h-230v82h219q41 0 81.5 8.5t72 35.5t51 78.5t19.5 138.5q0 75 15.5 138t50.5 108.5t91 71t138 25.5h230zM747 926h66l175 -213h-87l-121 139
l-121 -139h-87z" />
    <glyph glyph-name="Scedilla" unicode="&#x15e;" horiz-adv-x="1008" 
d="M988 685v-82h-216q-42 0 -83 -8.5t-73 -35.5t-51.5 -78.5t-19.5 -138.5q0 -75 -16 -138t-51.5 -108.5t-91.5 -71t-136 -25.5h-18l-21 -62q40 2 69 -6t48 -24t28.5 -37t9.5 -45q0 -36 -16.5 -65t-52 -45t-90 -15t-130.5 27v47q60 -17 100.5 -18.5t65 7.5t35 26t10.5 38
q0 16 -8.5 29t-26.5 21t-45.5 10t-65.5 -5v43l28 74h-150v82h219q41 0 81.5 8.5t72 35.5t51 78.5t19.5 138.5q0 75 15.5 138t50.5 108.5t91 71t138 25.5h230z" />
    <glyph glyph-name="scedilla" unicode="&#x15f;" horiz-adv-x="1008" 
d="M988 685v-82h-216q-42 0 -83 -8.5t-73 -35.5t-51.5 -78.5t-19.5 -138.5q0 -75 -16 -138t-51.5 -108.5t-91.5 -71t-136 -25.5h-18l-21 -62q40 2 69 -6t48 -24t28.5 -37t9.5 -45q0 -36 -16.5 -65t-52 -45t-90 -15t-130.5 27v47q60 -17 100.5 -18.5t65 7.5t35 26t10.5 38
q0 16 -8.5 29t-26.5 21t-45.5 10t-65.5 -5v43l28 74h-150v82h219q41 0 81.5 8.5t72 35.5t51 78.5t19.5 138.5q0 75 15.5 138t50.5 108.5t91 71t138 25.5h230z" />
    <glyph glyph-name="Scaron" unicode="&#x160;" horiz-adv-x="1008" 
d="M813 685h175v-82h-216q-42 0 -83 -8.5t-73 -35.5t-51.5 -78.5t-19.5 -138.5q0 -75 -16 -138t-51.5 -108.5t-91.5 -71t-136 -25.5h-230v82h219q41 0 81.5 8.5t72 35.5t51 78.5t19.5 138.5q0 72 14 133t46 106t83.5 72t126.5 31l-168 205h87l121 -139l121 139h87z" />
    <glyph glyph-name="scaron" unicode="&#x161;" horiz-adv-x="1008" 
d="M813 685h175v-82h-216q-42 0 -83 -8.5t-73 -35.5t-51.5 -78.5t-19.5 -138.5q0 -75 -16 -138t-51.5 -108.5t-91.5 -71t-136 -25.5h-230v82h219q41 0 81.5 8.5t72 35.5t51 78.5t19.5 138.5q0 72 14 133t46 106t83.5 72t126.5 31l-168 205h87l121 -139l121 139h87z" />
    <glyph glyph-name="uni0162" unicode="&#x162;" horiz-adv-x="778" 
d="M766 685q0 -20 -0.5 -41t-0.5 -41h-333v-604h-82v604h-333v82h749zM347 -30h82l-89 -271h-62z" />
    <glyph glyph-name="uni0163" unicode="&#x163;" horiz-adv-x="778" 
d="M766 685q0 -20 -0.5 -41t-0.5 -41h-333v-604h-82v604h-333v82h749zM347 -30h82l-89 -271h-62z" />
    <glyph glyph-name="Tcaron" unicode="&#x164;" horiz-adv-x="778" 
d="M442 685h324q0 -20 -0.5 -41t-0.5 -41h-333v-604h-82v604h-333v82h326l-158 193h87l121 -139l121 139h87z" />
    <glyph glyph-name="tcaron" unicode="&#x165;" horiz-adv-x="778" 
d="M442 685h324q0 -20 -0.5 -41t-0.5 -41h-333v-604h-82v604h-333v82h326l-158 193h87l121 -139l121 139h87z" />
    <glyph glyph-name="Tbar" unicode="&#x166;" horiz-adv-x="778" 
d="M432 318v-319h-82v319h-159v64h159v221h-333v82h749q0 -20 -0.5 -41t-0.5 -41h-333v-221h154v-64h-154z" />
    <glyph glyph-name="tbar" unicode="&#x167;" horiz-adv-x="778" 
d="M432 318v-319h-82v319h-159v64h159v221h-333v82h749q0 -20 -0.5 -41t-0.5 -41h-333v-221h154v-64h-154z" />
    <glyph glyph-name="Utilde" unicode="&#x168;" 
d="M718 685v-351q0 -69 -26.5 -130t-71.5 -106t-106 -71.5t-130 -26.5t-130 26.5t-106 71.5t-71.5 106t-26.5 130v351h82v-351q0 -52 20 -98t54 -80t80 -54t98 -20t98 20t80 54t54 80t20 98v351h82zM585 911q16 -42 16 -79t-13.5 -64t-38 -43t-58.5 -16q-28 0 -49 10
t-38.5 24.5t-32.5 32t-29.5 32t-30 24.5t-34.5 10q-38 0 -44 -36t22 -97h-72q-16 45 -15.5 82.5t14 64t38 41t57.5 14.5q28 0 50 -10t40 -24.5t33.5 -32t30 -32t29.5 -24.5t32 -10t26.5 11t12 29.5t-2 42.5t-14.5 50h71z" />
    <glyph glyph-name="utilde" unicode="&#x169;" 
d="M718 685v-351q0 -69 -26.5 -130t-71.5 -106t-106 -71.5t-130 -26.5t-130 26.5t-106 71.5t-71.5 106t-26.5 130v351h82v-351q0 -52 20 -98t54 -80t80 -54t98 -20t98 20t80 54t54 80t20 98v351h82zM585 911q16 -42 16 -79t-13.5 -64t-38 -43t-58.5 -16q-28 0 -49 10
t-38.5 24.5t-32.5 32t-29.5 32t-30 24.5t-34.5 10q-38 0 -44 -36t22 -97h-72q-16 45 -15.5 82.5t14 64t38 41t57.5 14.5q28 0 50 -10t40 -24.5t33.5 -32t30 -32t29.5 -24.5t32 -10t26.5 11t12 29.5t-2 42.5t-14.5 50h71z" />
    <glyph glyph-name="Umacron" unicode="&#x16a;" 
d="M718 685v-351q0 -69 -26.5 -130t-71.5 -106t-106 -71.5t-130 -26.5t-130 26.5t-106 71.5t-71.5 106t-26.5 130v351h82v-351q0 -52 20 -98t54 -80t80 -54t98 -20t98 20t80 54t54 80t20 98v351h82zM187 734v64h395v-64h-395z" />
    <glyph glyph-name="umacron" unicode="&#x16b;" 
d="M718 685v-351q0 -69 -26.5 -130t-71.5 -106t-106 -71.5t-130 -26.5t-130 26.5t-106 71.5t-71.5 106t-26.5 130v351h82v-351q0 -52 20 -98t54 -80t80 -54t98 -20t98 20t80 54t54 80t20 98v351h82zM187 734v64h395v-64h-395z" />
    <glyph glyph-name="Ubreve" unicode="&#x16c;" 
d="M718 685v-351q0 -69 -26.5 -130t-71.5 -106t-106 -71.5t-130 -26.5t-130 26.5t-106 71.5t-71.5 106t-26.5 130v351h82v-351q0 -52 20 -98t54 -80t80 -54t98 -20t98 20t80 54t54 80t20 98v351h82zM619 896q25 -96 -26.5 -152t-187.5 -56q-131 0 -184 55.5t-23 152.5h76
q-41 -141 131 -141q92 0 123 35.5t16 105.5h75z" />
    <glyph glyph-name="ubreve" unicode="&#x16d;" 
d="M718 685v-351q0 -69 -26.5 -130t-71.5 -106t-106 -71.5t-130 -26.5t-130 26.5t-106 71.5t-71.5 106t-26.5 130v351h82v-351q0 -52 20 -98t54 -80t80 -54t98 -20t98 20t80 54t54 80t20 98v351h82zM619 896q25 -96 -26.5 -152t-187.5 -56q-131 0 -184 55.5t-23 152.5h76
q-41 -141 131 -141q92 0 123 35.5t16 105.5h75z" />
    <glyph glyph-name="Uring" unicode="&#x16e;" 
d="M718 685v-351q0 -69 -26.5 -130t-71.5 -106t-106 -71.5t-130 -26.5t-130 26.5t-106 71.5t-71.5 106t-26.5 130v351h82v-351q0 -52 20 -98t54 -80t80 -54t98 -20t98 20t80 54t54 80t20 98v351h82zM385 899q31 0 58.5 -12t48 -32.5t32.5 -48t12 -58.5t-12 -58.5t-32.5 -48
t-48 -32.5t-58.5 -12q-32 0 -59.5 12t-48 32.5t-32.5 48t-12 58.5t12 58.5t32.5 48t48 32.5t59.5 12zM385 657q18 0 34.5 7.5t28.5 20t19.5 29t7.5 34.5t-7.5 34.5t-19.5 29t-28.5 20t-34.5 7.5t-34.5 -7.5t-29 -20t-20 -29t-7.5 -34.5t7.5 -34.5t20 -29t29 -20t34.5 -7.5z
" />
    <glyph glyph-name="uring" unicode="&#x16f;" 
d="M718 685v-351q0 -69 -26.5 -130t-71.5 -106t-106 -71.5t-130 -26.5t-130 26.5t-106 71.5t-71.5 106t-26.5 130v351h82v-351q0 -52 20 -98t54 -80t80 -54t98 -20t98 20t80 54t54 80t20 98v351h82zM385 899q31 0 58.5 -12t48 -32.5t32.5 -48t12 -58.5t-12 -58.5t-32.5 -48
t-48 -32.5t-58.5 -12q-32 0 -59.5 12t-48 32.5t-32.5 48t-12 58.5t12 58.5t32.5 48t48 32.5t59.5 12zM385 657q18 0 34.5 7.5t28.5 20t19.5 29t7.5 34.5t-7.5 34.5t-19.5 29t-28.5 20t-34.5 7.5t-34.5 -7.5t-29 -20t-20 -29t-7.5 -34.5t7.5 -34.5t20 -29t29 -20t34.5 -7.5z
" />
    <glyph glyph-name="Uhungarumlaut" unicode="&#x170;" 
d="M718 685v-351q0 -69 -26.5 -130t-71.5 -106t-106 -71.5t-130 -26.5t-130 26.5t-106 71.5t-71.5 106t-26.5 130v351h82v-351q0 -52 20 -98t54 -80t80 -54t98 -20t98 20t80 54t54 80t20 98v351h82zM483 866l-283 -246l-36 42l264 263zM745 866l-283 -246l-36 42l264 263z
" />
    <glyph glyph-name="uhungarumlaut" unicode="&#x171;" 
d="M718 685v-351q0 -69 -26.5 -130t-71.5 -106t-106 -71.5t-130 -26.5t-130 26.5t-106 71.5t-71.5 106t-26.5 130v351h82v-351q0 -52 20 -98t54 -80t80 -54t98 -20t98 20t80 54t54 80t20 98v351h82zM483 866l-283 -246l-36 42l264 263zM745 866l-283 -246l-36 42l264 263z
" />
    <glyph glyph-name="Uogonek" unicode="&#x172;" 
d="M265 -145q0 -23 18 -40t49 -24.5t73 -3.5t89 22v-57q-66 -23 -123 -26.5t-100 9.5t-67.5 41t-24.5 68q0 33 15 55.5t39.5 40t55 32t62.5 29.5q-63 6 -118 34.5t-95.5 73.5t-64 102.5t-23.5 122.5v351h82v-351q0 -52 20 -98t54 -80t80 -54t98 -20t98 20t80 54t54 80t20 98
v351h82v-351q0 -59 -19 -112t-53 -95.5t-80.5 -73.5t-101.5 -44q-31 -27 -66 -45t-64.5 -34t-49 -33t-19.5 -42z" />
    <glyph glyph-name="uogonek" unicode="&#x173;" 
d="M265 -145q0 -23 18 -40t49 -24.5t73 -3.5t89 22v-57q-66 -23 -123 -26.5t-100 9.5t-67.5 41t-24.5 68q0 33 15 55.5t39.5 40t55 32t62.5 29.5q-63 6 -118 34.5t-95.5 73.5t-64 102.5t-23.5 122.5v351h82v-351q0 -52 20 -98t54 -80t80 -54t98 -20t98 20t80 54t54 80t20 98
v351h82v-351q0 -59 -19 -112t-53 -95.5t-80.5 -73.5t-101.5 -44q-31 -27 -66 -45t-64.5 -34t-49 -33t-19.5 -42z" />
    <glyph glyph-name="Wcircumflex" unicode="&#x174;" horiz-adv-x="1190" 
d="M1190 685l-329 -745l-266 580l-266 -580l-329 745h90l240 -544l265 577l265 -577l240 544h90zM562 905h66l175 -213h-87l-121 139l-121 -139h-87z" />
    <glyph glyph-name="wcircumflex" unicode="&#x175;" horiz-adv-x="1190" 
d="M1190 685l-329 -745l-266 580l-266 -580l-329 745h90l240 -544l265 577l265 -577l240 544h90zM562 905h66l175 -213h-87l-121 139l-121 -139h-87z" />
    <glyph glyph-name="Ycircumflex" unicode="&#x176;" horiz-adv-x="783" 
d="M433 304v-305h-82v305l-350 350l58 58l333 -333l333 333l58 -58zM358 908h66l175 -213h-87l-121 139l-121 -139h-87z" />
    <glyph glyph-name="ycircumflex" unicode="&#x177;" horiz-adv-x="783" 
d="M433 304v-305h-82v305l-350 350l58 58l333 -333l333 333l58 -58zM358 908h66l175 -213h-87l-121 139l-121 -139h-87z" />
    <glyph glyph-name="Ydieresis" unicode="&#x178;" horiz-adv-x="783" 
d="M433 304v-305h-82v305l-350 350l58 58l333 -333l333 333l58 -58zM299 805q0 -23 -17.5 -42t-43.5 -19t-43 19t-17 42t17 41.5t43 18.5t43.5 -18.5t17.5 -41.5zM604 805q0 -23 -17.5 -42t-43.5 -19t-43 19t-17 42t17 41.5t43 18.5t43.5 -18.5t17.5 -41.5z" />
    <glyph glyph-name="Zacute" unicode="&#x179;" horiz-adv-x="947" 
d="M733 871l-214 -186h320l-593 -604h651v-82h-847l593 604h-552v82h341l246 245z" />
    <glyph glyph-name="zacute" unicode="&#x17a;" horiz-adv-x="947" 
d="M733 871l-214 -186h320l-593 -604h651v-82h-847l593 604h-552v82h341l246 245z" />
    <glyph glyph-name="Zdotaccent" unicode="&#x17b;" horiz-adv-x="947" 
d="M516 728q0 -25 -18 -43h341l-593 -604h651v-82h-847l593 604h-552v82h322q-18 18 -18 43q0 23 17 41.5t43 18.5t43.5 -18.5t17.5 -41.5z" />
    <glyph glyph-name="zdotaccent" unicode="&#x17c;" horiz-adv-x="947" 
d="M516 728q0 -25 -18 -43h341l-593 -604h651v-82h-847l593 604h-552v82h322q-18 18 -18 43q0 23 17 41.5t43 18.5t43.5 -18.5t17.5 -41.5z" />
    <glyph glyph-name="Zcaron" unicode="&#x17d;" horiz-adv-x="947" 
d="M507 685h332l-593 -604h651v-82h-847l593 604h-552v82h329l-164 200h87l121 -139l121 139h87z" />
    <glyph glyph-name="zcaron" unicode="&#x17e;" horiz-adv-x="947" 
d="M507 685h332l-593 -604h651v-82h-847l593 604h-552v82h329l-164 200h87l121 -139l121 139h87z" />
    <glyph glyph-name="florin" unicode="&#x192;" horiz-adv-x="448" 
d="M106 -155q39 0 62 19.5t33.5 53.5t11.5 80.5t-3.5 100t-12.5 112.5t-14 119h-130v65h124q-5 73 -1.5 139.5t25 117.5t65.5 81t119 30v-69q-49 0 -76.5 -23.5t-40 -64t-13 -95t4.5 -116.5h135v-65h-128q7 -64 15 -130t10.5 -127.5t-3.5 -115.5t-26.5 -94.5t-58 -63.5
t-98.5 -23v69z" />
    <glyph glyph-name="circumflex" unicode="&#x2c6;" horiz-adv-x="522" 
d="M228 670h66l175 -213h-87l-121 139l-121 -139h-87z" />
    <glyph glyph-name="caron" unicode="&#x2c7;" horiz-adv-x="522" 
d="M294 457h-66l-175 213h87l121 -139l121 139h87z" />
    <glyph glyph-name="breve" unicode="&#x2d8;" horiz-adv-x="548" 
d="M485 670q25 -96 -26.5 -152t-187.5 -56q-131 0 -184 55.5t-23 152.5h76q-41 -141 131 -141q92 0 123 35.5t16 105.5h75v0z" />
    <glyph glyph-name="dotaccent" unicode="&#x2d9;" horiz-adv-x="227" 
d="M174 605q0 -23 -17.5 -42t-43.5 -19t-43 19t-17 42t17 41.5t43 18.5t43.5 -18.5t17.5 -41.5z" />
    <glyph glyph-name="ring" unicode="&#x2da;" horiz-adv-x="409" 
d="M205 699q31 0 58.5 -12t48 -32.5t32.5 -48t12 -58.5t-12 -58.5t-32.5 -48t-48 -32.5t-58.5 -12q-32 0 -59.5 12t-48 32.5t-32.5 48t-12 58.5t12 58.5t32.5 48t48 32.5t59.5 12zM205 457q18 0 34.5 7.5t28.5 20t19.5 29t7.5 34.5t-7.5 34.5t-19.5 29t-28.5 20t-34.5 7.5
t-34.5 -7.5t-29 -20t-20 -29t-7.5 -34.5t7.5 -34.5t20 -29t29 -20t34.5 -7.5z" />
    <glyph glyph-name="ogonek" unicode="&#x2db;" horiz-adv-x="423" 
d="M139 -145q0 -23 18 -40t49 -24.5t73 -3.5t89 22v-57q-66 -23 -123 -26.5t-100 9.5t-67.5 41t-24.5 68q0 30 13 51.5t34 38.5t48 30.5t56 27.5t57.5 29.5t52.5 37.5l55 -19q-31 -37 -70.5 -60t-75 -41.5t-60 -37t-24.5 -46.5z" />
    <glyph glyph-name="tilde" unicode="&#x2dc;" horiz-adv-x="540" 
d="M471 711q16 -42 16 -79t-13.5 -64t-38 -43t-58.5 -16q-28 0 -49 10t-38.5 24.5t-32.5 32t-29.5 32t-30 24.5t-34.5 10q-38 0 -44 -36t22 -97h-72q-16 45 -15.5 82.5t14 64t38 41t57.5 14.5q28 0 50 -10t40 -24.5t33.5 -32t30 -32t29.5 -24.5t32 -10t26.5 11t12 29.5
t-2 42.5t-14.5 50h71v0z" />
    <glyph glyph-name="hungarumlaut" unicode="&#x2dd;" horiz-adv-x="430" 
d="M369 656l-283 -246l-36 42l264 263zM631 656l-283 -246l-36 42l264 263z" />
    <glyph glyph-name="uni1E02" unicode="&#x1e02;" horiz-adv-x="752" 
d="M458 467q52 0 96.5 -18.5t77 -50.5t51 -74.5t18.5 -90.5t-18.5 -91t-50 -74.5t-74.5 -50t-91 -18.5h-417v686h276q31 0 58 -12t47 -32t32 -47t12 -58q0 -18 -4.5 -36t-12.5 -33zM132 467h194q28 0 47.5 19.5t19.5 47.5q0 23 -9.5 36.5t-24.5 20t-34 8.5t-38 2h-155v-134z
M467 81q31 0 59 12.5t48.5 34.5t32.5 50t12 60q0 31 -12 59.5t-32.5 50.5t-48.5 34.5t-59 12.5h-335v-315zM289 805q0 -23 -17.5 -42t-43.5 -19t-43 19t-17 42t17 41.5t43 18.5t43.5 -18.5t17.5 -41.5z" />
    <glyph glyph-name="uni1E03" unicode="&#x1e03;" horiz-adv-x="752" 
d="M458 467q52 0 96.5 -18.5t77 -50.5t51 -74.5t18.5 -90.5t-18.5 -91t-50 -74.5t-74.5 -50t-91 -18.5h-417v686h276q31 0 58 -12t47 -32t32 -47t12 -58q0 -18 -4.5 -36t-12.5 -33zM132 467h194q28 0 47.5 19.5t19.5 47.5q0 23 -9.5 36.5t-24.5 20t-34 8.5t-38 2h-155v-134z
M467 81q31 0 59 12.5t48.5 34.5t32.5 50t12 60q0 31 -12 59.5t-32.5 50.5t-48.5 34.5t-59 12.5h-335v-315zM289 805q0 -23 -17.5 -42t-43.5 -19t-43 19t-17 42t17 41.5t43 18.5t43.5 -18.5t17.5 -41.5z" />
    <glyph glyph-name="uni1E0A" unicode="&#x1e0a;" 
d="M376 685q71 0 133.5 -27t109 -73.5t73.5 -109t27 -133.5t-27 -133.5t-73.5 -109t-109 -73.5t-133.5 -27h-326v686h326zM376 80q54 0 101.5 20.5t83 56t56 83t20.5 101.5t-20.5 101.5t-56 83t-83 56t-101.5 20.5h-244v-521zM357 805q0 -23 -17.5 -42t-43.5 -19t-43 19
t-17 42t17 41.5t43 18.5t43.5 -18.5t17.5 -41.5z" />
    <glyph glyph-name="uni1E0B" unicode="&#x1e0b;" 
d="M376 685q71 0 133.5 -27t109 -73.5t73.5 -109t27 -133.5t-27 -133.5t-73.5 -109t-109 -73.5t-133.5 -27h-326v686h326zM376 80q54 0 101.5 20.5t83 56t56 83t20.5 101.5t-20.5 101.5t-56 83t-83 56t-101.5 20.5h-244v-521zM357 805q0 -23 -17.5 -42t-43.5 -19t-43 19
t-17 42t17 41.5t43 18.5t43.5 -18.5t17.5 -41.5z" />
    <glyph glyph-name="uni1E1E" unicode="&#x1e1e;" horiz-adv-x="695" 
d="M695 603q-142 0 -281.5 -0.5t-281.5 -0.5v-257h467v-82h-467v-264h-82v686h645v-82zM448 784q0 -23 -17.5 -42t-43.5 -19t-43 19t-17 42t17 41.5t43 18.5t43.5 -18.5t17.5 -41.5z" />
    <glyph glyph-name="uni1E1F" unicode="&#x1e1f;" horiz-adv-x="695" 
d="M695 603q-142 0 -281.5 -0.5t-281.5 -0.5v-257h467v-82h-467v-264h-82v686h645v-82zM448 784q0 -23 -17.5 -42t-43.5 -19t-43 19t-17 42t17 41.5t43 18.5t43.5 -18.5t17.5 -41.5z" />
    <glyph glyph-name="uni1E40" unicode="&#x1e40;" horiz-adv-x="973" 
d="M922 740v-741h-82v505l-354 -447l-354 447v-505h-82v741l436 -551zM547 692q0 -23 -17.5 -42t-43.5 -19t-43 19t-17 42t17 41.5t43 18.5t43.5 -18.5t17.5 -41.5z" />
    <glyph glyph-name="uni1E41" unicode="&#x1e41;" horiz-adv-x="973" 
d="M922 740v-741h-82v505l-354 -447l-354 447v-505h-82v741l436 -551zM547 692q0 -23 -17.5 -42t-43.5 -19t-43 19t-17 42t17 41.5t43 18.5t43.5 -18.5t17.5 -41.5z" />
    <glyph glyph-name="uni1E56" unicode="&#x1e56;" horiz-adv-x="726" 
d="M437 684q53 0 97 -18.5t75.5 -50.5t49 -75.5t17.5 -94.5q0 -50 -18 -93.5t-50 -75.5t-75.5 -51t-95.5 -19h-305v-207h-82v686h127.5t96.5 -0.5t69 -0.5h46h48zM437 289q75 0 116.5 43t41.5 111q0 82 -43 120t-121 38h-299v-314zM392 801q0 -23 -17.5 -42t-43.5 -19
t-43 19t-17 42t17 41.5t43 18.5t43.5 -18.5t17.5 -41.5z" />
    <glyph glyph-name="uni1E57" unicode="&#x1e57;" horiz-adv-x="726" 
d="M437 684q53 0 97 -18.5t75.5 -50.5t49 -75.5t17.5 -94.5q0 -50 -18 -93.5t-50 -75.5t-75.5 -51t-95.5 -19h-305v-207h-82v686h127.5t96.5 -0.5t69 -0.5h46h48zM437 289q75 0 116.5 43t41.5 111q0 82 -43 120t-121 38h-299v-314zM392 801q0 -23 -17.5 -42t-43.5 -19
t-43 19t-17 42t17 41.5t43 18.5t43.5 -18.5t17.5 -41.5z" />
    <glyph glyph-name="uni1E60" unicode="&#x1e60;" horiz-adv-x="1008" 
d="M988 685v-82h-216q-42 0 -83 -8.5t-73 -35.5t-51.5 -78.5t-19.5 -138.5q0 -75 -16 -138t-51.5 -108.5t-91.5 -71t-136 -25.5h-230v82h219q41 0 81.5 8.5t72 35.5t51 78.5t19.5 138.5q0 75 15.5 138t50.5 108.5t91 71t138 25.5h230zM845 796q0 -23 -17.5 -42t-43.5 -19
t-43 19t-17 42t17 41.5t43 18.5t43.5 -18.5t17.5 -41.5z" />
    <glyph glyph-name="uni1E61" unicode="&#x1e61;" horiz-adv-x="1008" 
d="M988 685v-82h-216q-42 0 -83 -8.5t-73 -35.5t-51.5 -78.5t-19.5 -138.5q0 -75 -16 -138t-51.5 -108.5t-91.5 -71t-136 -25.5h-230v82h219q41 0 81.5 8.5t72 35.5t51 78.5t19.5 138.5q0 75 15.5 138t50.5 108.5t91 71t138 25.5h230zM845 796q0 -23 -17.5 -42t-43.5 -19
t-43 19t-17 42t17 41.5t43 18.5t43.5 -18.5t17.5 -41.5z" />
    <glyph glyph-name="uni1E6A" unicode="&#x1e6a;" horiz-adv-x="778" 
d="M766 685q0 -20 -0.5 -41t-0.5 -41h-333v-604h-82v604h-333v82h749zM449 805q0 -23 -17.5 -42t-43.5 -19t-43 19t-17 42t17 41.5t43 18.5t43.5 -18.5t17.5 -41.5z" />
    <glyph glyph-name="uni1E6B" unicode="&#x1e6b;" horiz-adv-x="778" 
d="M766 685q0 -20 -0.5 -41t-0.5 -41h-333v-604h-82v604h-333v82h749zM449 805q0 -23 -17.5 -42t-43.5 -19t-43 19t-17 42t17 41.5t43 18.5t43.5 -18.5t17.5 -41.5z" />
    <glyph glyph-name="Wgrave" unicode="&#x1e80;" horiz-adv-x="1190" 
d="M1190 685l-329 -745l-266 580l-266 -580l-329 745h90l240 -544l265 577l265 -577l240 544h90zM460 986l272 -254l-33 -46l-291 238z" />
    <glyph glyph-name="wgrave" unicode="&#x1e81;" horiz-adv-x="1190" 
d="M1190 685l-329 -745l-266 580l-266 -580l-329 745h90l240 -544l265 577l265 -577l240 544h90zM460 986l272 -254l-33 -46l-291 238z" />
    <glyph glyph-name="Wacute" unicode="&#x1e82;" horiz-adv-x="1190" 
d="M1190 685l-329 -745l-266 580l-266 -580l-329 745h90l240 -544l265 577l265 -577l240 544h90zM785 902l-283 -246l-36 42l264 263z" />
    <glyph glyph-name="wacute" unicode="&#x1e83;" horiz-adv-x="1190" 
d="M1190 685l-329 -745l-266 580l-266 -580l-329 745h90l240 -544l265 577l265 -577l240 544h90zM785 902l-283 -246l-36 42l264 263z" />
    <glyph glyph-name="Wdieresis" unicode="&#x1e84;" horiz-adv-x="1190" 
d="M1190 685l-329 -745l-266 580l-266 -580l-329 745h90l240 -544l265 577l265 -577l240 544h90zM503 805q0 -23 -17.5 -42t-43.5 -19t-43 19t-17 42t17 41.5t43 18.5t43.5 -18.5t17.5 -41.5zM808 805q0 -23 -17.5 -42t-43.5 -19t-43 19t-17 42t17 41.5t43 18.5t43.5 -18.5
t17.5 -41.5z" />
    <glyph glyph-name="wdieresis" unicode="&#x1e85;" horiz-adv-x="1190" 
d="M1190 685l-329 -745l-266 580l-266 -580l-329 745h90l240 -544l265 577l265 -577l240 544h90zM503 805q0 -23 -17.5 -42t-43.5 -19t-43 19t-17 42t17 41.5t43 18.5t43.5 -18.5t17.5 -41.5zM808 805q0 -23 -17.5 -42t-43.5 -19t-43 19t-17 42t17 41.5t43 18.5t43.5 -18.5
t17.5 -41.5z" />
    <glyph glyph-name="Ygrave" unicode="&#x1ef2;" horiz-adv-x="783" 
d="M433 304v-305h-82v305l-350 350l58 58l333 -333l333 333l58 -58zM208 956l272 -254l-33 -46l-291 238z" />
    <glyph glyph-name="ygrave" unicode="&#x1ef3;" horiz-adv-x="783" 
d="M433 304v-305h-82v305l-350 350l58 58l333 -333l333 333l58 -58zM208 956l272 -254l-33 -46l-291 238z" />
    <glyph glyph-name="endash" unicode="&#x2013;" horiz-adv-x="785" 
d="M49 254v78h686v-78h-686z" />
    <glyph glyph-name="emdash" unicode="&#x2014;" horiz-adv-x="1013" 
d="M50 254v78h914v-78h-914z" />
    <glyph glyph-name="quoteleft" unicode="&#x2018;" horiz-adv-x="273" 
d="M133 389h-86l98 314h69z" />
    <glyph glyph-name="quoteright" unicode="&#x2019;" horiz-adv-x="273" 
d="M134 703h86l-98 -314h-69z" />
    <glyph glyph-name="quotesinglbase" unicode="&#x201a;" horiz-adv-x="273" 
d="M134 203h86l-98 -314h-69z" />
    <glyph glyph-name="quotedblleft" unicode="&#x201c;" horiz-adv-x="475" 
d="M139 389h-86l98 314h69zM341 389h-86l98 314h69z" />
    <glyph glyph-name="quotedblright" unicode="&#x201d;" horiz-adv-x="475" 
d="M134 703h86l-98 -314h-69zM336 703h86l-98 -314h-69z" />
    <glyph glyph-name="quotedblbase" unicode="&#x201e;" horiz-adv-x="485" 
d="M131 203h86l-98 -314h-69zM349 203h86l-98 -314h-69z" />
    <glyph glyph-name="dagger" unicode="&#x2020;" horiz-adv-x="571" 
d="M317 492v-681h-69v681h-195v69h195v188h69v-188h201v-69h-201z" />
    <glyph glyph-name="daggerdbl" unicode="&#x2021;" horiz-adv-x="571" 
d="M317 12v-201h-69v201h-195v69h195v411h-195v69h195v188h69v-188h201v-69h-201v-411h201v-69h-201z" />
    <glyph glyph-name="bullet" unicode="&#x2022;" horiz-adv-x="343" 
d="M289 365q0 -56 -32.5 -88t-85.5 -32q-23 0 -44.5 8.5t-38 24t-26 37.5t-9.5 50q0 27 9.5 48.5t26 36t38 22t44.5 7.5q53 0 85.5 -29.5t32.5 -84.5z" />
    <glyph glyph-name="ellipsis" unicode="&#x2026;" horiz-adv-x="701" 
d="M660 61q0 -23 -17.5 -42t-43.5 -19t-43 19t-17 42t17 41.5t43 18.5t43.5 -18.5t17.5 -41.5zM176 61q0 -23 -17.5 -42t-43.5 -19t-43 19t-17 42t17 41.5t43 18.5t43.5 -18.5t17.5 -41.5zM418 61q0 -23 -17.5 -42t-43.5 -19t-43 19t-17 42t17 41.5t43 18.5t43.5 -18.5
t17.5 -41.5z" />
    <glyph glyph-name="perthousand" unicode="&#x2030;" horiz-adv-x="1152" 
d="M1120 201q0 -46 -14 -83t-39 -63.5t-58.5 -40.5t-73.5 -14q-52 0 -88 20t-57 54q-25 -35 -63 -54.5t-85 -19.5q-46 0 -79.5 16t-55 44t-32 64t-10.5 77q0 37 10.5 73.5t32 64.5t55 45.5t79.5 17.5q48 0 86 -20t63 -56q21 34 57 55t87 21q40 0 73.5 -14.5t58.5 -40.5
t39 -63t14 -83zM416 499q0 -46 -14 -83t-39 -63.5t-58.5 -40.5t-73.5 -14q-46 0 -79.5 16.5t-55.5 44t-32.5 64t-10.5 76.5q0 37 10.5 73.5t32.5 64.5t55.5 45.5t79.5 17.5q40 0 73.5 -14.5t58.5 -40.5t39 -63t14 -83zM685 700h98l-593 -700h-99zM827 192q1 -24 7.5 -47
t19.5 -41.5t33 -29.5t48 -11q32 0 54 12.5t35.5 32t19.5 44t6 49.5t-6 49.5t-19.5 44t-35.5 31.5t-54 12q-28 0 -48 -11t-33 -29t-19.5 -41t-7.5 -47v-18zM345 499q0 25 -6 49.5t-19.5 44t-35.5 32t-53 12.5q-29 0 -49.5 -12.5t-33.5 -32t-19 -44t-6 -49.5t6 -49.5t19 -44
t33.5 -31.5t49.5 -12q31 0 53 12t35.5 31.5t19.5 44t6 49.5zM757 208q-1 24 -7.5 47.5t-20 41.5t-35 29.5t-51.5 11.5q-29 0 -49.5 -12t-33.5 -31.5t-19 -44t-6 -49.5t6 -49.5t19 -44t33.5 -32t49.5 -12.5q30 0 51 11.5t34.5 29.5t20.5 41.5t8 47.5v15z" />
    <glyph glyph-name="guilsinglleft" unicode="&#x2039;" horiz-adv-x="470" 
d="M374 98l-321 245l321 245l43 -49l-255 -197l255 -202z" />
    <glyph glyph-name="guilsinglright" unicode="&#x203a;" horiz-adv-x="470" 
d="M96 588l321 -245l-321 -245l-43 49l255 197l-255 202z" />
    <glyph glyph-name="fraction" unicode="&#x2044;" horiz-adv-x="670" 
d="M522 700h95l-469 -840h-95z" />
    <glyph glyph-name="Euro" unicode="&#x20ac;" horiz-adv-x="650" 
d="M199 392q-2 -11 -2 -21v-21v-25t2 -23h238v-44h-230q21 -85 77 -137t136 -52q44 0 78 13t57 36l42 -48q-32 -32 -79 -51t-105 -19q-56 0 -103.5 19t-84.5 53t-62.5 81.5t-37.5 104.5h-72v44h65q-1 11 -1.5 23t-0.5 25q0 11 0.5 21t1.5 21h-65v45h71q11 58 36 106.5
t62.5 83t85.5 54t105 19.5q58 0 105 -19t79 -51l-41 -48q-25 23 -59 36t-77 13q-41 0 -75.5 -14t-62 -39.5t-47 -61.5t-29.5 -79h231v-45h-238z" />
    <glyph glyph-name="trademark" unicode="&#x2122;" horiz-adv-x="1298" 
d="M1176 217v427l-216 -327h-38l-208 324v-424h-69v532h77l223 -340l222 340h78v-532h-69zM337 678v-461h-78v461h-206v71h497v-71h-213z" />
    <glyph glyph-name="minus" unicode="&#x2212;" horiz-adv-x="638" 
d="M53 312v69h532v-69h-532z" />
    <glyph glyph-name="fi" unicode="&#xfb01;" horiz-adv-x="877" 
d="M695 603q-142 0 -281.5 -0.5t-281.5 -0.5v-257h467v-82h-467v-264h-82v686h645v-82zM762 -1v686h82v-686h-82z" />
    <glyph glyph-name="fl" unicode="&#xfb02;" horiz-adv-x="1374" 
d="M695 603q-142 0 -281.5 -0.5t-281.5 -0.5v-257h467v-82h-467v-264h-82v686h645v-82zM1333 81v-82h-579v686h82v-604h497z" />
    </font>
</defs>
</svg>
