<?xml version="1.0" standalone="no"?>
<!DOCTYPE svg PUBLIC "-//W3C//DTD SVG 1.1//EN" "http://www.w3.org/Graphics/SVG/1.1/DTD/svg11.dtd" >
<svg>
<metadata>
Created by FontForge 20090914 at Thu Aug  7 14:39:03 2014
 By www-data
Copyright (c) 2014 Caveras / Cliff Modes
</metadata>
<defs>
<font id="Jamboree" horiz-adv-x="512" >
  <font-face 
    font-family="Jamboree"
    font-weight="400"
    font-stretch="normal"
    units-per-em="1024"
    panose-1="0 0 4 0 0 0 0 0 0 0"
    ascent="819"
    descent="-205"
    x-height="896"
    cap-height="1024"
    bbox="0 -256 896 1152"
    underline-thickness="51"
    underline-position="126"
    unicode-range="U+0020-U+FF87"
  />
<missing-glyph 
d="M256 256v384h-128v-384h128zM0 0v896h384v-896h-384z" />
    <glyph glyph-name=".notdef" 
d="M256 256v384h-128v-384h128zM0 0v896h384v-896h-384z" />
    <glyph glyph-name="space" unicode=" " 
 />
    <glyph glyph-name="exclam" unicode="!" horiz-adv-x="256" 
d="M0 0v128h128v-128h-128zM0 256v640h128v-640h-128z" />
    <glyph glyph-name="quotedbl" unicode="&#x22;" 
d="M0 640v256h128v-256h-128zM256 640v256h128v-256h-128z" />
    <glyph glyph-name="numbersign" unicode="#" horiz-adv-x="768" 
d="M384 384v128h-128v-128h128zM128 128v128h-128v128h128v128h-128v128h128v128h128v-128h128v128h128v-128h128v-128h-128v-128h128v-128h-128v-128h-128v128h-128v-128h-128z" />
    <glyph glyph-name="dollar" unicode="$" 
d="M128 0v128h-128v128h256v128h128v-256h-128v-128h-128zM128 384v128h128v-128h-128zM0 512v256h128v128h128v-128h128v-128h-256v-128h-128z" />
    <glyph glyph-name="percent" unicode="%" 
d="M256 0v128h128v-128h-128zM0 0v384h128v-384h-128zM128 384v128h128v-128h-128zM0 768v128h128v-128h-128zM256 512v384h128v-384h-128z" />
    <glyph glyph-name="ampersand" unicode="&#x26;" 
d="M128 0v128h-128v256h128v-128h128v128h128v-384h-256zM128 384v128h128v-128h-128zM0 512v256h128v128h128v-128h128v-256h-128v128h-128v-128h-128z" />
    <glyph glyph-name="quotesingle" unicode="'" horiz-adv-x="256" 
d="M0 640v256h128v-256h-128z" />
    <glyph glyph-name="parenleft" unicode="(" 
d="M128 0v128h-128v640h128v128h256v-128h-128v-128h-128v-384h128v-128h128v-128h-256z" />
    <glyph glyph-name="parenright" unicode=")" 
d="M0 0v128h128v128h128v384h-128v128h-128v128h256v-128h128v-640h-128v-128h-256z" />
    <glyph glyph-name="asterisk" unicode="*" 
d="M0 256v128h128v-128h-128zM256 256v128h128v-128h-128zM128 384v128h-128v128h128v128h128v-128h128v-128h-128v-128h-128z" />
    <glyph glyph-name="plus" unicode="+" 
d="M128 256v128h-128v128h128v128h128v-128h128v-128h-128v-128h-128z" />
    <glyph glyph-name="comma" unicode="," horiz-adv-x="384" 
d="M0 -128v256h128v128h128v-256h-128v-128h-128z" />
    <glyph glyph-name="hyphen" unicode="-" 
d="M0 384v128h384v-128h-384z" />
    <glyph glyph-name="period" unicode="." horiz-adv-x="384" 
d="M0 0v128h128v-128h-128z" />
    <glyph glyph-name="slash" unicode="/" 
d="M0 0v384h128v-384h-128zM128 384v128h128v-128h-128zM256 512v384h128v-384h-128z" />
    <glyph glyph-name="zero" unicode="0" 
d="M256 256v384h-128v-384h128zM128 0v128h-128v640h128v128h128v-128h128v-640h-128v-128h-128z" />
    <glyph glyph-name="one" unicode="1" 
d="M0 0v256h128v384h-128v128h128v128h128v-640h128v-256h-384z" />
    <glyph glyph-name="two" unicode="2" 
d="M0 0v384h128v-128h256v-256h-384zM128 384v128h128v-128h-128zM256 512v128h-256v256h256v-128h128v-256h-128z" />
    <glyph glyph-name="three" unicode="3" 
d="M0 0v256h256v128h128v-256h-128v-128h-256zM128 384v128h128v-128h-128zM256 512v128h-256v256h256v-128h128v-256h-128z" />
    <glyph glyph-name="four" unicode="4" 
d="M256 0v384h-256v512h128v-256h128v256h128v-896h-128z" />
    <glyph glyph-name="five" unicode="5" 
d="M0 0v256h256v128h128v-256h-128v-128h-256zM0 384v512h384v-256h-256v-128h128v-128h-256z" />
    <glyph glyph-name="six" unicode="6" 
d="M128 0v128h-128v640h128v128h256v-256h-256v-128h128v-128h-128v-128h128v128h128v-256h-128v-128h-128z" />
    <glyph glyph-name="seven" unicode="7" 
d="M0 0v256h128v-256h-128zM128 256v256h128v128h-256v256h384v-512h-128v-128h-128z" />
    <glyph glyph-name="eight" unicode="8" 
d="M128 0v128h-128v256h128v-128h128v128h128v-256h-128v-128h-128zM128 384v128h128v-128h-128zM0 512v256h128v128h128v-128h128v-256h-128v128h-128v-128h-128z" />
    <glyph glyph-name="nine" unicode="9" 
d="M0 0v256h256v128h-128v128h128v128h-128v-128h-128v256h128v128h128v-128h128v-640h-128v-128h-256z" />
    <glyph glyph-name="colon" unicode=":" horiz-adv-x="384" 
d="M128 256v128h128v-128h-128zM128 512v128h128v-128h-128z" />
    <glyph glyph-name="semicolon" unicode=";" horiz-adv-x="384" 
d="M0 -128v256h128v128h128v-256h-128v-128h-128zM128 384v128h128v-128h-128z" />
    <glyph glyph-name="less" unicode="&#x3c;" 
d="M256 128v128h-128v128h-128v128h128v128h128v128h128v-256h-128v-128h128v-256h-128z" />
    <glyph glyph-name="equal" unicode="=" 
d="M0 256v128h384v-128h-384zM0 512v128h384v-128h-384z" />
    <glyph glyph-name="greater" unicode="&#x3e;" 
d="M0 128v256h128v128h-128v256h128v-128h128v-128h128v-128h-128v-128h-128v-128h-128z" />
    <glyph glyph-name="question" unicode="?" 
d="M128 0v128h128v-128h-128zM128 256v256h128v128h-256v256h256v-128h128v-384h-128v-128h-128z" />
    <glyph glyph-name="at" unicode="@" 
d="M256 512v128h-128v-128h128zM128 0v128h-128v640h128v128h128v-128h128v-384h-256v-128h256v-128h-128v-128h-128z" />
    <glyph glyph-name="A" unicode="A" 
d="M256 384v384h-128v-384h128zM0 0v896h128v128h128v-128h128v-896h-128v256h-128v-256h-128z" />
    <glyph glyph-name="B" unicode="B" 
d="M256 256v128h-128v-128h128zM0 0v1024h256v-128h128v-256h-128v128h-128v-128h128v-128h128v-384h-128v-128h-256z" />
    <glyph glyph-name="C" unicode="C" 
d="M128 0v128h-128v768h128v128h256v-256h-256v-512h256v-256h-256z" />
    <glyph glyph-name="D" unicode="D" 
d="M256 256v512h-128v-512h128zM0 0v1024h256v-128h128v-768h-128v-128h-256z" />
    <glyph glyph-name="E" unicode="E" 
d="M0 0v1024h384v-256h-256v-128h256v-256h-256v-128h256v-256h-384z" />
    <glyph glyph-name="F" unicode="F" 
d="M0 0v1024h384v-256h-256v-128h256v-256h-256v-384h-128z" />
    <glyph glyph-name="G" unicode="G" 
d="M128 0v128h-128v768h128v128h256v-256h-256v-512h128v384h128v-640h-256z" />
    <glyph glyph-name="H" unicode="H" 
d="M0 0v1024h128v-384h128v384h128v-1024h-128v384h-128v-384h-128z" />
    <glyph glyph-name="I" unicode="I" horiz-adv-x="256" 
d="M0 0v1024h128v-1024h-128z" />
    <glyph glyph-name="J" unicode="J" 
d="M0 0v256h256v768h128v-896h-128v-128h-256z" />
    <glyph glyph-name="K" unicode="K" 
d="M256 0v384h128v-384h-128zM0 0v1024h128v-384h128v-256h-128v-384h-128zM256 640v384h128v-384h-128z" />
    <glyph glyph-name="L" unicode="L" 
d="M0 0v1024h128v-768h256v-256h-384z" />
    <glyph glyph-name="M" unicode="M" horiz-adv-x="768" 
d="M0 0v1024h256v-128h128v128h128v-128h128v-896h-128v768h-128v-768h-128v768h-128v-768h-128z" />
    <glyph glyph-name="N" unicode="N" 
d="M0 0v1024h256v-128h128v-896h-128v768h-128v-768h-128z" />
    <glyph glyph-name="O" unicode="O" 
d="M256 256v512h-128v-512h128zM128 0v128h-128v768h128v128h128v-128h128v-768h-128v-128h-128z" />
    <glyph glyph-name="P" unicode="P" 
d="M256 512v256h-128v-256h128zM0 0v1024h256v-128h128v-512h-128v-128h-128v-256h-128z" />
    <glyph glyph-name="Q" unicode="Q" 
d="M128 0v128h-128v768h128v128h128v-128h128v-640h-128v512h-128v-512h128v-128h128v-128h-256z" />
    <glyph glyph-name="R" unicode="R" 
d="M0 0v1024h256v-128h128v-384h-128v256h-128v-256h128v-128h128v-384h-128v256h-128v-256h-128z" />
    <glyph glyph-name="S" unicode="S" 
d="M0 0v256h256v128h-128v128h-128v384h128v128h256v-256h-256v-128h128v-128h128v-384h-128v-128h-256z" />
    <glyph glyph-name="T" unicode="T" 
d="M128 0v768h-128v256h384v-256h-128v-768h-128z" />
    <glyph glyph-name="U" unicode="U" 
d="M128 0v128h-128v896h128v-768h128v768h128v-896h-128v-128h-128z" />
    <glyph glyph-name="V" unicode="V" 
d="M128 0v256h128v-256h-128zM0 256v768h128v-768h-128zM256 256v768h128v-768h-128z" />
    <glyph glyph-name="W" unicode="W" horiz-adv-x="768" 
d="M0 0v1024h128v-768h128v768h128v-768h128v768h128v-896h-128v-128h-128v128h-128v-128h-256z" />
    <glyph glyph-name="X" unicode="X" 
d="M0 0v384h128v256h-128v384h128v-256h128v256h128v-384h-128v-256h128v-384h-128v256h-128v-256h-128z" />
    <glyph glyph-name="Y" unicode="Y" 
d="M128 0v384h-128v640h128v-384h128v384h128v-640h-128v-384h-128z" />
    <glyph glyph-name="Z" unicode="Z" 
d="M0 0v512h128v128h128v128h-256v256h384v-512h-128v-128h-128v-128h256v-256h-384z" />
    <glyph glyph-name="bracketleft" unicode="[" horiz-adv-x="384" 
d="M0 0v896h256v-256h-128v-384h128v-256h-256z" />
    <glyph glyph-name="backslash" unicode="\" 
d="M256 0v384h128v-384h-128zM128 384v128h128v-128h-128zM0 512v384h128v-384h-128z" />
    <glyph glyph-name="bracketright" unicode="]" horiz-adv-x="384" 
d="M0 0v256h128v384h-128v256h256v-896h-256z" />
    <glyph glyph-name="asciicircum" unicode="^" 
d="M0 512v256h128v128h128v-128h128v-256h-128v128h-128v-128h-128z" />
    <glyph glyph-name="underscore" unicode="_" 
d="M0 0v128h384v-128h-384z" />
    <glyph glyph-name="grave" unicode="`" 
d="M128 512v128h-128v256h128v-128h128v-256h-128z" />
    <glyph glyph-name="a" unicode="a" 
d="M256 384v256h-128v-256h128zM0 0v768h128v128h128v-128h128v-768h-128v256h-128v-256h-128z" />
    <glyph glyph-name="b" unicode="b" 
d="M0 0v896h256v-128h128v-256h-128v128h-128v-128h128v-128h-128v-128h128v128h128v-256h-128v-128h-256z" />
    <glyph glyph-name="c" unicode="c" 
d="M128 0v128h-128v640h128v128h256v-256h-256v-384h256v-256h-256z" />
    <glyph glyph-name="d" unicode="d" 
d="M256 256v384h-128v-384h128zM0 0v896h256v-128h128v-640h-128v-128h-256z" />
    <glyph glyph-name="e" unicode="e" 
d="M0 0v896h384v-256h-256v-128h256v-128h-256v-128h256v-256h-384z" />
    <glyph glyph-name="f" unicode="f" 
d="M0 0v896h384v-256h-256v-128h256v-128h-256v-384h-128z" />
    <glyph glyph-name="g" unicode="g" 
d="M128 0v128h-128v640h128v128h256v-256h-256v-384h128v256h128v-512h-256z" />
    <glyph glyph-name="h" unicode="h" 
d="M0 0v896h128v-384h128v384h128v-896h-128v384h-128v-384h-128z" />
    <glyph glyph-name="i" unicode="i" horiz-adv-x="256" 
d="M0 0v896h128v-896h-128z" />
    <glyph glyph-name="j" unicode="j" 
d="M0 0v256h256v640h128v-768h-128v-128h-256z" />
    <glyph glyph-name="k" unicode="k" 
d="M256 0v384h128v-384h-128zM0 0v896h128v-384h128v-128h-128v-384h-128zM256 512v384h128v-384h-128z" />
    <glyph glyph-name="l" unicode="l" 
d="M0 0v896h128v-640h256v-256h-384z" />
    <glyph glyph-name="m" unicode="m" horiz-adv-x="768" 
d="M0 0v896h256v-128h128v128h128v-128h128v-768h-128v640h-128v-640h-128v640h-128v-640h-128z" />
    <glyph glyph-name="n" unicode="n" 
d="M0 0v896h256v-128h128v-768h-128v640h-128v-640h-128z" />
    <glyph glyph-name="o" unicode="o" 
d="M256 256v384h-128v-384h128zM128 0v128h-128v640h128v128h128v-128h128v-640h-128v-128h-128z" />
    <glyph glyph-name="p" unicode="p" 
d="M256 512v128h-128v-128h128zM0 0v896h256v-128h128v-384h-128v-128h-128v-256h-128z" />
    <glyph glyph-name="q" unicode="q" 
d="M128 0v128h-128v640h128v128h128v-128h128v-512h-128v384h-128v-384h128v-128h128v-128h-256z" />
    <glyph glyph-name="r" unicode="r" 
d="M0 0v896h256v-128h128v-256h-128v128h-128v-128h128v-128h128v-384h-128v256h-128v-256h-128z" />
    <glyph glyph-name="s" unicode="s" 
d="M0 0v256h256v128h128v-256h-128v-128h-256zM128 384v128h128v-128h-128zM0 512v256h128v128h256v-256h-256v-128h-128z" />
    <glyph glyph-name="t" unicode="t" 
d="M128 0v640h-128v256h384v-256h-128v-640h-128z" />
    <glyph glyph-name="u" unicode="u" 
d="M0 0v896h128v-640h128v640h128v-768h-128v-128h-256z" />
    <glyph glyph-name="v" unicode="v" 
d="M128 0v256h128v-256h-128zM0 256v640h128v-640h-128zM256 256v640h128v-640h-128z" />
    <glyph glyph-name="w" unicode="w" horiz-adv-x="768" 
d="M0 0v896h128v-640h128v640h128v-640h128v640h128v-768h-128v-128h-128v128h-128v-128h-256z" />
    <glyph glyph-name="x" unicode="x" 
d="M0 0v384h128v128h-128v384h128v-256h128v256h128v-384h-128v-128h128v-384h-128v256h-128v-256h-128z" />
    <glyph glyph-name="y" unicode="y" 
d="M128 0v384h-128v512h128v-384h128v384h128v-512h-128v-384h-128z" />
    <glyph glyph-name="z" unicode="z" 
d="M0 0v384h128v-128h256v-256h-384zM128 384v128h128v-128h-128zM256 512v128h-256v256h384v-384h-128z" />
    <glyph glyph-name="braceleft" unicode="{" horiz-adv-x="640" 
d="M256 0v128h-128v256h128v-128h128v-128h128v-128h-256zM0 384v128h128v-128h-128zM128 512v256h128v128h256v-128h-128v-128h-128v-128h-128z" />
    <glyph glyph-name="bar" unicode="|" 
d="M128 0v896h128v-896h-128z" />
    <glyph glyph-name="braceright" unicode="}" horiz-adv-x="640" 
d="M0 0v128h128v128h128v128h128v-256h-128v-128h-256zM384 384v128h128v-128h-128zM256 512v128h-128v128h-128v128h256v-128h128v-256h-128z" />
    <glyph glyph-name="asciitilde" unicode="~" horiz-adv-x="640" 
d="M0 384v128h128v-128h-128zM256 384v128h128v-128h-128zM128 512v128h128v-128h-128zM384 512v128h128v-128h-128z" />
    <glyph glyph-name="uni007F" 
d="M256 256v384h-128v-384h128zM0 0v896h384v-896h-384z" />
    <glyph glyph-name="uni00A0" unicode="&#xa0;" horiz-adv-x="384" 
 />
    <glyph glyph-name="exclamdown" unicode="&#xa1;" horiz-adv-x="256" 
d="M0 0v640h128v-640h-128zM0 768v128h128v-128h-128z" />
    <glyph glyph-name="cent" unicode="&#xa2;" 
d="M128 0v128h-128v384h128v128h256v-256h-256v-128h256v-256h-256z" />
    <glyph glyph-name="sterling" unicode="&#xa3;" 
d="M0 0v256h128v256h-128v128h128v256h256v-128h-128v-128h128v-128h-128v-256h128v-256h-384z" />
    <glyph glyph-name="currency" unicode="&#xa4;" 
d="M0 128v128h128v-128h-128zM256 128v128h128v-128h-128zM128 256v128h128v-128h-128zM0 384v128h128v-128h-128zM256 384v128h128v-128h-128zM128 512v128h128v-128h-128zM0 640v128h128v-128h-128zM256 640v128h128v-128h-128z" />
    <glyph glyph-name="yen" unicode="&#xa5;" 
d="M128 0v128h-128v128h128v128h-128v512h128v-256h128v256h128v-512h-128v-128h128v-128h-128v-128h-128z" />
    <glyph glyph-name="brokenbar" unicode="&#xa6;" horiz-adv-x="256" 
d="M0 0v384h128v-384h-128zM0 512v384h128v-384h-128z" />
    <glyph glyph-name="section" unicode="&#xa7;" 
d="M0 0v256h128v128h128v256h128v-512h-128v-128h-256zM0 384v512h128v128h256v-256h-128v-128h-128v-256h-128z" />
    <glyph glyph-name="dieresis" unicode="&#xa8;" 
d="M0 768v128h128v-128h-128zM256 768v128h128v-128h-128z" />
    <glyph glyph-name="copyright" unicode="&#xa9;" horiz-adv-x="1024" 
d="M256 256v384h384v-128h-256v-128h256v-128h-384zM640 128v128h128v384h-128v128h-384v-128h-128v-384h128v-128h384zM128 0v128h-128v640h128v128h640v-128h128v-640h-128v-128h-640z" />
    <glyph glyph-name="guillemotleft" unicode="&#xab;" horiz-adv-x="640" 
d="M128 256v128h128v-128h-128zM384 256v128h128v-128h-128zM0 384v128h128v-128h-128zM256 384v128h128v-128h-128zM128 512v128h128v-128h-128zM384 512v128h128v-128h-128z" />
    <glyph glyph-name="logicalnot" unicode="&#xac;" 
d="M256 256v128h-256v128h384v-256h-128z" />
    <glyph glyph-name="uni00AD" unicode="&#xad;" 
d="M0 384v128h384v-128h-384z" />
    <glyph glyph-name="registered" unicode="&#xae;" horiz-adv-x="1024" 
d="M256 256v384h384v-128h-256v-256h-128zM640 128v128h128v384h-128v128h-384v-128h-128v-384h128v-128h384zM128 0v128h-128v640h128v128h640v-128h128v-640h-128v-128h-640z" />
    <glyph glyph-name="macron" unicode="&#xaf;" 
d="M0 768v128h384v-128h-384z" />
    <glyph glyph-name="degree" unicode="&#xb0;" 
d="M256 640v128h-128v-128h128zM0 512v384h384v-384h-384z" />
    <glyph glyph-name="plusminus" unicode="&#xb1;" 
d="M0 128v128h384v-128h-384zM128 384v128h-128v128h128v128h128v-128h128v-128h-128v-128h-128z" />
    <glyph glyph-name="twosuperior" unicode="&#xb2;" 
d="M0 256v384h256v128h-256v128h384v-384h-256v-128h256v-128h-384z" />
    <glyph glyph-name="threesuperior" unicode="&#xb3;" 
d="M0 256v128h256v128h-128v128h128v128h-256v128h384v-640h-384z" />
    <glyph glyph-name="acute" unicode="&#xb4;" 
d="M0 512v256h128v128h128v-256h-128v-128h-128z" />
    <glyph glyph-name="mu" unicode="&#xb5;" 
d="M0 -256v896h128v-384h128v384h128v-512h-128v-128h-128v-256h-128z" />
    <glyph glyph-name="periodcentered" unicode="&#xb7;" horiz-adv-x="256" 
d="M0 384v128h128v-128h-128z" />
    <glyph glyph-name="cedilla" unicode="&#xb8;" 
d="M128 -256v128h128v-128h-128zM256 -128v128h128v-128h-128z" />
    <glyph glyph-name="onesuperior" unicode="&#xb9;" 
d="M128 256v640h128v-640h-128z" />
    <glyph glyph-name="guillemotright" unicode="&#xbb;" horiz-adv-x="640" 
d="M0 256v128h128v-128h-128zM256 256v128h128v-128h-128zM128 384v128h128v-128h-128zM384 384v128h128v-128h-128zM0 512v128h128v-128h-128zM256 512v128h128v-128h-128z" />
    <glyph glyph-name="questiondown" unicode="&#xbf;" 
d="M128 0v128h-128v384h128v128h128v-256h-128v-128h256v-256h-256zM128 768v128h128v-128h-128z" />
    <glyph glyph-name="Agrave" unicode="&#xc0;" 
d="M256 384v384h-128v-384h128zM0 0v896h128v128h128v-128h128v-896h-128v256h-128v-256h-128zM0 1024v128h128v-128h-128z" />
    <glyph glyph-name="Aacute" unicode="&#xc1;" 
d="M256 384v384h-128v-384h128zM0 0v896h128v128h128v-128h128v-896h-128v256h-128v-256h-128zM256 1024v128h128v-128h-128z" />
    <glyph glyph-name="Acircumflex" unicode="&#xc2;" 
d="M256 384v256h-128v-256h128zM0 0v768h128v128h128v-128h128v-768h-128v256h-128v-256h-128zM0 896v128h128v-128h-128zM256 896v128h128v-128h-128zM128 1024v128h128v-128h-128z" />
    <glyph glyph-name="Adieresis" unicode="&#xc4;" 
d="M256 384v256h-128v-256h128zM0 0v768h128v128h128v-128h128v-768h-128v256h-128v-256h-128zM0 1024v128h128v-128h-128zM256 1024v128h128v-128h-128z" />
    <glyph glyph-name="AE" unicode="&#xc6;" horiz-adv-x="768" 
d="M256 384v384h-128v-384h128zM0 0v896h128v128h512v-256h-256v-128h256v-256h-256v-128h256v-256h-384v256h-128v-256h-128z" />
    <glyph glyph-name="Ccedilla" unicode="&#xc7;" 
d="M128 -256v128h128v-128h-128zM256 -128v128h-128v128h-128v768h128v128h256v-256h-256v-512h256v-384h-128z" />
    <glyph glyph-name="Egrave" unicode="&#xc8;" 
d="M0 0v896h128v128h128v-128h128v-256h-256v-128h256v-128h-256v-128h256v-256h-384zM0 1024v128h128v-128h-128z" />
    <glyph glyph-name="Eacute" unicode="&#xc9;" 
d="M0 0v896h128v128h128v-128h128v-256h-256v-128h256v-128h-256v-128h256v-256h-384zM256 1024v128h128v-128h-128z" />
    <glyph glyph-name="Ecircumflex" unicode="&#xca;" 
d="M0 0v1024h128v-128h128v128h128v-384h-256v-128h256v-128h-256v-128h256v-256h-384zM128 1024v128h128v-128h-128z" />
    <glyph glyph-name="Edieresis" unicode="&#xcb;" 
d="M0 0v896h384v-256h-256v-128h256v-128h-256v-128h256v-256h-384zM0 1024v128h128v-128h-128zM256 1024v128h128v-128h-128z" />
    <glyph glyph-name="Igrave" unicode="&#xcc;" horiz-adv-x="384" 
d="M128 0v1024h128v-1024h-128zM0 1024v128h128v-128h-128z" />
    <glyph glyph-name="Iacute" unicode="&#xcd;" horiz-adv-x="384" 
d="M0 0v1024h128v-1024h-128zM128 1024v128h128v-128h-128z" />
    <glyph glyph-name="Icircumflex" unicode="&#xce;" 
d="M128 0v768h128v-768h-128zM0 896v128h128v-128h-128zM256 896v128h128v-128h-128zM128 1024v128h128v-128h-128z" />
    <glyph glyph-name="Idieresis" unicode="&#xcf;" 
d="M128 0v896h128v-896h-128zM0 1024v128h128v-128h-128zM256 1024v128h128v-128h-128z" />
    <glyph glyph-name="Ograve" unicode="&#xd2;" 
d="M256 256v512h-128v-512h128zM128 0v128h-128v768h128v128h128v-128h128v-768h-128v-128h-128zM0 1024v128h128v-128h-128z" />
    <glyph glyph-name="Oacute" unicode="&#xd3;" 
d="M256 256v512h-128v-512h128zM128 0v128h-128v768h128v128h128v-128h128v-768h-128v-128h-128zM256 1024v128h128v-128h-128z" />
    <glyph glyph-name="Ocircumflex" unicode="&#xd4;" 
d="M256 256v384h-128v-384h128zM128 0v128h-128v640h128v128h128v-128h128v-640h-128v-128h-128zM0 896v128h128v-128h-128zM256 896v128h128v-128h-128zM128 1024v128h128v-128h-128z" />
    <glyph glyph-name="Odieresis" unicode="&#xd6;" 
d="M256 256v384h-128v-384h128zM128 0v128h-128v640h128v128h128v-128h128v-640h-128v-128h-128zM0 1024v128h128v-128h-128zM256 1024v128h128v-128h-128z" />
    <glyph glyph-name="multiply" unicode="&#xd7;" 
d="M0 256v128h128v-128h-128zM256 256v128h128v-128h-128zM128 384v128h128v-128h-128zM0 512v128h128v-128h-128zM256 512v128h128v-128h-128z" />
    <glyph glyph-name="Ugrave" unicode="&#xd9;" 
d="M128 0v128h-128v768h128v-640h128v640h128v-768h-128v-128h-128zM128 896v128h128v-128h-128zM0 1024v128h128v-128h-128z" />
    <glyph glyph-name="Uacute" unicode="&#xda;" 
d="M128 0v128h-128v768h128v-640h128v640h128v-768h-128v-128h-128zM128 896v128h128v-128h-128zM256 1024v128h128v-128h-128z" />
    <glyph glyph-name="Ucircumflex" unicode="&#xdb;" 
d="M128 0v128h-128v640h128v-512h128v512h128v-640h-128v-128h-128zM0 896v128h128v-128h-128zM256 896v128h128v-128h-128zM128 1024v128h128v-128h-128z" />
    <glyph glyph-name="Udieresis" unicode="&#xdc;" 
d="M128 0v128h-128v768h128v-640h128v640h128v-768h-128v-128h-128zM0 1024v128h128v-128h-128zM256 1024v128h128v-128h-128z" />
    <glyph glyph-name="Yacute" unicode="&#xdd;" 
d="M128 0v384h-128v512h128v-256h128v256h128v-512h-128v-384h-128zM128 896v128h128v-128h-128zM256 1024v128h128v-128h-128z" />
    <glyph glyph-name="agrave" unicode="&#xe0;" 
d="M256 384v256h-128v-256h128zM0 0v768h128v128h128v-128h128v-768h-128v256h-128v-256h-128zM0 896v128h128v-128h-128z" />
    <glyph glyph-name="aacute" unicode="&#xe1;" 
d="M256 384v256h-128v-256h128zM0 0v768h128v128h128v-128h128v-768h-128v256h-128v-256h-128zM256 896v128h128v-128h-128z" />
    <glyph glyph-name="acircumflex" unicode="&#xe2;" 
d="M256 384v128h-128v-128h128zM0 0v640h128v128h128v-128h128v-640h-128v256h-128v-256h-128zM0 768v128h128v-128h-128zM256 768v128h128v-128h-128zM128 896v128h128v-128h-128z" />
    <glyph glyph-name="adieresis" unicode="&#xe4;" 
d="M256 384v128h-128v-128h128zM0 0v640h128v128h128v-128h128v-640h-128v256h-128v-256h-128zM0 896v128h128v-128h-128zM256 896v128h128v-128h-128z" />
    <glyph glyph-name="ae" unicode="&#xe6;" horiz-adv-x="768" 
d="M256 384v256h-128v-256h128zM0 0v768h128v128h512v-256h-256v-128h256v-128h-256v-128h256v-256h-384v256h-128v-256h-128z" />
    <glyph glyph-name="ccedilla" unicode="&#xe7;" 
d="M128 -256v128h128v-128h-128zM256 -128v128h-128v128h-128v640h128v128h256v-256h-256v-384h256v-384h-128z" />
    <glyph glyph-name="egrave" unicode="&#xe8;" 
d="M0 0v768h128v128h128v-128h128v-128h-256v-128h256v-128h-256v-128h256v-256h-384zM0 896v128h128v-128h-128z" />
    <glyph glyph-name="eacute" unicode="&#xe9;" 
d="M0 0v768h128v128h128v-128h128v-128h-256v-128h256v-128h-256v-128h256v-256h-384zM256 896v128h128v-128h-128z" />
    <glyph glyph-name="ecircumflex" unicode="&#xea;" 
d="M0 0v896h128v-128h128v128h128v-256h-256v-128h256v-128h-256v-128h256v-256h-384zM128 896v128h128v-128h-128z" />
    <glyph glyph-name="edieresis" unicode="&#xeb;" 
d="M0 0v768h384v-128h-256v-128h256v-128h-256v-128h256v-256h-384zM0 896v128h128v-128h-128zM256 896v128h128v-128h-128z" />
    <glyph glyph-name="igrave" unicode="&#xec;" horiz-adv-x="384" 
d="M128 0v896h128v-896h-128zM0 896v128h128v-128h-128z" />
    <glyph glyph-name="iacute" unicode="&#xed;" horiz-adv-x="384" 
d="M0 0v896h128v-896h-128zM128 896v128h128v-128h-128z" />
    <glyph glyph-name="icircumflex" unicode="&#xee;" 
d="M128 0v640h128v-640h-128zM0 768v128h128v-128h-128zM256 768v128h128v-128h-128zM128 896v128h128v-128h-128z" />
    <glyph glyph-name="idieresis" unicode="&#xef;" 
d="M128 0v768h128v-768h-128zM0 896v128h128v-128h-128zM256 896v128h128v-128h-128z" />
    <glyph glyph-name="ograve" unicode="&#xf2;" 
d="M256 256v384h-128v-384h128zM128 0v128h-128v640h128v128h128v-128h128v-640h-128v-128h-128zM0 896v128h128v-128h-128z" />
    <glyph glyph-name="oacute" unicode="&#xf3;" 
d="M256 256v384h-128v-384h128zM128 0v128h-128v640h128v128h128v-128h128v-640h-128v-128h-128zM256 896v128h128v-128h-128z" />
    <glyph glyph-name="ocircumflex" unicode="&#xf4;" 
d="M256 256v256h-128v-256h128zM128 0v128h-128v512h128v128h128v-128h128v-512h-128v-128h-128zM0 768v128h128v-128h-128zM256 768v128h128v-128h-128zM128 896v128h128v-128h-128z" />
    <glyph glyph-name="odieresis" unicode="&#xf6;" 
d="M256 256v256h-128v-256h128zM128 0v128h-128v512h128v128h128v-128h128v-512h-128v-128h-128zM0 896v128h128v-128h-128zM256 896v128h128v-128h-128z" />
    <glyph glyph-name="divide" unicode="&#xf7;" 
d="M128 128v128h128v-128h-128zM0 384v128h384v-128h-384zM128 640v128h128v-128h-128z" />
    <glyph glyph-name="ugrave" unicode="&#xf9;" 
d="M0 0v768h128v-512h128v512h128v-640h-128v-128h-256zM128 768v128h128v-128h-128zM0 896v128h128v-128h-128z" />
    <glyph glyph-name="uacute" unicode="&#xfa;" 
d="M0 0v768h128v-512h128v512h128v-640h-128v-128h-256zM128 768v128h128v-128h-128zM256 896v128h128v-128h-128z" />
    <glyph glyph-name="ucircumflex" unicode="&#xfb;" 
d="M0 0v640h128v-384h128v384h128v-512h-128v-128h-256zM0 768v128h128v-128h-128zM256 768v128h128v-128h-128zM128 896v128h128v-128h-128z" />
    <glyph glyph-name="udieresis" unicode="&#xfc;" 
d="M0 0v768h128v-512h128v512h128v-640h-128v-128h-256zM0 896v128h128v-128h-128zM256 896v128h128v-128h-128z" />
    <glyph glyph-name="yacute" unicode="&#xfd;" 
d="M128 0v384h-128v384h128v-256h128v256h128v-384h-128v-384h-128zM128 768v128h128v-128h-128zM256 896v128h128v-128h-128z" />
    <glyph glyph-name="ydieresis" unicode="&#xff;" 
d="M128 0v384h-128v384h128v-256h128v256h128v-384h-128v-384h-128zM0 896v128h128v-128h-128zM256 896v128h128v-128h-128z" />
    <glyph glyph-name="Amacron" unicode="&#x100;" 
d="M256 384v256h-128v-256h128zM0 0v768h128v128h128v-128h128v-768h-128v256h-128v-256h-128zM0 1024v128h384v-128h-384z" />
    <glyph glyph-name="amacron" unicode="&#x101;" 
d="M256 384v128h-128v-128h128zM0 0v640h128v128h128v-128h128v-640h-128v256h-128v-256h-128zM0 896v128h384v-128h-384z" />
    <glyph glyph-name="Cacute" unicode="&#x106;" 
d="M128 0v128h-128v640h128v256h128v-128h128v-256h-256v-384h256v-256h-256zM256 1024v128h128v-128h-128z" />
    <glyph glyph-name="cacute" unicode="&#x107;" 
d="M128 0v128h-128v512h128v256h128v-128h128v-256h-256v-256h256v-256h-256zM256 896v128h128v-128h-128z" />
    <glyph glyph-name="Ccircumflex" unicode="&#x108;" 
d="M0 896v128h128v-128h-128zM128 0v128h-128v640h128v128h128v128h128v-384h-256v-384h256v-256h-256zM128 1024v128h128v-128h-128z" />
    <glyph glyph-name="ccircumflex" unicode="&#x109;" 
d="M0 768v128h128v-128h-128zM128 0v128h-128v512h128v128h128v128h128v-384h-256v-256h256v-256h-256zM128 896v128h128v-128h-128z" />
    <glyph glyph-name="Cdotaccent" unicode="&#x10a;" 
d="M128 0v128h-128v640h128v128h256v-256h-256v-384h256v-256h-256zM128 1024v128h128v-128h-128z" />
    <glyph glyph-name="cdotaccent" unicode="&#x10b;" 
d="M128 0v128h-128v512h128v128h256v-256h-256v-256h256v-256h-256zM128 896v128h128v-128h-128z" />
    <glyph glyph-name="Ccaron" unicode="&#x10c;" 
d="M128 0v128h-128v640h128v256h128v-128h128v-256h-256v-384h256v-256h-256zM0 1024v128h128v-128h-128zM256 1024v128h128v-128h-128z" />
    <glyph glyph-name="ccaron" unicode="&#x10d;" 
d="M128 0v128h-128v512h128v256h128v-128h128v-256h-256v-256h256v-256h-256zM0 896v128h128v-128h-128zM256 896v128h128v-128h-128z" />
    <glyph glyph-name="Dcaron" unicode="&#x10e;" 
d="M256 256v384h-128v-384h128zM0 0v896h128v128h128v-256h128v-640h-128v-128h-256zM0 1024v128h128v-128h-128zM256 1024v128h128v-128h-128z" />
    <glyph glyph-name="dcaron" unicode="&#x10f;" 
d="M256 256v256h-128v-256h128zM0 0v768h128v128h128v-256h128v-512h-128v-128h-256zM0 896v128h128v-128h-128zM256 896v128h128v-128h-128z" />
    <glyph glyph-name="Emacron" unicode="&#x112;" 
d="M0 0v896h384v-256h-256v-128h256v-128h-256v-128h256v-256h-384zM0 1024v128h384v-128h-384z" />
    <glyph glyph-name="emacron" unicode="&#x113;" 
d="M0 0v768h384v-128h-256v-128h256v-128h-256v-128h256v-256h-384zM0 896v128h384v-128h-384z" />
    <glyph glyph-name="Edotaccent" unicode="&#x116;" 
d="M0 0v896h384v-256h-256v-128h256v-128h-256v-128h256v-256h-384zM128 1024v128h128v-128h-128z" />
    <glyph glyph-name="edotaccent" unicode="&#x117;" 
d="M0 0v768h384v-128h-256v-128h256v-128h-256v-128h256v-256h-384zM128 896v128h128v-128h-128z" />
    <glyph glyph-name="Ecaron" unicode="&#x11a;" 
d="M0 0v896h128v128h128v-128h128v-256h-256v-128h256v-128h-256v-128h256v-256h-384zM0 1024v128h128v-128h-128zM256 1024v128h128v-128h-128z" />
    <glyph glyph-name="ecaron" unicode="&#x11b;" 
d="M0 0v768h128v128h128v-128h128v-128h-256v-128h256v-128h-256v-128h256v-256h-384zM0 896v128h128v-128h-128zM256 896v128h128v-128h-128z" />
    <glyph glyph-name="Gcircumflex" unicode="&#x11c;" 
d="M0 896v128h128v-128h-128zM128 0v128h-128v640h128v128h128v128h128v-384h-256v-384h128v256h128v-512h-256zM128 1024v128h128v-128h-128z" />
    <glyph glyph-name="gcircumflex" unicode="&#x11d;" 
d="M0 768v128h128v-128h-128zM128 0v128h-128v512h128v128h128v128h128v-384h-256v-256h128v128h128v-384h-256zM128 896v128h128v-128h-128z" />
    <glyph glyph-name="Gdotaccent" unicode="&#x120;" 
d="M128 0v128h-128v640h128v128h256v-256h-256v-384h128v256h128v-512h-256zM128 1024v128h128v-128h-128z" />
    <glyph glyph-name="gdotaccent" unicode="&#x121;" 
d="M128 0v128h-128v512h128v128h256v-256h-256v-256h128v128h128v-384h-256zM128 896v128h128v-128h-128z" />
    <glyph glyph-name="Imacron" unicode="&#x12a;" 
d="M128 0v896h128v-896h-128zM0 1024v128h384v-128h-384z" />
    <glyph glyph-name="imacron" unicode="&#x12b;" 
d="M128 0v768h128v-768h-128zM0 896v128h384v-128h-384z" />
    <glyph glyph-name="Idotaccent" unicode="&#x130;" horiz-adv-x="256" 
d="M0 0v896h128v-896h-128zM0 1024v128h128v-128h-128z" />
    <glyph glyph-name="dotlessi" unicode="&#x131;" horiz-adv-x="256" 
d="M0 0v768h128v-768h-128z" />
    <glyph glyph-name="Lslash" unicode="&#x141;" 
d="M128 0v384h-128v128h128v512h128v-256h128v-128h-128v-384h128v-256h-256z" />
    <glyph glyph-name="lslash" unicode="&#x142;" 
d="M128 0v384h-128v128h128v384h128v-256h128v-128h-128v-256h128v-256h-256z" />
    <glyph glyph-name="Nacute" unicode="&#x143;" 
d="M0 0v896h128v128h128v-256h128v-768h-128v640h-128v-640h-128zM256 1024v128h128v-128h-128z" />
    <glyph glyph-name="nacute" unicode="&#x144;" 
d="M0 0v768h128v128h128v-256h128v-640h-128v512h-128v-512h-128zM256 896v128h128v-128h-128z" />
    <glyph glyph-name="Ncaron" unicode="&#x147;" 
d="M0 0v896h128v128h128v-256h128v-768h-128v640h-128v-640h-128zM0 1024v128h128v-128h-128zM256 1024v128h128v-128h-128z" />
    <glyph glyph-name="ncaron" unicode="&#x148;" 
d="M0 0v768h128v128h128v-256h128v-640h-128v512h-128v-512h-128zM0 896v128h128v-128h-128zM256 896v128h128v-128h-128z" />
    <glyph glyph-name="Omacron" unicode="&#x14c;" 
d="M256 256v384h-128v-384h128zM128 0v128h-128v640h128v128h128v-128h128v-640h-128v-128h-128zM0 1024v128h384v-128h-384z" />
    <glyph glyph-name="omacron" unicode="&#x14d;" 
d="M256 256v256h-128v-256h128zM128 0v128h-128v512h128v128h128v-128h128v-512h-128v-128h-128zM0 896v128h384v-128h-384z" />
    <glyph glyph-name="OE" unicode="&#x152;" horiz-adv-x="768" 
d="M256 256v512h-128v-512h128zM128 0v128h-128v768h128v128h512v-256h-256v-128h256v-256h-256v-128h256v-256h-512z" />
    <glyph glyph-name="oe" unicode="&#x153;" horiz-adv-x="768" 
d="M256 256v384h-128v-384h128zM128 0v128h-128v640h128v128h512v-256h-256v-128h256v-128h-256v-128h256v-256h-512z" />
    <glyph glyph-name="Racute" unicode="&#x154;" 
d="M0 0v896h128v128h128v-256h128v-256h-128v128h-128v-128h128v-128h128v-384h-128v256h-128v-256h-128zM256 1024v128h128v-128h-128z" />
    <glyph glyph-name="racute" unicode="&#x155;" 
d="M256 0v256h128v-256h-128zM0 0v768h128v128h128v-256h128v-256h-128v128h-128v-128h128v-128h-128v-256h-128zM256 896v128h128v-128h-128z" />
    <glyph glyph-name="Rcaron" unicode="&#x158;" 
d="M0 0v896h128v128h128v-256h128v-256h-128v128h-128v-128h128v-128h128v-384h-128v256h-128v-256h-128zM0 1024v128h128v-128h-128zM256 1024v128h128v-128h-128z" />
    <glyph glyph-name="rcaron" unicode="&#x159;" 
d="M256 0v256h128v-256h-128zM0 0v768h128v128h128v-256h128v-256h-128v128h-128v-128h128v-128h-128v-256h-128zM0 896v128h128v-128h-128zM256 896v128h128v-128h-128z" />
    <glyph glyph-name="Sacute" unicode="&#x15a;" 
d="M0 0v256h256v128h128v-256h-128v-128h-256zM128 384v128h128v-128h-128zM0 512v256h128v256h128v-128h128v-256h-256v-128h-128zM256 1024v128h128v-128h-128z" />
    <glyph glyph-name="sacute" unicode="&#x15b;" 
d="M0 0v256h128v128h-128v256h128v256h128v-128h128v-256h-128v-128h128v-256h-128v-128h-256zM256 896v128h128v-128h-128z" />
    <glyph glyph-name="Scircumflex" unicode="&#x15c;" 
d="M0 0v256h256v128h128v-256h-128v-128h-256zM128 384v128h128v-128h-128zM0 896v128h128v-128h-128zM0 512v256h128v128h128v128h128v-384h-256v-128h-128zM128 1024v128h128v-128h-128z" />
    <glyph glyph-name="scircumflex" unicode="&#x15d;" 
d="M0 768v128h128v-128h-128zM0 0v256h128v128h-128v256h128v128h128v128h128v-384h-128v-128h128v-256h-128v-128h-256zM128 896v128h128v-128h-128z" />
    <glyph glyph-name="Scedilla" unicode="&#x15e;" 
d="M0 -256v128h128v-128h-128zM128 -128v128h-128v256h256v128h-128v128h-128v384h128v128h256v-256h-256v-128h128v-128h128v-384h-128v-256h-128z" />
    <glyph glyph-name="scedilla" unicode="&#x15f;" 
d="M0 -256v128h128v-128h-128zM128 -128v128h-128v256h256v128h128v-256h-128v-256h-128zM128 384v128h128v-128h-128zM0 512v256h128v128h256v-256h-256v-128h-128z" />
    <glyph glyph-name="Scaron" unicode="&#x160;" 
d="M0 0v256h256v128h128v-256h-128v-128h-256zM128 384v128h128v-128h-128zM0 512v256h128v256h128v-128h128v-256h-256v-128h-128zM0 1024v128h128v-128h-128zM256 1024v128h128v-128h-128z" />
    <glyph glyph-name="scaron" unicode="&#x161;" 
d="M0 0v256h128v128h-128v256h128v256h128v-128h128v-256h-128v-128h128v-256h-128v-128h-256zM0 896v128h128v-128h-128zM256 896v128h128v-128h-128z" />
    <glyph glyph-name="Umacron" unicode="&#x16a;" 
d="M128 0v128h-128v768h128v-640h128v640h128v-768h-128v-128h-128zM0 1024v128h384v-128h-384z" />
    <glyph glyph-name="umacron" unicode="&#x16b;" 
d="M0 0v768h128v-512h128v512h128v-640h-128v-128h-256zM0 896v128h384v-128h-384z" />
    <glyph glyph-name="Ycircumflex" unicode="&#x176;" 
d="M128 0v256h-128v512h128v-256h128v256h128v-512h-128v-256h-128zM0 896v128h128v-128h-128zM256 896v128h128v-128h-128zM128 1024v128h128v-128h-128z" />
    <glyph glyph-name="ycircumflex" unicode="&#x177;" 
d="M128 0v256h-128v384h128v-256h128v256h128v-384h-128v-256h-128zM0 768v128h128v-128h-128zM256 768v128h128v-128h-128zM128 896v128h128v-128h-128z" />
    <glyph glyph-name="Ydieresis" unicode="&#x178;" 
d="M128 0v384h-128v512h128v-256h128v256h128v-512h-128v-384h-128zM0 1024v128h128v-128h-128zM256 1024v128h128v-128h-128z" />
    <glyph glyph-name="uni01CD" unicode="&#x1cd;" 
d="M256 384v384h-128v-384h128zM0 0v896h128v128h128v-128h128v-896h-128v256h-128v-256h-128zM0 1024v128h128v-128h-128zM256 1024v128h128v-128h-128z" />
    <glyph glyph-name="uni01CE" unicode="&#x1ce;" 
d="M256 384v256h-128v-256h128zM0 0v768h128v128h128v-128h128v-768h-128v256h-128v-256h-128zM0 896v128h128v-128h-128zM256 896v128h128v-128h-128z" />
    <glyph glyph-name="uni01CF" unicode="&#x1cf;" 
d="M128 0v768h128v-768h-128zM128 896v128h128v-128h-128zM0 1024v128h128v-128h-128zM256 1024v128h128v-128h-128z" />
    <glyph glyph-name="uni01D0" unicode="&#x1d0;" 
d="M128 0v640h128v-640h-128zM128 768v128h128v-128h-128zM0 896v128h128v-128h-128zM256 896v128h128v-128h-128z" />
    <glyph glyph-name="uni01D1" unicode="&#x1d1;" 
d="M256 256v512h-128v-512h128zM128 0v128h-128v768h128v128h128v-128h128v-768h-128v-128h-128zM0 1024v128h128v-128h-128zM256 1024v128h128v-128h-128z" />
    <glyph glyph-name="uni01D2" unicode="&#x1d2;" 
d="M256 256v384h-128v-384h128zM128 0v128h-128v640h128v128h128v-128h128v-640h-128v-128h-128zM0 896v128h128v-128h-128zM256 896v128h128v-128h-128z" />
    <glyph glyph-name="uni01D3" unicode="&#x1d3;" 
d="M128 0v128h-128v768h128v-640h128v640h128v-768h-128v-128h-128zM128 896v128h128v-128h-128zM0 1024v128h128v-128h-128zM256 1024v128h128v-128h-128z" />
    <glyph glyph-name="uni01D4" unicode="&#x1d4;" 
d="M0 0v768h128v-512h128v512h128v-640h-128v-128h-256zM128 768v128h128v-128h-128zM0 896v128h128v-128h-128zM256 896v128h128v-128h-128z" />
    <glyph glyph-name="uni01DD" unicode="&#x1dd;" 
d="M256 256v128h-128v-128h128zM128 0v128h-128v384h256v128h-256v256h256v-128h128v-640h-128v-128h-128z" />
    <glyph glyph-name="Gcaron" unicode="&#x1e6;" 
d="M128 0v128h-128v640h128v256h128v-128h128v-256h-256v-384h128v256h128v-512h-256zM0 1024v128h128v-128h-128zM256 1024v128h128v-128h-128z" />
    <glyph glyph-name="gcaron" unicode="&#x1e7;" 
d="M128 0v128h-128v512h128v256h128v-128h128v-256h-256v-256h128v128h128v-384h-256zM0 896v128h128v-128h-128zM256 896v128h128v-128h-128z" />
    <glyph glyph-name="uni01F4" unicode="&#x1f4;" 
d="M128 0v128h-128v640h128v256h128v-128h128v-256h-256v-384h128v256h128v-512h-256zM256 1024v128h128v-128h-128z" />
    <glyph glyph-name="uni01F5" unicode="&#x1f5;" 
d="M128 0v128h-128v512h128v256h128v-128h128v-256h-256v-256h128v128h128v-384h-256zM256 896v128h128v-128h-128z" />
    <glyph glyph-name="uni01F8" unicode="&#x1f8;" 
d="M0 0v896h128v128h128v-256h128v-768h-128v640h-128v-640h-128zM0 1024v128h128v-128h-128z" />
    <glyph glyph-name="uni01F9" unicode="&#x1f9;" 
d="M0 0v768h128v128h128v-256h128v-640h-128v512h-128v-512h-128zM0 896v128h128v-128h-128z" />
    <glyph glyph-name="uni021E" unicode="&#x21e;" 
d="M0 0v896h128v-384h128v384h128v-896h-128v384h-128v-384h-128zM128 896v128h128v-128h-128zM0 1024v128h128v-128h-128zM256 1024v128h128v-128h-128z" />
    <glyph glyph-name="uni021F" unicode="&#x21f;" 
d="M0 0v768h128v-256h128v256h128v-768h-128v256h-128v-256h-128zM128 768v128h128v-128h-128zM0 896v128h128v-128h-128zM256 896v128h128v-128h-128z" />
    <glyph glyph-name="uni0226" unicode="&#x226;" 
d="M256 384v256h-128v-256h128zM0 0v768h128v128h128v-128h128v-768h-128v256h-128v-256h-128zM128 1024v128h128v-128h-128z" />
    <glyph glyph-name="uni0227" unicode="&#x227;" 
d="M256 384v128h-128v-128h128zM0 0v640h128v128h128v-128h128v-640h-128v256h-128v-256h-128zM128 896v128h128v-128h-128z" />
    <glyph glyph-name="uni0228" unicode="&#x228;" 
d="M128 -256v128h128v-128h-128zM256 -128v128h-256v1024h384v-256h-256v-128h256v-256h-256v-128h256v-384h-128z" />
    <glyph glyph-name="uni0229" unicode="&#x229;" 
d="M128 -256v128h128v-128h-128zM256 -128v128h-256v896h384v-256h-256v-128h256v-128h-256v-128h256v-384h-128z" />
    <glyph glyph-name="uni022E" unicode="&#x22e;" 
d="M256 256v384h-128v-384h128zM128 0v128h-128v640h128v128h128v-128h128v-640h-128v-128h-128zM128 1024v128h128v-128h-128z" />
    <glyph glyph-name="uni022F" unicode="&#x22f;" 
d="M256 256v256h-128v-256h128zM128 0v128h-128v512h128v128h128v-128h128v-512h-128v-128h-128zM128 896v128h128v-128h-128z" />
    <glyph glyph-name="uni0232" unicode="&#x232;" 
d="M128 0v384h-128v512h128v-384h128v384h128v-512h-128v-384h-128zM0 1024v128h384v-128h-384z" />
    <glyph glyph-name="uni0233" unicode="&#x233;" 
d="M128 0v256h-128v512h128v-384h128v384h128v-512h-128v-256h-128zM0 896v128h384v-128h-384z" />
    <glyph glyph-name="tilde" unicode="&#x2dc;" horiz-adv-x="640" 
d="M0 384v128h128v-128h-128zM256 384v128h128v-128h-128zM128 512v128h128v-128h-128zM384 512v128h128v-128h-128z" />
    <glyph glyph-name="Pi" unicode="&#x3a0;" 
d="M0 0v1024h384v-1024h-128v768h-128v-768h-128z" />
    <glyph glyph-name="pi" unicode="&#x3c0;" 
d="M0 0v896h384v-896h-128v768h-128v-768h-128z" />
    <glyph glyph-name="uni042F" unicode="&#x42f;" 
d="M0 0v384h128v128h128v256h-128v-256h-128v384h128v128h256v-1024h-128v256h-128v-256h-128z" />
    <glyph glyph-name="uni044F" unicode="&#x44f;" 
d="M0 0v384h128v128h128v128h-128v-128h-128v256h128v128h256v-896h-128v256h-128v-256h-128z" />
    <glyph glyph-name="uni1E2D" unicode="&#x1e2d;" 
d="M128 0v896h128v-896h-128z" />
    <glyph glyph-name="uni1E37" unicode="&#x1e37;" horiz-adv-x="384" 
d="M0 0v896h128v-640h256v-256h-384z" />
    <glyph glyph-name="uni1E3F" unicode="&#x1e3f;" horiz-adv-x="768" 
d="M0 0v896h512v-128h128v-768h-128v640h-128v-640h-128v640h-128v-640h-128z" />
    <glyph glyph-name="uni1E41" unicode="&#x1e41;" 
d="M0 0v896h128v-128h128v128h128v-896h-128v512h-128v-512h-128z" />
    <glyph glyph-name="uni1E73" unicode="&#x1e73;" 
d="M128 0v128h128v-128h-128zM0 128v768h128v-768h-128zM256 128v768h128v-768h-128z" />
    <glyph glyph-name="uni1E7D" unicode="&#x1e7d;" 
d="M128 0v128h-128v768h128v-640h128v640h128v-768h-128v-128h-128z" />
    <glyph glyph-name="wgrave" unicode="&#x1e81;" 
d="M0 0v896h128v-512h128v512h128v-896h-128v128h-128v-128h-128z" />
    <glyph glyph-name="uni1E8B" unicode="&#x1e8b;" 
d="M0 0v384h128v-384h-128zM256 0v384h128v-384h-128zM128 384v128h128v-128h-128zM0 512v384h128v-384h-128zM256 512v384h128v-384h-128z" />
    <glyph glyph-name="uni1E8F" unicode="&#x1e8f;" 
d="M128 0v512h-128v384h128v-256h128v256h128v-384h-128v-512h-128z" />
    <glyph glyph-name="uni1E96" unicode="&#x1e96;" 
d="M0 0v128h128v-128h-128z" />
    <glyph glyph-name="uni1E97" unicode="&#x1e97;" 
d="M0 -128v256h128v128h128v-256h-128v-128h-128z" />
    <glyph glyph-name="uni1E98" unicode="&#x1e98;" 
d="M0 -128v256h128v128h128v-256h-128v-128h-128zM128 384v128h128v-128h-128z" />
    <glyph glyph-name="uni1E9A" unicode="&#x1e9a;" 
d="M128 256v128h128v-128h-128zM128 512v128h128v-128h-128z" />
    <glyph glyph-name="uni1E9C" unicode="&#x1e9c;" 
d="M128 0v128h128v-128h-128zM128 256v640h128v-640h-128z" />
    <glyph glyph-name="uni1EA0" unicode="&#x1ea0;" 
d="M0 0v128h128v512h-128v128h128v128h128v-768h128v-128h-384z" />
    <glyph glyph-name="uni1EFA" unicode="&#x1efa;" 
d="M128 0v128h128v-128h-128zM128 256v256h128v256h-128v-128h-128v256h128v128h128v-128h128v-512h-128v-128h-128z" />
    <glyph glyph-name="uni1EFB" unicode="&#x1efb;" horiz-adv-x="256" 
d="M0 0v128h128v-128h-128zM0 256v768h128v-768h-128z" />
    <glyph glyph-name="uni1EFC" unicode="&#x1efc;" 
d="M128 0v128h-128v768h128v128h256v-256h-256v-512h256v-256h-256z" />
    <glyph glyph-name="uni1EFD" unicode="&#x1efd;" 
d="M0 0v256h256v512h-256v256h256v-128h128v-768h-128v-128h-256z" />
    <glyph glyph-name="uni1EFE" unicode="&#x1efe;" 
d="M0 0v1024h384v-256h-256v-512h256v-256h-384z" />
    <glyph glyph-name="uni1EFF" unicode="&#x1eff;" 
d="M0 0v256h256v512h-256v256h384v-1024h-384z" />
    <glyph glyph-name="uni2000" unicode="&#x2000;" horiz-adv-x="256" 
d="M0 384v128h128v-128h-128z" />
    <glyph glyph-name="uni2010" unicode="&#x2010;" 
d="M0 384v128h384v-128h-384z" />
    <glyph glyph-name="uni2011" unicode="&#x2011;" 
d="M0 384v128h384v-128h-384z" />
    <glyph glyph-name="figuredash" unicode="&#x2012;" horiz-adv-x="640" 
d="M0 384v128h384v-128h-384z" />
    <glyph glyph-name="endash" unicode="&#x2013;" horiz-adv-x="640" 
d="M0 384v128h512v-128h-512z" />
    <glyph glyph-name="emdash" unicode="&#x2014;" horiz-adv-x="768" 
d="M0 384v128h640v-128h-640z" />
    <glyph glyph-name="quoteleft" unicode="&#x2018;" horiz-adv-x="384" 
d="M128 512v128h-128v256h128v-128h128v-256h-128z" />
    <glyph glyph-name="quoteright" unicode="&#x2019;" horiz-adv-x="384" 
d="M0 512v256h128v128h128v-256h-128v-128h-128z" />
    <glyph glyph-name="quotesinglbase" unicode="&#x201a;" horiz-adv-x="384" 
d="M0 -128v256h128v128h128v-256h-128v-128h-128z" />
    <glyph glyph-name="quotereversed" unicode="&#x201b;" horiz-adv-x="384" 
d="M128 512v128h-128v256h128v-128h128v-256h-128z" />
    <glyph glyph-name="quotedblleft" unicode="&#x201c;" horiz-adv-x="640" 
d="M128 512v128h-128v256h128v-128h128v128h128v-128h128v-256h-128v128h-128v-128h-128z" />
    <glyph glyph-name="quotedblright" unicode="&#x201d;" horiz-adv-x="640" 
d="M0 512v256h128v128h128v-128h128v128h128v-256h-128v-128h-128v128h-128v-128h-128z" />
    <glyph glyph-name="quotedblbase" unicode="&#x201e;" horiz-adv-x="640" 
d="M0 -128v256h128v128h128v-128h128v128h128v-256h-128v-128h-128v128h-128v-128h-128z" />
    <glyph glyph-name="uni201F" unicode="&#x201f;" horiz-adv-x="640" 
d="M128 512v128h-128v256h128v-128h128v128h128v-128h128v-256h-128v128h-128v-128h-128z" />
    <glyph glyph-name="dagger" unicode="&#x2020;" 
d="M128 0v512h-128v256h128v256h128v-256h128v-256h-128v-512h-128z" />
    <glyph glyph-name="daggerdbl" unicode="&#x2021;" 
d="M128 0v128h-128v256h128v256h-128v256h128v128h128v-128h128v-256h-128v-256h128v-256h-128v-128h-128z" />
    <glyph glyph-name="bullet" unicode="&#x2022;" horiz-adv-x="256" 
d="M0 384v128h128v-128h-128z" />
    <glyph glyph-name="uni2023" unicode="&#x2023;" 
d="M0 128v640h128v-128h128v-128h128v-128h-128v-128h-128v-128h-128z" />
    <glyph glyph-name="onedotenleader" unicode="&#x2024;" horiz-adv-x="256" 
d="M0 0v128h128v-128h-128z" />
    <glyph glyph-name="twodotenleader" unicode="&#x2025;" 
d="M0 0v128h128v-128h-128zM256 0v128h128v-128h-128z" />
    <glyph glyph-name="ellipsis" unicode="&#x2026;" horiz-adv-x="768" 
d="M0 0v128h128v-128h-128zM256 0v128h128v-128h-128zM512 0v128h128v-128h-128z" />
    <glyph glyph-name="uni2027" unicode="&#x2027;" horiz-adv-x="256" 
d="M0 384v128h128v-128h-128z" />
    <glyph glyph-name="minute" unicode="&#x2032;" horiz-adv-x="256" 
d="M0 768v256h128v-256h-128z" />
    <glyph glyph-name="second" unicode="&#x2033;" 
d="M0 768v256h128v-256h-128zM256 768v256h128v-256h-128z" />
    <glyph glyph-name="uni2034" unicode="&#x2034;" horiz-adv-x="768" 
d="M0 768v256h128v-256h-128zM256 768v256h128v-256h-128zM512 768v256h128v-256h-128z" />
    <glyph glyph-name="uni2038" unicode="&#x2038;" 
d="M0 0v256h128v128h128v-128h128v-256h-128v128h-128v-128h-128z" />
    <glyph glyph-name="guilsinglleft" unicode="&#x2039;" horiz-adv-x="384" 
d="M128 256v128h128v-128h-128zM0 384v128h128v-128h-128zM128 512v128h128v-128h-128z" />
    <glyph glyph-name="guilsinglright" unicode="&#x203a;" horiz-adv-x="384" 
d="M0 256v128h128v-128h-128zM128 384v128h128v-128h-128zM0 512v128h128v-128h-128z" />
    <glyph glyph-name="uni203E" unicode="&#x203e;" 
d="M0 768v128h384v-128h-384z" />
    <glyph glyph-name="uni2043" unicode="&#x2043;" horiz-adv-x="256" 
d="M0 384v128h128v-128h-128z" />
    <glyph glyph-name="fraction" unicode="&#x2044;" 
d="M0 0v384h128v-384h-128zM128 384v128h128v-128h-128zM256 512v384h128v-384h-128z" />
    <glyph glyph-name="uni2070" unicode="&#x2070;" 
d="M256 384v384h-128v-384h128zM0 256v640h384v-640h-384z" />
    <glyph glyph-name="uni2074" unicode="&#x2074;" 
d="M256 256v256h-256v384h128v-256h128v256h128v-640h-128z" />
    <glyph glyph-name="uni2075" unicode="&#x2075;" 
d="M0 256v128h256v128h-256v384h384v-128h-256v-128h256v-384h-384z" />
    <glyph glyph-name="uni2076" unicode="&#x2076;" 
d="M256 384v128h-128v-128h128zM0 256v640h384v-128h-256v-128h256v-384h-384z" />
    <glyph glyph-name="uni2077" unicode="&#x2077;" 
d="M256 256v512h-256v128h384v-640h-128z" />
    <glyph glyph-name="uni2078" unicode="&#x2078;" 
d="M256 384v128h-128v-128h128zM256 640v128h-128v-128h128zM0 256v640h384v-640h-384z" />
    <glyph glyph-name="uni2079" unicode="&#x2079;" 
d="M256 640v128h-128v-128h128zM0 256v128h256v128h-256v384h384v-640h-384z" />
    <glyph glyph-name="uni207A" unicode="&#x207a;" 
d="M128 512v128h-128v128h128v128h128v-128h128v-128h-128v-128h-128z" />
    <glyph glyph-name="uni207B" unicode="&#x207b;" 
d="M0 640v128h384v-128h-384z" />
    <glyph glyph-name="uni207C" unicode="&#x207c;" 
d="M0 512v128h384v-128h-384zM0 768v128h384v-128h-384z" />
    <glyph glyph-name="uni207D" unicode="&#x207d;" 
d="M128 256v128h-128v384h128v128h256v-128h-128v-128h-128v-128h128v-128h128v-128h-256z" />
    <glyph glyph-name="uni207E" unicode="&#x207e;" 
d="M0 256v128h128v128h128v128h-128v128h-128v128h256v-128h128v-384h-128v-128h-256z" />
    <glyph glyph-name="uni207F" unicode="&#x207f;" 
d="M0 384v512h256v-128h128v-384h-128v256h-128v-256h-128z" />
    <glyph glyph-name="uni2080" unicode="&#x2080;" 
d="M256 128v384h-128v-384h128zM0 0v640h384v-640h-384z" />
    <glyph glyph-name="uni2081" unicode="&#x2081;" 
d="M128 0v640h128v-640h-128z" />
    <glyph glyph-name="uni2082" unicode="&#x2082;" 
d="M0 0v384h256v128h-256v128h384v-384h-256v-128h256v-128h-384z" />
    <glyph glyph-name="uni2083" unicode="&#x2083;" 
d="M0 0v128h256v128h-128v128h128v128h-256v128h384v-640h-384z" />
    <glyph glyph-name="uni2084" unicode="&#x2084;" 
d="M256 0v256h-256v384h128v-256h128v256h128v-640h-128z" />
    <glyph glyph-name="uni2085" unicode="&#x2085;" 
d="M0 0v128h256v128h-256v384h384v-128h-256v-128h256v-384h-384z" />
    <glyph glyph-name="uni2086" unicode="&#x2086;" 
d="M256 128v128h-128v-128h128zM0 0v640h384v-128h-256v-128h256v-384h-384z" />
    <glyph glyph-name="uni2087" unicode="&#x2087;" 
d="M256 0v512h-256v128h384v-640h-128z" />
    <glyph glyph-name="uni2088" unicode="&#x2088;" 
d="M256 128v128h-128v-128h128zM256 384v128h-128v-128h128zM0 0v640h384v-640h-384z" />
    <glyph glyph-name="uni2089" unicode="&#x2089;" 
d="M256 384v128h-128v-128h128zM0 0v128h256v128h-256v384h384v-640h-384z" />
    <glyph glyph-name="uni208A" unicode="&#x208a;" 
d="M128 0v128h-128v128h128v128h128v-128h128v-128h-128v-128h-128z" />
    <glyph glyph-name="uni208B" unicode="&#x208b;" 
d="M0 128v128h384v-128h-384z" />
    <glyph glyph-name="uni208C" unicode="&#x208c;" 
d="M0 0v128h384v-128h-384zM0 256v128h384v-128h-384z" />
    <glyph glyph-name="uni208D" unicode="&#x208d;" 
d="M128 0v128h-128v384h128v128h256v-128h-128v-128h-128v-128h128v-128h128v-128h-256z" />
    <glyph glyph-name="uni208E" unicode="&#x208e;" 
d="M0 0v128h128v128h128v128h-128v128h-128v128h256v-128h128v-384h-128v-128h-256z" />
    <glyph glyph-name="uni2099" unicode="&#x2099;" 
d="M0 0v512h256v-128h128v-384h-128v256h-128v-256h-128z" />
    <glyph glyph-name="Euro" unicode="&#x20ac;" 
d="M128 0v384h-128v128h128v384h256v-256h-128v-128h128v-128h-128v-128h128v-256h-256z" />
    <glyph glyph-name="uni2160" unicode="&#x2160;" 
d="M0 0v256h128v384h-128v256h128v128h128v-768h128v-256h-384z" />
    <glyph glyph-name="uni2161" unicode="&#x2161;" 
d="M0 0v384h128v-128h256v-256h-384zM128 384v128h128v-128h-128zM256 512v256h-256v256h256v-128h128v-384h-128z" />
    <glyph glyph-name="uni2162" unicode="&#x2162;" 
d="M0 0v256h256v128h-128v256h128v-128h128v-384h-128v-128h-256zM256 640v128h-256v256h256v-128h128v-256h-128z" />
    <glyph glyph-name="uni2163" unicode="&#x2163;" 
d="M256 0v384h-256v640h128v-384h128v384h128v-1024h-128z" />
    <glyph glyph-name="uni2164" unicode="&#x2164;" 
d="M0 0v256h256v128h-128v128h-128v512h384v-256h-256v-128h128v-128h128v-384h-128v-128h-256z" />
    <glyph glyph-name="uni2165" unicode="&#x2165;" 
d="M256 256v128h-128v-128h128zM128 0v128h-128v768h128v128h256v-256h-256v-128h128v-128h128v-384h-128v-128h-128z" />
    <glyph glyph-name="uni2166" unicode="&#x2166;" 
d="M0 0v256h128v-256h-128zM128 256v256h128v-256h-128zM256 512v256h-256v256h384v-512h-128z" />
    <glyph glyph-name="uni2167" unicode="&#x2167;" 
d="M128 0v128h-128v384h128v-256h128v256h128v-384h-128v-128h-128zM128 512v128h128v-128h-128zM0 640v256h128v128h128v-128h128v-256h-128v128h-128v-128h-128z" />
    <glyph glyph-name="uni2168" unicode="&#x2168;" 
d="M256 640v128h-128v-128h128zM0 0v256h256v128h-128v128h-128v384h128v128h128v-128h128v-768h-128v-128h-256z" />
    <glyph glyph-name="uni2169" unicode="&#x2169;" 
d="M256 256v512h-128v-512h128zM128 0v128h-128v768h128v128h128v-128h128v-768h-128v-128h-128z" />
    <glyph glyph-name="uniFF01" unicode="&#xff01;" 
d="M128 0v128h128v-128h-128zM128 256v512h128v-512h-128z" />
    <glyph glyph-name="uniFF02" unicode="&#xff02;" 
d="M0 512v256h128v-256h-128zM256 512v256h128v-256h-128z" />
    <glyph glyph-name="uniFF05" unicode="&#xff05;" 
d="M256 0v128h128v-128h-128zM0 0v256h128v-256h-128zM128 256v256h128v-256h-128zM0 640v128h128v-128h-128zM256 512v256h128v-256h-128z" />
    <glyph glyph-name="uniFF07" unicode="&#xff07;" 
d="M0 512v128h128v-128h-128zM128 640v128h128v-128h-128z" />
    <glyph glyph-name="uniFF08" unicode="&#xff08;" 
d="M128 0v128h-128v512h128v128h256v-128h-128v-128h-128v-256h128v-128h128v-128h-256z" />
    <glyph glyph-name="uniFF09" unicode="&#xff09;" 
d="M0 0v128h128v128h128v256h-128v128h-128v128h256v-128h128v-512h-128v-128h-256z" />
    <glyph glyph-name="uniFF0B" unicode="&#xff0b;" 
d="M128 256v128h-128v128h128v128h128v-128h128v-128h-128v-128h-128z" />
    <glyph glyph-name="uniFF0C" unicode="&#xff0c;" 
d="M0 -128v128h128v-128h-128zM128 0v128h128v-128h-128z" />
    <glyph glyph-name="uniFF0D" unicode="&#xff0d;" 
d="M0 384v128h384v-128h-384z" />
    <glyph glyph-name="uniFF0E" unicode="&#xff0e;" 
d="M128 0v128h128v-128h-128z" />
    <glyph glyph-name="uniFF0F" unicode="&#xff0f;" 
d="M0 0v256h128v-256h-128zM128 256v256h128v-256h-128zM256 512v256h128v-256h-128z" />
    <glyph glyph-name="uniFF10" unicode="&#xff10;" 
d="M128 0v128h128v-128h-128zM0 128v512h128v-512h-128zM256 128v512h128v-512h-128zM128 640v128h128v-128h-128z" />
    <glyph glyph-name="uniFF11" unicode="&#xff11;" 
d="M128 0v768h128v-768h-128z" />
    <glyph glyph-name="uniFF12" unicode="&#xff12;" 
d="M0 0v384h128v-256h256v-128h-384zM128 384v128h128v-128h-128zM256 512v128h128v-128h-128zM0 640v128h256v-128h-256z" />
    <glyph glyph-name="uniFF13" unicode="&#xff13;" 
d="M0 0v128h256v-128h-256zM256 128v256h128v-256h-128zM128 384v128h128v-128h-128zM256 512v128h128v-128h-128zM0 640v128h256v-128h-256z" />
    <glyph glyph-name="uniFF14" unicode="&#xff14;" 
d="M256 0v384h-256v384h128v-256h128v256h128v-768h-128z" />
    <glyph glyph-name="uniFF15" unicode="&#xff15;" 
d="M0 0v128h256v-128h-256zM256 128v256h128v-256h-128zM0 384v384h384v-128h-256v-128h128v-128h-256z" />
    <glyph glyph-name="uniFF16" unicode="&#xff16;" 
d="M128 0v128h128v-128h-128zM256 128v256h128v-256h-128zM0 128v512h128v-128h128v-128h-128v-256h-128zM128 640v128h256v-128h-256z" />
    <glyph glyph-name="uniFF17" unicode="&#xff17;" 
d="M128 0v512h128v-512h-128zM256 512v128h-256v128h384v-256h-128z" />
    <glyph glyph-name="uniFF18" unicode="&#xff18;" 
d="M128 0v128h128v-128h-128zM0 128v256h128v-256h-128zM256 128v256h128v-256h-128zM128 384v128h128v-128h-128zM0 512v128h128v-128h-128zM256 512v128h128v-128h-128zM128 640v128h128v-128h-128z" />
    <glyph glyph-name="uniFF19" unicode="&#xff19;" 
d="M0 0v128h256v-128h-256zM0 384v256h128v-256h-128zM256 128v128h-128v128h128v256h128v-512h-128zM128 640v128h128v-128h-128z" />
    <glyph glyph-name="uniFF1A" unicode="&#xff1a;" 
d="M128 256v128h128v-128h-128zM128 512v128h128v-128h-128z" />
    <glyph glyph-name="uniFF1B" unicode="&#xff1b;" 
d="M0 -128v128h128v-128h-128zM128 0v128h128v-128h-128zM128 256v128h128v-128h-128z" />
    <glyph glyph-name="uniFF1C" unicode="&#xff1c;" horiz-adv-x="256" 
d="M0 128v128h128v-128h-128zM0 384v128h128v-128h-128z" />
    <glyph glyph-name="uniFF1D" unicode="&#xff1d;" 
d="M128 128v128h128v-128h-128zM128 512v128h128v-128h-128z" />
    <glyph glyph-name="uniFF1E" unicode="&#xff1e;" 
d="M128 128v128h128v-128h-128zM128 384v128h128v-128h-128z" />
    <glyph glyph-name="uniFF1F" unicode="&#xff1f;" 
d="M128 0v128h128v-128h-128zM128 256v256h128v-256h-128zM256 512v128h128v-128h-128zM0 640v128h256v-128h-256z" />
    <glyph glyph-name="uniFF20" unicode="&#xff20;" 
d="M128 256v128h128v-128h-128z" />
    <glyph glyph-name="uniFF21" unicode="&#xff21;" 
d="M0 0v640h128v-256h128v256h128v-640h-128v256h-128v-256h-128zM128 640v128h128v-128h-128z" />
    <glyph glyph-name="uniFF22" unicode="&#xff22;" 
d="M256 128v256h128v-256h-128zM256 512v128h128v-128h-128zM0 0v768h256v-128h-128v-128h128v-128h-128v-256h128v-128h-256z" />
    <glyph glyph-name="uniFF23" unicode="&#xff23;" 
d="M128 0v128h256v-128h-256zM0 128v512h128v-512h-128zM128 640v128h256v-128h-256z" />
    <glyph glyph-name="uniFF24" unicode="&#xff24;" 
d="M256 128v512h128v-512h-128zM0 0v768h256v-128h-128v-512h128v-128h-256z" />
    <glyph glyph-name="uniFF25" unicode="&#xff25;" 
d="M0 0v768h384v-128h-256v-128h128v-128h-128v-256h256v-128h-384z" />
    <glyph glyph-name="uniFF26" unicode="&#xff26;" 
d="M0 0v768h384v-128h-256v-128h128v-128h-128v-384h-128z" />
    <glyph glyph-name="uniFF27" unicode="&#xff27;" 
d="M128 0v128h128v256h128v-384h-256zM0 128v512h128v-512h-128zM128 640v128h256v-128h-256z" />
    <glyph glyph-name="uniFF28" unicode="&#xff28;" 
d="M0 0v768h128v-256h128v256h128v-768h-128v384h-128v-384h-128z" />
    <glyph glyph-name="uniFF29" unicode="&#xff29;" 
d="M0 0v128h128v512h-128v128h384v-128h-128v-512h128v-128h-384z" />
    <glyph glyph-name="uniFF2A" unicode="&#xff2a;" 
d="M0 0v128h256v-128h-256zM256 128v512h-256v128h384v-640h-128z" />
    <glyph glyph-name="uniFF2B" unicode="&#xff2b;" 
d="M256 0v384h128v-384h-128zM0 0v768h128v-256h128v-128h-128v-384h-128zM256 512v256h128v-256h-128z" />
    <glyph glyph-name="uniFF2C" unicode="&#xff2c;" 
d="M0 0v768h128v-640h256v-128h-384z" />
    <glyph glyph-name="uniFF2D" unicode="&#xff2d;" 
d="M0 0v768h128v-128h128v128h128v-768h-128v512h-128v-512h-128z" />
    <glyph glyph-name="uniFF2E" unicode="&#xff2e;" 
d="M256 0v640h128v-640h-128zM0 0v768h256v-128h-128v-640h-128z" />
    <glyph glyph-name="uniFF2F" unicode="&#xff2f;" 
d="M128 0v128h128v-128h-128zM0 128v512h128v-512h-128zM256 128v512h128v-512h-128zM128 640v128h128v-128h-128z" />
    <glyph glyph-name="uniFF30" unicode="&#xff30;" 
d="M256 512v128h128v-128h-128zM0 0v768h256v-128h-128v-128h128v-128h-128v-384h-128z" />
    <glyph glyph-name="uniFF31" unicode="&#xff31;" 
d="M128 0v128h-128v512h128v-384h128v384h128v-640h-256zM128 640v128h128v-128h-128z" />
    <glyph glyph-name="uniFF32" unicode="&#xff32;" 
d="M256 0v256h128v-256h-128zM256 384v256h128v-256h-128zM0 0v768h256v-128h-128v-256h128v-128h-128v-256h-128z" />
    <glyph glyph-name="uniFF33" unicode="&#xff33;" 
d="M0 0v128h256v-128h-256zM256 128v256h128v-256h-128zM128 384v128h128v-128h-128zM0 512v128h128v-128h-128zM128 640v128h256v-128h-256z" />
    <glyph glyph-name="uniFF34" unicode="&#xff34;" 
d="M128 0v640h-128v128h384v-128h-128v-640h-128z" />
    <glyph glyph-name="uniFF35" unicode="&#xff35;" 
d="M0 0v768h128v-640h128v640h128v-768h-384z" />
    <glyph glyph-name="uniFF36" unicode="&#xff36;" 
d="M0 0v768h128v-512h128v-128h-128v-128h-128zM256 256v512h128v-512h-128z" />
    <glyph glyph-name="uniFF37" unicode="&#xff37;" 
d="M0 0v768h128v-512h128v512h128v-768h-128v128h-128v-128h-128z" />
    <glyph glyph-name="uniFF38" unicode="&#xff38;" 
d="M0 0v384h128v-384h-128zM256 0v384h128v-384h-128zM128 384v128h128v-128h-128zM0 512v256h128v-256h-128zM256 512v256h128v-256h-128z" />
    <glyph glyph-name="uniFF39" unicode="&#xff39;" 
d="M128 0v384h128v-384h-128zM0 384v384h128v-384h-128zM256 384v384h128v-384h-128z" />
    <glyph glyph-name="uniFF3A" unicode="&#xff3a;" 
d="M0 0v256h128v-128h256v-128h-384zM128 256v256h128v-256h-128zM256 512v128h-256v128h384v-256h-128z" />
    <glyph glyph-name="uniFF3B" unicode="&#xff3b;" horiz-adv-x="384" 
d="M0 0v768h256v-128h-128v-512h128v-128h-256z" />
    <glyph glyph-name="uniFF3C" unicode="&#xff3c;" 
d="M256 0v256h128v-256h-128zM128 256v256h128v-256h-128zM0 512v256h128v-256h-128z" />
    <glyph glyph-name="uniFF3D" unicode="&#xff3d;" horiz-adv-x="384" 
d="M0 0v128h128v512h-128v128h256v-768h-256z" />
    <glyph glyph-name="uniFF3E" unicode="&#xff3e;" 
d="M0 512v128h128v-128h-128zM256 512v128h128v-128h-128zM128 640v128h128v-128h-128z" />
    <glyph glyph-name="uniFF40" unicode="&#xff40;" 
d="M128 512v128h128v-128h-128zM0 640v128h128v-128h-128z" />
    <glyph glyph-name="uniFF41" unicode="&#xff41;" 
d="M256 384v128h-128v-128h128zM0 0v640h384v-640h-128v256h-128v-256h-128z" />
    <glyph glyph-name="uniFF42" unicode="&#xff42;" 
d="M256 128v128h-128v-128h128zM256 384v128h-128v-128h128zM0 0v640h384v-640h-384z" />
    <glyph glyph-name="uniFF43" unicode="&#xff43;" 
d="M0 0v640h384v-128h-256v-384h256v-128h-384z" />
    <glyph glyph-name="uniFF44" unicode="&#xff44;" 
d="M256 128v384h128v-384h-128zM0 0v640h256v-128h-128v-384h128v-128h-256z" />
    <glyph glyph-name="uniFF45" unicode="&#xff45;" 
d="M0 0v640h384v-128h-256v-128h128v-128h-128v-128h256v-128h-384z" />
    <glyph glyph-name="uniFF46" unicode="&#xff46;" 
d="M0 0v640h384v-128h-256v-128h128v-128h-128v-256h-128z" />
    <glyph glyph-name="uniFF47" unicode="&#xff47;" 
d="M0 0v640h384v-128h-256v-384h128v256h128v-384h-384z" />
    <glyph glyph-name="uniFF48" unicode="&#xff48;" 
d="M0 0v640h128v-256h128v256h128v-640h-128v256h-128v-256h-128z" />
    <glyph glyph-name="uniFF49" unicode="&#xff49;" 
d="M0 0v128h128v384h-128v128h384v-128h-128v-384h128v-128h-384z" />
    <glyph glyph-name="uniFF4A" unicode="&#xff4a;" 
d="M128 0v128h128v-128h-128zM0 128v128h128v-128h-128zM256 128v512h128v-512h-128z" />
    <glyph glyph-name="uniFF4B" unicode="&#xff4b;" 
d="M256 0v256h128v-256h-128zM0 0v640h128v-256h128v-128h-128v-256h-128zM256 384v256h128v-256h-128z" />
    <glyph glyph-name="uniFF4C" unicode="&#xff4c;" 
d="M0 0v640h128v-512h256v-128h-384z" />
    <glyph glyph-name="uniFF4D" unicode="&#xff4d;" 
d="M0 0v640h128v-128h128v128h128v-640h-128v384h-128v-384h-128z" />
    <glyph glyph-name="uniFF4E" unicode="&#xff4e;" 
d="M0 0v640h384v-640h-128v512h-128v-512h-128z" />
    <glyph glyph-name="uniFF4F" unicode="&#xff4f;" 
d="M256 128v384h-128v-384h128zM0 0v640h384v-640h-384z" />
    <glyph glyph-name="uniFF50" unicode="&#xff50;" 
d="M256 384v128h-128v-128h128zM0 0v640h384v-384h-256v-256h-128z" />
    <glyph glyph-name="uniFF51" unicode="&#xff51;" 
d="M128 0v128h-128v512h384v-384h-128v256h-128v-256h128v-128h128v-128h-256z" />
    <glyph glyph-name="uniFF52" unicode="&#xff52;" 
d="M256 0v256h128v-256h-128zM256 384v128h128v-128h-128zM0 0v640h256v-128h-128v-128h128v-128h-128v-256h-128z" />
    <glyph glyph-name="uniFF53" unicode="&#xff53;" 
d="M0 0v128h256v128h-256v384h384v-128h-256v-128h256v-384h-384z" />
    <glyph glyph-name="uniFF54" unicode="&#xff54;" 
d="M128 0v512h-128v128h384v-128h-128v-512h-128z" />
    <glyph glyph-name="uniFF55" unicode="&#xff55;" 
d="M128 0v128h128v-128h-128zM0 128v512h128v-512h-128zM256 128v512h128v-512h-128z" />
    <glyph glyph-name="uniFF56" unicode="&#xff56;" 
d="M128 0v256h128v-256h-128zM0 256v384h128v-384h-128zM256 256v384h128v-384h-128z" />
    <glyph glyph-name="uniFF57" unicode="&#xff57;" 
d="M0 0v640h128v-384h128v384h128v-640h-128v128h-128v-128h-128z" />
    <glyph glyph-name="uniFF58" unicode="&#xff58;" 
d="M0 0v256h128v-256h-128zM256 0v256h128v-256h-128zM128 256v128h128v-128h-128zM0 384v256h128v-256h-128zM256 384v256h128v-256h-128z" />
    <glyph glyph-name="uniFF59" unicode="&#xff59;" 
d="M128 0v384h128v-384h-128zM0 384v256h128v-256h-128zM256 384v256h128v-256h-128z" />
    <glyph glyph-name="uniFF5A" unicode="&#xff5a;" 
d="M0 0v256h128v-128h256v-128h-384zM128 256v128h128v-128h-128zM256 384v128h-256v128h384v-256h-128z" />
    <glyph glyph-name="uniFF5B" unicode="&#xff5b;" horiz-adv-x="256" 
d="M0 256v128h128v-128h-128z" />
    <glyph glyph-name="uniFF5C" unicode="&#xff5c;" 
d="M128 0v768h128v-768h-128z" />
    <glyph glyph-name="uniFF5D" unicode="&#xff5d;" 
d="M128 256v128h128v-128h-128z" />
    <glyph glyph-name="uniFF5E" unicode="&#xff5e;" 
d="M0 128v128h384v-128h-384zM0 384v128h384v-128h-384z" />
    <glyph glyph-name="uniFF5F" unicode="&#xff5f;" 
d="M128 128v128h-128v128h128v128h128v-128h128v-128h-128v-128h-128z" />
    <glyph glyph-name="uniFF60" unicode="&#xff60;" 
d="M0 256v128h384v-128h-384z" />
    <glyph glyph-name="uniFF61" unicode="&#xff61;" horiz-adv-x="256" 
d="M0 0v128h128v-128h-128z" />
    <glyph glyph-name="uniFF62" unicode="&#xff62;" 
d="M0 0v256h128v-256h-128zM128 256v128h128v-128h-128zM256 384v256h128v-256h-128z" />
    <glyph glyph-name="uniFF63" unicode="&#xff63;" 
d="M256 0v256h128v-256h-128zM128 256v128h128v-128h-128zM0 384v256h128v-256h-128z" />
    <glyph glyph-name="uniFF64" unicode="&#xff64;" horiz-adv-x="384" 
d="M0 -128v256h128v128h128v-256h-128v-128h-128z" />
    <glyph glyph-name="uniFF65" unicode="&#xff65;" 
d="M0 128v128h128v-128h-128zM256 128v128h128v-128h-128zM128 256v128h128v-128h-128zM0 384v128h128v-128h-128zM256 384v128h128v-128h-128z" />
    <glyph glyph-name="uniFF66" unicode="&#xff66;" 
d="M128 0v128h128v-128h-128zM128 256v128h128v128h-256v128h384v-384h-256z" />
    <glyph glyph-name="uniFF67" unicode="&#xff67;" 
d="M128 0v128h128v-128h-128zM128 256v384h128v-384h-128z" />
    <glyph glyph-name="uniFF68" unicode="&#xff68;" 
d="M128 0v128h128v-128h-128z" />
    <glyph glyph-name="uniFF69" unicode="&#xff69;" horiz-adv-x="256" 
d="M0 -128v256h128v-256h-128z" />
    <glyph glyph-name="uniFF6A" unicode="&#xff6a;" 
d="M128 -128v256h128v-256h-128z" />
    <glyph glyph-name="uniFF6B" unicode="&#xff6b;" 
d="M0 768v256h128v-256h-128zM256 768v256h128v-256h-128z" />
    <glyph glyph-name="uniFF6C" unicode="&#xff6c;" horiz-adv-x="256" 
d="M0 768v256h128v-256h-128z" />
    <glyph glyph-name="uniFF6D" unicode="&#xff6d;" horiz-adv-x="384" 
d="M0 768v256h128v-256h-128z" />
    <glyph glyph-name="uniFF6E" unicode="&#xff6e;" horiz-adv-x="384" 
d="M0 640v256h128v-256h-128z" />
    <glyph glyph-name="uniFF6F" unicode="&#xff6f;" horiz-adv-x="256" 
d="M0 384v256h128v-256h-128z" />
    <glyph glyph-name="uniFF70" unicode="&#xff70;" 
d="M128 384v256h128v-256h-128z" />
    <glyph glyph-name="uniFF71" unicode="&#xff71;" 
d="M0 0v640h128v-128h128v128h128v-640h-128v384h-128v-384h-128zM128 640v128h128v-128h-128z" />
    <glyph glyph-name="uniFF72" unicode="&#xff72;" 
d="M128 0v128h128v-128h-128zM256 128v128h128v-128h-128zM0 128v512h128v-512h-128zM256 512v128h128v-128h-128zM128 640v128h128v-128h-128z" />
    <glyph glyph-name="uniFF73" unicode="&#xff73;" horiz-adv-x="384" 
d="M0 0v768h256v-128h-128v-128h128v-128h-128v-256h128v-128h-256z" />
    <glyph glyph-name="uniFF74" unicode="&#xff74;" 
d="M128 0v128h128v256h128v-384h-256zM0 128v512h128v-512h-128zM128 640v128h256v-128h-256z" />
    <glyph glyph-name="uniFF75" unicode="&#xff75;" 
d="M0 0v128h256v-128h-256zM256 128v640h128v-640h-128z" />
    <glyph glyph-name="uniFF76" unicode="&#xff76;" 
d="M128 0v128h128v-128h-128zM0 128v128h128v-128h-128zM256 128v640h128v-640h-128z" />
    <glyph glyph-name="uniFF77" unicode="&#xff77;" horiz-adv-x="768" 
d="M0 0v768h128v-128h128v-128h128v128h128v128h128v-768h-128v384h-128v-128h-128v128h-128v-384h-128z" />
    <glyph glyph-name="uniFF78" unicode="&#xff78;" 
d="M0 0v640h128v-512h128v-128h-256zM256 128v512h-128v128h256v-640h-128z" />
    <glyph glyph-name="uniFF79" unicode="&#xff79;" 
d="M256 384v256h128v-256h-128zM0 0v768h256v-128h-128v-256h128v-128h-128v-256h-128z" />
    <glyph glyph-name="uniFF7A" unicode="&#xff7a;" 
d="M256 -128v128h128v-128h-128zM128 0v128h128v-128h-128zM0 128v512h128v-512h-128zM256 128v512h128v-512h-128zM128 640v128h128v-128h-128z" />
    <glyph glyph-name="uniFF7B" unicode="&#xff7b;" 
d="M256 0v384h128v-384h-128zM256 512v128h128v-128h-128zM0 0v768h256v-128h-128v-128h128v-128h-128v-384h-128z" />
    <glyph glyph-name="uniFF7C" unicode="&#xff7c;" horiz-adv-x="384" 
d="M0 0v128h128v256h-128v384h256v-128h-128v-128h128v-512h-256z" />
    <glyph glyph-name="uniFF7D" unicode="&#xff7d;" 
d="M128 0v640h-128v128h384v-128h-128v-640h-128z" />
    <glyph glyph-name="uniFF7E" unicode="&#xff7e;" 
d="M0 128v640h128v-640h-128zM128 0v128h128v640h128v-768h-256z" />
    <glyph glyph-name="uniFF7F" unicode="&#xff7f;" 
d="M128 0v128h128v-128h-128zM0 128v640h128v-640h-128zM256 128v640h128v-640h-128z" />
    <glyph glyph-name="uniFF80" unicode="&#xff80;" 
d="M128 0v256h128v-256h-128zM0 256v512h128v-512h-128zM256 256v512h128v-512h-128z" />
    <glyph glyph-name="uniFF81" unicode="&#xff81;" 
d="M128 0v512h128v-512h-128zM0 512v256h128v-256h-128zM256 512v256h128v-256h-128z" />
    <glyph glyph-name="uniFF82" unicode="&#xff82;" 
d="M0 0v384h128v-256h256v-128h-384zM128 384v128h128v-128h-128zM256 512v128h-256v128h384v-256h-128z" />
    <glyph glyph-name="uniFF85" unicode="&#xff85;" 
d="M0 0v128h128v384h-128v128h128v128h128v-640h128v-128h-384z" />
    <glyph glyph-name="uniFF86" unicode="&#xff86;" 
d="M0 512v256h128v-256h-128zM256 0v384h-128v128h128v256h128v-768h-128z" />
    <glyph glyph-name="uniFF87" unicode="&#xff87;" 
d="M0 0v256h128v-256h-128zM128 256v256h128v-256h-128zM256 512v128h-256v128h384v-256h-128z" />
    <glyph glyph-name="NULL" horiz-adv-x="0" 
 />
    <glyph glyph-name="nonmarkingreturn" horiz-adv-x="128" 
 />
  </font>
</defs>
</svg>
