<?xml version="1.0" standalone="no"?>
<!DOCTYPE svg PUBLIC "-//W3C//DTD SVG 1.1//EN" "http://www.w3.org/Graphics/SVG/1.1/DTD/svg11.dtd" >
<svg>
<metadata>
Created by FontForge 20090622 at Tue Mar 13 13:26:32 2018
 By deploy user
Copyright (c) 2018 Caveras / Cliff Modes
</metadata>
<defs>
<font id="Megaten20XX" horiz-adv-x="4681" >
  <font-face 
    font-family="Megaten 20XX"
    font-weight="400"
    font-stretch="normal"
    units-per-em="4096"
    panose-1="0 0 4 0 0 0 0 0 0 0"
    ascent="4096"
    descent="0"
    x-height="2925"
    cap-height="4096"
    bbox="0 -585 4681 6436"
    underline-thickness="204"
    underline-position="511"
    unicode-range="U+0020-U+FFFD"
  />
<missing-glyph 
d="M3510 585v2925h-2925v-2925h2925zM0 0v4096h4096v-4096h-4096z" />
    <glyph glyph-name=".notdef" 
d="M3510 585v2925h-2925v-2925h2925zM0 0v4096h4096v-4096h-4096z" />
    <glyph glyph-name="NULL" 
 />
    <glyph glyph-name="nonmarkingreturn" 
 />
    <glyph glyph-name="space" unicode=" " 
 />
    <glyph glyph-name="exclam" unicode="!" 
d="M1755 0v585h1170v-585h-1170zM1755 1170v2926h1755v-1756h-585v-1170h-1170z" />
    <glyph glyph-name="quotedbl" unicode="&#x22;" 
d="M1170 2925v1756h585v-1756h-585zM2925 2925v1756h585v-1756h-585z" />
    <glyph glyph-name="numbersign" unicode="#" 
d="M2925 1755v1170h-1170v-1170h1170zM1170 0v585h-585v585h585v1170h-585v585h585v1171h585v-586h1170v1171h585v-585h586v-586h-586v-1170h586v-585h-586v-1755h-585v1170h-1170v-1170h-585z" />
    <glyph glyph-name="dollar" unicode="$" 
d="M3510 585v1170h-585v-1170h585zM2340 2340v1170h-585v-1170h585zM2340 -585v585h-1170v585h1170v1170h-1170v2341h1170v585h585v-585h1171v-586h-1171v-1170h1171v-2340h-1171v-585h-585z" />
    <glyph glyph-name="percent" unicode="%" 
d="M0 0v585h585v-585h-585zM2925 0v585h585v-585h-585zM585 585v585h585v-585h-585zM2340 585v585h585v-585h-585zM3510 585v585h586v-585h-586zM1170 1170v585h585v-585h-585zM2925 1170v585h585v-585h-585zM1755 1755v585h585v-585h-585zM585 2340v585h585v-585h-585z
M2340 2340v585h585v-585h-585zM0 2925v585h585v-585h-585zM1170 2925v585h585v-585h-585zM2925 2925v585h585v-585h-585zM585 3510v586h585v-586h-585zM3510 3510v586h586v-586h-586z" />
    <glyph glyph-name="ampersand" unicode="&#x26;" 
d="M585 0v585h1755v-585h-1755zM3510 0v585h586v-585h-586zM0 585v1170h585v-1170h-585zM2340 585v1170h585v-585h585v-585h-1170zM3510 1170v585h586v-585h-586zM585 1755v585h585v-585h-585zM1755 1755v585h585v-585h-585zM1170 2340v585h585v-585h-585zM585 2925v585h585
v-585h-585zM2340 2340v1170h585v-1170h-585zM1170 3510v586h1170v-586h-1170z" />
    <glyph glyph-name="quotesingle" unicode="'" 
d="M1170 1755v585h585v-585h-585zM1755 2340v585h-585v1171h1170v-1756h-585z" />
    <glyph glyph-name="parenleft" unicode="(" 
d="M4096 0v585h585v-585h-585zM3510 585v2925h586v-2925h-586zM4096 3510v586h585v-586h-585z" />
    <glyph glyph-name="parenright" unicode=")" 
d="M0 0v585h585v-585h-585zM585 585v2925h585v-2925h-585zM0 3510v586h585v-586h-585z" />
    <glyph glyph-name="asterisk" unicode="*" 
d="M1170 2340v585h585v-585h-585zM2340 2340v585h585v-585h-585zM1755 2925v585h585v-585h-585zM1170 3510v586h585v-586h-585zM2340 3510v586h585v-586h-585z" />
    <glyph glyph-name="plus" unicode="+" 
d="M1755 585v1170h-1170v585h1170v1170h585v-1170h1170v-585h-1170v-1170h-585z" />
    <glyph glyph-name="comma" unicode="," 
d="M1170 0v585h585v-585h-585zM1755 585v585h-585v585h1170v-1170h-585z" />
    <glyph glyph-name="hyphen" unicode="-" 
d="M585 1755v585h3511v-585h-3511z" />
    <glyph glyph-name="period" unicode="." 
d="M0 0v1170h1170v-1170h-1170z" />
    <glyph glyph-name="slash" unicode="/" 
d="M0 0v585h585v-585h-585zM585 585v585h585v-585h-585zM1170 1170v585h585v-585h-585zM1755 1755v585h585v-585h-585zM2340 2340v585h585v-585h-585zM2925 2925v585h585v-585h-585zM3510 3510v586h586v-586h-586z" />
    <glyph glyph-name="zero" unicode="0" 
d="M1170 0v585h2340v2925h586v-3510h-2926zM585 585v3511h2925v-586h-2340v-2925h-585z" />
    <glyph glyph-name="one" unicode="1" 
d="M1755 0v3510h-1170v586h1755v-4096h-585z" />
    <glyph glyph-name="two" unicode="2" 
d="M585 0v2340h2925v1170h-2925v586h3511v-2341h-2926v-1170h2926v-585h-3511z" />
    <glyph glyph-name="three" unicode="3" 
d="M585 0v585h2925v1170h586v-1755h-3511zM585 1755v585h2925v-585h-2925zM3510 2340v1170h-2925v586h3511v-1756h-586z" />
    <glyph glyph-name="four" unicode="4" 
d="M3510 0v1170h-2925v2926h585v-2341h2340v2341h586v-4096h-586z" />
    <glyph glyph-name="five" unicode="5" 
d="M585 0v585h2925v1170h-2925v2341h3511v-586h-2926v-1170h2926v-2340h-3511z" />
    <glyph glyph-name="six" unicode="6" 
d="M3510 585v1170h-2340v-1170h2340zM585 0v4096h3511v-586h-2926v-1170h2926v-2340h-3511z" />
    <glyph glyph-name="seven" unicode="7" 
d="M3510 0v3510h-2925v586h3511v-4096h-586z" />
    <glyph glyph-name="eight" unicode="8" 
d="M585 0v1755h585v-1170h2340v1170h586v-1755h-3511zM1170 1755v585h2340v-585h-2340zM585 2340v1756h3511v-1756h-586v1170h-2340v-1170h-585z" />
    <glyph glyph-name="nine" unicode="9" 
d="M3510 2340v1170h-2340v-1170h2340zM585 0v585h2925v1170h-2925v2341h3511v-4096h-3511z" />
    <glyph glyph-name="colon" unicode=":" 
d="M1755 0v1170h1170v-1170h-1170zM1755 2340v1170h1170v-1170h-1170z" />
    <glyph glyph-name="semicolon" unicode=";" 
d="M1755 0v585h585v-585h-585zM2340 585v585h-585v585h1170v-1170h-585zM1755 2340v1170h1170v-1170h-1170z" />
    <glyph glyph-name="less" unicode="&#x3c;" 
d="M2925 0v585h585v-585h-585zM2340 585v585h585v-585h-585zM1755 1170v585h585v-585h-585zM1170 1755v585h585v-585h-585zM1755 2340v585h585v-585h-585zM2340 2925v585h585v-585h-585zM2925 3510v586h585v-586h-585z" />
    <glyph glyph-name="equal" unicode="=" 
d="M585 1170v585h3511v-585h-3511zM585 2340v585h3511v-585h-3511z" />
    <glyph glyph-name="greater" unicode="&#x3e;" 
d="M1170 0v585h585v-585h-585zM1755 585v585h585v-585h-585zM2340 1170v585h585v-585h-585zM2925 1755v585h585v-585h-585zM2340 2340v585h585v-585h-585zM1755 2925v585h585v-585h-585zM1170 3510v586h585v-586h-585z" />
    <glyph glyph-name="question" unicode="?" 
d="M1755 0v585h1170v-585h-1170zM1755 1170v1170h1170v1170h-1170v-585h-1170v585h585v586h2340v-586h586v-1170h-586v-585h-585v-585h-1170z" />
    <glyph glyph-name="at" unicode="@" 
d="M1170 0v585h2340v-585h-2340zM585 585v585h585v-585h-585zM1170 1755v1170h585v-1170h-585zM1755 1170v585h1170v1170h585v-1170h586v-585h-2341zM0 1170v2340h585v-2340h-585zM1755 2925v585h1170v-585h-1170zM4096 1755v1755h585v-1755h-585zM585 3510v586h585v-586
h-585zM3510 3510v586h586v-586h-586zM1170 4096v585h2340v-585h-2340z" />
    <glyph glyph-name="A" unicode="A" 
d="M3510 2340v1170h-1755v-1170h1755zM585 0v2340h585v1756h2926v-4096h-586v1755h-2340v-1755h-585z" />
    <glyph glyph-name="B" unicode="B" 
d="M3510 585v1170h586v-1170h-586zM3510 2340v1170h586v-1170h-586zM585 0v4096h2925v-586h-2340v-1170h2340v-585h-2340v-1170h2340v-585h-2925z" />
    <glyph glyph-name="C" unicode="C" 
d="M585 0v4096h3511v-586h-2926v-2925h2926v-585h-3511z" />
    <glyph glyph-name="D" unicode="D" 
d="M3510 585v2925h586v-2925h-586zM585 0v1755h-585v585h585v1756h2925v-586h-2340v-1170h585v-585h-585v-1170h2340v-585h-2925z" />
    <glyph glyph-name="E" unicode="E" 
d="M585 0v4096h3511v-586h-2926v-1170h2340v-585h-2340v-1170h2926v-585h-3511z" />
    <glyph glyph-name="F" unicode="F" 
d="M585 0v4096h3511v-586h-2926v-1170h2340v-585h-2340v-1755h-585z" />
    <glyph glyph-name="G" unicode="G" 
d="M585 0v4096h3511v-586h-2926v-2925h2340v1170h-585v585h1171v-2340h-3511z" />
    <glyph glyph-name="H" unicode="H" 
d="M585 0v4096h585v-1756h2340v1756h586v-4096h-586v1755h-2340v-1755h-585z" />
    <glyph glyph-name="I" unicode="I" 
d="M1755 0v4096h585v-4096h-585z" />
    <glyph glyph-name="J" unicode="J" 
d="M585 0v1170h585v-585h2340v3511h586v-4096h-3511z" />
    <glyph glyph-name="K" unicode="K" 
d="M2340 2925v585h585v-585h-585zM585 0v4096h585v-1756h585v585h585v-585h1756v-2340h-586v1755h-2340v-1755h-585zM2925 3510v586h585v-586h-585z" />
    <glyph glyph-name="L" unicode="L" 
d="M585 0v4096h585v-3511h2926v-585h-3511z" />
    <glyph glyph-name="M" unicode="M" 
d="M0 0v4096h4096v-4096h-586v3510h-1170v-1755h-585v1755h-1170v-3510h-585z" />
    <glyph glyph-name="N" unicode="N" 
d="M2340 2340v585h585v-585h-585zM1755 2925v585h585v-585h-585zM585 0v4096h1170v-586h-585v-3510h-585zM3510 0v1755h-585v585h585v1756h586v-4096h-586z" />
    <glyph glyph-name="O" unicode="O" 
d="M3510 585v2925h-2340v-2925h2340zM585 0v4096h3511v-4096h-3511z" />
    <glyph glyph-name="P" unicode="P" 
d="M3510 2340v1170h-2340v-1170h2340zM585 0v4096h3511v-2341h-2926v-1755h-585z" />
    <glyph glyph-name="Q" unicode="Q" 
d="M3510 0v585h586v-585h-586zM2925 585v585h585v-585h-585zM2340 1170v585h585v-585h-585zM585 0v4096h3511v-2926h-586v2340h-2340v-2925h1170v-585h-1755z" />
    <glyph glyph-name="R" unicode="R" 
d="M3510 0v1755h586v-1755h-586zM3510 2340v1170h586v-1170h-586zM585 0v4096h2925v-586h-2340v-1170h2340v-585h-2340v-1755h-585z" />
    <glyph glyph-name="S" unicode="S" 
d="M585 0v1170h585v-585h2340v1170h-2925v2341h3511v-1171h-586v585h-2340v-1170h2926v-2340h-3511z" />
    <glyph glyph-name="T" unicode="T" 
d="M1755 0v3510h-1755v586h4096v-586h-1756v-3510h-585z" />
    <glyph glyph-name="U" unicode="U" 
d="M585 0v4096h585v-3511h2340v3511h586v-4096h-3511z" />
    <glyph glyph-name="V" unicode="V" 
d="M1755 585v585h585v-585h-585zM2340 1170v585h585v-585h-585zM2925 1755v585h585v-585h-585zM585 0v4096h585v-3511h585v-585h-1170zM3510 2340v1756h586v-1756h-586z" />
    <glyph glyph-name="W" unicode="W" 
d="M0 0v4096h585v-3511h1170v1755h585v-1755h1170v3511h586v-4096h-4096z" />
    <glyph glyph-name="X" unicode="X" 
d="M0 0v585h585v-585h-585zM3510 0v585h586v-585h-586zM585 585v585h585v-585h-585zM2925 585v585h585v-585h-585zM1170 1170v585h585v-585h-585zM2340 1170v585h585v-585h-585zM1755 1755v585h585v-585h-585zM1170 2340v585h585v-585h-585zM2340 2340v585h585v-585h-585z
M585 2925v585h585v-585h-585zM2925 2925v585h585v-585h-585zM0 3510v586h585v-586h-585zM3510 3510v586h586v-586h-586z" />
    <glyph glyph-name="Y" unicode="Y" 
d="M1170 0v585h2340v1170h-2925v2341h585v-1756h2340v1756h586v-4096h-2926z" />
    <glyph glyph-name="Z" unicode="Z" 
d="M585 0v585h585v585h585v-585h2341v-585h-3511zM1755 1170v585h585v-585h-585zM2340 1755v585h585v-585h-585zM2925 2340v585h585v-585h-585zM3510 2925v585h-2925v586h3511v-1171h-586z" />
    <glyph glyph-name="bracketleft" unicode="[" 
d="M3510 0v4096h1171v-586h-585v-2925h585v-585h-1171z" />
    <glyph glyph-name="backslash" unicode="\" 
d="M3510 0v585h586v-585h-586zM2925 585v585h585v-585h-585zM2340 1170v585h585v-585h-585zM1755 1755v585h585v-585h-585zM1170 2340v585h585v-585h-585zM585 2925v585h585v-585h-585zM0 3510v586h585v-586h-585z" />
    <glyph glyph-name="bracketright" unicode="]" 
d="M0 0v585h585v2925h-585v586h1170v-4096h-1170z" />
    <glyph glyph-name="asciicircum" unicode="^" 
d="M1170 2340v585h585v-585h-585zM3510 2340v585h586v-585h-586zM1755 2925v585h585v-585h-585zM2925 2925v585h585v-585h-585zM2340 3510v586h585v-586h-585z" />
    <glyph glyph-name="underscore" unicode="_" 
d="M585 0v585h3511v-585h-3511z" />
    <glyph glyph-name="grave" unicode="`" 
d="M585 3510v586h1170v-586h-1170z" />
    <glyph glyph-name="a" unicode="a" 
d="M1170 0v585h2340v585h-2340v-585h-585v1170h2925v585h586v-2340h-2926zM1170 2340v585h2340v-585h-2340z" />
    <glyph glyph-name="b" unicode="b" 
d="M3510 585v1755h586v-1755h-586zM585 0v1170h-585v585h585v2341h585v-1171h2340v-585h-2340v-585h585v-585h-585v-585h2340v-585h-2925z" />
    <glyph glyph-name="c" unicode="c" 
d="M585 0v2925h3511v-585h-2926v-1755h2926v-585h-3511z" />
    <glyph glyph-name="d" unicode="d" 
d="M585 585v1755h585v-1755h-585zM1170 0v585h2340v1755h-2340v585h2340v1171h586v-4096h-2926z" />
    <glyph glyph-name="e" unicode="e" 
d="M585 0v2340h585v-585h2340v585h586v-1170h-2926v-585h2926v-585h-3511zM1170 2340v585h2340v-585h-2340z" />
    <glyph glyph-name="f" unicode="f" 
d="M1755 0v1755h-1170v585h1170v1756h1170v-586h-585v-1170h1170v-585h-1170v-1755h-585z" />
    <glyph glyph-name="g" unicode="g" 
d="M3510 1755v585h-2340v-585h2340zM1170 0v585h2340v585h-2925v1755h3511v-2925h-2926z" />
    <glyph glyph-name="h" unicode="h" 
d="M3510 0v2340h586v-2340h-586zM585 0v4096h585v-1171h2340v-585h-2340v-2340h-585z" />
    <glyph glyph-name="i" unicode="i" 
d="M1755 0v2340h585v-2340h-585zM1755 3510v586h585v-586h-585z" />
    <glyph glyph-name="j" unicode="j" 
d="M1170 0v1170h585v-585h1170v1755h585v-2340h-2340zM2925 3510v586h585v-586h-585z" />
    <glyph glyph-name="k" unicode="k" 
d="M2925 1755v585h585v-585h-585zM3510 2340v585h586v-585h-586zM585 0v4096h585v-2926h1170v585h585v-585h1171v-1170h-586v585h-2340v-585h-585z" />
    <glyph glyph-name="l" unicode="l" 
d="M1755 0v4096h585v-4096h-585z" />
    <glyph glyph-name="m" unicode="m" 
d="M0 0v2925h4096v-2925h-586v2340h-1170v-1755h-585v1755h-1170v-2340h-585z" />
    <glyph glyph-name="n" unicode="n" 
d="M3510 0v2340h586v-2340h-586zM585 0v2925h2925v-585h-2340v-2340h-585z" />
    <glyph glyph-name="o" unicode="o" 
d="M3510 585v1755h-2340v-1755h2340zM585 0v2925h3511v-2925h-3511z" />
    <glyph glyph-name="p" unicode="p" 
d="M585 0v2925h2925v-585h-2340v-1170h2340v1170h586v-1755h-2926v-585h-585z" />
    <glyph glyph-name="q" unicode="q" 
d="M3510 0v585h-2925v1755h585v-1170h2340v1170h-2340v585h2926v-2925h-586z" />
    <glyph glyph-name="r" unicode="r" 
d="M2340 1755v585h585v-585h-585zM1170 0v2925h585v-1170h585v-585h-585v-1170h-585zM2925 2340v585h585v-585h-585z" />
    <glyph glyph-name="s" unicode="s" 
d="M585 0v585h2925v585h-2925v1755h3511v-585h-2926v-585h2926v-1755h-3511z" />
    <glyph glyph-name="t" unicode="t" 
d="M1755 0v2340h-1170v585h1170v585h585v-585h1170v-585h-1170v-1755h585v-585h-1170z" />
    <glyph glyph-name="u" unicode="u" 
d="M585 585v2340h585v-2340h-585zM1170 0v585h2340v2340h586v-2925h-2926z" />
    <glyph glyph-name="v" unicode="v" 
d="M1755 585v585h585v-585h-585zM2340 1170v585h585v-585h-585zM2925 1755v585h585v-585h-585zM585 0v2925h585v-2340h585v-585h-1170zM3510 2340v585h586v-585h-586z" />
    <glyph glyph-name="w" unicode="w" 
d="M0 0v2925h585v-2340h1170v1755h585v-1755h1170v2340h586v-2925h-4096z" />
    <glyph glyph-name="x" unicode="x" 
d="M585 0v585h585v-585h-585zM3510 0v585h586v-585h-586zM1170 585v585h585v-585h-585zM2925 585v585h585v-585h-585zM1755 1170v585h1170v-585h-1170zM1170 1755v585h585v-585h-585zM2925 1755v585h585v-585h-585zM585 2340v585h585v-585h-585zM3510 2340v585h586v-585
h-586z" />
    <glyph glyph-name="y" unicode="y" 
d="M1170 0v585h2340v585h-2925v1755h585v-1170h2340v1170h586v-2925h-2926z" />
    <glyph glyph-name="z" unicode="z" 
d="M585 0v585h1170v585h585v-585h1756v-585h-3511zM2340 1170v585h585v-585h-585zM2925 1755v585h-2340v585h3511v-585h-586v-585h-585z" />
    <glyph glyph-name="braceleft" unicode="{" 
d="M4096 0v585h585v-585h-585zM3510 585v1170h586v-1170h-586zM2925 1755v585h585v-585h-585zM3510 2340v1170h586v-1170h-586zM4096 3510v586h585v-586h-585z" />
    <glyph glyph-name="bar" unicode="|" 
d="M1755 -585v5266h585v-5266h-585z" />
    <glyph glyph-name="braceright" unicode="}" 
d="M0 0v585h585v-585h-585zM585 585v1170h585v-1170h-585zM1170 1755v585h585v-585h-585zM585 2340v1170h585v-1170h-585zM0 3510v586h585v-586h-585z" />
    <glyph glyph-name="asciitilde" unicode="~" 
d="M1170 1755v585h2340v-585h-2340z" />
    <glyph glyph-name="uni007F" 
d="M3510 585v2925h-2925v-2925h2925zM0 0v4096h4096v-4096h-4096z" />
    <glyph glyph-name="exclamdown" unicode="&#xa1;" 
d="M1755 0v1755h585v1170h1170v-2925h-1755zM2340 3510v586h1170v-586h-1170z" />
    <glyph glyph-name="cent" unicode="&#xa2;" 
d="M2340 585v1755h-585v-1755h585zM2340 -585v585h-1170v2925h1170v585h585v-585h1171v-585h-1171v-1755h1171v-585h-1171v-585h-585z" />
    <glyph glyph-name="sterling" unicode="&#xa3;" 
d="M1170 0v585h585v1170h-585v585h585v1170h585v-1170h585v-585h-585v-1170h1756v-585h-2926zM2340 3510v586h1756v-586h-1756z" />
    <glyph glyph-name="yen" unicode="&#xa5;" 
d="M2340 0v585h-1170v585h1170v585h-1170v585h1170v585h585v-585h1171v-585h-1171v-585h1171v-585h-1171v-585h-585zM1755 2925v585h585v-585h-585zM2925 2925v585h585v-585h-585zM1170 3510v586h585v-586h-585zM3510 3510v586h586v-586h-586z" />
    <glyph glyph-name="brokenbar" unicode="&#xa6;" 
d="M1755 -585v2340h585v-2340h-585zM1755 2340v2341h585v-2341h-585z" />
    <glyph glyph-name="section" unicode="&#xa7;" 
d="M3510 1755v585h-2340v-585h2340zM585 -585v1170h585v-585h2340v1170h-2925v3511h3511v-1171h-586v586h-2340v-1171h2926v-3510h-3511z" />
    <glyph glyph-name="dieresis" unicode="&#xa8;" 
d="M585 3510v586h585v-586h-585zM2340 3510v586h585v-586h-585z" />
    <glyph glyph-name="copyright" unicode="&#xa9;" 
d="M1170 0v585h2340v-585h-2340zM585 585v585h585v-585h-585zM3510 585v585h586v-585h-586zM1755 1170v585h1755v-585h-1755zM1170 1755v1170h585v-1170h-585zM0 1170v2340h585v-2340h-585zM1755 2925v585h1755v-585h-1755zM4096 1170v2340h585v-2340h-585zM585 3510v586
h585v-586h-585zM3510 3510v586h586v-586h-586zM1170 4096v585h2340v-585h-2340z" />
    <glyph glyph-name="guillemotleft" unicode="&#xab;" 
d="M1755 0v585h585v-585h-585zM3510 0v585h586v-585h-586zM1170 585v585h585v-585h-585zM2925 585v585h585v-585h-585zM585 1170v585h585v-585h-585zM2340 1170v585h585v-585h-585zM0 1755v585h585v-585h-585zM1755 1755v585h585v-585h-585zM585 2340v585h585v-585h-585z
M2340 2340v585h585v-585h-585zM1170 2925v585h585v-585h-585zM2925 2925v585h585v-585h-585zM1755 3510v586h585v-586h-585zM3510 3510v586h586v-586h-586z" />
    <glyph glyph-name="logicalnot" unicode="&#xac;" 
d="M3510 585v1170h-2925v585h3511v-1755h-586z" />
    <glyph glyph-name="uni00AD" unicode="&#xad;" 
d="M585 1755v585h3511v-585h-3511z" />
    <glyph glyph-name="registered" unicode="&#xae;" 
d="M1170 0v585h2340v-585h-2340zM585 585v585h585v-585h-585zM3510 585v585h586v-585h-586zM2925 1170v585h585v-585h-585zM0 1170v2340h585v-2340h-585zM1170 1170v2340h2340v-1170h-585v585h-1170v-585h1170v-585h-1170v-585h-585zM4096 1170v2340h585v-2340h-585z
M585 3510v586h585v-586h-585zM3510 3510v586h586v-586h-586zM1170 4096v585h2340v-585h-2340z" />
    <glyph glyph-name="macron" unicode="&#xaf;" 
d="M1170 3510v586h2340v-586h-2340z" />
    <glyph glyph-name="degree" unicode="&#xb0;" 
d="M1170 2340v585h585v-585h-585zM585 2925v585h585v-585h-585zM1755 2925v585h585v-585h-585zM1170 3510v586h585v-586h-585z" />
    <glyph glyph-name="plusminus" unicode="&#xb1;" 
d="M585 0v585h2925v-585h-2925zM1755 1170v1170h-1170v585h1170v1171h585v-1171h1170v-585h-1170v-1170h-585z" />
    <glyph glyph-name="acute" unicode="&#xb4;" 
d="M585 3510v586h1170v-586h-1170z" />
    <glyph glyph-name="paragraph" unicode="&#xb6;" 
d="M1755 0v2340h-1170v1756h3511v-4096h-586v3510h-1170v-3510h-585z" />
    <glyph glyph-name="periodcentered" unicode="&#xb7;" 
d="M1755 1755v1170h1170v-1170h-1170z" />
    <glyph glyph-name="cedilla" unicode="&#xb8;" 
d="M585 -585v585h1170v-585h-1170z" />
    <glyph glyph-name="guillemotright" unicode="&#xbb;" 
d="M0 0v585h585v-585h-585zM1755 0v585h585v-585h-585zM585 585v585h585v-585h-585zM2340 585v585h585v-585h-585zM1170 1170v585h585v-585h-585zM2925 1170v585h585v-585h-585zM1755 1755v585h585v-585h-585zM3510 1755v585h586v-585h-586zM1170 2340v585h585v-585h-585z
M2925 2340v585h585v-585h-585zM585 2925v585h585v-585h-585zM2340 2925v585h585v-585h-585zM0 3510v586h585v-586h-585zM1755 3510v586h585v-586h-585z" />
    <glyph glyph-name="questiondown" unicode="&#xbf;" 
d="M1170 0v585h-585v1170h585v585h585v585h1170v-1170h-1170v-1170h1170v585h1171v-585h-586v-585h-2340zM1755 3510v586h1170v-586h-1170z" />
    <glyph glyph-name="Agrave" unicode="&#xc0;" 
d="M3510 2340v1170h-1755v-1170h1755zM585 0v2340h585v1756h2926v-4096h-586v1755h-2340v-1755h-585zM1170 4681v585h1170v-585h-1170z" />
    <glyph glyph-name="Aacute" unicode="&#xc1;" 
d="M3510 2340v1170h-1755v-1170h1755zM585 0v2340h585v1756h2926v-4096h-586v1755h-2340v-1755h-585zM2340 4681v585h1170v-585h-1170z" />
    <glyph glyph-name="Acircumflex" unicode="&#xc2;" 
d="M3510 2340v1170h-1755v-1170h1755zM585 0v2340h585v1756h2926v-4096h-586v1755h-2340v-1755h-585zM1170 4681v585h585v-585h-585zM2925 4681v585h585v-585h-585zM1755 5266v585h1170v-585h-1170z" />
    <glyph glyph-name="Atilde" unicode="&#xc3;" 
d="M3510 2340v1170h-1755v-1170h1755zM585 0v2340h585v1756h2926v-4096h-586v1755h-2340v-1755h-585zM1755 4681v585h2341v-585h-2341z" />
    <glyph glyph-name="Adieresis" unicode="&#xc4;" 
d="M3510 2340v1170h-1755v-1170h1755zM585 0v2340h585v1756h2926v-4096h-586v1755h-2340v-1755h-585zM1170 4681v585h585v-585h-585zM2925 4681v585h585v-585h-585z" />
    <glyph glyph-name="AE" unicode="&#xc6;" 
d="M1755 2340v1170h-585v-1170h585zM0 0v2340h585v1756h3511v-586h-1756v-1170h1170v-585h-1170v-1170h1756v-585h-2341v1755h-1170v-1755h-585z" />
    <glyph glyph-name="Ccedilla" unicode="&#xc7;" 
d="M1755 -585v585h-1170v4096h3511v-586h-2926v-2925h2926v-585h-1171v-585h-1170z" />
    <glyph glyph-name="Egrave" unicode="&#xc8;" 
d="M585 0v4096h3511v-586h-2926v-1170h2340v-585h-2340v-1170h2926v-585h-3511zM1170 4681v585h1170v-585h-1170z" />
    <glyph glyph-name="Eacute" unicode="&#xc9;" 
d="M585 0v4096h3511v-586h-2926v-1170h2340v-585h-2340v-1170h2926v-585h-3511zM2340 4681v585h1170v-585h-1170z" />
    <glyph glyph-name="Ecircumflex" unicode="&#xca;" 
d="M585 0v4096h3511v-586h-2926v-1170h2340v-585h-2340v-1170h2926v-585h-3511zM1170 4681v585h585v-585h-585zM2925 4681v585h585v-585h-585zM1755 5266v585h1170v-585h-1170z" />
    <glyph glyph-name="Edieresis" unicode="&#xcb;" 
d="M585 0v4096h3511v-586h-2926v-1170h2340v-585h-2340v-1170h2926v-585h-3511zM1170 4681v585h585v-585h-585zM2925 4681v585h585v-585h-585z" />
    <glyph glyph-name="Igrave" unicode="&#xcc;" 
d="M1755 0v4096h585v-4096h-585zM1170 4681v585h1170v-585h-1170z" />
    <glyph glyph-name="Iacute" unicode="&#xcd;" 
d="M1755 0v4096h585v-4096h-585zM1755 4681v585h1170v-585h-1170z" />
    <glyph glyph-name="Icircumflex" unicode="&#xce;" 
d="M1755 0v4096h585v-4096h-585zM1170 4681v585h585v-585h-585zM2340 4681v585h585v-585h-585zM1755 5266v585h585v-585h-585z" />
    <glyph glyph-name="Idieresis" unicode="&#xcf;" 
d="M1755 0v4096h585v-4096h-585zM1170 4681v585h585v-585h-585zM2340 4681v585h585v-585h-585z" />
    <glyph glyph-name="Eth" unicode="&#xd0;" 
d="M3510 585v2925h586v-2925h-586zM585 0v1755h-585v585h585v1756h2925v-586h-2340v-1170h585v-585h-585v-1170h2340v-585h-2925z" />
    <glyph glyph-name="Ntilde" unicode="&#xd1;" 
d="M2340 2340v585h585v-585h-585zM1755 2925v585h585v-585h-585zM585 0v4096h1170v-586h-585v-3510h-585zM3510 0v1755h-585v585h585v1756h586v-4096h-586zM1170 4681v585h2340v-585h-2340z" />
    <glyph glyph-name="Ograve" unicode="&#xd2;" 
d="M3510 585v2925h-2340v-2925h2340zM585 0v4096h3511v-4096h-3511zM1170 4681v585h1170v-585h-1170z" />
    <glyph glyph-name="Oacute" unicode="&#xd3;" 
d="M3510 585v2925h-2340v-2925h2340zM585 0v4096h3511v-4096h-3511zM2340 4681v585h1170v-585h-1170z" />
    <glyph glyph-name="Ocircumflex" unicode="&#xd4;" 
d="M3510 585v2925h-2340v-2925h2340zM585 0v4096h3511v-4096h-3511zM1170 4681v585h585v-585h-585zM2925 4681v585h585v-585h-585zM1755 5266v585h1170v-585h-1170z" />
    <glyph glyph-name="Otilde" unicode="&#xd5;" 
d="M3510 585v2925h-2340v-2925h2340zM585 0v4096h3511v-4096h-3511zM1170 4681v585h2340v-585h-2340z" />
    <glyph glyph-name="Odieresis" unicode="&#xd6;" 
d="M3510 585v2925h-2340v-2925h2340zM585 0v4096h3511v-4096h-3511zM1170 4681v585h585v-585h-585zM2925 4681v585h585v-585h-585z" />
    <glyph glyph-name="multiply" unicode="&#xd7;" 
d="M585 0v585h585v-585h-585zM3510 0v585h586v-585h-586zM1170 585v585h585v-585h-585zM2925 585v585h585v-585h-585zM1755 1170v585h1170v-585h-1170zM1170 1755v585h585v-585h-585zM2925 1755v585h585v-585h-585zM585 2340v585h585v-585h-585zM3510 2340v585h586v-585
h-586z" />
    <glyph glyph-name="Ugrave" unicode="&#xd9;" 
d="M585 0v4096h585v-3511h2340v3511h586v-4096h-3511zM1170 4681v585h1170v-585h-1170z" />
    <glyph glyph-name="Uacute" unicode="&#xda;" 
d="M585 0v4096h585v-3511h2340v3511h586v-4096h-3511zM2340 4681v585h1170v-585h-1170z" />
    <glyph glyph-name="Ucircumflex" unicode="&#xdb;" 
d="M585 0v4096h585v-3511h2340v3511h586v-4096h-3511zM1170 4681v585h585v-585h-585zM2925 4681v585h585v-585h-585zM1755 5266v585h1170v-585h-1170z" />
    <glyph glyph-name="Udieresis" unicode="&#xdc;" 
d="M585 0v4096h585v-3511h2340v3511h586v-4096h-3511zM1170 4681v585h585v-585h-585zM2925 4681v585h585v-585h-585z" />
    <glyph glyph-name="Yacute" unicode="&#xdd;" 
d="M1170 0v585h2340v1170h-2925v2341h585v-1756h2340v1756h586v-4096h-2926zM2340 4681v585h1170v-585h-1170z" />
    <glyph glyph-name="Thorn" unicode="&#xde;" 
d="M3510 1170v1755h-2340v-1755h2340zM585 0v4096h585v-586h2926v-2925h-2926v-585h-585z" />
    <glyph glyph-name="germandbls" unicode="&#xdf;" 
d="M1755 0v585h1755v-585h-1755zM3510 585v1170h586v-1170h-586zM585 0v3510h585v-3510h-585zM1755 1755v585h1170v1170h585v-1755h-1755zM1170 3510v586h1755v-586h-1755z" />
    <glyph glyph-name="agrave" unicode="&#xe0;" 
d="M1170 0v585h2340v585h-2340v-585h-585v1170h2925v585h586v-2340h-2926zM1170 2340v585h2340v-585h-2340zM1170 3510v586h1170v-586h-1170z" />
    <glyph glyph-name="aacute" unicode="&#xe1;" 
d="M1170 0v585h2340v585h-2340v-585h-585v1170h2925v585h586v-2340h-2926zM1170 2340v585h2340v-585h-2340zM2340 3510v586h1170v-586h-1170z" />
    <glyph glyph-name="acircumflex" unicode="&#xe2;" 
d="M1170 0v585h2340v585h-2340v-585h-585v1170h2925v585h586v-2340h-2926zM1170 2340v585h2340v-585h-2340zM1170 3510v586h585v-586h-585zM2925 3510v586h585v-586h-585zM1755 4096v585h1170v-585h-1170z" />
    <glyph glyph-name="atilde" unicode="&#xe3;" 
d="M1170 0v585h2340v585h-2340v-585h-585v1170h2925v585h586v-2340h-2926zM1170 2340v585h2340v-585h-2340zM1170 3510v586h2340v-586h-2340z" />
    <glyph glyph-name="adieresis" unicode="&#xe4;" 
d="M1170 0v585h2340v585h-2340v-585h-585v1170h2925v585h586v-2340h-2926zM1170 2340v585h2340v-585h-2340zM1170 3510v586h585v-586h-585zM2925 3510v586h585v-586h-585z" />
    <glyph glyph-name="aring" unicode="&#xe5;" 
 />
    <glyph glyph-name="ae" unicode="&#xe6;" 
d="M585 0v585h1170v585h-1170v-585h-585v1170h1755v585h585v-585h1170v585h586v-1170h-1756v-585h1756v-585h-3511zM585 2340v585h1170v-585h-1170zM2340 2340v585h1170v-585h-1170z" />
    <glyph glyph-name="ccedilla" unicode="&#xe7;" 
d="M1755 -585v585h-1170v2925h3511v-585h-2926v-1755h2926v-585h-1171v-585h-1170z" />
    <glyph glyph-name="egrave" unicode="&#xe8;" 
d="M585 0v2340h585v-585h2340v585h586v-1170h-2926v-585h2926v-585h-3511zM1170 2340v585h2340v-585h-2340zM1170 3510v586h1170v-586h-1170z" />
    <glyph glyph-name="eacute" unicode="&#xe9;" 
d="M585 0v2340h585v-585h2340v585h586v-1170h-2926v-585h2926v-585h-3511zM1170 2340v585h2340v-585h-2340zM2340 3510v586h1170v-586h-1170z" />
    <glyph glyph-name="ecircumflex" unicode="&#xea;" 
d="M585 0v2340h585v-585h2340v585h586v-1170h-2926v-585h2926v-585h-3511zM1170 2340v585h2340v-585h-2340zM1170 3510v586h585v-586h-585zM2925 3510v586h585v-586h-585zM1755 4096v585h1170v-585h-1170z" />
    <glyph glyph-name="edieresis" unicode="&#xeb;" 
d="M585 0v2340h585v-585h2340v585h586v-1170h-2926v-585h2926v-585h-3511zM1170 2340v585h2340v-585h-2340zM1170 3510v586h585v-586h-585zM2925 3510v586h585v-586h-585z" />
    <glyph glyph-name="igrave" unicode="&#xec;" 
d="M1755 0v2340h585v-2340h-585zM1170 3510v586h1170v-586h-1170z" />
    <glyph glyph-name="iacute" unicode="&#xed;" 
d="M1755 0v2340h585v-2340h-585zM1755 3510v586h1170v-586h-1170z" />
    <glyph glyph-name="icircumflex" unicode="&#xee;" 
d="M1755 0v2340h585v-2340h-585zM1170 3510v586h585v-586h-585zM2340 3510v586h585v-586h-585zM1755 4096v585h585v-585h-585z" />
    <glyph glyph-name="idieresis" unicode="&#xef;" 
d="M1755 0v2340h585v-2340h-585zM1170 3510v586h585v-586h-585zM2340 3510v586h585v-586h-585z" />
    <glyph glyph-name="ntilde" unicode="&#xf1;" 
d="M3510 0v2340h586v-2340h-586zM585 0v2925h2925v-585h-2340v-2340h-585zM1170 3510v586h2340v-586h-2340z" />
    <glyph glyph-name="ograve" unicode="&#xf2;" 
d="M3510 585v1755h-2340v-1755h2340zM585 0v2925h3511v-2925h-3511zM1170 3510v586h1170v-586h-1170z" />
    <glyph glyph-name="oacute" unicode="&#xf3;" 
d="M3510 585v1755h-2340v-1755h2340zM585 0v2925h3511v-2925h-3511zM2340 3510v586h1170v-586h-1170z" />
    <glyph glyph-name="ocircumflex" unicode="&#xf4;" 
d="M3510 585v1755h-2340v-1755h2340zM585 0v2925h3511v-2925h-3511zM1170 3510v586h585v-586h-585zM2925 3510v586h585v-586h-585zM1755 4096v585h1170v-585h-1170z" />
    <glyph glyph-name="otilde" unicode="&#xf5;" 
d="M3510 585v1755h-2340v-1755h2340zM585 0v2925h3511v-2925h-3511zM1170 3510v586h2340v-586h-2340z" />
    <glyph glyph-name="odieresis" unicode="&#xf6;" 
d="M3510 585v1755h-2340v-1755h2340zM585 0v2925h3511v-2925h-3511zM1170 3510v586h585v-586h-585zM2925 3510v586h585v-586h-585z" />
    <glyph glyph-name="divide" unicode="&#xf7;" 
d="M1755 585v585h585v-585h-585zM585 1755v585h2925v-585h-2925zM1755 2925v585h585v-585h-585z" />
    <glyph glyph-name="ugrave" unicode="&#xf9;" 
d="M585 585v2340h585v-2340h-585zM1170 0v585h2340v2340h586v-2925h-2926zM1170 3510v586h1170v-586h-1170z" />
    <glyph glyph-name="uacute" unicode="&#xfa;" 
d="M585 585v2340h585v-2340h-585zM1170 0v585h2340v2340h586v-2925h-2926zM2340 3510v586h1170v-586h-1170z" />
    <glyph glyph-name="ucircumflex" unicode="&#xfb;" 
d="M585 585v2340h585v-2340h-585zM1170 0v585h2340v2340h586v-2925h-2926zM1170 3510v586h585v-586h-585zM2925 3510v586h585v-586h-585zM1755 4096v585h1170v-585h-1170z" />
    <glyph glyph-name="udieresis" unicode="&#xfc;" 
d="M585 585v2340h585v-2340h-585zM1170 0v585h2340v2340h586v-2925h-2926zM1170 3510v586h585v-586h-585zM2925 3510v586h585v-586h-585z" />
    <glyph glyph-name="yacute" unicode="&#xfd;" 
d="M1170 0v585h2340v585h-2925v1755h585v-1170h2340v1170h586v-2925h-2926zM2340 3510v586h1170v-586h-1170z" />
    <glyph glyph-name="thorn" unicode="&#xfe;" 
d="M585 0v3510h585v-585h2340v-585h-2340v-1170h2340v1170h586v-1755h-2926v-585h-585z" />
    <glyph glyph-name="ydieresis" unicode="&#xff;" 
d="M1170 0v585h2340v585h-2925v1755h585v-1170h2340v1170h586v-2925h-2926zM1170 3510v586h585v-586h-585zM2925 3510v586h585v-586h-585z" />
    <glyph glyph-name="Amacron" unicode="&#x100;" 
d="M3510 2340v1170h-1755v-1170h1755zM585 0v2340h585v1756h2926v-4096h-586v1755h-2340v-1755h-585zM1755 4681v585h2341v-585h-2341z" />
    <glyph glyph-name="amacron" unicode="&#x101;" 
d="M1170 0v585h2340v585h-2340v-585h-585v1170h2925v585h586v-2340h-2926zM1170 2340v585h2340v-585h-2340zM1170 3510v586h2340v-586h-2340z" />
    <glyph glyph-name="Abreve" unicode="&#x102;" 
d="M3510 2340v1170h-1755v-1170h1755zM585 0v2340h585v1756h2926v-4096h-586v1755h-2340v-1755h-585zM1755 4681v585h1170v-585h-1170zM1170 5266v585h585v-585h-585zM2925 5266v585h585v-585h-585z" />
    <glyph glyph-name="abreve" unicode="&#x103;" 
d="M1170 0v585h2340v585h-2340v-585h-585v1170h2925v585h586v-2340h-2926zM1170 2340v585h2340v-585h-2340zM1755 3510v586h1170v-586h-1170zM1170 4096v585h585v-585h-585zM2925 4096v585h585v-585h-585z" />
    <glyph glyph-name="Aogonek" unicode="&#x104;" 
d="M3510 2340v1170h-1755v-1170h1755zM2925 -585v585h585v1755h-2340v-1755h-585v2340h585v1756h2926v-4681h-1171z" />
    <glyph glyph-name="aogonek" unicode="&#x105;" 
d="M2925 -585v585h-1755v585h2340v585h-2340v-585h-585v1170h2925v585h586v-2925h-1171zM1170 2340v585h2340v-585h-2340z" />
    <glyph glyph-name="Cacute" unicode="&#x106;" 
d="M585 0v4096h3511v-586h-2926v-2925h2926v-585h-3511zM2340 4681v585h1170v-585h-1170z" />
    <glyph glyph-name="cacute" unicode="&#x107;" 
d="M585 0v2925h3511v-585h-2926v-1755h2926v-585h-3511zM2340 3510v586h1170v-586h-1170z" />
    <glyph glyph-name="Ccircumflex" unicode="&#x108;" 
d="M585 0v4096h3511v-586h-2926v-2925h2926v-585h-3511zM1170 4681v585h585v-585h-585zM2925 4681v585h585v-585h-585zM1755 5266v585h1170v-585h-1170z" />
    <glyph glyph-name="ccircumflex" unicode="&#x109;" 
d="M585 0v2925h3511v-585h-2926v-1755h2926v-585h-3511zM1170 3510v586h585v-586h-585zM2925 3510v586h585v-586h-585zM1755 4096v585h1170v-585h-1170z" />
    <glyph glyph-name="Cdotaccent" unicode="&#x10a;" 
d="M585 0v4096h3511v-586h-2926v-2925h2926v-585h-3511zM1755 4681v585h1170v-585h-1170z" />
    <glyph glyph-name="cdotaccent" unicode="&#x10b;" 
d="M585 0v2925h3511v-585h-2926v-1755h2926v-585h-3511zM1755 3510v586h1170v-586h-1170z" />
    <glyph glyph-name="Ccaron" unicode="&#x10c;" 
d="M585 0v4096h3511v-586h-2926v-2925h2926v-585h-3511zM1755 4681v585h1170v-585h-1170zM1170 5266v585h585v-585h-585zM2925 5266v585h585v-585h-585z" />
    <glyph glyph-name="ccaron" unicode="&#x10d;" 
d="M585 0v2925h3511v-585h-2926v-1755h2926v-585h-3511zM1755 3510v586h1170v-586h-1170zM1170 4096v585h585v-585h-585zM2925 4096v585h585v-585h-585z" />
    <glyph glyph-name="Dcroat" unicode="&#x110;" 
d="M3510 585v2925h586v-2925h-586zM585 0v1755h-585v585h585v1756h2925v-586h-2340v-1170h585v-585h-585v-1170h2340v-585h-2925z" />
    <glyph glyph-name="Emacron" unicode="&#x112;" 
d="M585 0v4096h3511v-586h-2926v-1170h2340v-585h-2340v-1170h2926v-585h-3511zM1170 4681v585h2340v-585h-2340z" />
    <glyph glyph-name="emacron" unicode="&#x113;" 
d="M585 0v2340h585v-585h2340v585h586v-1170h-2926v-585h2926v-585h-3511zM1170 2340v585h2340v-585h-2340zM1170 3510v586h2340v-586h-2340z" />
    <glyph glyph-name="Ebreve" unicode="&#x114;" 
d="M585 0v4096h3511v-586h-2926v-1170h2340v-585h-2340v-1170h2926v-585h-3511zM1755 4681v585h1170v-585h-1170zM1170 5266v585h585v-585h-585zM2925 5266v585h585v-585h-585z" />
    <glyph glyph-name="ebreve" unicode="&#x115;" 
d="M585 0v2340h585v-585h2340v585h586v-1170h-2926v-585h2926v-585h-3511zM1170 2340v585h2340v-585h-2340zM1755 3510v586h1170v-586h-1170zM1170 4096v585h585v-585h-585zM2925 4096v585h585v-585h-585z" />
    <glyph glyph-name="Edotaccent" unicode="&#x116;" 
d="M585 0v4096h3511v-586h-2926v-1170h2340v-585h-2340v-1170h2926v-585h-3511zM1755 4681v585h1170v-585h-1170z" />
    <glyph glyph-name="edotaccent" unicode="&#x117;" 
d="M585 0v2340h585v-585h2340v585h586v-1170h-2926v-585h2926v-585h-3511zM1170 2340v585h2340v-585h-2340zM1755 3510v586h1170v-586h-1170z" />
    <glyph glyph-name="Eogonek" unicode="&#x118;" 
d="M2925 -585v585h-2340v4096h3511v-586h-2926v-1170h2340v-585h-2340v-1170h2926v-1170h-1171z" />
    <glyph glyph-name="eogonek" unicode="&#x119;" 
d="M1755 -585v585h-1170v2340h585v-585h2340v585h586v-1170h-2926v-585h2926v-585h-1171v-585h-1170zM1170 2340v585h2340v-585h-2340z" />
    <glyph glyph-name="Ecaron" unicode="&#x11a;" 
d="M585 0v4096h3511v-586h-2926v-1170h2340v-585h-2340v-1170h2926v-585h-3511zM1755 4681v585h1170v-585h-1170zM1170 5266v585h585v-585h-585zM2925 5266v585h585v-585h-585z" />
    <glyph glyph-name="ecaron" unicode="&#x11b;" 
d="M585 0v2340h585v-585h2340v585h586v-1170h-2926v-585h2926v-585h-3511zM1170 2340v585h2340v-585h-2340zM1755 3510v586h1170v-586h-1170zM1170 4096v585h585v-585h-585zM2925 4096v585h585v-585h-585z" />
    <glyph glyph-name="Gcircumflex" unicode="&#x11c;" 
d="M585 0v4096h3511v-586h-2926v-2925h2340v1170h-585v585h1171v-2340h-3511zM1170 4681v585h585v-585h-585zM2925 4681v585h585v-585h-585zM1755 5266v585h1170v-585h-1170z" />
    <glyph glyph-name="gcircumflex" unicode="&#x11d;" 
d="M3510 1755v585h-2340v-585h2340zM1170 0v585h2340v585h-2925v1755h3511v-2925h-2926zM1170 3510v586h585v-586h-585zM2925 3510v586h585v-586h-585zM1755 4096v585h1170v-585h-1170z" />
    <glyph glyph-name="Gbreve" unicode="&#x11e;" 
d="M585 0v4096h3511v-586h-2926v-2925h2340v1170h-585v585h1171v-2340h-3511zM1755 4681v585h1170v-585h-1170zM1170 5266v585h585v-585h-585zM2925 5266v585h585v-585h-585z" />
    <glyph glyph-name="gbreve" unicode="&#x11f;" 
d="M3510 1755v585h-2340v-585h2340zM1170 0v585h2340v585h-2925v1755h3511v-2925h-2926zM1755 3510v586h1170v-586h-1170zM1170 4096v585h585v-585h-585zM2925 4096v585h585v-585h-585z" />
    <glyph glyph-name="Gdotaccent" unicode="&#x120;" 
d="M585 0v4096h3511v-586h-2926v-2925h2340v1170h-585v585h1171v-2340h-3511zM1755 4681v585h1170v-585h-1170z" />
    <glyph glyph-name="gdotaccent" unicode="&#x121;" 
d="M3510 1755v585h-2340v-585h2340zM1170 0v585h2340v585h-2925v1755h3511v-2925h-2926zM1755 3510v586h1170v-586h-1170z" />
    <glyph glyph-name="uni0122" unicode="&#x122;" 
d="M1755 -585v585h-1170v4096h3511v-586h-2926v-2925h2340v1170h-585v585h1171v-2340h-1171v-585h-1170z" />
    <glyph glyph-name="uni0123" unicode="&#x123;" 
d="M3510 1755v585h-2340v-585h2340zM1170 0v585h2340v585h-2925v1755h3511v-2925h-2926zM1755 3510v586h1170v-586h-1170z" />
    <glyph glyph-name="Itilde" unicode="&#x128;" 
d="M1755 0v4096h585v-4096h-585zM1170 4681v585h1755v-585h-1755z" />
    <glyph glyph-name="itilde" unicode="&#x129;" 
d="M1755 0v2340h585v-2340h-585zM1170 3510v586h1755v-586h-1755z" />
    <glyph glyph-name="Imacron" unicode="&#x12a;" 
d="M1755 0v4096h585v-4096h-585zM1170 4681v585h1755v-585h-1755z" />
    <glyph glyph-name="imacron" unicode="&#x12b;" 
d="M1755 0v2340h585v-2340h-585zM1170 3510v586h1755v-586h-1755z" />
    <glyph glyph-name="Ibreve" unicode="&#x12c;" 
d="M1755 0v4096h585v-4096h-585zM1755 4681v585h585v-585h-585zM1170 5266v585h585v-585h-585zM2340 5266v585h585v-585h-585z" />
    <glyph glyph-name="ibreve" unicode="&#x12d;" 
d="M1755 0v2340h585v-2340h-585zM1755 3510v586h585v-586h-585zM1170 4096v585h585v-585h-585zM2340 4096v585h585v-585h-585z" />
    <glyph glyph-name="Iogonek" unicode="&#x12e;" 
d="M1755 -585v4681h585v-4096h585v-585h-1170z" />
    <glyph glyph-name="iogonek" unicode="&#x12f;" 
d="M1755 -585v2925h585v-2340h585v-585h-1170zM1755 3510v586h585v-586h-585z" />
    <glyph glyph-name="Idotaccent" unicode="&#x130;" 
d="M1755 0v4096h585v-4096h-585zM1755 4681v585h585v-585h-585z" />
    <glyph glyph-name="dotlessi" unicode="&#x131;" 
d="M1755 0v2340h585v-2340h-585z" />
    <glyph glyph-name="Jcircumflex" unicode="&#x134;" 
d="M0 0v1170h585v-585h2340v3511h585v-4096h-3510zM2340 4681v585h585v-585h-585zM3510 4681v585h586v-585h-586zM2925 5266v585h585v-585h-585z" />
    <glyph glyph-name="jcircumflex" unicode="&#x135;" 
d="M1170 0v1170h585v-585h1170v1755h585v-2340h-2340zM2340 3510v586h585v-586h-585zM3510 3510v586h586v-586h-586zM2925 4096v585h585v-585h-585z" />
    <glyph glyph-name="Lacute" unicode="&#x139;" 
d="M585 0v4096h585v-3511h2926v-585h-3511zM2340 4681v585h1170v-585h-1170z" />
    <glyph glyph-name="lacute" unicode="&#x13a;" 
d="M1755 0v4096h585v-4096h-585zM1755 4681v585h1170v-585h-1170z" />
    <glyph glyph-name="uni013B" unicode="&#x13b;" 
d="M1755 -585v585h-1170v4096h585v-3511h2926v-585h-1171v-585h-1170z" />
    <glyph glyph-name="uni013C" unicode="&#x13c;" 
d="M1170 -585v585h585v4096h585v-4681h-1170z" />
    <glyph glyph-name="Lcaron" unicode="&#x13d;" 
d="M585 0v4096h585v-3511h2926v-585h-3511zM2340 2340v1756h585v-1756h-585z" />
    <glyph glyph-name="lcaron" unicode="&#x13e;" 
d="M1755 0v4096h585v-4096h-585zM3510 2340v1756h586v-1756h-586z" />
    <glyph glyph-name="Ldot" unicode="&#x13f;" 
d="M2340 1755v585h585v-585h-585zM585 0v4096h585v-3511h2926v-585h-3511z" />
    <glyph glyph-name="ldot" unicode="&#x140;" 
d="M2925 1755v585h585v-585h-585zM1755 0v4096h585v-4096h-585z" />
    <glyph glyph-name="Lslash" unicode="&#x141;" 
d="M1755 2925v585h585v-585h-585zM585 0v1170h-585v585h585v2341h585v-1171h585v-585h-585v-1755h2926v-585h-3511z" />
    <glyph glyph-name="lslash" unicode="&#x142;" 
d="M2925 2925v585h585v-585h-585zM1755 0v1170h-585v585h585v2341h585v-1171h585v-585h-585v-2340h-585z" />
    <glyph glyph-name="Nacute" unicode="&#x143;" 
d="M2340 2340v585h585v-585h-585zM1755 2925v585h585v-585h-585zM585 0v4096h1170v-586h-585v-3510h-585zM3510 0v1755h-585v585h585v1756h586v-4096h-586zM2340 4681v585h1170v-585h-1170z" />
    <glyph glyph-name="nacute" unicode="&#x144;" 
d="M3510 0v2340h586v-2340h-586zM585 0v2925h2925v-585h-2340v-2340h-585zM2340 3510v586h1170v-586h-1170z" />
    <glyph glyph-name="uni0145" unicode="&#x145;" 
d="M1755 -585v585h1170v-585h-1170zM2340 2340v585h585v-585h-585zM1755 2925v585h585v-585h-585zM585 0v4096h1170v-586h-585v-3510h-585zM3510 0v1755h-585v585h585v1756h586v-4096h-586z" />
    <glyph glyph-name="uni0146" unicode="&#x146;" 
d="M1755 -585v585h1170v-585h-1170zM3510 0v2340h586v-2340h-586zM585 0v2925h2925v-585h-2340v-2340h-585z" />
    <glyph glyph-name="Ncaron" unicode="&#x147;" 
d="M2340 2340v585h585v-585h-585zM1755 2925v585h585v-585h-585zM585 0v4096h1170v-586h-585v-3510h-585zM3510 0v1755h-585v585h585v1756h586v-4096h-586zM1755 4681v585h1170v-585h-1170zM1170 5266v585h585v-585h-585zM2925 5266v585h585v-585h-585z" />
    <glyph glyph-name="ncaron" unicode="&#x148;" 
d="M3510 0v2340h586v-2340h-586zM585 0v2925h2925v-585h-2340v-2340h-585zM1755 3510v586h1170v-586h-1170zM1170 4096v585h585v-585h-585zM2925 4096v585h585v-585h-585z" />
    <glyph glyph-name="Omacron" unicode="&#x14c;" 
d="M3510 585v2925h-2340v-2925h2340zM585 0v4096h3511v-4096h-3511zM1170 4681v585h2340v-585h-2340z" />
    <glyph glyph-name="omacron" unicode="&#x14d;" 
d="M3510 585v1755h-2340v-1755h2340zM585 0v2925h3511v-2925h-3511zM1170 3510v586h2340v-586h-2340z" />
    <glyph glyph-name="Obreve" unicode="&#x14e;" 
d="M3510 585v2925h-2340v-2925h2340zM585 0v4096h3511v-4096h-3511zM1755 4681v585h1170v-585h-1170zM1170 5266v585h585v-585h-585zM2925 5266v585h585v-585h-585z" />
    <glyph glyph-name="obreve" unicode="&#x14f;" 
d="M3510 585v1755h-2340v-1755h2340zM585 0v2925h3511v-2925h-3511zM1755 3510v586h1170v-586h-1170zM1170 4096v585h585v-585h-585zM2925 4096v585h585v-585h-585z" />
    <glyph glyph-name="OE" unicode="&#x152;" 
d="M1755 585v2925h-1170v-2925h1170zM0 0v4096h4096v-586h-1756v-1170h1170v-585h-1170v-1170h1756v-585h-4096z" />
    <glyph glyph-name="oe" unicode="&#x153;" 
d="M1755 585v1755h-1170v-1755h1170zM0 0v2925h3510v-585h-1170v-585h1170v585h586v-1170h-1756v-585h1756v-585h-4096z" />
    <glyph glyph-name="Racute" unicode="&#x154;" 
d="M3510 0v1755h586v-1755h-586zM3510 2340v1170h586v-1170h-586zM585 0v4096h2925v-586h-2340v-1170h2340v-585h-2340v-1755h-585zM2340 4681v585h1170v-585h-1170z" />
    <glyph glyph-name="racute" unicode="&#x155;" 
d="M2340 1755v585h585v-585h-585zM1170 0v2925h585v-1170h585v-585h-585v-1170h-585zM2925 2340v585h585v-585h-585zM2340 3510v586h1170v-586h-1170z" />
    <glyph glyph-name="uni0156" unicode="&#x156;" 
d="M1755 -585v585h1170v-585h-1170zM3510 0v1755h586v-1755h-586zM3510 2340v1170h586v-1170h-586zM585 0v4096h2925v-586h-2340v-1170h2340v-585h-2340v-1755h-585z" />
    <glyph glyph-name="uni0157" unicode="&#x157;" 
d="M2340 1755v585h585v-585h-585zM585 -585v585h585v2925h585v-1170h585v-585h-585v-1755h-1170zM2925 2340v585h585v-585h-585z" />
    <glyph glyph-name="Rcaron" unicode="&#x158;" 
d="M3510 0v1755h586v-1755h-586zM3510 2340v1170h586v-1170h-586zM585 0v4096h2925v-586h-2340v-1170h2340v-585h-2340v-1755h-585zM1755 4681v585h1170v-585h-1170zM1170 5266v585h585v-585h-585zM2925 5266v585h585v-585h-585z" />
    <glyph glyph-name="rcaron" unicode="&#x159;" 
d="M2340 1755v585h585v-585h-585zM1170 0v2925h585v-1170h585v-585h-585v-1170h-585zM2925 2340v585h585v-585h-585zM1755 3510v586h1170v-586h-1170zM1170 4096v585h585v-585h-585zM2925 4096v585h585v-585h-585z" />
    <glyph glyph-name="Sacute" unicode="&#x15a;" 
d="M585 0v1170h585v-585h2340v1170h-2925v2341h3511v-1171h-586v585h-2340v-1170h2926v-2340h-3511zM2340 4681v585h1170v-585h-1170z" />
    <glyph glyph-name="sacute" unicode="&#x15b;" 
d="M585 0v585h2925v585h-2925v1755h3511v-585h-2926v-585h2926v-1755h-3511zM2340 3510v586h1170v-586h-1170z" />
    <glyph glyph-name="Scircumflex" unicode="&#x15c;" 
d="M585 0v1170h585v-585h2340v1170h-2925v2341h3511v-1171h-586v585h-2340v-1170h2926v-2340h-3511zM1170 4681v585h585v-585h-585zM2925 4681v585h585v-585h-585zM1755 5266v585h1170v-585h-1170z" />
    <glyph glyph-name="scircumflex" unicode="&#x15d;" 
d="M585 0v585h2925v585h-2925v1755h3511v-585h-2926v-585h2926v-1755h-3511zM1170 3510v586h585v-586h-585zM2925 3510v586h585v-586h-585zM1755 4096v585h1170v-585h-1170z" />
    <glyph glyph-name="Scedilla" unicode="&#x15e;" 
d="M1755 -585v585h-1170v1170h585v-585h2340v1170h-2925v2341h3511v-1171h-586v585h-2340v-1170h2926v-2340h-1171v-585h-1170z" />
    <glyph glyph-name="scedilla" unicode="&#x15f;" 
d="M1755 -585v585h-1170v585h2925v585h-2925v1755h3511v-585h-2926v-585h2926v-1755h-1171v-585h-1170z" />
    <glyph glyph-name="Scaron" unicode="&#x160;" 
d="M585 0v1170h585v-585h2340v1170h-2925v2341h3511v-1171h-586v585h-2340v-1170h2926v-2340h-3511zM1755 4681v585h1170v-585h-1170zM1170 5266v585h585v-585h-585zM2925 5266v585h585v-585h-585z" />
    <glyph glyph-name="scaron" unicode="&#x161;" 
d="M585 0v585h2925v585h-2925v1755h3511v-585h-2926v-585h2926v-1755h-3511zM1755 3510v586h1170v-586h-1170zM1170 4096v585h585v-585h-585zM2925 4096v585h585v-585h-585z" />
    <glyph glyph-name="uni0162" unicode="&#x162;" 
d="M1170 -585v585h585v3510h-1755v586h4096v-586h-1756v-4095h-1170z" />
    <glyph glyph-name="uni0163" unicode="&#x163;" 
d="M1170 -585v585h585v2340h-1170v585h1170v585h585v-585h1170v-585h-1170v-1755h585v-585h-585v-585h-1170z" />
    <glyph glyph-name="Utilde" unicode="&#x168;" 
d="M585 0v4096h585v-3511h2340v3511h586v-4096h-3511zM1170 4681v585h2340v-585h-2340z" />
    <glyph glyph-name="utilde" unicode="&#x169;" 
d="M585 585v2340h585v-2340h-585zM1170 0v585h2340v2340h586v-2925h-2926zM1170 3510v586h2340v-586h-2340z" />
    <glyph glyph-name="Umacron" unicode="&#x16a;" 
d="M585 0v4096h585v-3511h2340v3511h586v-4096h-3511zM1170 4681v585h2340v-585h-2340z" />
    <glyph glyph-name="umacron" unicode="&#x16b;" 
d="M585 585v2340h585v-2340h-585zM1170 0v585h2340v2340h586v-2925h-2926zM1170 3510v586h2340v-586h-2340z" />
    <glyph glyph-name="Ubreve" unicode="&#x16c;" 
d="M585 0v4096h585v-3511h2340v3511h586v-4096h-3511zM1755 4681v585h1170v-585h-1170zM1170 5266v585h585v-585h-585zM2925 5266v585h585v-585h-585z" />
    <glyph glyph-name="ubreve" unicode="&#x16d;" 
d="M585 585v2340h585v-2340h-585zM1170 0v585h2340v2340h586v-2925h-2926zM1755 3510v586h1170v-586h-1170zM1170 4096v585h585v-585h-585zM2925 4096v585h585v-585h-585z" />
    <glyph glyph-name="Uogonek" unicode="&#x172;" 
d="M1755 -585v585h-1170v4096h585v-3511h2340v3511h586v-4096h-1171v-585h-1170z" />
    <glyph glyph-name="uogonek" unicode="&#x173;" 
d="M585 585v2340h585v-2340h-585zM2925 -585v585h-1755v585h2340v2340h586v-3510h-1171z" />
    <glyph glyph-name="Ycircumflex" unicode="&#x176;" 
d="M1170 0v585h2340v1170h-2925v2341h585v-1756h2340v1756h586v-4096h-2926zM1170 4681v585h585v-585h-585zM2925 4681v585h585v-585h-585zM1755 5266v585h1170v-585h-1170z" />
    <glyph glyph-name="ycircumflex" unicode="&#x177;" 
d="M1170 0v585h2340v585h-2925v1755h585v-1170h2340v1170h586v-2925h-2926zM1170 3510v586h585v-586h-585zM2925 3510v586h585v-586h-585zM1755 4096v585h1170v-585h-1170z" />
    <glyph glyph-name="Ydieresis" unicode="&#x178;" 
d="M1170 0v585h2340v1170h-2925v2341h585v-1756h2340v1756h586v-4096h-2926zM1170 4681v585h585v-585h-585zM2925 4681v585h585v-585h-585z" />
    <glyph glyph-name="Zacute" unicode="&#x179;" 
d="M585 0v585h585v585h585v-585h2341v-585h-3511zM1755 1170v585h585v-585h-585zM2340 1755v585h585v-585h-585zM2925 2340v585h585v-585h-585zM3510 2925v585h-2925v586h3511v-1171h-586zM2340 4681v585h1170v-585h-1170z" />
    <glyph glyph-name="zacute" unicode="&#x17a;" 
d="M585 0v585h1170v585h585v-585h1756v-585h-3511zM2340 1170v585h585v-585h-585zM2925 1755v585h-2340v585h3511v-585h-586v-585h-585zM2340 3510v586h1170v-586h-1170z" />
    <glyph glyph-name="Zdotaccent" unicode="&#x17b;" 
d="M585 0v585h585v585h585v-585h2341v-585h-3511zM1755 1170v585h585v-585h-585zM2340 1755v585h585v-585h-585zM2925 2340v585h585v-585h-585zM3510 2925v585h-2925v586h3511v-1171h-586zM1755 4681v585h1170v-585h-1170z" />
    <glyph glyph-name="zdotaccent" unicode="&#x17c;" 
d="M585 0v585h1170v585h585v-585h1756v-585h-3511zM2340 1170v585h585v-585h-585zM2925 1755v585h-2340v585h3511v-585h-586v-585h-585zM1755 3510v586h1170v-586h-1170z" />
    <glyph glyph-name="Zcaron" unicode="&#x17d;" 
d="M585 0v585h585v585h585v-585h2341v-585h-3511zM1755 1170v585h585v-585h-585zM2340 1755v585h585v-585h-585zM2925 2340v585h585v-585h-585zM3510 2925v585h-2925v586h3511v-1171h-586zM1755 4681v585h1170v-585h-1170zM1170 5266v585h585v-585h-585zM2925 5266v585h585
v-585h-585z" />
    <glyph glyph-name="zcaron" unicode="&#x17e;" 
d="M585 0v585h1170v585h585v-585h1756v-585h-3511zM2340 1170v585h585v-585h-585zM2925 1755v585h-2340v585h3511v-585h-586v-585h-585zM1755 3510v586h1170v-586h-1170zM1170 4096v585h585v-585h-585zM2925 4096v585h585v-585h-585z" />
    <glyph glyph-name="longs" unicode="&#x17f;" 
d="M1755 -585v2340h-1170v585h1170v1756h1170v-586h-585v-4095h-585z" />
    <glyph glyph-name="uni018E" unicode="&#x18e;" 
d="M585 0v585h2925v1170h-2340v585h2340v1170h-2925v586h3511v-4096h-3511z" />
    <glyph glyph-name="uni01CD" unicode="&#x1cd;" 
d="M3510 2340v1170h-1755v-1170h1755zM585 0v2340h585v1756h2926v-4096h-586v1755h-2340v-1755h-585zM1755 4681v585h1170v-585h-1170zM1170 5266v585h585v-585h-585zM2925 5266v585h585v-585h-585z" />
    <glyph glyph-name="uni01CE" unicode="&#x1ce;" 
d="M1170 0v585h2340v585h-2340v-585h-585v1170h2925v585h586v-2340h-2926zM1170 2340v585h2340v-585h-2340zM1755 3510v586h1170v-586h-1170zM1170 4096v585h585v-585h-585zM2925 4096v585h585v-585h-585z" />
    <glyph glyph-name="uni01CF" unicode="&#x1cf;" 
d="M1755 0v4096h585v-4096h-585zM1755 4681v585h585v-585h-585zM1170 5266v585h585v-585h-585zM2340 5266v585h585v-585h-585z" />
    <glyph glyph-name="uni01D0" unicode="&#x1d0;" 
d="M1755 0v2340h585v-2340h-585zM1755 3510v586h585v-586h-585zM1170 4096v585h585v-585h-585zM2340 4096v585h585v-585h-585z" />
    <glyph glyph-name="uni01D1" unicode="&#x1d1;" 
d="M3510 585v2925h-2340v-2925h2340zM585 0v4096h3511v-4096h-3511zM1755 4681v585h1170v-585h-1170zM1170 5266v585h585v-585h-585zM2925 5266v585h585v-585h-585z" />
    <glyph glyph-name="uni01D2" unicode="&#x1d2;" 
d="M3510 585v1755h-2340v-1755h2340zM585 0v2925h3511v-2925h-3511zM1755 3510v586h1170v-586h-1170zM1170 4096v585h585v-585h-585zM2925 4096v585h585v-585h-585z" />
    <glyph glyph-name="uni01D3" unicode="&#x1d3;" 
d="M585 0v4096h585v-3511h2340v3511h586v-4096h-3511zM1755 4681v585h1170v-585h-1170zM1170 5266v585h585v-585h-585zM2925 5266v585h585v-585h-585z" />
    <glyph glyph-name="uni01D4" unicode="&#x1d4;" 
d="M585 585v2340h585v-2340h-585zM1170 0v585h2340v2340h586v-2925h-2926zM1755 3510v586h1170v-586h-1170zM1170 4096v585h585v-585h-585zM2925 4096v585h585v-585h-585z" />
    <glyph glyph-name="uni01DD" unicode="&#x1dd;" 
d="M1170 0v585h2340v-585h-2340zM585 585v1170h2925v585h-2925v585h3511v-2340h-586v585h-2340v-585h-585z" />
    <glyph glyph-name="uni01E2" unicode="&#x1e2;" 
d="M1755 2340v1170h-585v-1170h585zM0 0v2340h585v1756h3511v-586h-1756v-1170h1170v-585h-1170v-1170h1756v-585h-2341v1755h-1170v-1755h-585zM1170 4681v585h2340v-585h-2340z" />
    <glyph glyph-name="uni01E3" unicode="&#x1e3;" 
d="M585 0v585h1170v585h-1170v-585h-585v1170h1755v585h585v-585h1170v585h586v-1170h-1756v-585h1756v-585h-3511zM585 2340v585h1170v-585h-1170zM2340 2340v585h1170v-585h-1170zM1170 3510v586h2340v-586h-2340z" />
    <glyph glyph-name="Gcaron" unicode="&#x1e6;" 
d="M585 0v4096h3511v-586h-2926v-2925h2340v1170h-585v585h1171v-2340h-3511zM1755 4681v585h1170v-585h-1170zM1170 5266v585h585v-585h-585zM2925 5266v585h585v-585h-585z" />
    <glyph glyph-name="gcaron" unicode="&#x1e7;" 
d="M3510 1755v585h-2340v-585h2340zM1170 0v585h2340v585h-2925v1755h3511v-2925h-2926zM1755 3510v586h1170v-586h-1170zM1170 4096v585h585v-585h-585zM2925 4096v585h585v-585h-585z" />
    <glyph glyph-name="uni01F0" unicode="&#x1f0;" 
d="M1170 0v1170h585v-585h1170v1755h585v-2340h-2340zM2925 3510v586h585v-586h-585zM2340 4096v585h585v-585h-585zM3510 4096v585h586v-585h-586z" />
    <glyph glyph-name="uni01F4" unicode="&#x1f4;" 
d="M585 0v4096h3511v-586h-2926v-2925h2340v1170h-585v585h1171v-2340h-3511zM2340 4681v585h1170v-585h-1170z" />
    <glyph glyph-name="uni01F5" unicode="&#x1f5;" 
d="M3510 1755v585h-2340v-585h2340zM1170 0v585h2340v585h-2925v1755h3511v-2925h-2926zM2340 3510v586h1170v-586h-1170z" />
    <glyph glyph-name="uni01F8" unicode="&#x1f8;" 
d="M2340 2340v585h585v-585h-585zM1755 2925v585h585v-585h-585zM585 0v4096h1170v-586h-585v-3510h-585zM3510 0v1755h-585v585h585v1756h586v-4096h-586zM1170 4681v585h1170v-585h-1170z" />
    <glyph glyph-name="uni01F9" unicode="&#x1f9;" 
d="M3510 0v2340h586v-2340h-586zM585 0v2925h2925v-585h-2340v-2340h-585zM1170 3510v586h1170v-586h-1170z" />
    <glyph glyph-name="AEacute" unicode="&#x1fc;" 
d="M1755 2340v1170h-585v-1170h585zM0 0v2340h585v1756h3511v-586h-1756v-1170h1170v-585h-1170v-1170h1756v-585h-2341v1755h-1170v-1755h-585zM2340 4681v585h1170v-585h-1170z" />
    <glyph glyph-name="aeacute" unicode="&#x1fd;" 
d="M585 0v585h1170v585h-1170v-585h-585v1170h1755v585h585v-585h1170v585h586v-1170h-1756v-585h1756v-585h-3511zM585 2340v585h1170v-585h-1170zM2340 2340v585h1170v-585h-1170zM2340 3510v586h1170v-586h-1170z" />
    <glyph glyph-name="uni0218" unicode="&#x218;" 
d="M1755 -585v585h-1170v1170h585v-585h2340v1170h-2925v2341h3511v-1171h-586v585h-2340v-1170h2926v-2340h-1171v-585h-1170z" />
    <glyph glyph-name="uni0219" unicode="&#x219;" 
d="M1755 -585v585h-1170v585h2925v585h-2925v1755h3511v-585h-2926v-585h2926v-1755h-1171v-585h-1170z" />
    <glyph glyph-name="uni021A" unicode="&#x21a;" 
d="M1170 -585v585h585v3510h-1755v586h4096v-586h-1756v-4095h-1170z" />
    <glyph glyph-name="uni021B" unicode="&#x21b;" 
d="M1170 -585v585h585v2340h-1170v585h1170v585h585v-585h1170v-585h-1170v-1755h585v-585h-585v-585h-1170z" />
    <glyph glyph-name="uni0226" unicode="&#x226;" 
d="M3510 2340v1170h-1755v-1170h1755zM585 0v2340h585v1756h2926v-4096h-586v1755h-2340v-1755h-585zM1755 4681v585h1170v-585h-1170z" />
    <glyph glyph-name="uni0227" unicode="&#x227;" 
d="M1170 0v585h2340v585h-2340v-585h-585v1170h2925v585h586v-2340h-2926zM1170 2340v585h2340v-585h-2340zM1755 3510v586h1170v-586h-1170z" />
    <glyph glyph-name="uni0228" unicode="&#x228;" 
d="M1755 -585v585h-1170v4096h3511v-586h-2926v-1170h2340v-585h-2340v-1170h2926v-585h-1171v-585h-1170z" />
    <glyph glyph-name="uni0229" unicode="&#x229;" 
d="M1755 -585v585h-1170v2340h585v-585h2340v585h586v-1170h-2926v-585h2926v-585h-1171v-585h-1170zM1170 2340v585h2340v-585h-2340z" />
    <glyph glyph-name="uni022E" unicode="&#x22e;" 
d="M3510 585v2925h-2340v-2925h2340zM585 0v4096h3511v-4096h-3511zM1755 4681v585h1170v-585h-1170z" />
    <glyph glyph-name="uni022F" unicode="&#x22f;" 
d="M3510 585v1755h-2340v-1755h2340zM585 0v2925h3511v-2925h-3511zM1755 3510v586h1170v-586h-1170z" />
    <glyph glyph-name="uni0232" unicode="&#x232;" 
d="M1170 0v585h2340v1170h-2925v2341h585v-1756h2340v1756h586v-4096h-2926zM1170 4681v585h2340v-585h-2340z" />
    <glyph glyph-name="uni0233" unicode="&#x233;" 
d="M1170 0v585h2340v585h-2925v1755h585v-1170h2340v1170h586v-2925h-2926zM1170 3510v586h2340v-586h-2340z" />
    <glyph glyph-name="uni0237" unicode="&#x237;" 
d="M1170 0v1170h585v-585h1170v1755h585v-2340h-2340z" />
    <glyph glyph-name="uni0241" unicode="&#x241;" 
d="M1755 0v2340h1170v1170h-1170v-585h-1170v585h585v586h2340v-586h586v-1170h-586v-585h-585v-1755h-1170z" />
    <glyph glyph-name="uni0242" unicode="&#x242;" 
d="M1755 0v1170h585v1170h-585v-585h-1170v585h585v585h1755v-585h585v-1170h-585v-585h-585v-585h-585z" />
    <glyph glyph-name="uni0245" unicode="&#x245;" 
d="M585 0v1755h585v-1755h-585zM1170 1755v585h585v-585h-585zM1755 2340v585h585v-585h-585zM2340 2925v585h585v-585h-585zM3510 0v3510h-585v586h1171v-4096h-586z" />
    <glyph glyph-name="tilde" unicode="&#x2dc;" 
d="M1170 1755v585h2340v-585h-2340z" />
    <glyph glyph-name="pi" unicode="&#x3c0;" 
d="M1170 0v2340h-585v585h3511v-585h-586v-2340h-585v2340h-1170v-2340h-585z" />
    <glyph glyph-name="uni0418" unicode="&#x418;" 
d="M1755 2340v585h585v-585h-585zM2340 2925v585h585v-585h-585zM585 0v4096h585v-1756h585v-585h-585v-1755h-585zM3510 0v3510h-585v586h1171v-4096h-586z" />
    <glyph glyph-name="uni042F" unicode="&#x42f;" 
d="M585 0v1755h585v-1755h-585zM585 2340v1170h585v-1170h-585zM3510 0v1755h-2340v585h2340v1170h-2340v586h2926v-4096h-586z" />
    <glyph glyph-name="uni1E44" unicode="&#x1e44;" 
d="M2340 2340v585h585v-585h-585zM1755 2925v585h585v-585h-585zM585 0v4096h1170v-586h-585v-3510h-585zM3510 0v1755h-585v585h585v1756h586v-4096h-586zM1755 4681v585h1170v-585h-1170z" />
    <glyph glyph-name="uni1E45" unicode="&#x1e45;" 
d="M3510 0v2340h586v-2340h-586zM585 0v2925h2925v-585h-2340v-2340h-585zM1755 3510v586h1170v-586h-1170z" />
    <glyph glyph-name="uni1E58" unicode="&#x1e58;" 
d="M3510 0v1755h586v-1755h-586zM3510 2340v1170h586v-1170h-586zM585 0v4096h2925v-586h-2340v-1170h2340v-585h-2340v-1755h-585zM1755 4681v585h1170v-585h-1170z" />
    <glyph glyph-name="uni1E59" unicode="&#x1e59;" 
d="M2340 1755v585h585v-585h-585zM1170 0v2925h585v-1170h585v-585h-585v-1170h-585zM2925 2340v585h585v-585h-585zM1755 3510v586h1170v-586h-1170z" />
    <glyph glyph-name="uni1E60" unicode="&#x1e60;" 
d="M585 0v1170h585v-585h2340v1170h-2925v2341h3511v-1171h-586v585h-2340v-1170h2926v-2340h-3511zM1755 4681v585h1170v-585h-1170z" />
    <glyph glyph-name="uni1E61" unicode="&#x1e61;" 
d="M585 0v585h2925v585h-2925v1755h3511v-585h-2926v-585h2926v-1755h-3511zM1755 3510v586h1170v-586h-1170z" />
    <glyph glyph-name="uni1E8A" unicode="&#x1e8a;" 
d="M0 0v585h585v-585h-585zM3510 0v585h586v-585h-586zM585 585v585h585v-585h-585zM2925 585v585h585v-585h-585zM1170 1170v585h585v-585h-585zM2340 1170v585h585v-585h-585zM1755 1755v585h585v-585h-585zM1170 2340v585h585v-585h-585zM2340 2340v585h585v-585h-585z
M585 2925v585h585v-585h-585zM2925 2925v585h585v-585h-585zM0 3510v586h585v-586h-585zM3510 3510v586h586v-586h-586zM1755 4681v585h585v-585h-585z" />
    <glyph glyph-name="uni1E8B" unicode="&#x1e8b;" 
d="M585 0v585h585v-585h-585zM3510 0v585h586v-585h-586zM1170 585v585h585v-585h-585zM2925 585v585h585v-585h-585zM1755 1170v585h1170v-585h-1170zM1170 1755v585h585v-585h-585zM2925 1755v585h585v-585h-585zM585 2340v585h585v-585h-585zM3510 2340v585h586v-585
h-586zM1755 3510v586h1170v-586h-1170z" />
    <glyph glyph-name="uni1E8C" unicode="&#x1e8c;" 
d="M0 0v585h585v-585h-585zM3510 0v585h586v-585h-586zM585 585v585h585v-585h-585zM2925 585v585h585v-585h-585zM1170 1170v585h585v-585h-585zM2340 1170v585h585v-585h-585zM1755 1755v585h585v-585h-585zM1170 2340v585h585v-585h-585zM2340 2340v585h585v-585h-585z
M585 2925v585h585v-585h-585zM2925 2925v585h585v-585h-585zM0 3510v586h585v-586h-585zM3510 3510v586h586v-586h-586zM585 4681v585h585v-585h-585zM2925 4681v585h585v-585h-585z" />
    <glyph glyph-name="uni1E8D" unicode="&#x1e8d;" 
d="M585 0v585h585v-585h-585zM3510 0v585h586v-585h-586zM1170 585v585h585v-585h-585zM2925 585v585h585v-585h-585zM1755 1170v585h1170v-585h-1170zM1170 1755v585h585v-585h-585zM2925 1755v585h585v-585h-585zM585 2340v585h585v-585h-585zM3510 2340v585h586v-585
h-586zM1170 3510v586h585v-586h-585zM2925 3510v586h585v-586h-585z" />
    <glyph glyph-name="uni1E8E" unicode="&#x1e8e;" 
d="M1170 0v585h2340v1170h-2925v2341h585v-1756h2340v1756h586v-4096h-2926zM1755 4681v585h1170v-585h-1170z" />
    <glyph glyph-name="uni1E8F" unicode="&#x1e8f;" 
d="M1170 0v585h2340v585h-2925v1755h585v-1170h2340v1170h586v-2925h-2926zM1755 3510v586h1170v-586h-1170z" />
    <glyph glyph-name="uni1E90" unicode="&#x1e90;" 
d="M585 0v585h585v585h585v-585h2341v-585h-3511zM1755 1170v585h585v-585h-585zM2340 1755v585h585v-585h-585zM2925 2340v585h585v-585h-585zM3510 2925v585h-2925v586h3511v-1171h-586zM1170 4681v585h585v-585h-585zM2925 4681v585h585v-585h-585zM1755 5266v585h1170
v-585h-1170z" />
    <glyph glyph-name="uni1E91" unicode="&#x1e91;" 
d="M585 0v585h1170v585h585v-585h1756v-585h-3511zM2340 1170v585h585v-585h-585zM2925 1755v585h-2340v585h3511v-585h-586v-585h-585zM1170 3510v586h585v-586h-585zM2925 3510v586h585v-586h-585zM1755 4096v585h1170v-585h-1170z" />
    <glyph glyph-name="uni1E9E" unicode="&#x1e9e;" 
d="M1755 0v585h1755v-585h-1755zM3510 585v1170h586v-1170h-586zM585 0v3510h585v-3510h-585zM1755 1755v585h1170v1170h585v-1755h-1755zM1170 3510v586h1755v-586h-1755z" />
    <glyph glyph-name="uni1EBC" unicode="&#x1ebc;" 
d="M585 0v4096h3511v-586h-2926v-1170h2340v-585h-2340v-1170h2926v-585h-3511zM1170 4681v585h2340v-585h-2340z" />
    <glyph glyph-name="uni1EBD" unicode="&#x1ebd;" 
d="M585 0v2340h585v-585h2340v585h586v-1170h-2926v-585h2926v-585h-3511zM1170 2340v585h2340v-585h-2340zM1170 3510v586h2340v-586h-2340z" />
    <glyph glyph-name="Ygrave" unicode="&#x1ef2;" 
d="M1170 0v585h2340v1170h-2925v2341h585v-1756h2340v1756h586v-4096h-2926zM1170 4681v585h1170v-585h-1170z" />
    <glyph glyph-name="ygrave" unicode="&#x1ef3;" 
d="M1170 0v585h2340v585h-2925v1755h585v-1170h2340v1170h586v-2925h-2926zM1170 3510v586h1170v-586h-1170z" />
    <glyph glyph-name="uni1EF8" unicode="&#x1ef8;" 
d="M1170 0v585h2340v1170h-2925v2341h585v-1756h2340v1756h586v-4096h-2926zM1170 4681v585h2340v-585h-2340z" />
    <glyph glyph-name="uni1EF9" unicode="&#x1ef9;" 
d="M1170 0v585h2340v585h-2925v1755h585v-1170h2340v1170h586v-2925h-2926zM1170 3510v586h2340v-586h-2340z" />
    <glyph glyph-name="uni2000" unicode="&#x2000;" 
 />
    <glyph glyph-name="uni2010" unicode="&#x2010;" 
d="M585 1755v585h3511v-585h-3511z" />
    <glyph glyph-name="uni2011" unicode="&#x2011;" 
d="M585 1755v585h3511v-585h-3511z" />
    <glyph glyph-name="figuredash" unicode="&#x2012;" 
d="M0 1755v585h4096v-585h-4096z" />
    <glyph glyph-name="endash" unicode="&#x2013;" 
d="M0 1755v585h4096v-585h-4096z" />
    <glyph glyph-name="emdash" unicode="&#x2014;" 
d="M0 1755v585h4681v-585h-4681z" />
    <glyph glyph-name="uni2015" unicode="&#x2015;" 
d="M0 1755v585h4681v-585h-4681z" />
    <glyph glyph-name="uni2016" unicode="&#x2016;" 
 />
    <glyph glyph-name="quoteleft" unicode="&#x2018;" 
d="M1170 1755v1755h585v-585h585v-1170h-1170zM1755 3510v586h585v-586h-585z" />
    <glyph glyph-name="quoteright" unicode="&#x2019;" 
d="M1170 1755v585h585v-585h-585zM1755 2340v585h-585v1171h1170v-1756h-585z" />
    <glyph glyph-name="quotesinglbase" unicode="&#x201a;" 
d="M1170 -585v585h585v-585h-585zM1755 0v585h-585v1170h1170v-1755h-585z" />
    <glyph glyph-name="quotereversed" unicode="&#x201b;" 
d="M1755 1755v585h585v-585h-585zM1170 2340v1756h1170v-1171h-585v-585h-585z" />
    <glyph glyph-name="quotedblleft" unicode="&#x201c;" 
d="M585 1755v1755h585v-585h585v-1170h-1170zM2925 1755v1755h585v-585h586v-1170h-1171zM1170 3510v586h585v-586h-585zM3510 3510v586h586v-586h-586z" />
    <glyph glyph-name="quotedblright" unicode="&#x201d;" 
d="M585 1755v585h585v-585h-585zM2925 1755v585h585v-585h-585zM1170 2340v585h-585v1171h1170v-1756h-585zM3510 2340v585h-585v1171h1171v-1756h-586z" />
    <glyph glyph-name="quotedblbase" unicode="&#x201e;" 
d="M585 -585v585h585v-585h-585zM2925 -585v585h585v-585h-585zM1170 0v585h-585v1170h1170v-1755h-585zM3510 0v585h-585v1170h1171v-1755h-586z" />
    <glyph glyph-name="uni201F" unicode="&#x201f;" 
d="M1170 1755v585h585v-585h-585zM3510 1755v585h586v-585h-586zM585 2340v1756h1170v-1171h-585v-585h-585zM2925 2340v1756h1171v-1171h-586v-585h-585z" />
    <glyph glyph-name="dagger" unicode="&#x2020;" 
d="M1755 -585v3510h-1170v585h1170v1171h585v-1171h1170v-585h-1170v-3510h-585z" />
    <glyph glyph-name="daggerdbl" unicode="&#x2021;" 
d="M1755 -585v1170h-1170v585h1170v1755h-1170v585h1170v1171h585v-1171h1170v-585h-1170v-1755h1170v-585h-1170v-1170h-585z" />
    <glyph glyph-name="bullet" unicode="&#x2022;" 
d="M1755 1755v1170h1170v-1170h-1170z" />
    <glyph glyph-name="uni2023" unicode="&#x2023;" 
d="M1170 0v3510h585v-585h585v-585h585v-1170h-585v-585h-585v-585h-585z" />
    <glyph glyph-name="uni2027" unicode="&#x2027;" 
d="M1755 1755v1170h1170v-1170h-1170z" />
    <glyph glyph-name="minute" unicode="&#x2032;" 
d="M1170 -585v2340h1170v-1170h-585v-585h585v-585h-1170zM4096 -585v585h-1171v2925h585v-1170h1171v-2340h-585z" />
    <glyph glyph-name="second" unicode="&#x2033;" 
d="M2340 -585v585h585v585h-585v1170h1170v-2340h-1170zM0 -585v2340h1170v1170h585v-2925h-1170v-585h-585z" />
    <glyph glyph-name="uni2034" unicode="&#x2034;" 
d="M1170 0v585h1170v585h585v2340h-1170v586h2926v-2926h-1171v-1170h-2340z" />
    <glyph glyph-name="uni2035" unicode="&#x2035;" 
d="M1170 0v1170h-1170v2926h2925v-586h-1170v-2340h585v-585h1170v-585h-2340z" />
    <glyph glyph-name="uni2036" unicode="&#x2036;" 
d="M4096 1755v585h-1171v-585h1171zM0 0v2925h585v-1170h1755v1170h2341v-1755h-1756v-1170h-585v1170h-1755v-1170h-585z" />
    <glyph glyph-name="uni2037" unicode="&#x2037;" 
d="M1170 1170v585h585v-585h-585zM4096 1755v585h-1171v-585h1171zM0 0v2925h585v-585h585v-585h-585v-1755h-585zM2340 0v1755h-585v585h585v585h2341v-1755h-1756v-1170h-585z" />
    <glyph glyph-name="uni2038" unicode="&#x2038;" 
d="M585 2340v585h585v-585h-585zM2925 2340v585h585v-585h-585zM1170 2925v585h585v-585h-585zM2340 2925v585h585v-585h-585zM1755 3510v586h585v-586h-585z" />
    <glyph glyph-name="guilsinglleft" unicode="&#x2039;" 
d="M2925 0v585h585v-585h-585zM2340 585v585h585v-585h-585zM1755 1170v585h585v-585h-585zM1170 1755v585h585v-585h-585zM1755 2340v585h585v-585h-585zM2340 2925v585h585v-585h-585zM2925 3510v586h585v-586h-585z" />
    <glyph glyph-name="guilsinglright" unicode="&#x203a;" 
d="M1170 0v585h585v-585h-585zM1755 585v585h585v-585h-585zM2340 1170v585h585v-585h-585zM2925 1755v585h585v-585h-585zM2340 2340v585h585v-585h-585zM1755 2925v585h585v-585h-585zM1170 3510v586h585v-586h-585z" />
    <glyph glyph-name="uni203B" unicode="&#x203b;" 
d="M1755 0v585h585v-585h-585zM585 585v585h585v-585h-585zM2925 585v585h585v-585h-585zM1170 1170v585h585v-585h-585zM2340 1170v585h585v-585h-585zM0 1755v585h585v-585h-585zM1755 1755v585h585v-585h-585zM3510 1755v585h586v-585h-586zM1170 2340v585h585v-585h-585
zM2340 2340v585h585v-585h-585zM585 2925v585h585v-585h-585zM2925 2925v585h585v-585h-585zM1755 3510v586h585v-586h-585z" />
    <glyph glyph-name="uni203D" unicode="&#x203d;" 
d="M1755 0v585h1170v-585h-1170zM2925 2340v1170h-585v-1170h585zM1755 1170v585h-585v1170h-585v585h585v586h2340v-586h586v-1170h-586v-585h-585v-585h-1170z" />
    <glyph glyph-name="uni203E" unicode="&#x203e;" 
d="M585 4096v585h3511v-585h-3511z" />
    <glyph glyph-name="uni2043" unicode="&#x2043;" 
d="M585 1755v585h3511v-585h-3511z" />
    <glyph glyph-name="fraction" unicode="&#x2044;" 
d="M0 0v585h585v-585h-585zM585 585v585h585v-585h-585zM1170 1170v585h585v-585h-585zM1755 1755v585h585v-585h-585zM2340 2340v585h585v-585h-585zM2925 2925v585h585v-585h-585zM3510 3510v586h586v-586h-586z" />
    <glyph glyph-name="lira" unicode="&#x20a4;" 
d="M1170 0v585h585v585h-585v585h585v585h-585v585h585v585h585v-585h585v-585h-585v-585h585v-585h-585v-585h1756v-585h-2926zM2340 3510v586h1756v-586h-1756z" />
    <glyph glyph-name="Euro" unicode="&#x20ac;" 
d="M1755 0v585h2341v-585h-2341zM1170 585v585h-585v585h585v585h-585v585h585v585h585v-585h1170v-585h-1170v-585h1170v-585h-1170v-585h-585zM1755 3510v586h2341v-586h-2341z" />
    <glyph glyph-name="uni20B9" unicode="&#x20b9;" 
d="M2925 0v585h1171v-585h-1171zM2340 585v585h585v-585h-585zM585 0v2340h-585v585h585v1171h585v-1171h1170v-585h-1170v-585h1170v-585h-1170v-1170h-585z" />
    <glyph glyph-name="arrowleft" unicode="&#x2190;" 
d="M1170 1170v585h-585v585h585v585h585v-585h2341v-585h-2341v-585h-585z" />
    <glyph glyph-name="arrowup" unicode="&#x2191;" 
d="M1755 0v2340h-585v585h585v585h585v-585h585v-585h-585v-2340h-585z" />
    <glyph glyph-name="arrowright" unicode="&#x2192;" 
d="M2925 1170v585h-2340v585h2340v585h585v-585h586v-585h-586v-585h-585z" />
    <glyph glyph-name="arrowdown" unicode="&#x2193;" 
d="M1755 0v585h-585v585h585v2340h585v-2340h585v-585h-585v-585h-585z" />
    <glyph glyph-name="arrowboth" unicode="&#x2194;" 
d="M1170 1170v585h-585v585h585v585h585v-585h1170v585h585v-585h586v-585h-586v-585h-585v585h-1170v-585h-585z" />
    <glyph glyph-name="arrowupdn" unicode="&#x2195;" 
d="M1755 0v585h-585v585h585v1170h-585v585h585v585h585v-585h585v-585h-585v-1170h585v-585h-585v-585h-585z" />
    <glyph glyph-name="uni2196" unicode="&#x2196;" 
d="M3510 0v585h586v-585h-586zM2925 585v585h585v-585h-585zM2340 1170v585h585v-585h-585zM1755 1755v585h585v-585h-585zM585 1755v1755h1755v-585h-585v-585h-585v-585h-585z" />
    <glyph glyph-name="uni2197" unicode="&#x2197;" 
d="M585 0v585h585v-585h-585zM1170 585v585h585v-585h-585zM1755 1170v585h585v-585h-585zM2340 1755v585h585v-585h-585zM3510 1755v585h-585v585h-585v585h1756v-1755h-586z" />
    <glyph glyph-name="uni2198" unicode="&#x2198;" 
d="M2340 1170v585h585v-585h-585zM2340 0v585h585v585h585v585h586v-1755h-1756zM1755 1755v585h585v-585h-585zM1170 2340v585h585v-585h-585zM585 2925v585h585v-585h-585z" />
    <glyph glyph-name="uni2199" unicode="&#x2199;" 
d="M585 0v1755h585v-585h585v-585h585v-585h-1755zM1755 1170v585h585v-585h-585zM2340 1755v585h585v-585h-585zM2925 2340v585h585v-585h-585zM3510 2925v585h586v-585h-586z" />
    <glyph glyph-name="proportional" unicode="&#x221d;" 
d="M585 1170v585h1170v-585h-1170zM2340 1170v585h1756v-585h-1756zM0 1755v1170h585v-1170h-585zM1755 1755v1170h585v-1170h-585zM585 2925v585h1170v-585h-1170zM2340 2925v585h1756v-585h-1756z" />
    <glyph glyph-name="infinity" unicode="&#x221e;" 
d="M585 1170v585h1170v-585h-1170zM2340 1170v585h1170v-585h-1170zM0 1755v1170h585v-1170h-585zM1755 1755v1170h585v-1170h-585zM3510 1755v1170h586v-1170h-586zM585 2925v585h1170v-585h-1170zM2340 2925v585h1170v-585h-1170z" />
    <glyph glyph-name="filledbox" unicode="&#x25a0;" 
d="M585 0v3510h3511v-3510h-3511z" />
    <glyph glyph-name="H22073" unicode="&#x25a1;" 
d="M3510 585v2340h-2340v-2340h2340zM585 0v3510h3511v-3510h-3511z" />
    <glyph glyph-name="triagup" unicode="&#x25b2;" 
d="M585 1170v585h585v585h585v585h1170v-585h585v-585h586v-585h-3511z" />
    <glyph glyph-name="uni25B6" unicode="&#x25b6;" 
d="M1170 0v3510h585v-585h585v-585h585v-1170h-585v-585h-585v-585h-585z" />
    <glyph glyph-name="triagdn" unicode="&#x25bc;" 
d="M1755 1170v585h-585v585h-585v585h3511v-585h-586v-585h-585v-585h-1170z" />
    <glyph glyph-name="uni25C0" unicode="&#x25c0;" 
d="M1755 0v585h-585v585h-585v1170h585v585h585v585h585v-3510h-585z" />
    <glyph glyph-name="uni25C9" unicode="&#x25c9;" 
d="M1170 0v585h1755v-585h-1755zM585 585v585h585v-585h-585zM2925 585v585h585v-585h-585zM0 1170v1755h585v-1755h-585zM1755 1170v585h-585v585h585v585h585v-585h585v-585h-585v-585h-585zM3510 1170v1755h586v-1755h-586zM585 2925v585h585v-585h-585zM2925 2925v585
h585v-585h-585zM1170 3510v586h1755v-586h-1755z" />
    <glyph glyph-name="circle" unicode="&#x25cb;" 
d="M1170 0v585h1755v-585h-1755zM585 585v585h585v-585h-585zM2925 585v585h585v-585h-585zM0 1170v1755h585v-1755h-585zM3510 1170v1755h586v-1755h-586zM585 2925v585h585v-585h-585zM2925 2925v585h585v-585h-585zM1170 3510v586h1755v-586h-1755z" />
    <glyph glyph-name="uni25CE" unicode="&#x25ce;" 
d="M1170 0v585h1755v-585h-1755zM585 585v585h585v-585h-585zM2925 585v585h585v-585h-585zM1755 1170v585h585v-585h-585zM1170 1755v585h585v-585h-585zM2340 1755v585h585v-585h-585zM0 1170v1755h585v-1755h-585zM1755 2340v585h585v-585h-585zM3510 1170v1755h586
v-1755h-586zM585 2925v585h585v-585h-585zM2925 2925v585h585v-585h-585zM1170 3510v586h1755v-586h-1755z" />
    <glyph glyph-name="H18533" unicode="&#x25cf;" 
d="M1170 0v585h-585v585h-585v1755h585v585h585v586h1755v-586h585v-585h586v-1755h-586v-585h-585v-585h-1755z" />
    <glyph glyph-name="uni3001" unicode="&#x3001;" 
 />
    <glyph glyph-name="uni3002" unicode="&#x3002;" 
d="M585 0v1170h1170v-1170h-1170z" />
    <glyph glyph-name="uni3041" unicode="&#x3041;" 
d="M1170 0v585h585v-585h-585zM2925 0v585h585v-585h-585zM1755 585v585h585v-585h-585zM585 585v1170h585v-1170h-585zM3510 585v1170h586v-1170h-586zM2340 1170v585h-1170v585h585v585h-585v585h585v586h585v-586h585v-585h-585v-585h585v585h585v-1170h-585v-585h-585z
" />
    <glyph glyph-name="uni3042" unicode="&#x3042;" 
d="M585 0v585h1170v-585h-1170zM2925 0v585h585v-585h-585zM1755 585v585h585v-585h-585zM0 585v1170h585v-1170h-585zM3510 585v1170h586v-1170h-586zM2340 2925v585h-585v-585h585zM1170 1170v585h-585v585h585v1170h-1170v586h1170v585h585v-585h1755v-586h-585v-1170
h585v-585h-585v-585h-585v1170h-585v-1170h-585z" />
    <glyph glyph-name="uni3043" unicode="&#x3043;" 
d="M1170 0v585h585v-585h-585zM3510 585v1170h586v-1170h-586zM585 585v1755h585v-1755h-585zM2925 1755v585h585v-585h-585zM1170 2340v585h585v-585h-585z" />
    <glyph glyph-name="uni3044" unicode="&#x3044;" 
d="M585 0v585h1170v-585h-1170zM1755 585v585h585v-585h-585zM3510 1170v1755h586v-1755h-586zM0 585v2925h585v-2925h-585zM2925 2925v585h585v-585h-585zM585 3510v586h585v-586h-585z" />
    <glyph glyph-name="uni3045" unicode="&#x3045;" 
d="M1755 0v585h1170v-585h-1170zM1170 1755v585h585v-585h-585zM2925 585v1755h585v-1755h-585zM1755 2340v585h1170v-585h-1170zM1755 3510v586h1170v-586h-1170z" />
    <glyph glyph-name="uni3046" unicode="&#x3046;" 
d="M2340 0v585h585v-585h-585zM2925 585v585h585v-585h-585zM585 2340v585h585v-585h-585zM3510 1170v1755h586v-1755h-586zM1170 2925v585h2340v-585h-2340zM1755 4096v585h1170v-585h-1170z" />
    <glyph glyph-name="uni3047" unicode="&#x3047;" 
d="M585 0v585h585v-585h-585zM1170 585v585h585v-585h-585zM2340 0v1170h585v-585h585v-585h-1170zM1755 1170v585h585v-585h-585zM2340 1755v585h-1170v585h1755v-1170h-585zM1755 3510v586h1170v-586h-1170z" />
    <glyph glyph-name="uni3048" unicode="&#x3048;" 
d="M0 0v585h585v-585h-585zM2925 0v585h1171v-585h-1171zM585 585v585h585v-585h-585zM2340 585v585h585v-585h-585zM1170 1170v585h585v585h585v-1170h-1170zM2340 2340v585h-1755v585h2340v-1170h-585zM1170 4096v585h1170v-585h-1170z" />
    <glyph glyph-name="uni3049" unicode="&#x3049;" 
d="M585 0v585h585v-585h-585zM2340 0v585h585v-585h-585zM0 585v1170h585v-1170h-585zM2925 585v1170h585v-1170h-585zM3510 2340v585h586v-585h-586zM2925 2925v585h585v-585h-585zM1170 585v1170h-585v585h585v585h-585v585h585v586h585v-586h585v-585h-585v-585h1170
v-585h-1170v-1170h-585z" />
    <glyph glyph-name="uni304A" unicode="&#x304a;" 
d="M2925 0v585h585v-585h-585zM0 585v1170h585v-1170h-585zM3510 585v1170h586v-1170h-586zM2925 1755v585h585v-585h-585zM3510 2925v1171h586v-1171h-586zM585 0v585h585v1170h-585v585h585v1170h-1170v586h1170v585h585v-585h1170v-586h-1170v-585h1170v-585h-1170v-2340
h-1170zM2925 4096v585h585v-585h-585z" />
    <glyph glyph-name="uni304B" unicode="&#x304b;" 
d="M0 0v585h585v-585h-585zM1755 0v585h585v-585h-585zM2340 585v2340h585v-2340h-585zM3510 1755v1755h586v-1755h-586zM2925 3510v586h585v-586h-585zM585 585v2340h-585v585h585v1171h585v-1171h1170v-585h-1170v-2340h-585z" />
    <glyph glyph-name="uni304C" unicode="&#x304c;" 
d="M0 0v585h585v-585h-585zM1755 0v585h585v-585h-585zM2340 585v2340h585v-2340h-585zM3510 1755v1755h586v-1755h-586zM2925 3510v586h585v-586h-585zM585 585v2340h-585v585h585v1171h585v-1171h1170v-585h-1170v-2340h-585zM2340 4096v1170h585v-1170h-585zM3510 4096
v1170h586v-1170h-586z" />
    <glyph glyph-name="uni304D" unicode="&#x304d;" 
d="M585 0v585h2340v-585h-2340zM0 585v585h585v-585h-585zM2340 1170v585h585v585h-2340v585h1170v585h-1755v586h1170v585h585v-585h1755v-586h-1170v-585h1756v-585h-586v-1170h-1170z" />
    <glyph glyph-name="uni304E" unicode="&#x304e;" 
d="M585 0v585h2340v-585h-2340zM0 585v585h585v-585h-585zM2340 1170v585h585v585h-2340v585h1170v585h-1755v586h1170v585h585v-585h1755v-586h-1170v-585h1756v-585h-586v-1170h-1170zM2340 4681v1170h585v-1170h-585zM3510 4681v1170h586v-1170h-586z" />
    <glyph glyph-name="uni304F" unicode="&#x304f;" 
d="M2340 0v585h585v-585h-585zM1755 585v585h585v-585h-585zM1170 1170v585h585v-585h-585zM585 1755v1170h585v-1170h-585zM1170 2925v585h585v-585h-585zM1755 3510v586h585v-586h-585zM2340 4096v585h585v-585h-585z" />
    <glyph glyph-name="uni3050" unicode="&#x3050;" 
d="M2340 0v585h585v-585h-585zM1755 585v585h585v-585h-585zM1170 1170v585h585v-585h-585zM585 1755v1170h585v-1170h-585zM1170 2925v585h585v-585h-585zM1755 3510v586h585v-586h-585zM2340 4096v1755h585v-1755h-585zM3510 4681v1170h586v-1170h-586z" />
    <glyph glyph-name="uni3051" unicode="&#x3051;" 
d="M585 0v585h585v-585h-585zM1755 0v585h585v-585h-585zM0 585v4096h585v-4096h-585zM2340 585v2340h-1170v585h1170v1171h585v-1171h1171v-585h-1171v-2340h-585z" />
    <glyph glyph-name="uni3052" unicode="&#x3052;" 
d="M585 0v585h585v-585h-585zM1755 0v585h585v-585h-585zM0 585v4096h585v-4096h-585zM2340 585v2340h-1170v585h1170v2341h585v-2341h1171v-585h-1171v-2340h-585zM3510 4681v1170h586v-1170h-586z" />
    <glyph glyph-name="uni3053" unicode="&#x3053;" 
d="M585 0v585h2925v-585h-2925zM0 585v585h585v-585h-585zM585 1170v585h585v-585h-585zM2340 2340v585h585v-585h-585zM2925 2925v585h585v-585h-585zM585 3510v586h2340v-586h-2340z" />
    <glyph glyph-name="uni3054" unicode="&#x3054;" 
d="M585 0v585h2925v-585h-2925zM0 585v585h585v-585h-585zM585 1170v585h585v-585h-585zM2340 2340v585h585v-585h-585zM2925 2925v585h585v-585h-585zM585 3510v586h2340v-586h-2340zM2340 4681v1170h585v-1170h-585zM3510 4681v1170h586v-1170h-586z" />
    <glyph glyph-name="uni3055" unicode="&#x3055;" 
d="M585 0v585h2340v-585h-2340zM0 585v1170h585v-1170h-585zM2340 1755v585h585v585h585v-1170h-1170zM2340 2925v585h-2340v586h1755v585h585v-585h1756v-586h-1171v-585h-585z" />
    <glyph glyph-name="uni3056" unicode="&#x3056;" 
d="M585 0v585h2340v-585h-2340zM0 585v1170h585v-1170h-585zM2340 1755v585h585v585h585v-1170h-1170zM2340 2925v585h-2340v586h1755v585h585v-585h1756v-586h-1171v-585h-585zM2340 4681v1170h585v-1170h-585zM3510 4681v1170h586v-1170h-586z" />
    <glyph glyph-name="uni3057" unicode="&#x3057;" 
d="M1170 0v585h1755v-585h-1755zM2925 585v1170h585v-1170h-585zM585 585v4096h585v-4096h-585z" />
    <glyph glyph-name="uni3058" unicode="&#x3058;" 
d="M1170 0v585h1755v-585h-1755zM2925 585v1170h585v-1170h-585zM585 585v4096h585v-4096h-585zM2340 4681v1170h585v-1170h-585zM3510 4681v1170h586v-1170h-586z" />
    <glyph glyph-name="uni3059" unicode="&#x3059;" 
d="M1755 0v585h585v-585h-585zM585 1755v585h585v-585h-585zM2340 585v585h-1170v585h1170v585h-1170v585h1170v585h-2340v586h2340v585h585v-585h1171v-586h-1171v-2925h-585z" />
    <glyph glyph-name="uni305A" unicode="&#x305a;" 
d="M1755 0v585h585v-585h-585zM585 1755v585h585v-585h-585zM2340 585v585h-1170v585h1170v585h-1170v585h1170v585h-2340v586h2340v1755h585v-1755h1171v-586h-1171v-2925h-585zM3510 4681v1170h586v-1170h-586z" />
    <glyph glyph-name="uni305B" unicode="&#x305b;" 
d="M1170 0v585h2340v-585h-2340zM2340 1170v585h585v-585h-585zM585 585v2340h-585v585h585v1171h585v-1171h1755v1171h585v-1171h586v-585h-586v-1170h-585v1170h-1755v-2340h-585z" />
    <glyph glyph-name="uni305C" unicode="&#x305c;" 
d="M1170 0v585h2340v-585h-2340zM2340 1170v585h585v-585h-585zM585 585v2340h-585v585h585v1171h585v-1171h1755v1171h585v-1171h586v-585h-586v-1170h-585v1170h-1755v-2340h-585zM2340 4681v1170h585v-1170h-585zM3510 4681v1170h586v-1170h-586z" />
    <glyph glyph-name="uni305D" unicode="&#x305d;" 
d="M1755 0v585h1755v-585h-1755zM1170 585v1170h585v-1170h-585zM1755 1755v585h-1755v585h1755v585h585v-585h1756v-585h-1756v-585h-585zM2340 3510v586h-1755v585h2925v-585h-585v-586h-585z" />
    <glyph glyph-name="uni305E" unicode="&#x305e;" 
d="M1755 0v585h1755v-585h-1755zM1170 585v1170h585v-1170h-585zM1755 1755v585h-1755v585h1755v585h585v-585h1756v-585h-1756v-585h-585zM2340 3510v586h-1755v585h1755v1170h585v-1170h585v-585h-585v-586h-585zM3510 4681v1170h586v-1170h-586z" />
    <glyph glyph-name="uni305F" unicode="&#x305f;" 
d="M2340 0v585h1756v-585h-1756zM0 0v1170h585v-1170h-585zM1755 585v585h585v-585h-585zM585 1170v1755h585v-1755h-585zM2340 2340v585h1756v-585h-1756zM1170 2925v585h-1170v586h1170v585h585v-585h1755v-586h-1755v-585h-585z" />
    <glyph glyph-name="uni3060" unicode="&#x3060;" 
d="M2340 0v585h1756v-585h-1756zM0 0v1170h585v-1170h-585zM1755 585v585h585v-585h-585zM585 1170v1755h585v-1755h-585zM2340 2340v585h1756v-585h-1756zM1170 2925v585h-1170v586h1170v585h585v-585h1755v-586h-1755v-585h-585zM2340 4681v1170h585v-1170h-585z
M3510 4681v1170h586v-1170h-586z" />
    <glyph glyph-name="uni3061" unicode="&#x3061;" 
d="M1170 0v585h2340v-585h-2340zM0 1755v585h585v-585h-585zM3510 585v1755h586v-1755h-586zM585 2340v585h585v585h-1170v586h1170v585h585v-585h1755v-586h-1755v-585h1755v-585h-2925z" />
    <glyph glyph-name="uni3062" unicode="&#x3062;" 
d="M1170 0v585h2340v-585h-2340zM0 1755v585h585v-585h-585zM3510 585v1755h586v-1755h-586zM585 2340v585h585v585h-1170v586h1170v585h585v-585h1755v-586h-1755v-585h1755v-585h-2925zM2340 4681v1170h585v-1170h-585zM3510 4681v1170h586v-1170h-586z" />
    <glyph glyph-name="uni3063" unicode="&#x3063;" 
d="M1755 0v585h1170v-585h-1170zM2925 585v1755h585v-1755h-585zM585 2340v585h2340v-585h-2340z" />
    <glyph glyph-name="uni3064" unicode="&#x3064;" 
d="M1170 0v585h1755v-585h-1755zM2925 585v585h585v-585h-585zM3510 1170v1755h586v-1755h-586zM0 2925v585h3510v-585h-3510z" />
    <glyph glyph-name="uni3065" unicode="&#x3065;" 
d="M1170 0v585h1755v-585h-1755zM2925 585v585h585v-585h-585zM3510 1170v1755h586v-1755h-586zM0 2925v585h3510v-585h-3510zM2340 4681v1170h585v-1170h-585zM3510 4681v1170h586v-1170h-586z" />
    <glyph glyph-name="uni3066" unicode="&#x3066;" 
d="M1755 0v585h1755v-585h-1755zM1170 585v1755h585v-1755h-585zM1755 2340v585h585v-585h-585zM2340 2925v585h-2340v586h4096v-586h-1171v-585h-585z" />
    <glyph glyph-name="uni3067" unicode="&#x3067;" 
d="M1755 0v585h1755v-585h-1755zM1170 585v1755h585v-1755h-585zM1755 2340v585h585v-585h-585zM2340 2925v585h-2340v586h4096v-586h-1171v-585h-585zM2340 4681v1170h585v-1170h-585zM3510 4681v1170h586v-1170h-586z" />
    <glyph glyph-name="uni3068" unicode="&#x3068;" 
d="M585 0v585h3511v-585h-3511zM0 585v1755h585v-1755h-585zM585 2340v585h585v1756h585v-1171h1755v-585h-1755v-585h-1170z" />
    <glyph glyph-name="uni3069" unicode="&#x3069;" 
d="M585 0v585h3511v-585h-3511zM0 585v1755h585v-1755h-585zM585 2340v585h585v1756h585v-1171h1755v-585h-1755v-585h-1170zM2340 4681v1170h585v-1170h-585zM3510 4681v1170h586v-1170h-586z" />
    <glyph glyph-name="uni306A" unicode="&#x306a;" 
d="M1170 0v585h1170v-585h-1170zM3510 0v585h586v-585h-586zM585 585v585h585v-585h-585zM0 1755v585h585v-585h-585zM2340 585v585h-1170v585h1170v1170h585v-1755h585v-585h-1170zM3510 2925v1171h586v-1171h-586zM585 2340v1170h-585v586h1170v585h585v-585h585v-586
h-1170v-1170h-585zM2925 4096v585h585v-585h-585z" />
    <glyph glyph-name="uni306B" unicode="&#x306b;" 
d="M585 0v585h585v-585h-585zM1755 0v585h2341v-585h-2341zM1170 585v585h585v-585h-585zM2925 2340v585h585v-585h-585zM3510 2925v585h586v-585h-586zM0 585v3511h585v-3511h-585zM1755 3510v586h1755v-586h-1755z" />
    <glyph glyph-name="uni306C" unicode="&#x306c;" 
d="M585 0v585h585v-585h-585zM2925 0v585h585v-585h-585zM4096 0v585h585v-585h-585zM1170 585v585h585v-585h-585zM2340 585v585h585v-585h-585zM0 585v2340h585v-2340h-585zM1755 1170v585h-585v1170h585v-585h585v-1170h-585zM3510 585v585h-585v585h585v1170h586v-2340
h-586zM2340 2340v1170h-1170v-585h-585v1756h585v-585h1170v585h585v-1171h585v-585h-585v-585h-585z" />
    <glyph glyph-name="uni306D" unicode="&#x306d;" 
d="M2340 0v585h1170v-585h-1170zM4096 0v585h585v-585h-585zM0 585v585h585v-585h-585zM3510 585v585h-1170v585h1170v1755h586v-2925h-586zM2340 3510v586h1170v-586h-1170zM1170 0v1170h-585v585h585v1170h-1170v585h1170v1171h585v-1171h585v-585h-585v-1755h585v-585
h-585v-585h-585z" />
    <glyph glyph-name="uni306E" unicode="&#x306e;" 
d="M585 0v585h1170v-585h-1170zM2925 0v585h585v-585h-585zM0 585v2340h585v-2340h-585zM3510 585v2340h586v-2340h-586zM585 2925v585h585v-585h-585zM2925 2925v585h585v-585h-585zM1755 585v2925h-585v586h1755v-586h-585v-2925h-585z" />
    <glyph glyph-name="uni306F" unicode="&#x306f;" 
d="M585 0v585h585v-585h-585zM1755 0v585h1170v-585h-1170zM3510 0v585h586v-585h-586zM1170 585v585h585v-585h-585zM0 585v4096h585v-4096h-585zM2925 585v585h-1170v585h1170v1755h-1170v586h1170v585h585v-585h586v-586h-586v-2925h-585z" />
    <glyph glyph-name="uni3070" unicode="&#x3070;" 
d="M585 0v585h585v-585h-585zM1755 0v585h1170v-585h-1170zM3510 0v585h586v-585h-586zM1170 585v585h585v-585h-585zM0 585v4096h585v-4096h-585zM2925 585v585h-1170v585h1170v1755h-1170v586h1170v585h585v-585h586v-586h-586v-2925h-585zM2340 4681v1170h585v-1170h-585
zM3510 4681v1170h586v-1170h-586z" />
    <glyph glyph-name="uni3071" unicode="&#x3071;" 
d="M585 0v585h585v-585h-585zM1755 0v585h1170v-585h-1170zM3510 0v585h586v-585h-586zM1170 585v585h585v-585h-585zM0 585v4096h585v-4096h-585zM2925 585v585h-1170v585h1170v1755h-1170v586h1170v1170h585v-1170h586v-586h-586v-2925h-585zM2340 5266v585h585v-585h-585
zM3510 5266v585h586v-585h-586zM2925 5851v585h585v-585h-585z" />
    <glyph glyph-name="uni3072" unicode="&#x3072;" 
d="M585 0v585h1755v-585h-1755zM0 585v1755h585v-1755h-585zM3510 2340v585h586v-585h-586zM585 2340v1170h585v-1170h-585zM2340 585v2925h1170v-585h-585v-2340h-585zM1170 3510v586h-1170v585h2340v-585h-585v-586h-585z" />
    <glyph glyph-name="uni3073" unicode="&#x3073;" 
d="M585 0v585h1755v-585h-1755zM0 585v1755h585v-1755h-585zM3510 2340v585h586v-585h-586zM585 2340v1170h585v-1170h-585zM2340 585v2925h1170v-585h-585v-2340h-585zM1170 3510v586h-1170v585h2340v-585h-585v-586h-585zM2340 4681v1170h585v-1170h-585zM3510 4681v1170
h586v-1170h-586z" />
    <glyph glyph-name="uni3074" unicode="&#x3074;" 
d="M585 0v585h1755v-585h-1755zM0 585v1755h585v-1755h-585zM3510 2340v585h586v-585h-586zM585 2340v1170h585v-1170h-585zM2340 585v2925h1170v-585h-585v-2340h-585zM1170 3510v586h-1170v585h2340v-585h-585v-586h-585zM2925 4681v585h585v-585h-585zM2340 5266v585h585
v-585h-585zM3510 5266v585h586v-585h-586zM2925 5851v585h585v-585h-585z" />
    <glyph glyph-name="uni3075" unicode="&#x3075;" 
d="M1170 0v585h1170v-585h-1170zM0 585v1170h585v-1170h-585zM2340 585v1170h585v-1170h-585zM3510 585v1170h586v-1170h-586zM1755 1755v585h585v-585h-585zM2925 1755v585h585v-585h-585zM1170 2340v585h585v-585h-585zM1755 2925v585h585v-585h-585zM2340 3510v586h585
v-586h-585zM1170 4096v585h1170v-585h-1170z" />
    <glyph glyph-name="uni3076" unicode="&#x3076;" 
d="M1170 0v585h1170v-585h-1170zM0 585v1170h585v-1170h-585zM2340 585v1170h585v-1170h-585zM3510 585v1170h586v-1170h-586zM1755 1755v585h585v-585h-585zM2925 1755v585h585v-585h-585zM1170 2340v585h585v-585h-585zM1755 2925v585h585v-585h-585zM2340 3510v586h585
v-586h-585zM1170 4096v585h1170v-585h-1170zM2340 4681v1170h585v-1170h-585zM3510 4681v1170h586v-1170h-586z" />
    <glyph glyph-name="uni3077" unicode="&#x3077;" 
d="M1170 0v585h1170v-585h-1170zM0 585v1170h585v-1170h-585zM2340 585v1170h585v-1170h-585zM3510 585v1170h586v-1170h-586zM1755 1755v585h585v-585h-585zM2925 1755v585h585v-585h-585zM1170 2340v585h585v-585h-585zM1755 2925v585h585v-585h-585zM2340 3510v586h585
v-586h-585zM1170 4096v585h1170v-585h-1170zM2925 4681v585h585v-585h-585zM2340 5266v585h585v-585h-585zM3510 5266v585h586v-585h-586zM2925 5851v585h585v-585h-585z" />
    <glyph glyph-name="uni3078" unicode="&#x3078;" 
d="M3510 585v585h586v-585h-586zM2925 1170v585h585v-585h-585zM0 1755v585h585v-585h-585zM2340 1755v585h585v-585h-585zM585 2340v585h585v-585h-585zM1755 2340v585h585v-585h-585zM1170 2925v585h585v-585h-585z" />
    <glyph glyph-name="uni3079" unicode="&#x3079;" 
d="M3510 585v585h586v-585h-586zM2925 1170v585h585v-585h-585zM0 1755v585h585v-585h-585zM2340 1755v585h585v-585h-585zM585 2340v585h585v-585h-585zM1755 2340v585h585v-585h-585zM1170 2925v585h585v-585h-585zM2340 4681v1170h585v-1170h-585zM3510 4681v1170h586
v-1170h-586z" />
    <glyph glyph-name="uni307A" unicode="&#x307a;" 
d="M3510 585v585h586v-585h-586zM2925 1170v585h585v-585h-585zM0 1755v585h585v-585h-585zM2340 1755v585h585v-585h-585zM585 2340v585h585v-585h-585zM1755 2340v585h585v-585h-585zM1170 2925v585h585v-585h-585zM2925 4681v585h585v-585h-585zM2340 5266v585h585v-585
h-585zM3510 5266v585h586v-585h-586zM2925 5851v585h585v-585h-585z" />
    <glyph glyph-name="uni307B" unicode="&#x307b;" 
d="M585 0v585h585v-585h-585zM1755 0v585h1170v-585h-1170zM3510 0v585h586v-585h-586zM1170 585v585h585v-585h-585zM0 585v4096h585v-4096h-585zM2925 585v585h-1170v585h1170v1170h-1170v585h1170v586h-1170v585h2341v-585h-586v-586h586v-585h-586v-2340h-585z" />
    <glyph glyph-name="uni307C" unicode="&#x307c;" 
d="M585 0v585h585v-585h-585zM1755 0v585h1170v-585h-1170zM3510 0v585h586v-585h-586zM1170 585v585h585v-585h-585zM0 585v4096h585v-4096h-585zM2925 585v585h-1170v585h1170v1170h-1170v585h1170v586h-1170v585h585v1170h585v-1170h585v1170h586v-1755h-586v-586h586
v-585h-586v-2340h-585z" />
    <glyph glyph-name="uni307D" unicode="&#x307d;" 
d="M585 0v585h585v-585h-585zM1755 0v585h1170v-585h-1170zM3510 0v585h586v-585h-586zM1170 585v585h585v-585h-585zM0 585v4096h585v-4096h-585zM2925 585v585h-1170v585h1170v1170h-1170v585h1170v586h-1170v585h1170v585h585v-585h586v-585h-586v-586h586v-585h-586
v-2340h-585zM2340 5266v585h585v-585h-585zM3510 5266v585h586v-585h-586zM2925 5851v585h585v-585h-585z" />
    <glyph glyph-name="uni307E" unicode="&#x307e;" 
d="M1170 0v585h1170v-585h-1170zM3510 0v585h586v-585h-586zM585 585v585h585v-585h-585zM2340 585v585h-1170v585h1170v585h-1755v585h1755v585h-1755v586h1755v585h585v-585h1171v-586h-1171v-585h1171v-585h-1171v-1170h585v-585h-1170z" />
    <glyph glyph-name="uni307F" unicode="&#x307f;" 
d="M585 0v585h585v-585h-585zM2340 0v585h585v-585h-585zM0 585v1170h585v-1170h-585zM1170 585v1170h-585v585h585v1756h-1170v585h1755v-2341h1170v585h585v-585h586v-585h-586v-1170h-585v1170h-1170v-1170h-585z" />
    <glyph glyph-name="uni3080" unicode="&#x3080;" 
d="M1755 0v585h1755v-585h-1755zM3510 585v1170h586v-1170h-586zM0 1170v1170h585v-1170h-585zM3510 2925v585h586v-585h-586zM2925 3510v586h585v-586h-585zM585 585v585h585v1170h-585v585h585v585h-1170v586h1170v585h585v-585h585v-586h-585v-2925h-1170z" />
    <glyph glyph-name="uni3081" unicode="&#x3081;" 
d="M585 0v585h585v-585h-585zM2340 0v585h1170v-585h-1170zM1170 585v1755h585v585h585v-1170h-585v-1170h-585zM3510 585v2340h586v-2340h-586zM0 585v2340h585v1756h585v-1171h585v-585h-585v-585h-585v-1755h-585zM2340 2925v585h-585v586h585v585h585v-1171h585v-585
h-1170z" />
    <glyph glyph-name="uni3082" unicode="&#x3082;" 
d="M1755 0v585h1755v-585h-1755zM3510 585v1170h586v-1170h-586zM1170 585v1755h-1170v585h1170v585h-1170v586h1170v585h585v-585h1170v-586h-1170v-585h1170v-585h-1170v-1755h-585z" />
    <glyph glyph-name="uni3083" unicode="&#x3083;" 
d="M1755 585v585h1170v-585h-1170zM2925 1170v1170h585v-1170h-585zM585 0v2340h-585v585h585v585h585v-585h585v585h585v-585h585v-585h-585v-585h-585v585h-585v-2340h-585z" />
    <glyph glyph-name="uni3084" unicode="&#x3084;" 
d="M2340 1170v585h1170v-585h-1170zM3510 1755v1170h586v-1170h-586zM1170 0v2340h-1170v585h585v1756h585v-1756h585v-2925h-585zM2340 2340v585h-585v585h585v1171h585v-1171h585v-585h-585v-585h-585z" />
    <glyph glyph-name="uni3085" unicode="&#x3085;" 
d="M2925 1170v1170h585v-1170h-585zM0 1170v2340h585v-1170h585v-585h-585v-585h-585zM1755 0v585h-585v585h585v1170h-585v585h585v585h585v-585h585v-585h-585v-1170h585v-585h-585v-585h-585z" />
    <glyph glyph-name="uni3086" unicode="&#x3086;" 
d="M1755 0v585h585v-585h-585zM1170 1755v585h585v-585h-585zM3510 1755v1755h586v-1755h-586zM0 1755v2341h585v-586h585v-585h-585v-1170h-585zM2340 585v585h-585v585h585v1755h-1170v586h1170v585h585v-585h585v-586h-585v-1755h585v-585h-585v-585h-585z" />
    <glyph glyph-name="uni3087" unicode="&#x3087;" 
d="M585 0v585h1170v-585h-1170zM2925 0v585h585v-585h-585zM0 585v585h585v-585h-585zM1755 585v585h-1170v585h1170v1755h585v-585h1170v-585h-1170v-1170h585v-585h-1170z" />
    <glyph glyph-name="uni3088" unicode="&#x3088;" 
d="M585 0v585h1755v-585h-1755zM3510 0v585h586v-585h-586zM0 585v585h585v-585h-585zM2340 585v585h-1755v585h1755v2926h585v-1171h1171v-585h-1171v-1755h585v-585h-1170z" />
    <glyph glyph-name="uni3089" unicode="&#x3089;" 
d="M1755 0v585h1755v-585h-1755zM3510 585v1755h586v-1755h-586zM1755 2340v585h1755v-585h-1755zM585 1755v1755h585v-1170h585v-585h-1170zM2340 3510v586h585v-586h-585zM1170 4096v585h1170v-585h-1170z" />
    <glyph glyph-name="uni308A" unicode="&#x308a;" 
d="M1755 0v585h585v-585h-585zM2340 585v585h585v-585h-585zM1170 1755v585h585v-585h-585zM585 2340v2341h585v-2341h-585zM2925 1170v3511h585v-3511h-585z" />
    <glyph glyph-name="uni308B" unicode="&#x308b;" 
d="M585 585v585h585v-585h-585zM1170 0v585h1170v585h585v-585h585v-585h-2340zM1170 1170v585h1170v-585h-1170zM3510 585v1170h586v-1170h-586zM0 1755v585h585v-585h-585zM2925 1755v585h585v-585h-585zM585 2340v585h585v585h585v-585h1170v-585h-2340zM1755 3510v586
h-1170v585h2925v-585h-1170v-586h-585z" />
    <glyph glyph-name="uni308C" unicode="&#x308c;" 
d="M3510 0v585h586v-585h-586zM0 585v585h585v-585h-585zM2925 585v1755h585v-1755h-585zM3510 2340v1170h586v-1170h-586zM2340 3510v586h1170v-586h-1170zM1170 0v1170h-585v585h585v1170h-1170v585h1170v1171h585v-1171h585v-585h-585v-2925h-585z" />
    <glyph glyph-name="uni308D" unicode="&#x308d;" 
d="M1170 0v585h2340v-585h-2340zM0 1755v585h585v-585h-585zM3510 585v1755h586v-1755h-586zM585 2340v585h585v585h585v-585h1755v-585h-2925zM1755 3510v586h-1170v585h2925v-585h-1170v-586h-585z" />
    <glyph glyph-name="uni308F" unicode="&#x308f;" 
d="M2925 0v585h585v-585h-585zM0 585v585h585v-585h-585zM3510 585v2925h586v-2925h-586zM2340 3510v586h1170v-586h-1170zM1170 0v1170h-585v585h585v1170h-1170v585h1170v1171h585v-1171h585v-585h-585v-2925h-585z" />
    <glyph glyph-name="uni3092" unicode="&#x3092;" 
d="M585 0v585h2925v-585h-2925zM0 585v1170h585v-1170h-585zM1755 1170v585h-1170v1170h585v-585h1170v-1170h-585zM2340 2340v585h1170v-585h-1170zM1170 2925v585h-1170v586h1170v585h585v-585h1755v-586h-1755v-585h-585z" />
    <glyph glyph-name="uni3093" unicode="&#x3093;" 
d="M2925 0v585h585v-585h-585zM0 0v1170h585v-1170h-585zM3510 585v585h586v-585h-586zM2340 585v1170h585v-1170h-585zM585 1170v1170h585v1170h585v-1170h585v-585h-1170v-585h-585zM1755 3510v1171h585v-1171h-585z" />
    <glyph glyph-name="uni3094" unicode="&#x3094;" 
d="M2340 0v585h585v-585h-585zM2925 585v585h585v-585h-585zM585 2340v585h585v-585h-585zM3510 1170v1755h586v-1755h-586zM1170 2925v585h2340v-585h-2340zM1755 4096v585h585v1170h585v-1755h-1170zM3510 4681v1170h586v-1170h-586z" />
    <glyph glyph-name="uni3099" unicode="&#x3099;" 
d="M0 4681v1170h585v-1170h-585zM1170 4681v1170h585v-1170h-585z" />
    <glyph glyph-name="uni309A" unicode="&#x309a;" 
d="M585 4681v585h585v-585h-585zM0 5266v585h585v-585h-585zM1170 5266v585h585v-585h-585zM585 5851v585h585v-585h-585z" />
    <glyph glyph-name="uni309B" unicode="&#x309b;" 
d="M2340 4681v1170h585v-1170h-585zM3510 4681v1170h586v-1170h-586z" />
    <glyph glyph-name="uni309C" unicode="&#x309c;" 
d="M2925 4681v585h585v-585h-585zM2340 5266v585h585v-585h-585zM3510 5266v585h586v-585h-586zM2925 5851v585h585v-585h-585z" />
    <glyph glyph-name="uni30A0" unicode="&#x30a0;" 
d="M585 1170v585h3511v-585h-3511zM585 2340v585h3511v-585h-3511z" />
    <glyph glyph-name="uni30A1" unicode="&#x30a1;" 
d="M1170 0v585h585v-585h-585zM1755 585v1170h585v-1170h-585zM2925 1170v585h585v-585h-585zM3510 1755v585h-2925v585h3511v-1170h-586z" />
    <glyph glyph-name="uni30A2" unicode="&#x30a2;" 
d="M1170 0v585h585v-585h-585zM1755 585v2340h585v-585h585v-585h-585v-1170h-585zM2925 2340v585h585v-585h-585zM3510 2925v585h-3510v586h4096v-1171h-586z" />
    <glyph glyph-name="uni30A3" unicode="&#x30a3;" 
d="M585 585v585h1170v-585h-1170zM2340 0v1170h-585v585h585v585h585v-2340h-585zM2925 2340v585h585v-585h-585z" />
    <glyph glyph-name="uni30A4" unicode="&#x30a4;" 
d="M0 1170v585h1170v-585h-1170zM1755 0v1755h-585v585h585v585h585v-2925h-585zM2340 2925v585h585v-585h-585zM2925 3510v586h585v-586h-585z" />
    <glyph glyph-name="uni30A5" unicode="&#x30a5;" 
d="M1755 0v585h1170v-585h-1170zM2925 585v1755h-1755v-585h-585v1170h1170v585h585v-585h1170v-2340h-585z" />
    <glyph glyph-name="uni30A6" unicode="&#x30a6;" 
d="M1755 0v585h1170v-585h-1170zM2925 585v585h585v-585h-585zM3510 1170v1755h-2925v-1170h-585v1755h1755v586h585v-586h1756v-2340h-586z" />
    <glyph glyph-name="uni30A7" unicode="&#x30a7;" 
d="M585 0v585h1170v1755h-1170v585h2925v-585h-1170v-1755h1170v-585h-2925z" />
    <glyph glyph-name="uni30A8" unicode="&#x30a8;" 
d="M0 0v585h1755v2340h-1755v585h4096v-585h-1756v-2340h1756v-585h-4096z" />
    <glyph glyph-name="uni30A9" unicode="&#x30a9;" 
d="M1170 0v585h585v-585h-585zM1755 585v585h585v-585h-585zM2925 0v1170h-585v585h-1755v585h2340v585h585v-585h586v-585h-586v-1755h-585z" />
    <glyph glyph-name="uni30AA" unicode="&#x30aa;" 
d="M0 0v585h585v-585h-585zM585 585v585h585v-585h-585zM1170 1170v1170h585v-1170h-585zM1755 0v585h585v1755h-585v585h-1755v585h2340v586h585v-586h1171v-585h-1171v-2925h-1170z" />
    <glyph glyph-name="uni30AB" unicode="&#x30ab;" 
d="M0 0v585h585v-585h-585zM2340 0v585h1170v-585h-1170zM585 585v585h585v-585h-585zM3510 585v2340h-1755v-1755h-585v1755h-1170v585h1170v586h585v-586h2341v-2925h-586z" />
    <glyph glyph-name="uni30AC" unicode="&#x30ac;" 
d="M0 0v585h585v-585h-585zM2340 0v585h1170v-585h-1170zM585 585v585h585v-585h-585zM3510 585v2340h-1755v-1755h-585v1755h-1170v585h1170v586h585v-586h2341v-2925h-586zM2340 4681v1170h585v-1170h-585zM3510 4681v1170h586v-1170h-586z" />
    <glyph glyph-name="uni30AD" unicode="&#x30ad;" 
d="M2340 0v1170h-2340v585h1755v1170h-1755v585h1170v586h585v-586h2341v-585h-1756v-1170h1756v-585h-1171v-1170h-585z" />
    <glyph glyph-name="uni30AE" unicode="&#x30ae;" 
d="M2340 0v1170h-2340v585h1755v1170h-1755v585h1170v586h585v-586h2341v-585h-1756v-1170h1756v-585h-1171v-1170h-585zM2340 4681v1170h585v-1170h-585zM3510 4681v1170h586v-1170h-586z" />
    <glyph glyph-name="uni30AF" unicode="&#x30af;" 
d="M585 0v585h1170v-585h-1170zM1755 585v585h585v-585h-585zM2340 1170v585h585v-585h-585zM0 2340v585h585v-585h-585zM585 2925v585h585v-585h-585zM2925 1755v1755h-1755v586h2340v-2341h-585z" />
    <glyph glyph-name="uni30B0" unicode="&#x30b0;" 
d="M585 0v585h1170v-585h-1170zM1755 585v585h585v-585h-585zM2340 1170v585h585v-585h-585zM0 2340v585h585v-585h-585zM585 2925v585h585v-585h-585zM2925 1755v1755h-1755v586h2340v-2341h-585zM2340 4681v1170h585v-1170h-585zM3510 4681v1170h586v-1170h-586z" />
    <glyph glyph-name="uni30B1" unicode="&#x30b1;" 
d="M1755 0v585h585v-585h-585zM0 1755v585h585v-585h-585zM2340 585v2340h-1170v-585h-585v1756h585v-586h2926v-585h-1171v-2340h-585z" />
    <glyph glyph-name="uni30B2" unicode="&#x30b2;" 
d="M1755 0v585h585v-585h-585zM0 1755v585h585v-585h-585zM2340 585v2340h-1170v-585h-585v1756h585v-586h2926v-585h-1171v-2340h-585zM2340 4681v1170h585v-1170h-585zM3510 4681v1170h586v-1170h-586z" />
    <glyph glyph-name="uni30B3" unicode="&#x30b3;" 
d="M0 0v585h3510v2340h-3510v585h4096v-3510h-4096z" />
    <glyph glyph-name="uni30B4" unicode="&#x30b4;" 
d="M0 0v585h3510v2340h-3510v585h4096v-3510h-4096zM2340 4681v1170h585v-1170h-585zM3510 4681v1170h586v-1170h-586z" />
    <glyph glyph-name="uni30B5" unicode="&#x30b5;" 
d="M1755 0v585h585v-585h-585zM2340 585v585h585v-585h-585zM2925 1170v1755h-1755v-1170h-585v1170h-585v585h585v586h585v-586h1755v586h585v-586h586v-585h-586v-1755h-585z" />
    <glyph glyph-name="uni30B6" unicode="&#x30b6;" 
d="M1755 0v585h585v-585h-585zM2340 585v585h585v-585h-585zM2925 1170v1755h-1755v-1170h-585v1170h-585v585h585v586h585v-586h1755v586h585v-586h586v-585h-586v-1755h-585zM2340 4681v1170h585v-1170h-585zM3510 4681v1170h586v-1170h-586z" />
    <glyph glyph-name="uni30B7" unicode="&#x30b7;" 
d="M0 0v585h2340v-585h-2340zM2340 585v585h585v-585h-585zM2925 1170v585h585v-585h-585zM0 2340v585h1755v-585h-1755zM3510 1755v1170h586v-1170h-586zM0 3510v586h1755v-586h-1755z" />
    <glyph glyph-name="uni30B8" unicode="&#x30b8;" 
d="M0 0v585h2340v-585h-2340zM2340 585v585h585v-585h-585zM2925 1170v585h585v-585h-585zM0 2340v585h1755v-585h-1755zM3510 1755v1170h586v-1170h-586zM0 3510v586h1755v-586h-1755zM2340 4681v1170h585v-1170h-585zM3510 4681v1170h586v-1170h-586z" />
    <glyph glyph-name="uni30B9" unicode="&#x30b9;" 
d="M0 0v585h1170v-585h-1170zM3510 0v585h586v-585h-586zM1170 585v585h585v-585h-585zM2925 585v585h585v-585h-585zM1755 1170v585h585v585h585v-1170h-1170zM2925 2340v585h585v-585h-585zM3510 2925v585h-3510v586h4096v-1171h-586z" />
    <glyph glyph-name="uni30BA" unicode="&#x30ba;" 
d="M0 0v585h1170v-585h-1170zM3510 0v585h586v-585h-586zM1170 585v585h585v-585h-585zM2925 585v585h585v-585h-585zM1755 1170v585h585v585h585v-1170h-1170zM2925 2340v585h585v-585h-585zM3510 2925v585h-3510v586h4096v-1171h-586zM2340 4681v1170h585v-1170h-585z
M3510 4681v1170h586v-1170h-586z" />
    <glyph glyph-name="uni30BB" unicode="&#x30bb;" 
d="M1170 0v585h2926v-585h-2926zM2340 1755v585h585v-585h-585zM585 585v2340h-585v585h585v586h585v-586h2926v-585h-586v-585h-585v585h-1755v-2340h-585z" />
    <glyph glyph-name="uni30BC" unicode="&#x30bc;" 
d="M1170 0v585h2926v-585h-2926zM2340 1755v585h585v-585h-585zM585 585v2340h-585v585h585v586h585v-586h2926v-585h-586v-585h-585v585h-1755v-2340h-585zM2340 4681v1170h585v-1170h-585zM3510 4681v1170h586v-1170h-586z" />
    <glyph glyph-name="uni30BD" unicode="&#x30bd;" 
d="M1755 0v585h585v-585h-585zM2340 585v585h585v-585h-585zM2925 1170v1170h585v-1170h-585zM585 2340v1170h585v-1170h-585zM0 3510v586h585v-586h-585zM3510 2340v1756h586v-1756h-586z" />
    <glyph glyph-name="uni30BE" unicode="&#x30be;" 
d="M1755 0v585h585v-585h-585zM2340 585v585h585v-585h-585zM2925 1170v1170h585v-1170h-585zM585 2340v1170h585v-1170h-585zM0 3510v586h585v-586h-585zM3510 2340v1756h586v-1756h-586zM2340 4681v1170h585v-1170h-585zM3510 4681v1170h586v-1170h-586z" />
    <glyph glyph-name="uni30BF" unicode="&#x30bf;" 
d="M585 0v585h1755v-585h-1755zM2340 585v585h585v-585h-585zM585 2340v585h585v-585h-585zM2925 1170v585h-1170v585h1755v1170h-1755v-585h-585v1171h2926v-2341h-586v-585h-585z" />
    <glyph glyph-name="uni30C0" unicode="&#x30c0;" 
d="M585 0v585h1755v-585h-1755zM2340 585v585h585v-585h-585zM585 2340v585h585v-585h-585zM2925 1170v585h-1170v585h1755v1170h-1755v-585h-585v1171h2926v-2341h-586v-585h-585zM2340 4681v1170h585v-1170h-585zM3510 4681v1170h586v-1170h-586z" />
    <glyph glyph-name="uni30C1" unicode="&#x30c1;" 
d="M585 0v585h1170v-585h-1170zM1755 585v1170h-1755v585h1755v585h-1170v585h1170v586h1170v-586h-585v-1170h1756v-585h-1756v-1170h-585z" />
    <glyph glyph-name="uni30C2" unicode="&#x30c2;" 
d="M585 0v585h1170v-585h-1170zM1755 585v1170h-1755v585h1755v585h-1170v585h1170v586h1170v-586h-585v-1170h1756v-585h-1756v-1170h-585zM2340 4681v1170h585v-1170h-585zM3510 4681v1170h586v-1170h-586z" />
    <glyph glyph-name="uni30C3" unicode="&#x30c3;" 
d="M1170 0v585h1755v-585h-1755zM2925 585v585h585v-585h-585zM585 1755v1170h585v-1170h-585zM1755 1755v1170h585v-1170h-585zM3510 1170v1755h586v-1755h-586z" />
    <glyph glyph-name="uni30C4" unicode="&#x30c4;" 
d="M1170 0v585h1170v-585h-1170zM2340 585v585h585v-585h-585zM2925 1170v585h585v-585h-585zM0 2340v1756h585v-1756h-585zM1170 2340v1756h585v-1756h-585zM3510 1755v2341h586v-2341h-586z" />
    <glyph glyph-name="uni30C5" unicode="&#x30c5;" 
d="M1170 0v585h1170v-585h-1170zM2340 585v585h585v-585h-585zM2925 1170v585h585v-585h-585zM0 2340v1756h585v-1756h-585zM1170 2340v1756h585v-1756h-585zM3510 1755v2341h586v-2341h-586zM2340 4681v1170h585v-1170h-585zM3510 4681v1170h586v-1170h-586z" />
    <glyph glyph-name="uni30C6" unicode="&#x30c6;" 
d="M585 0v585h1170v-585h-1170zM1755 585v1755h-1755v585h4096v-585h-1756v-1755h-585zM585 3510v586h2925v-586h-2925z" />
    <glyph glyph-name="uni30C7" unicode="&#x30c7;" 
d="M585 0v585h1170v-585h-1170zM1755 585v1755h-1755v585h4096v-585h-1756v-1755h-585zM585 3510v586h2925v-586h-2925zM2340 4681v1170h585v-1170h-585zM3510 4681v1170h586v-1170h-586z" />
    <glyph glyph-name="uni30C8" unicode="&#x30c8;" 
d="M2340 1170v585h1170v-585h-1170zM585 0v4096h585v-1756h1170v-585h-1170v-1755h-585z" />
    <glyph glyph-name="uni30C9" unicode="&#x30c9;" 
d="M2340 1170v585h1170v-585h-1170zM585 0v4096h585v-1756h1170v-585h-1170v-1755h-585zM2340 4681v1170h585v-1170h-585zM3510 4681v1170h586v-1170h-586z" />
    <glyph glyph-name="uni30CA" unicode="&#x30ca;" 
d="M585 0v585h1170v-585h-1170zM1755 585v585h585v-585h-585zM2340 1170v1755h-2340v585h2340v586h585v-586h1171v-585h-1171v-1755h-585z" />
    <glyph glyph-name="uni30CB" unicode="&#x30cb;" 
d="M0 0v585h4096v-585h-4096zM585 2925v585h2925v-585h-2925z" />
    <glyph glyph-name="uni30CC" unicode="&#x30cc;" 
d="M585 0v585h1170v-585h-1170zM1755 585v585h585v-585h-585zM2925 0v1170h585v-1170h-585zM2340 1170v585h585v-585h-585zM1170 1755v585h1170v-585h-1170zM2925 1755v585h585v-585h-585zM3510 2340v1170h-2925v586h3511v-1756h-586z" />
    <glyph glyph-name="uni30CD" unicode="&#x30cd;" 
d="M3510 0v585h586v-585h-586zM0 585v585h1170v-585h-1170zM2925 585v585h585v-585h-585zM1755 0v1170h-585v585h1755v-585h-585v-1170h-585zM2925 1755v585h585v-585h-585zM3510 2340v585h-3510v585h1755v586h585v-586h1756v-1170h-586z" />
    <glyph glyph-name="uni30CE" unicode="&#x30ce;" 
d="M585 0v585h1170v-585h-1170zM1755 585v585h585v-585h-585zM2340 1170v1170h585v-1170h-585zM2925 2340v1756h585v-1756h-585z" />
    <glyph glyph-name="uni30CF" unicode="&#x30cf;" 
d="M0 0v585h585v-585h-585zM3510 0v1755h586v-1755h-586zM585 585v2340h585v-2340h-585zM2925 1755v1170h585v-1170h-585zM2340 2925v585h585v-585h-585zM1755 3510v586h585v-586h-585z" />
    <glyph glyph-name="uni30D0" unicode="&#x30d0;" 
d="M0 0v585h585v-585h-585zM3510 0v1755h586v-1755h-586zM585 585v2340h585v-2340h-585zM2925 1755v1170h585v-1170h-585zM2340 2925v585h585v-585h-585zM1755 3510v586h585v-586h-585zM2340 4681v1170h585v-1170h-585zM3510 4681v1170h586v-1170h-586z" />
    <glyph glyph-name="uni30D1" unicode="&#x30d1;" 
d="M0 0v585h585v-585h-585zM3510 0v1755h586v-1755h-586zM585 585v2340h585v-2340h-585zM2925 1755v1170h585v-1170h-585zM2340 2925v585h585v-585h-585zM1755 3510v586h585v-586h-585zM2925 4681v585h585v-585h-585zM2340 5266v585h585v-585h-585zM3510 5266v585h586v-585
h-586zM2925 5851v585h585v-585h-585z" />
    <glyph glyph-name="uni30D2" unicode="&#x30d2;" 
d="M585 0v585h3511v-585h-3511zM0 585v3511h585v-1171h2925v-585h-2925v-1755h-585z" />
    <glyph glyph-name="uni30D3" unicode="&#x30d3;" 
d="M585 0v585h3511v-585h-3511zM0 585v3511h585v-1171h2925v-585h-2925v-1755h-585zM2340 4681v1170h585v-1170h-585zM3510 4681v1170h586v-1170h-586z" />
    <glyph glyph-name="uni30D4" unicode="&#x30d4;" 
d="M585 0v585h3511v-585h-3511zM0 585v3511h585v-1171h2925v-585h-2925v-1755h-585zM2925 4681v585h585v-585h-585zM2340 5266v585h585v-585h-585zM3510 5266v585h586v-585h-586zM2925 5851v585h585v-585h-585z" />
    <glyph glyph-name="uni30D5" unicode="&#x30d5;" 
d="M1170 0v585h1170v-585h-1170zM2340 585v585h585v-585h-585zM2925 1170v585h585v-585h-585zM3510 1755v1755h-3510v586h4096v-2341h-586z" />
    <glyph glyph-name="uni30D6" unicode="&#x30d6;" 
d="M1170 0v585h1170v-585h-1170zM2340 585v585h585v-585h-585zM2925 1170v585h585v-585h-585zM3510 1755v1755h-3510v586h4096v-2341h-586zM2340 4681v1170h585v-1170h-585zM3510 4681v1170h586v-1170h-586z" />
    <glyph glyph-name="uni30D7" unicode="&#x30d7;" 
d="M1170 0v585h1170v-585h-1170zM2340 585v585h585v-585h-585zM2925 1170v585h585v-585h-585zM3510 1755v1755h-3510v586h4096v-2341h-586zM2925 4681v585h585v-585h-585zM2340 5266v585h585v-585h-585zM3510 5266v585h586v-585h-586zM2925 5851v585h585v-585h-585z" />
    <glyph glyph-name="uni30D8" unicode="&#x30d8;" 
d="M3510 585v585h586v-585h-586zM2925 1170v585h585v-585h-585zM0 1755v585h585v-585h-585zM2340 1755v585h585v-585h-585zM585 2340v585h585v-585h-585zM1755 2340v585h585v-585h-585zM1170 2925v585h585v-585h-585z" />
    <glyph glyph-name="uni30D9" unicode="&#x30d9;" 
d="M3510 585v585h586v-585h-586zM2925 1170v585h585v-585h-585zM0 1755v585h585v-585h-585zM2340 1755v585h585v-585h-585zM585 2340v585h585v-585h-585zM1755 2340v585h585v-585h-585zM1170 2925v585h585v-585h-585zM2340 4681v1170h585v-1170h-585zM3510 4681v1170h586
v-1170h-586z" />
    <glyph glyph-name="uni30DA" unicode="&#x30da;" 
d="M3510 585v585h586v-585h-586zM2925 1170v585h585v-585h-585zM0 1755v585h585v-585h-585zM2340 1755v585h585v-585h-585zM585 2340v585h585v-585h-585zM1755 2340v585h585v-585h-585zM1170 2925v585h585v-585h-585zM2925 4681v585h585v-585h-585zM2340 5266v585h585v-585
h-585zM3510 5266v585h586v-585h-586zM2925 5851v585h585v-585h-585z" />
    <glyph glyph-name="uni30DB" unicode="&#x30db;" 
d="M0 0v585h585v-585h-585zM3510 0v1170h586v-1170h-586zM585 585v1170h585v-1170h-585zM2925 1170v585h585v-585h-585zM1755 0v2925h-1755v585h1755v586h585v-586h1756v-585h-1756v-2925h-585z" />
    <glyph glyph-name="uni30DC" unicode="&#x30dc;" 
d="M0 0v585h585v-585h-585zM3510 0v1170h586v-1170h-586zM585 585v1170h585v-1170h-585zM2925 1170v585h585v-585h-585zM1755 0v2925h-1755v585h1755v586h585v-586h1756v-585h-1756v-2925h-585zM2340 4681v1170h585v-1170h-585zM3510 4681v1170h586v-1170h-586z" />
    <glyph glyph-name="uni30DD" unicode="&#x30dd;" 
d="M0 0v585h585v-585h-585zM3510 0v1170h586v-1170h-586zM585 585v1170h585v-1170h-585zM2925 1170v585h585v-585h-585zM1755 0v2925h-1755v585h1755v586h585v-586h1756v-585h-1756v-2925h-585zM2925 4681v585h585v-585h-585zM2340 5266v585h585v-585h-585zM3510 5266v585
h586v-585h-586zM2925 5851v585h585v-585h-585z" />
    <glyph glyph-name="uni30DE" unicode="&#x30de;" 
d="M2340 0v585h585v-585h-585zM1170 585v585h1170v-585h-1170zM585 1170v585h585v-585h-585zM2340 1170v585h585v-585h-585zM2925 1755v585h585v-585h-585zM3510 2340v1170h-3510v586h4096v-1756h-586z" />
    <glyph glyph-name="uni30DF" unicode="&#x30df;" 
d="M1755 0v585h2341v-585h-2341zM585 585v585h1170v-585h-1170zM2340 1755v585h1170v-585h-1170zM1170 2340v585h1170v-585h-1170zM2925 2925v585h1171v-585h-1171zM585 3510v586h2340v-586h-2340z" />
    <glyph glyph-name="uni30E0" unicode="&#x30e0;" 
d="M3510 0v585h586v-585h-586zM0 0v1170h585v-585h2340v-585h-2925zM2925 585v585h585v-585h-585zM2340 1170v585h585v-585h-585zM585 1170v1170h585v-1170h-585zM1170 2340v1170h585v-1170h-585zM1755 3510v586h585v-586h-585z" />
    <glyph glyph-name="uni30E1" unicode="&#x30e1;" 
d="M0 0v585h1170v-585h-1170zM3510 0v585h586v-585h-586zM1170 585v585h1170v-585h-1170zM2925 585v585h585v-585h-585zM2340 1170v585h585v-585h-585zM1755 1755v585h585v-585h-585zM585 2340v585h1170v-585h-1170zM2925 1755v1170h585v-1170h-585zM3510 2925v1171h586
v-1171h-586z" />
    <glyph glyph-name="uni30E2" unicode="&#x30e2;" 
d="M1755 0v585h2341v-585h-2341zM1170 585v2340h-1170v585h1170v586h-585v585h2925v-585h-1755v-586h2341v-585h-2341v-2340h-585z" />
    <glyph glyph-name="uni30E3" unicode="&#x30e3;" 
d="M2925 585v585h585v-585h-585zM1755 0v1755h-1170v585h1170v585h585v-585h1756v-1170h-586v585h-1170v-1755h-585z" />
    <glyph glyph-name="uni30E4" unicode="&#x30e4;" 
d="M1755 1170v585h585v-585h-585zM2340 1755v585h585v-585h-585zM585 0v2925h-585v585h585v586h585v-586h2340v-1170h-585v585h-1755v-2925h-585z" />
    <glyph glyph-name="uni30E5" unicode="&#x30e5;" 
d="M585 0v585h2340v1755h-1755v585h2340v-2340h586v-585h-3511z" />
    <glyph glyph-name="uni30E6" unicode="&#x30e6;" 
d="M0 0v585h2925v2340h-2340v585h2925v-2925h586v-585h-4096z" />
    <glyph glyph-name="uni30E7" unicode="&#x30e7;" 
d="M585 0v585h2340v585h-2340v585h2340v585h-2340v585h2925v-2925h-2925z" />
    <glyph glyph-name="uni30E8" unicode="&#x30e8;" 
d="M0 0v585h2925v1170h-2925v585h2925v1170h-2925v586h3510v-4096h-3510z" />
    <glyph glyph-name="uni30E9" unicode="&#x30e9;" 
d="M1170 0v585h1755v-585h-1755zM2925 585v585h585v-585h-585zM3510 1170v1170h-3510v585h4096v-1755h-586zM585 3510v586h2925v-586h-2925z" />
    <glyph glyph-name="uni30EA" unicode="&#x30ea;" 
d="M1170 0v585h1170v-585h-1170zM2340 585v585h585v-585h-585zM0 1755v2341h585v-2341h-585zM2925 1170v2926h585v-2926h-585z" />
    <glyph glyph-name="uni30EB" unicode="&#x30eb;" 
d="M0 0v585h585v-585h-585zM2925 585v585h585v-585h-585zM3510 1170v1170h586v-1170h-586zM585 585v2925h585v-2925h-585zM1755 0v4096h585v-3511h585v-585h-1170z" />
    <glyph glyph-name="uni30EC" unicode="&#x30ec;" 
d="M1755 585v585h1170v-585h-1170zM2925 1170v585h585v-585h-585zM0 0v4096h585v-3511h1170v-585h-1755z" />
    <glyph glyph-name="uni30ED" unicode="&#x30ed;" 
d="M3510 585v2340h-2925v-2340h2925zM0 0v3510h4096v-3510h-4096z" />
    <glyph glyph-name="uni30EE" unicode="&#x30ee;" 
d="M1755 0v585h1170v-585h-1170zM2925 585v1755h-1755v-1170h-585v1755h2925v-2340h-585z" />
    <glyph glyph-name="uni30EF" unicode="&#x30ef;" 
d="M1170 0v585h1755v-585h-1755zM2925 585v585h585v-585h-585zM3510 1170v2340h-2340v-1755h-585v2341h3511v-2926h-586z" />
    <glyph glyph-name="uni30F0" unicode="&#x30f0;" 
d="M2925 1170v1755h-1755v-1755h1755zM2925 0v585h-2925v585h585v1755h-585v585h2925v586h585v-586h586v-585h-586v-1755h586v-585h-586v-585h-585z" />
    <glyph glyph-name="uni30F1" unicode="&#x30f1;" 
d="M0 0v585h1755v2340h585v-585h585v-585h-585v-1170h1756v-585h-4096zM2925 2340v585h585v-585h-585zM3510 2925v585h-3510v586h4096v-1171h-586z" />
    <glyph glyph-name="uni30F2" unicode="&#x30f2;" 
d="M1170 0v585h1170v-585h-1170zM2340 585v585h585v-585h-585zM2925 1170v585h585v-585h-585zM3510 1755v585h-2340v585h2340v585h-2925v586h3511v-2341h-586z" />
    <glyph glyph-name="uni30F3" unicode="&#x30f3;" 
d="M0 0v585h1755v-585h-1755zM1755 585v585h1170v-585h-1170zM2925 1170v1170h585v-1170h-585zM1170 2925v585h585v-585h-585zM3510 2340v1170h586v-1170h-586zM0 3510v586h1170v-586h-1170z" />
    <glyph glyph-name="uni30F4" unicode="&#x30f4;" 
d="M1755 0v585h1170v-585h-1170zM2925 585v585h585v-585h-585zM3510 1170v1755h-2925v-1170h-585v1755h1755v586h585v-586h1756v-2340h-586zM2340 4681v1170h585v-1170h-585zM3510 4681v1170h586v-1170h-586z" />
    <glyph glyph-name="uni30F7" unicode="&#x30f7;" 
d="M1170 0v585h1755v-585h-1755zM2925 585v585h585v-585h-585zM3510 1170v2340h-2340v-1755h-585v2341h3511v-2926h-586zM2340 4681v1170h585v-1170h-585zM3510 4681v1170h586v-1170h-586z" />
    <glyph glyph-name="uni30F8" unicode="&#x30f8;" 
d="M2925 1170v1755h-1755v-1755h1755zM2925 0v585h-2925v585h585v1755h-585v585h2925v586h585v-586h586v-585h-586v-1755h586v-585h-586v-585h-585zM2340 4681v1170h585v-1170h-585zM3510 4681v1170h586v-1170h-586z" />
    <glyph glyph-name="uni30F9" unicode="&#x30f9;" 
d="M0 0v585h1755v2340h585v-585h585v-585h-585v-1170h1756v-585h-4096zM2925 2340v585h585v-585h-585zM3510 2925v585h-3510v586h4096v-1171h-586zM2340 4681v1170h585v-1170h-585zM3510 4681v1170h586v-1170h-586z" />
    <glyph glyph-name="uni30FA" unicode="&#x30fa;" 
d="M1170 0v585h1170v-585h-1170zM2340 585v585h585v-585h-585zM2925 1170v585h585v-585h-585zM3510 1755v585h-2340v585h2340v585h-2925v586h3511v-2341h-586zM2340 4681v1170h585v-1170h-585zM3510 4681v1170h586v-1170h-586z" />
    <glyph glyph-name="uni30FB" unicode="&#x30fb;" 
d="M1755 1755v1170h1170v-1170h-1170z" />
    <glyph glyph-name="uni30FC" unicode="&#x30fc;" 
d="M585 1755v585h3511v-585h-3511z" />
    <glyph glyph-name="uniFF10" unicode="&#xff10;" 
d="M1170 0v585h2340v2925h586v-3510h-2926zM585 585v3511h2925v-586h-2340v-2925h-585z" />
    <glyph glyph-name="uniFF11" unicode="&#xff11;" 
d="M1755 0v2925h-585v585h585v586h585v-4096h-585z" />
    <glyph glyph-name="uniFF12" unicode="&#xff12;" 
d="M585 0v1170h585v-585h2926v-585h-3511zM1170 1170v585h585v-585h-585zM1755 1755v585h1755v-585h-1755zM585 2925v585h585v-585h-585zM3510 2340v1170h586v-1170h-586zM1170 3510v586h2340v-586h-2340z" />
    <glyph glyph-name="uniFF13" unicode="&#xff13;" 
d="M1170 0v585h2340v-585h-2340zM585 585v585h585v-585h-585zM3510 585v1170h586v-1170h-586zM1755 1755v585h1755v-585h-1755zM585 2925v585h585v-585h-585zM3510 2340v1170h586v-1170h-586zM1170 3510v586h2340v-586h-2340z" />
    <glyph glyph-name="uniFF14" unicode="&#xff14;" 
d="M1170 2340v585h585v-585h-585zM1755 2925v585h585v-585h-585zM2925 0v585h-2340v1755h585v-1170h1755v2340h-585v586h1170v-2926h586v-585h-586v-585h-585z" />
    <glyph glyph-name="uniFF15" unicode="&#xff15;" 
d="M585 0v585h2925v-585h-2925zM3510 585v1170h586v-1170h-586zM585 1755v2341h2925v-586h-2340v-1170h2340v-585h-2925z" />
    <glyph glyph-name="uniFF16" unicode="&#xff16;" 
d="M1170 0v585h2340v-585h-2340zM3510 585v1170h586v-1170h-586zM585 585v2925h585v-1170h2340v-585h-2340v-1170h-585zM1170 3510v586h2340v-586h-2340z" />
    <glyph glyph-name="uniFF17" unicode="&#xff17;" 
d="M2340 0v2340h585v-2340h-585zM2925 2340v585h585v-585h-585zM3510 2925v585h-2925v586h3511v-1171h-586z" />
    <glyph glyph-name="uniFF18" unicode="&#xff18;" 
d="M1170 0v585h2340v-585h-2340zM585 585v1170h585v-1170h-585zM3510 585v1170h586v-1170h-586zM1170 1755v585h2340v-585h-2340zM585 2340v1170h585v-1170h-585zM3510 2340v1170h586v-1170h-586zM1170 3510v586h2340v-586h-2340z" />
    <glyph glyph-name="uniFF19" unicode="&#xff19;" 
d="M1170 0v585h2340v-585h-2340zM585 2340v1170h585v-1170h-585zM3510 585v1170h-2340v585h2340v1170h586v-2925h-586zM1170 3510v586h2340v-586h-2340z" />
    <glyph glyph-name="uniFF1A" unicode="&#xff1a;" 
d="M1755 585v1170h1170v-1170h-1170zM1755 2340v1170h1170v-1170h-1170z" />
    <glyph glyph-name="uniFF1C" unicode="&#xff1c;" 
 />
    <glyph glyph-name="uniFF1E" unicode="&#xff1e;" 
 />
    <glyph glyph-name="uniFF1F" unicode="&#xff1f;" 
 />
    <glyph glyph-name="uniFF21" unicode="&#xff21;" 
d="M585 0v3510h585v-1170h2340v1170h586v-3510h-586v1755h-2340v-1755h-585zM1170 3510v586h2340v-586h-2340z" />
    <glyph glyph-name="uniFF22" unicode="&#xff22;" 
d="M585 0v4096h2925v-586h-2340v-1170h2340v1170h586v-2925h-586v1170h-2340v-1170h2340v-585h-2925z" />
    <glyph glyph-name="uniFF23" unicode="&#xff23;" 
d="M1170 0v585h2340v-585h-2340zM3510 585v585h586v-585h-586zM585 585v2925h585v-2925h-585zM3510 2925v585h586v-585h-586zM1170 3510v586h2340v-586h-2340z" />
    <glyph glyph-name="uniFF24" unicode="&#xff24;" 
d="M3510 585v2925h586v-2925h-586zM585 0v1755h-585v585h585v1756h2925v-586h-2340v-1170h585v-585h-585v-1170h2340v-585h-2925z" />
    <glyph glyph-name="uniFF25" unicode="&#xff25;" 
d="M585 0v4096h3511v-586h-2926v-1170h2340v-585h-2340v-1170h2926v-585h-3511z" />
    <glyph glyph-name="uniFF26" unicode="&#xff26;" 
d="M585 0v4096h3511v-586h-2926v-1170h2340v-585h-2340v-1755h-585z" />
    <glyph glyph-name="uniFF27" unicode="&#xff27;" 
d="M1170 0v585h2340v-585h-2340zM3510 585v1170h-1170v585h1756v-1755h-586zM585 585v2925h585v-2925h-585zM3510 2925v585h586v-585h-586zM1170 3510v586h2340v-586h-2340z" />
    <glyph glyph-name="uniFF28" unicode="&#xff28;" 
d="M585 0v4096h585v-1756h2340v1756h586v-4096h-586v1755h-2340v-1755h-585z" />
    <glyph glyph-name="uniFF29" unicode="&#xff29;" 
d="M1755 0v4096h585v-4096h-585z" />
    <glyph glyph-name="uniFF2A" unicode="&#xff2a;" 
d="M1755 0v585h1755v-585h-1755zM1170 585v585h585v-585h-585zM585 1170v585h585v-585h-585zM3510 585v3511h586v-3511h-586z" />
    <glyph glyph-name="uniFF2B" unicode="&#xff2b;" 
d="M3510 0v585h586v-585h-586zM2925 585v585h585v-585h-585zM2340 1170v585h585v-585h-585zM2340 2340v585h585v-585h-585zM2925 2925v585h585v-585h-585zM585 0v4096h585v-1756h1170v-585h-1170v-1755h-585zM3510 3510v586h586v-586h-586z" />
    <glyph glyph-name="uniFF2C" unicode="&#xff2c;" 
d="M585 0v4096h585v-3511h2926v-585h-3511z" />
    <glyph glyph-name="uniFF2D" unicode="&#xff2d;" 
d="M1755 2340v585h585v-585h-585zM1170 2925v585h585v-585h-585zM2340 2925v585h585v-585h-585zM0 0v4096h1170v-586h-585v-3510h-585zM3510 0v3510h-585v586h1171v-4096h-586z" />
    <glyph glyph-name="uniFF2E" unicode="&#xff2e;" 
d="M2340 1755v585h585v-585h-585zM1755 2340v585h585v-585h-585zM585 0v4096h585v-586h585v-585h-585v-2925h-585zM3510 0v1170h-585v585h585v2341h586v-4096h-586z" />
    <glyph glyph-name="uniFF2F" unicode="&#xff2f;" 
d="M1170 0v585h2340v-585h-2340zM585 585v2925h585v-2925h-585zM3510 585v2925h586v-2925h-586zM1170 3510v586h2340v-586h-2340z" />
    <glyph glyph-name="uniFF30" unicode="&#xff30;" 
d="M3510 2340v1170h586v-1170h-586zM585 0v4096h2925v-586h-2340v-1170h2340v-585h-2340v-1755h-585z" />
    <glyph glyph-name="uniFF31" unicode="&#xff31;" 
d="M1170 0v585h1170v-585h-1170zM3510 0v585h586v-585h-586zM2925 585v585h585v-585h-585zM2340 1170v585h585v-585h-585zM585 585v2925h585v-2925h-585zM3510 1170v2340h586v-2340h-586zM1170 3510v586h2340v-586h-2340z" />
    <glyph glyph-name="uniFF32" unicode="&#xff32;" 
d="M3510 0v1755h586v-1755h-586zM3510 2340v1170h586v-1170h-586zM585 0v4096h2925v-586h-2340v-1170h2340v-585h-2340v-1755h-585z" />
    <glyph glyph-name="uniFF33" unicode="&#xff33;" 
d="M1170 0v585h2340v-585h-2340zM585 585v585h585v-585h-585zM3510 585v1170h586v-1170h-586zM1170 1755v585h2340v-585h-2340zM585 2340v1170h585v-1170h-585zM3510 2925v585h586v-585h-586zM1170 3510v586h2340v-586h-2340z" />
    <glyph glyph-name="uniFF34" unicode="&#xff34;" 
d="M1755 0v3510h-1755v586h4096v-586h-1756v-3510h-585z" />
    <glyph glyph-name="uniFF35" unicode="&#xff35;" 
d="M1170 0v585h2340v-585h-2340zM585 585v3511h585v-3511h-585zM3510 585v3511h586v-3511h-586z" />
    <glyph glyph-name="uniFF36" unicode="&#xff36;" 
d="M1755 0v585h1170v-585h-1170zM1170 585v1170h585v-1170h-585zM2925 585v1170h585v-1170h-585zM585 1755v2341h585v-2341h-585zM3510 1755v2341h586v-2341h-586z" />
    <glyph glyph-name="uniFF37" unicode="&#xff37;" 
d="M1170 1170v585h585v-585h-585zM2340 1170v585h585v-585h-585zM1755 1755v585h585v-585h-585zM0 0v4096h585v-2926h585v-585h-585v-585h-585zM3510 0v585h-585v585h585v2926h586v-4096h-586z" />
    <glyph glyph-name="uniFF38" unicode="&#xff38;" 
d="M0 0v585h585v-585h-585zM3510 0v585h586v-585h-586zM585 585v585h585v-585h-585zM2925 585v585h585v-585h-585zM1170 1170v585h585v-585h-585zM2340 1170v585h585v-585h-585zM1755 1755v585h585v-585h-585zM1170 2340v585h585v-585h-585zM2340 2340v585h585v-585h-585z
M585 2925v585h585v-585h-585zM2925 2925v585h585v-585h-585zM0 3510v586h585v-586h-585zM3510 3510v586h586v-586h-586z" />
    <glyph glyph-name="uniFF39" unicode="&#xff39;" 
d="M1170 0v585h2340v-585h-2340zM585 2340v1756h585v-1756h-585zM3510 585v1170h-2340v585h2340v1756h586v-3511h-586z" />
    <glyph glyph-name="uniFF3A" unicode="&#xff3a;" 
d="M585 0v585h585v585h585v-585h2341v-585h-3511zM1755 1170v585h585v-585h-585zM2340 1755v585h585v-585h-585zM2925 2340v585h585v-585h-585zM3510 2925v585h-2925v586h3511v-1171h-586z" />
    <glyph glyph-name="uniFFFD" unicode="&#xfffd;" 
d="M3510 585v2925h-2925v-2925h2925zM0 0v4096h4096v-4096h-4096z" />
  </font>
</defs>
</svg>
