<?xml version="1.0" standalone="no"?>
<!DOCTYPE svg PUBLIC "-//W3C//DTD SVG 1.1//EN" "http://www.w3.org/Graphics/SVG/1.1/DTD/svg11.dtd" >
<svg xmlns="http://www.w3.org/2000/svg" xmlns:xlink="http://www.w3.org/1999/xlink" version="1.1">
<metadata>
Created by FontForge 20170731 at Mon Jul 15 20:04:42 2019
 By Aleksey,,,
Copyright (c) 2019 by Krisna Teja. All rights reserved.
</metadata>
<defs>
<font id="Alladhina" horiz-adv-x="276" >
  <font-face 
    font-family="Alladhina"
    font-weight="400"
    font-stretch="normal"
    units-per-em="1000"
    panose-1="0 0 0 0 0 0 0 0 0 0"
    ascent="750"
    descent="-250"
    x-height="301"
    cap-height="436"
    bbox="-645 -426 923 797"
    underline-thickness="50"
    underline-position="-200"
    unicode-range="U+0020-FB06"
  />
<missing-glyph horiz-adv-x="169" 
 />
    <glyph glyph-name="s_t" unicode="st" horiz-adv-x="364" 
d="M144 191q-2 0 -6.5 14t-15 28t-27.5 14q0 -18 16.5 -33.5t35.5 -26t35.5 -28.5t16.5 -41q0 -40 -49 -82t-90 -42q-61 0 -61 88q0 10 25 30.5t38 25.5q-38 25 -38 55q0 36 48 75.5t84 39.5q22 0 38 -19t16 -41q0 -11 -27.5 -34t-38.5 -23zM128 65q0 31 -56 66
q0 -2 1.5 -17t3 -21t6.5 -15t14 -14q13 -8 27 -8h3q1 4 1 9zM344 352q-3 -34 -25.5 -115t-22.5 -125q0 -49 39 -49q5 0 5 -3q0 -17 -27 -38.5t-46 -21.5q-44 0 -44 60q0 49 25 142t29 130l1 5q-55 -11 -101 -11q-13 0 -36.5 4.5t-23.5 12.5q0 4 13.5 6.5t20.5 2.5
q88 10 128 26v6q-2 38 -6 55v1q-1 15 -6.5 27t-10.5 17.5t-18 17t-18 16.5q5 16 19 26.5t30 10.5q28 0 47 -29.5t24.5 -60.5t5.5 -59q8 5 21 19t24.5 22.5t23.5 8.5q15 0 44 -5t29 -12q0 -23 -57 -53t-87 -34z" />
    <glyph glyph-name="t_t" unicode="tt" horiz-adv-x="282" 
d="M270 356q-5 -24 -19.5 -75t-23.5 -93t-9 -76q0 -49 40 -49q4 0 4 -4q0 -17 -27 -38t-46 -21q-43 0 -43 60q0 51 27 147.5t32 129.5q-34 -11 -89 -23q-1 -6 -22 -84.5t-21 -116.5q0 -50 39 -50q5 0 5 -4q0 -17 -27 -38t-46 -21q-44 0 -44 60q0 45 23.5 130.5t27.5 110.5
q-21 -4 -49 -4q-44 0 -44 8q0 6 23 12t47.5 10.5t26.5 6.5q1 14 -0.5 25.5t-4 17t-5.5 9.5t-5 5.5t-2 2.5q0 17 24.5 34.5t43.5 22.5q34 -12 17 -99q29 8 89 33q10 70 10 82q0 11 -4 20t-8 13t-4 5q0 29 67 57q23 -10 23 -48q0 -16 -2 -32t-6.5 -36.5t-5.5 -29.5
q22 13 44 33t41 28t57 8q60 0 60 -7q0 -18 -50.5 -47t-91.5 -46.5t-72 -28.5z" />
    <glyph glyph-name="l_l" unicode="ll" horiz-adv-x="297" 
d="M73 113q0 -50 40 -50q4 0 4 -5q0 -17 -27 -37.5t-46 -20.5q-44 0 -44 60q0 48 27.5 143t27.5 145q0 14 -2.5 23.5t-6 13t-6 6.5t-2.5 5q0 12 25.5 34t38.5 22q14 0 20 -16t6 -33q0 -50 -27.5 -146t-27.5 -144zM296 514q0 -67 -39 -204.5t-39 -197.5q0 -25 8.5 -36
t31.5 -13q4 -1 4 -4q0 -18 -27.5 -38.5t-46.5 -20.5q-42 0 -42 60q0 57 38 197t38 213q0 14 -8 25t-8 12q0 15 24 31.5t43 23.5q23 -8 23 -48z" />
    <glyph glyph-name="T_h" unicode="Th" horiz-adv-x="585" 
d="M791 750q64 0 93.5 -32.5t29.5 -97.5l-1 -43q-8 -18 -26 -31.5t-37 -15.5q1 42 -1 66t-12.5 50t-36 38t-66.5 12q-124 0 -334 -106q29 -60 45 -151q5 0 28.5 1t31.5 1.5t29.5 1.5t31.5 2.5t29 4t31 6t27.5 8t28.5 10.5q-53 -68 -94.5 -84t-135.5 -16q-3 -45 -27 -133
q66 55 98 63q10 3 18 3q12 0 18.5 -12.5t6.5 -24.5q0 -26 -15 -78.5t-15 -79.5q0 -22 9.5 -36.5t29.5 -12.5l-13 -34l-50 -29q-48 0 -48 61q0 26 15 74.5t15 69.5l-2 26l-11 13l-8 1q-15 0 -58 -43q-15 -52 -15 -89q0 -23 8.5 -37.5t30.5 -12.5l-14 -34l-49 -29
q-50 0 -50 60q0 50 27.5 150t27.5 152l-1 12h-63h-32q-4 -31 -28 -122.5t-24 -136.5q0 -21 9 -35.5t28 -12.5l-2 -17q-23 -25 -43 -37.5t-49 -12.5q-27 0 -42.5 17.5t-15.5 44.5q0 48 26 143t26 147q0 16 -8 22h-85q6 -26 19 -52l-75 -63q-21 37 -21 71q0 37 22.5 62
t54.5 35.5t78.5 14.5t82.5 2.5t79 -4.5t57 -3q-19 69 -45 117q-92 -48 -142 -72t-135 -49.5t-157 -25.5q-34 0 -69.5 8t-68 24.5t-53.5 45.5t-21 67q0 54 38 101.5t94.5 78t117.5 48t111 17.5q238 0 343 -184q267 137 404 137zM-50 461q146 0 366 115q-108 168 -331 168
q-35 0 -72.5 -6.5t-76.5 -21.5t-64 -44t-25 -68q0 -71 63 -107t140 -36z" />
    <glyph glyph-name="d_h" unicode="dh" horiz-adv-x="606" 
d="M802 745q121 0 121 -128v-45q-8 -18 -26.5 -32t-36.5 -14v37.5t-2 33t-6 32t-12.5 24.5t-20.5 21.5t-30.5 11.5t-42.5 5q-69 0 -167 -33t-169 -73q51 -107 51 -212q0 -42 -26 -137q3 2 17.5 13.5t23.5 18.5t23 16t25 13.5t20 4.5q33 0 33 -37q0 -25 -16 -78t-16 -80
q0 -22 10 -36.5t30 -12.5l-13 -34l-50 -29q-48 0 -48 61q0 26 14.5 74.5t14.5 69.5l-1 26l-11 13l-8 1q-22 0 -58 -43q-16 -56 -16 -90q0 -22 9.5 -36.5t30.5 -12.5l-14 -34l-49 -29q-28 0 -38.5 15.5t-10.5 45.5q0 50 27 149t27 152q0 30 -5 65v1q-20 78 -47 126
q-77 -40 -107.5 -54.5t-96.5 -42.5t-120.5 -39t-109.5 -11q-35 0 -70.5 8t-68 24.5t-53 45.5t-20.5 67q0 54 38 102t94.5 78.5t117 48t110.5 17.5q238 0 344 -185q77 39 131 63.5t134 49t140 24.5zM-40 456q146 0 366 115q-108 168 -331 168q-35 0 -72.5 -6.5t-76.5 -21.5
t-64 -44t-25 -68q0 -48 33.5 -82t77.5 -47.5t92 -13.5zM265 451q0 15 -4.5 25.5t-8.5 16t-4 6.5q0 14 25.5 32.5t41.5 21.5q23 -6 23 -48q0 -50 -34.5 -197.5t-34.5 -196.5t35 -49q9 0 9 -4q0 -17 -27 -37.5t-45 -20.5q-42 0 -44 51q-60 -54 -108 -54q-42 0 -65.5 34
t-23.5 78q0 64 55.5 130t117.5 66q44 0 69 -36q23 155 23 182zM172 61q21 32 21 75q0 41 -21.5 74.5t-60.5 33.5q-5 0 -19 -2q-21 -40 -21 -76q0 -41 21.5 -74.5t60.5 -33.5q4 0 10.5 1.5t8.5 1.5z" />
    <glyph glyph-name="T_l" unicode="Tl" horiz-adv-x="449" 
d="M388 112q0 -50 39 -50q5 0 5 -4q0 -17 -28 -37.5t-45 -20.5q-44 0 -44 60q0 43 30 160.5t32 126.5q4 -1 12.5 -4.5t11.5 -4t9.5 -1.5t12 0t13.5 3q-5 -21 -18.5 -70t-21.5 -87.5t-8 -70.5zM380 499q-1 -1 -3 2t-2 4q0 13 26 35t39 22q14 0 20 -16.5t6 -32.5q0 -18 -5 -43
q-46 -6 -70 -7q2 26 -11 36zM-1 330q0 31 37 69t67 38q9 0 64.5 -0.5t83 0t81.5 2t88 5.5t73 11t65 18q-81 -115 -145 -115q-15 0 -48 9.5t-50 9.5q-15 0 -30 -3q-5 -25 -19.5 -79.5t-23.5 -99.5t-9 -81q0 -47 32 -47q8 -4 9 -6q0 -21 -37 -41.5t-61 -20.5q-27 0 -42.5 18
t-15.5 46q0 46 26 136t26 138q0 32 -8 37h-85q-10 0 -10 -6q0 -8 14 -25.5t15 -20.5l-75 -64q-22 38 -22 72z" />
    <glyph glyph-name=".notdef" horiz-adv-x="169" 
 />
    <glyph glyph-name=".null" horiz-adv-x="0" 
 />
    <glyph glyph-name="nonmarkingreturn" horiz-adv-x="333" 
 />
    <glyph glyph-name="space" unicode=" " horiz-adv-x="169" 
 />
    <glyph glyph-name="exclam" unicode="!" horiz-adv-x="184" 
d="M84 74q0 -51 -54 -51q-30 0 -30 27q0 19 19.5 38.5t37.5 19.5q13 0 20 -10t7 -24zM30 150q0 31 45 250q1 3 3 14t3 16t5 13t9 14q13 16 36 16q13 0 21.5 -8t8.5 -22q0 -27 -5 -59t-15 -77.5t-12 -58.5q16 7 20 7q3 0 3 -3q0 -18 -47.5 -65t-66.5 -47q-8 0 -8 10z" />
    <glyph glyph-name="quotedbl" unicode="&#x22;" horiz-adv-x="215" 
d="M16 324q-4 0 -4 3q0 4 2.5 15t2.5 17q0 15 -8 21.5t-8 8.5q0 12 26 34.5t38 22.5q11 0 17.5 -13t6.5 -25q0 -14 -4 -27q-4 -16 -28 -36.5t-41 -20.5zM119 324q-3 0 -3 3q0 4 2 15t2 17q0 15 -8 21.5t-8 8.5q0 12 26.5 34.5t38.5 22.5q11 0 17 -13t6 -25q0 -14 -4 -27
q-4 -17 -27.5 -37t-41.5 -20z" />
    <glyph glyph-name="numbersign" unicode="#" horiz-adv-x="450" 
d="M287 242h135q3 -2 3 -3q0 -15 -28 -37.5t-44 -25.5q-8 -2 -22 -2t-31 1t-23 1q-4 -24 -8 -39t-13.5 -38.5t-25 -35.5t-36.5 -12q-4 0 -4 5q0 21 9 65.5t10 54.5h-19q-4 -20 -5.5 -28t-8.5 -30.5t-15 -34t-22 -22t-32 -10.5q-3 0 -3 5q0 22 8.5 67t9.5 53h-108q-4 0 -4 5
q0 13 29 35.5t44 25.5q6 2 15 2t19.5 -1t14.5 -1l2 20h-134q-4 0 -4 2q0 15 28 37t45 27h76q3 27 10 51.5t26.5 48.5t46.5 24q4 0 4 -4q0 -22 -9 -66.5t-10 -53.5h19q2 19 7 37.5t14 39.5t25 34t36 13q4 0 4 -4q0 -25 -18 -120q100 0 109 -1q4 0 4 -2q0 -15 -28 -37t-45 -27
h-50zM200 242h18l3 20h-18z" />
    <glyph glyph-name="dollar" unicode="$" horiz-adv-x="285" 
d="M172 272q-4 0 -9 16.5t-16.5 33t-32.5 16.5q4 -24 24.5 -43t42 -30.5t39.5 -32.5t18 -49q0 -37 -37 -74.5t-77 -58.5q-22 -101 -79 -101q-4 0 -4 5q0 15 6.5 45t12.5 40q-17 1 -28 7.5t-16.5 19t-8 22.5t-4.5 28t-3 26q30 50 74 67q-15 11 -22.5 17.5t-15 20t-7.5 28.5
q0 46 81 107q5 31 27 63t51 32q5 0 5 -4q0 -14 -11 -61q60 0 69 -73q-11 -19 -36.5 -43t-42.5 -24zM153 122q0 37 -67 78q0 -4 1 -14.5t1.5 -15.5t2.5 -14t5 -14.5t8 -12t12 -10.5q15 -9 33 -9h3q1 4 1 12z" />
    <glyph glyph-name="percent" unicode="%" horiz-adv-x="351" 
d="M335 462q0 -1 -15 -26t-31.5 -53t-18.5 -33q-17 -35 -100.5 -179.5t-92.5 -153.5q-11 -14 -42.5 -32.5t-46.5 -18.5q-1 0 -1 4l65 112q185 326 193 334q12 12 43.5 31t45.5 19q1 0 1 -4zM93 311q-18 0 -27.5 14t-9.5 33q0 27 23 55t50 28q19 0 29 -14.5t10 -34.5
q0 -28 -24 -54.5t-51 -26.5zM103 415q-2 0 -4.5 -0.5t-3.5 -0.5q-9 -16 -9 -33q0 -18 9 -31.5t26 -13.5q1 0 4 0.5t4 0.5q0 2 4.5 12t4.5 20q0 17 -9 31.5t-26 14.5zM164 44q0 28 23.5 56t49.5 28q19 0 29 -14.5t10 -33.5q0 -27 -24 -55t-50 -28q-19 0 -28.5 14.5t-9.5 32.5
zM229 23q1 0 4 0.5t4 0.5q9 20 9 32q0 18 -9.5 32t-26.5 14q-6 0 -7 -1q-9 -9 -9 -33q0 -17 9.5 -31t25.5 -14z" />
    <glyph glyph-name="ampersand" unicode="&#x26;" horiz-adv-x="348" 
d="M257 176q51 39 72 39q4 0 4 -3q0 -12 -21 -31t-38 -28q19 -24 32 -44q-5 -18 -30 -41.5t-42 -23.5l-10 12q-9 11 -19 24.5t-12 15.5q-47 -29 -102 -29q-34 0 -62.5 16t-28.5 47q0 30 23.5 60t54.5 52q-39 61 -39 84q0 30 42.5 61.5t74.5 31.5q40 0 65.5 -35.5t25.5 -77.5
q-19 -31 -53 -53q37 -50 63 -77zM154 299q6 0 6 9q0 6 -4 13.5t-10 7.5q-9 0 -9 -10q0 -6 5.5 -13t11.5 -7zM77 190q0 -30 26.5 -43t59.5 -13q-7 7 -52 63h-33q0 -1 -0.5 -3t-0.5 -4z" />
    <glyph glyph-name="quotesingle" unicode="'" horiz-adv-x="110" 
d="M16 324q-4 0 -4 3q0 5 2.5 16t2.5 16q0 15 -8 21.5t-8 8.5q0 12 26 34.5t38 22.5q11 0 17.5 -13t6.5 -25q0 -14 -4 -27q-6 -19 -28.5 -38t-40.5 -19z" />
    <glyph glyph-name="parenleft" unicode="(" horiz-adv-x="204" 
d="M77 275q0 -93 34 -160q14 -26 29 -40.5t39 -17.5q4 -1 4 -4q0 -12 -29.5 -37t-43.5 -25q-30 0 -53.5 25.5t-34.5 64t-16.5 73.5t-5.5 63q0 39 11.5 86.5t32.5 93t57 76t78 30.5q4 0 4 -4q0 -14 -29.5 -38t-42.5 -24q2 -4 0 -8.5t-7 -11.5t-6 -8q-21 -60 -21 -134z" />
    <glyph glyph-name="parenright" unicode=")" horiz-adv-x="198" 
d="M184 278q0 -175 -111 -258q-39 -29 -69 -29q-4 0 -4 3q0 14 30.5 39.5t42.5 23.5q34 68 34 156q0 102 -34 166q-16 28 -29.5 40t-39.5 18q-4 0 -4 4q0 12 30 37t43 25q30 0 53 -25.5t35 -64t17.5 -73.5t5.5 -62z" />
    <glyph glyph-name="asterisk" unicode="*" horiz-adv-x="217" 
d="M128 367h75q3 0 3 -2q0 -13 -19 -23t-32 -10l27 -27q0 -6 -16 -19t-22 -13q-2 0 -22 20v-12q-4 -8 -17 -20t-21 -12q-3 0 -3 5v66l-4 -4q-4 -5 -8.5 -9.5t-11.5 -11t-12.5 -11t-11 -8t-9.5 -3.5q-1 0 -1 2q0 5 52 57h-75q-3 0 -3 3q0 11 19.5 21.5t31.5 10.5
q-26 26 -26 27q0 6 15.5 19t21.5 13q2 0 22 -20v13q5 9 17.5 20.5t20.5 11.5q3 0 3 -5v-67l4 5l8.5 8.5l11 11t12.5 11t11.5 8t9.5 3.5q2 0 2 -1q0 -5 -24 -30.5t-29 -27.5z" />
    <glyph glyph-name="plus" unicode="+" horiz-adv-x="258" 
d="M90 54q-4 0 -4 5v82h-83q-4 0 -4 4q0 19 33.5 40.5t53.5 21.5v26q0 12 30 36.5t44 24.5q4 0 4 -4v-83h82q4 0 4 -3q0 -19 -33 -41t-53 -22v-25q0 -12 -30 -37t-44 -25z" />
    <glyph glyph-name="comma" unicode="," horiz-adv-x="141" 
d="M16 -3q0 15 -8 21.5t-8 9.5q0 12 26.5 34t38.5 22q11 0 17.5 -13t6.5 -24q0 -12 -5 -27q-4 -17 -27.5 -37.5t-39.5 -20.5q-5 0 -5 3q0 5 2 16t2 16z" />
    <glyph glyph-name="hyphen" unicode="-" horiz-adv-x="264" 
d="M178 141h-174q-4 0 -4 4q0 12 29.5 37t43.5 25h174q4 0 4 -3q0 -12 -30 -37.5t-43 -25.5z" />
    <glyph glyph-name="period" unicode="." horiz-adv-x="148" 
d="M29 -3q-32 0 -32 32q0 14 24 34.5t38 20.5q9 0 16.5 -13.5t7.5 -23.5q0 -50 -54 -50z" />
    <glyph glyph-name="slash" unicode="/" horiz-adv-x="345" 
d="M-12 -34v4l65 112q20 37 103.5 183t88.5 151q17 14 47 32t43 18v-4q0 -1 -14.5 -26t-31 -53t-18.5 -33q-9 -15 -55.5 -97.5t-88.5 -155.5t-49 -80q-12 -14 -43 -32.5t-47 -18.5z" />
    <glyph glyph-name="zero" unicode="0" horiz-adv-x="373" 
d="M351 253q0 -86 -68 -165.5t-152 -79.5q-58 0 -90 37t-32 96q0 51 26.5 114.5t76 112.5t102.5 49q62 0 99.5 -50t37.5 -114zM236 92q19 37 19 86q0 60 -32 106.5t-88 50.5q-31 -67 -31 -123q0 -54 31.5 -88t84.5 -34q6 0 16 2z" />
    <glyph glyph-name="one" unicode="1" horiz-adv-x="233" 
d="M79 0h-74q-4 0 -4 5q0 17 49 56l48 279q-13 -8 -21 -8q-5 0 -5 6q0 18 53 66.5t69 48.5q6 0 6 -7q0 -26 -13 -98.5t-29.5 -156t-20.5 -109.5q1 0 5.5 0.5t8.5 0.5t8.5 -0.5t7 -1.5t2.5 -4q0 -15 -37 -46t-53 -31z" />
    <glyph glyph-name="two" unicode="2" horiz-adv-x="379" 
d="M136 26h-43q-21 0 -37 -4l-6 -2l-2 -1q-2 -1 -1 -2q-37 -16 -47 -17q9 31 38.5 56.5t64.5 44.5t69 39.5t57 51.5t23 71q0 36 -25 57.5t-62 21.5q-17 0 -26 -1q-12 -24 -18 -34.5t-21.5 -32.5t-32 -32.5t-34.5 -10.5q-4 0 -4 6q0 56 78 121.5t138 65.5q43 0 73 -23t30 -65
q0 -60 -53 -123.5t-116 -104.5q120 0 120 -19q0 -14 -37 -45.5t-53 -31.5q-11 0 -35.5 7t-37.5 7z" />
    <glyph glyph-name="three" unicode="3" horiz-adv-x="360" 
d="M273 421q54 0 54 -10q0 -33 -130 -124q19 6 42 6q36 0 55.5 -23t19.5 -60q0 -74 -77.5 -141t-153.5 -67q-30 0 -56.5 24t-26.5 54q0 16 37 47t53 31q3 0 5 -2q13 -39 30 -55t46 -16q20 0 38 6q9 21 9 46q0 33 -15.5 54t-47.5 21q-31 0 -82 -24t-71 -24q-6 0 -6 5
q0 12 18.5 31.5t49 41t58 39t57.5 35.5t35 22l-29 1q-28 0 -82.5 -3.5t-80.5 -3.5q-5 0 -5 5q0 1 7 12t9 13q13 14 27 25t33 17t32 10t37.5 5.5t35 2t39 0t36.5 -0.5z" />
    <glyph glyph-name="four" unicode="4" horiz-adv-x="357" 
d="M167 -4q-5 0 -5 6q0 30 15 99q-12 0 -32.5 -1t-37.5 -1.5t-33 -0.5q-75 0 -75 10q0 5 66 107.5t66 135.5q0 14 37 44.5t52 30.5q7 0 7 -5q0 -13 -9.5 -36.5t-28 -56.5t-31 -53t-35.5 -56l-23 -36q19 -3 58 -3l40 1q55 163 126 163q2 0 3 -3l1 -2l-1 -7q-9 -32 -26.5 -83
t-26.5 -87t-16 -90q-2 -15 -38.5 -45.5t-52.5 -30.5z" />
    <glyph glyph-name="five" unicode="5" horiz-adv-x="317" 
d="M0 44q0 23 18 57q6 12 13 19l9 12q-2 2 13.5 16.5t36.5 28.5t31 14q6 0 6 -4q0 -10 -16 -26q-15 -17 -15 -44q0 -34 36 -34q12 0 30 6q24 44 24 79q0 26 -16 44t-42 18q-17 0 -49.5 -19.5t-47.5 -19.5q-3 0 -3 3q0 10 13 63.5t15 74.5q0 15 42.5 52.5t57.5 37.5
q5 0 35.5 -11.5t47.5 -11.5q5 0 15 2l9 2q20 10 28 10q4 0 4 -6q0 -27 -64.5 -63.5t-90.5 -24.5l-12 -38q5 3 19.5 10t22 10.5t19.5 7t23 3.5q33 0 51 -20.5t18 -54.5q0 -75 -79 -155t-154 -80q-48 0 -48 42z" />
    <glyph glyph-name="six" unicode="6" horiz-adv-x="308" 
d="M279 444l1 -5q0 -12 -49.5 -60t-78.5 -72q41 -18 63.5 -54.5t22.5 -83.5q0 -64 -46 -116.5t-109 -52.5q-43 0 -63.5 29.5t-20.5 74.5q0 79 63 156q34 39 113 110t104 74zM142 86q0 2 0.5 7t0.5 7q0 60 -46 103q-2 -16 -2 -26q0 -74 47 -91z" />
    <glyph glyph-name="seven" unicode="7" horiz-adv-x="297" 
d="M266 419l5 -6q-2 -7 -21.5 -40.5t-43 -72t-29.5 -50.5q23 0 23 -5q0 -14 -21.5 -34.5t-41.5 -33.5q-4 -8 -20 -46t-28 -62t-34.5 -46.5t-46.5 -22.5q-7 0 -7 6q0 16 14 47.5t34.5 70.5t24.5 47q-2 0 -8 -0.5t-8 -0.5q-6 0 -6 3q0 10 10 21.5t26 24.5t19 16q9 10 28.5 45
t29.5 48l7 8q-29 0 -84 -2.5t-83 -2.5q-5 0 -5 4q0 6 4.5 12.5t12 14.5t9.5 11q18 17 39.5 27.5t51 14.5t45.5 5t55.5 0t48.5 -1z" />
    <glyph glyph-name="eight" unicode="8" horiz-adv-x="266" 
d="M200 107q0 -39 -48 -73t-88 -34q-28 0 -46 15.5t-18 42.5q0 42 71 93q-12 25 -23 64.5t-11 62.5q0 41 46 83.5t87 42.5q27 0 44.5 -17t17.5 -45q0 -24 -15.5 -52.5t-28 -43t-38.5 -41.5q5 -10 19 -29.5t22.5 -36t8.5 -32.5zM114 339l-1 -8q-3 -22 24 -96q18 25 18 52
q0 20 -24 45q-14 15 -17 7zM76 115q0 -18 12.5 -31.5t31.5 -17.5q-4 19 -40 65q-4 -4 -4 -16z" />
    <glyph glyph-name="nine" unicode="9" horiz-adv-x="311" 
d="M207 425q43 0 63.5 -29.5t20.5 -75.5q0 -79 -63 -154q-24 -29 -109.5 -108t-103.5 -79q-4 0 -4 6q0 23 128 134q-42 15 -64 53t-22 85q0 62 46 115t108 53zM194 222q2 18 2 28q0 62 -40 85l-7 4q0 -2 -0.5 -6.5t-0.5 -6.5q0 -61 46 -104z" />
    <glyph glyph-name="colon" unicode=":" horiz-adv-x="150" 
d="M31 90q-32 0 -32 32q0 13 23.5 33.5t37.5 20.5q11 0 17.5 -13t6.5 -24q0 -49 -53 -49zM78 316q11 0 17.5 -13t6.5 -25q0 -48 -53 -48q-32 0 -32 23v8q0 14 23.5 34.5t37.5 20.5z" />
    <glyph glyph-name="semicolon" unicode=";" horiz-adv-x="132" 
d="M50 230q-32 0 -32 31q0 14 23.5 34.5t37.5 20.5q9 0 16.5 -13.5t7.5 -24.5q0 -48 -53 -48zM63 179q11 0 17.5 -13t6.5 -24q0 -5 -2 -15t-2 -13q-4 -16 -28 -36.5t-40 -20.5q-4 0 -4 3q0 6 1.5 16t1.5 16q0 15 -8 21.5t-8 8.5q0 12 26.5 34.5t38.5 22.5z" />
    <glyph glyph-name="less" unicode="&#x3c;" horiz-adv-x="198" 
d="M128 110q-19 0 -35 13.5t-25.5 30.5t-27 32t-40.5 18q-3 0 -3 3q0 14 21.5 25.5t37.5 15.5q9 8 28.5 34.5t40 42.5t48.5 16q3 0 3 -3q0 -13 -21 -26t-36 -16q-5 -6 -14 -17.5t-17 -21t-16 -17.5q19 -9 40 -39q25 -42 61 -48q3 -1 3 -3q0 -9 -19.5 -24.5t-28.5 -15.5z" />
    <glyph glyph-name="equal" unicode="=" horiz-adv-x="270" 
d="M178 96h-174q-4 0 -4 4q0 12 29.5 37t43.5 25h174q4 0 4 -3q0 -12 -30 -37.5t-43 -25.5zM178 208h-174q-4 0 -4 4q0 12 29.5 37t43.5 25h174q4 0 4 -3q0 -13 -30 -38t-43 -25z" />
    <glyph glyph-name="greater" unicode="&#x3e;" horiz-adv-x="189" 
d="M119 203q-3 -3 -12.5 -16t-14.5 -19t-14.5 -17t-17 -16.5t-17.5 -12t-20 -9.5t-21 -3q-2 0 -2 3q0 13 21 25.5t36 15.5q7 8 21.5 27t25.5 30q-19 9 -40 39q-12 17 -17.5 23.5t-17 13.5t-27.5 11q-2 0 -2 3q0 8 19 24t28 16q20 0 35.5 -13.5t25.5 -30.5t27.5 -32t40.5 -18
q2 0 2 -3q0 -14 -21 -26t-38 -15z" />
    <glyph glyph-name="question" unicode="?" horiz-adv-x="336" 
d="M91 22q-32 0 -32 28q0 16 21.5 37t38.5 21q26 0 26 -36q0 -23 -15.5 -36.5t-38.5 -13.5zM-1 289q0 12 20.5 46.5t33.5 50.5q75 90 164 90q43 0 72.5 -23t29.5 -65q0 -57 -76.5 -149.5t-121.5 -92.5q-17 0 -17 11q0 10 18.5 24.5t41 29.5t41 42.5t18.5 60.5q0 38 -26 60
t-63 22q-10 0 -18 -3q-3 -1 -19 -29t-41 -54t-52 -26q-4 0 -4.5 0.5t-0.5 4.5z" />
    <glyph glyph-name="at" unicode="@" horiz-adv-x="288" 
d="M274 303q0 -28 -37 -79.5t-62 -51.5q-5 0 -10 8t-5 14q-21 -21 -42 -21q-16 0 -25.5 13.5t-9.5 30.5q0 24 22 50t46 26q19 0 28 -17q11 11 20 11h2q0 -10 -6.5 -32.5t-6.5 -33.5q0 -14 5 -19q28 32 28 63q0 32 -33 47.5t-68 15.5q-37 0 -52 -18t-15 -56q0 -48 33.5 -81.5
t82.5 -33.5q20 0 40 7.5t32.5 15.5t14.5 8q4 0 4 -3q0 -24 -55.5 -49t-83.5 -25q-50 0 -85.5 35t-35.5 84q0 61 54.5 111t115.5 50q39 0 71.5 -17.5t32.5 -52.5zM143 197q16 0 16 30q0 15 -8.5 28.5t-22.5 13.5q-17 0 -17 -31q0 -16 8.5 -28.5t23.5 -12.5z" />
    <glyph glyph-name="A" unicode="A" horiz-adv-x="406" 
d="M166 51q0 -18 -41.5 -35.5t-62.5 -17.5q-26 0 -43 12.5t-17 36.5q0 39 68 157t68 164q0 9 -4 14.5t-4 6.5q0 15 35 31t53 16h41q16 0 28.5 -6.5t19.5 -20t11.5 -25.5t6 -33t2 -32t0 -33t-0.5 -26q0 -6 -2 -36t-1.5 -52.5t4 -49.5t15.5 -42t32 -15q9 0 9 -5q0 -25 -29 -44
t-55 -19q-25 0 -41 10t-23.5 30t-10 35t-3.5 41h-82q-5 -15 -5 -28q0 -15 8 -21.5t16 -8t8 -4.5zM222 277q-17 -35 -55 -101h55q-1 9 0.5 28t1.5 27q0 14 -2 46z" />
    <glyph glyph-name="B" unicode="B" horiz-adv-x="378" 
d="M362 110q-1 -23 -9.5 -41.5t-20 -30t-33 -19.5t-37.5 -12t-45.5 -6t-45 -2t-48 0.5t-43.5 0.5q-4 0 -11 -1.5t-10 -1.5q-28 0 -43.5 17.5t-15.5 45.5q0 47 26.5 137t26.5 138q0 7 -1.5 14t-4 12.5t-5 10t-4.5 6.5l-1 3q0 20 31 37.5t53 17.5q173 0 181 -5q37 -54 37 -102
q0 -35 -40 -70q6 -13 23.5 -44.5t28.5 -57.5t11 -47zM224 372h-57q-4 -52 -24 -128q10 -3 40 -3q25 0 79 10q1 4 1 12q0 50 -39 109zM125 178q-2 -3 -2 -27q0 -80 47 -80q23 0 51 17t28 37q0 12 -11 42t-20 30q-2 0 -8 -2q-28 -11 -85 -17z" />
    <glyph glyph-name="C" unicode="C" horiz-adv-x="381" 
d="M59 -3q-28 0 -43.5 17.5t-15.5 46.5q0 46 26.5 136t26.5 138q0 11 -4 22t-8 17l-4 7q0 20 31 37.5t53 17.5l175 -1q14 -8 26.5 -38.5t12.5 -49.5q0 -27 -22 -51t-49 -24l-10 6q3 15 3 17q0 15 -12 42t-24 35h-54q-2 -34 -25 -111t-23 -110q0 -32 26 -50t59 -18
q39 0 46.5 6t7.5 39q0 13 32.5 48t43.5 35q6 0 8 -5.5t0.5 -12t0.5 -11.5q1 -11 10 -32.5t9 -36.5q0 -16 -9.5 -31.5t-18 -23.5t-26.5 -23q-24 -20 -59 -29.5t-57.5 -10.5t-72 0.5t-60.5 1.5z" />
    <glyph glyph-name="D" unicode="D" horiz-adv-x="400" 
d="M77 -1q-40 0 -59 11.5t-19 50.5q0 46 27 137t27 138q0 13 -5 30q-1 2 -6 8l-5 5q0 22 30.5 39.5t54.5 17.5q174 0 180 -4q31 -13 53 -102t22 -138q0 -79 -63.5 -139.5t-143.5 -60.5q-16 0 -47 3.5t-46 3.5zM224 372h-57q-3 -30 -22.5 -103.5t-19.5 -113.5q0 -58 42 -58
q48 0 84.5 32t36.5 78q0 28 -22 96.5t-42 68.5z" />
    <glyph glyph-name="E" unicode="E" horiz-adv-x="345" 
d="M-1 61q0 46 27 137t27 138q0 13 -5 30q0 3 -6 7.5t-6 6.5q0 21 31.5 38.5t54.5 17.5l175 -1q27 -27 27 -52q0 -15 -30 -38.5t-46 -23.5h-2q-3 3 -7 22.5t-18 28.5h-54q-7 -64 -21 -110h112l-76 -63h-52q-15 -60 -15 -85q0 -28 9 -38q3 -6 20.5 -9.5t43 -4t47.5 -0.5
t44 0.5t23 0.5q-13 -10 -38 -31.5t-37 -31.5q-29 0 -84.5 -1.5t-83.5 -1.5q-29 0 -44.5 17t-15.5 47z" />
    <glyph glyph-name="F" unicode="F" horiz-adv-x="353" 
d="M-1 61q0 46 27 137t27 138q0 13 -4 23.5t-8 15.5t-4 6q0 20 31 37.5t52 17.5l177 -1q15 -15 32 -58q-30 -29 -75 -63q-23 50 -33 58h-54q-5 -46 -21 -110h112l-76 -63h-52q-15 -54 -15 -87q0 -47 37 -47q4 0 4 -3q0 -23 -36.5 -44t-61.5 -21q-28 0 -43.5 17.5t-15.5 46.5
z" />
    <glyph glyph-name="G" unicode="G" horiz-adv-x="363" 
d="M0 61q0 46 26.5 137t26.5 138q0 18 -7 32l-8 14q0 19 30.5 36.5t51.5 17.5l176 -1q16 -9 29 -46t13 -61v-8q-25 -25 -75 -63v7q0 25 -12.5 61t-29.5 47h-54q0 -11 -22.5 -116t-25.5 -111q0 -48 37 -48q30 0 68 27t38 57q0 7 -41 7q-61 0 -90 -24q6 5 29 25.5t31 26
t27 17.5t37 15.5t41 3.5q25 0 42 -4q-4 -28 -3.5 -43t2.5 -43.5t2 -43.5q0 -31 -32.5 -65t-66.5 -51q-15 -5 -181 -5q-28 0 -43.5 17.5t-15.5 46.5z" />
    <glyph glyph-name="H" unicode="H" horiz-adv-x="399" 
d="M0 61q0 46 26.5 137t26.5 138q0 8 -1.5 15.5t-4 12.5t-5 8.5t-4.5 5.5l-1 2q0 19 30.5 37.5t52.5 18.5q48 0 48 -50q0 -48 -21 -124h110q9 56 9 74q0 8 -4 18.5t-8 17.5t-4 8q0 19 31 37.5t52 18.5q49 0 49 -49q0 -47 -26.5 -138t-26.5 -137q0 -47 37 -47q4 0 4 -3
q0 -24 -36.5 -44.5t-61.5 -20.5q-27 0 -42.5 17t-15.5 45t13 79t15 61h-111q-15 -62 -15 -87q0 -47 37 -47q4 0 4 -3q0 -23 -36.5 -44t-61.5 -21q-28 0 -43.5 17.5t-15.5 46.5z" />
    <glyph glyph-name="I" unicode="I" horiz-adv-x="188" 
d="M0 60q0 46 26.5 137t26.5 139q0 23 -8 34l-8 11q0 19 30.5 37t51.5 18q49 0 49 -49q0 -47 -26 -138t-26 -137q0 -47 36 -47q4 0 4 -3q0 -24 -35.5 -44.5t-61.5 -20.5q-29 0 -44 17t-15 46z" />
    <glyph glyph-name="J" unicode="J" horiz-adv-x="363" 
d="M24 104q2 11 -1.5 19.5t-8.5 13.5t-5 6q0 14 13.5 21t29.5 7q29 0 29 -26q0 -10 -3.5 -27.5t-3.5 -25.5q0 -29 37 -29h58q0 46 26 136t26 137q0 8 -1.5 15.5t-4 12.5t-5 8.5t-4.5 5.5l-1 2q0 19 30.5 37.5t52.5 18.5q48 0 48 -50q0 -46 -26 -137.5t-26 -136.5
q0 -47 37 -47q4 0 4 -3q0 -23 -36.5 -44t-61.5 -21q-27 0 -82 1.5t-83 1.5q-4 0 -13.5 -0.5t-14.5 -0.5t-12.5 1.5t-11.5 5t-7 10t-3 16.5q0 15 11.5 39.5t12.5 32.5z" />
    <glyph glyph-name="K" unicode="K" horiz-adv-x="375" 
d="M0 61q0 46 26.5 137t26.5 138q0 13 -3.5 23.5t-7.5 16t-4 6.5q0 19 30.5 36.5t51.5 17.5q48 0 48 -50q0 -45 -25 -143q17 -7 56.5 -5.5t51.5 12.5q11 6 11 26q0 48 -36 114q52 46 75 63q37 -64 37 -112q0 -57 -84 -118q15 -22 44 -50.5t41.5 -54.5t12.5 -74l-2 -27
q-53 -47 -75 -64l1 29q0 44 -16 79t-35.5 52.5t-35.5 35t-16 30.5q-30 -6 -48 -6q-9 -36 -9 -61q0 -47 37 -47q4 0 4 -5q0 -22 -37 -42.5t-61 -20.5q-28 0 -43.5 17.5t-15.5 46.5z" />
    <glyph glyph-name="L" unicode="L" horiz-adv-x="314" 
d="M0 60q0 46 26.5 137t26.5 139q0 13 -4.5 23.5t-8.5 15.5l-4 5q0 19 31 37.5t52 18.5q49 0 49 -49q0 -47 -26 -138t-26 -137q0 -47 36 -47l135 -2q-8 -7 -23.5 -20t-28 -23.5t-23.5 -19.5q-26 0 -77 -1.5t-77 -1.5q-28 0 -43 17t-15 46z" />
    <glyph glyph-name="M" unicode="M" horiz-adv-x="576" 
d="M157 62q0 -23 -36.5 -44t-61.5 -21q-28 0 -43.5 17.5t-15.5 45.5q0 47 26.5 137t26.5 138q0 7 -4 17.5t-8 18.5l-4 8q0 21 29.5 39t52.5 18q49 0 49 -49l-1 -22q82 71 149 71q22 0 34.5 -13t12.5 -36l-2 -25q31 29 74 51.5t78 22.5q47 0 47 -50q0 -46 -26.5 -137.5
t-26.5 -136.5q0 -47 33 -47q8 0 8 -5q0 -22 -36.5 -42.5t-61.5 -20.5q-28 0 -43 17.5t-15 46.5q0 46 26.5 136t26.5 138q0 30 -8 36q-28 -8 -44 -16t-26 -22t-13.5 -23.5t-9.5 -37.5t-12 -46q-21 -84 -21 -113q0 -48 32 -48q9 0 9 -3q0 -23 -36.5 -44t-61.5 -21
q-28 0 -43.5 17.5t-15.5 45.5q0 47 26.5 137t26.5 138q0 28 -8 36q-23 -6 -38 -13.5t-24 -14.5t-15 -21t-9 -24.5t-8 -33t-9 -38.5q-21 -69 -21 -113q0 -48 32 -48q9 0 9 -3z" />
    <glyph glyph-name="N" unicode="N" horiz-adv-x="381" 
d="M157 62q0 -23 -36 -44t-62 -21q-27 0 -43 17.5t-16 47.5q0 45 26.5 135.5t26.5 139.5q0 16 -3.5 25.5t-7.5 13.5t-4 5q0 19 31 37.5t52 18.5q47 0 47 -51q0 -4 -0.5 -11t-0.5 -10q28 26 70 48.5t72 22.5q28 0 41 -10.5t13 -38.5q0 -47 -26 -138t-26 -137q0 -47 33 -47
q8 0 8 -3q0 -23 -36 -44t-62 -21q-27 0 -43 17.5t-16 47.5q0 45 26.5 135.5t26.5 139.5q0 27 -8 35q-60 -13 -82 -58q-9 -20 -25.5 -100t-16.5 -102q0 -47 33 -47q8 0 8 -3z" />
    <glyph glyph-name="O" unicode="O" horiz-adv-x="390" 
d="M125 -4q-60 0 -93.5 49t-33.5 111q0 58 35.5 123.5t94 111.5t117.5 46q62 0 96 -50.5t34 -114.5q0 -57 -36.5 -122t-96 -109.5t-117.5 -44.5zM130 345q-30 -49 -30 -108t30 -106.5t86 -47.5q5 0 15 2t13 2q29 46 29 109q0 59 -30 106t-87 47q-18 0 -26 -4z" />
    <glyph glyph-name="P" unicode="P" horiz-adv-x="354" 
d="M157 61q0 -23 -36.5 -43.5t-61.5 -20.5q-27 0 -43 17.5t-16 47.5q0 45 26.5 135.5t26.5 139.5q0 16 -3.5 25.5t-7.5 13.5t-4 5q0 19 30.5 37.5t51.5 18.5q176 0 183 -5q36 -61 36 -103q0 -39 -39.5 -74t-88 -54.5t-85.5 -21.5q-10 -42 -10 -67q0 -47 33 -47q8 0 8 -4z
M224 372h-57q-4 -52 -24 -128q36 -3 38 -3q43 0 82 11v14q0 41 -29 92q0 2 -3.5 8t-6.5 6z" />
    <glyph glyph-name="Q" unicode="Q" horiz-adv-x="393" 
d="M127 -4q-60 0 -93.5 48.5t-33.5 110.5q0 58 35.5 123.5t94.5 112t118 46.5q61 0 95 -50.5t34 -114.5q0 -88 -71 -172q7 -27 7 -55l-2 -28q-37 -33 -75 -63q5 45 -5 81q-59 -39 -104 -39zM131 345q-29 -46 -29 -109q0 -35 10.5 -67.5t35.5 -57.5t61 -27q-5 8 -24.5 28
t-35 38.5t-15.5 25.5q0 4 1 8q6 6 75 64q-2 -12 9.5 -27.5t30 -32.5t23.5 -24q2 22 2 32q0 59 -30.5 106t-86.5 47q-18 0 -27 -4z" />
    <glyph glyph-name="R" unicode="R" horiz-adv-x="357" 
d="M156 62q0 -23 -36 -44t-61 -21q-29 0 -44.5 17.5t-15.5 47.5q0 46 26.5 135.5t26.5 137.5q0 36 -11 40q-4 3 -4 6q0 19 31 37.5t52 18.5q174 0 182 -5q36 -61 36 -103q0 -55 -96 -115q8 -9 24.5 -26.5t23 -25t17 -22.5t14.5 -26.5t7.5 -30t3.5 -39.5l-2 -27
q-9 -7 -35 -29.5t-41 -33.5q6 42 -2.5 76.5t-24.5 56t-32.5 38t-29 30t-12.5 23.5v4l-28 -3q-10 -46 -10 -66q0 -48 33 -48q8 0 8 -3zM224 372h-57q-5 -53 -25 -128q24 -2 37 -2q36 0 82 10q2 8 2 11q0 33 -30 95q-5 14 -9 14z" />
    <glyph glyph-name="S" unicode="S" horiz-adv-x="317" 
d="M283 170q0 -58 -69.5 -116t-127.5 -58q-86 0 -86 123q0 15 34.5 43.5t53.5 36.5q-54 38 -54 79q0 50 68 106.5t120 56.5q32 0 54.5 -27t22.5 -59q0 -15 -39 -47.5t-55 -32.5q-4 0 -10 19.5t-20.5 39t-38.5 19.5q0 -24 23 -46t50.5 -37t50.5 -41t23 -59zM136 92
q10 -10 27.5 -10.5t18.5 10.5q-2 21 -27 50t-53 48q1 -6 2.5 -21t2.5 -22t4.5 -18t9.5 -20t15 -17z" />
    <glyph glyph-name="T" unicode="T" horiz-adv-x="313" 
d="M415 359q-15 0 -48 10t-50 10q-16 0 -31 -3q-4 -21 -19.5 -82.5t-24 -109.5t-8.5 -84q0 -24 6.5 -32.5t30.5 -14.5q4 -1 4 -2q0 -24 -36 -45t-62 -21q-28 0 -43.5 17.5t-15.5 46.5q0 46 26.5 145t26.5 147q0 27 -8 35h-85q-9 0 -9 -8q0 -6 13 -24t15 -21l-75 -63
q-21 37 -21 71q0 32 36.5 70t66.5 38q13 0 79 -1t104.5 0t97 3.5t101.5 11t73 22.5q-26 -41 -67 -78.5t-77 -37.5z" />
    <glyph glyph-name="U" unicode="U" horiz-adv-x="402" 
d="M0 61q0 46 26.5 136t26.5 138q0 28 -9 38l-7 7q0 19 31 38t52 19q48 0 48 -49q0 -47 -26 -138t-26 -137q0 -49 41 -49h136q12 33 12 77q0 83 -48 227q36 32 75 63q48 -129 48 -228q0 -65 -26.5 -104.5t-86.5 -81.5q-10 -9 -27 -15q-22 -6 -54 -7t-74 1t-53 2
q-28 0 -43.5 17.5t-15.5 45.5z" />
    <glyph glyph-name="V" unicode="V" horiz-adv-x="363" 
d="M65 437q35 0 54 -27q14 -22 28.5 -128t11.5 -136q3 6 23.5 48.5t30.5 64.5t20.5 56t10.5 55q0 3 -3 11.5t-5 8.5q39 45 84 45q27 0 27 -19q0 -48 -61.5 -164.5t-61.5 -165.5q0 -32 25 -39q-41 -46 -100 -46q-33 0 -54.5 22t-30 59t-12 73t-5.5 78t-6 60q-12 65 -24 74
q-1 1 -6 4.5t-8 7t-3 6.5q0 22 21.5 37t43.5 15z" />
    <glyph glyph-name="W" unicode="W" horiz-adv-x="585" 
d="M65 437q38 0 55 -27q14 -19 28 -126.5t11 -137.5q79 144 85 219q-2 2 -10.5 8.5t-8.5 11.5q0 22 21 37t44 15q38 0 55 -27q13 -19 27.5 -126.5t11.5 -137.5q113 227 77 245q39 45 85 45q27 0 27 -20q0 -44 -62 -164t-62 -166q0 -32 26 -40q-46 -46 -101 -46
q-22 0 -38.5 8t-26.5 25t-16.5 33.5t-10 42t-4.5 41.5t-2 42.5t-1 34.5q-51 -102 -51 -141q0 -32 26 -40q-46 -46 -101 -46q-33 0 -54.5 22t-30 59t-12 73.5t-5.5 78.5t-6 60q-8 51 -24 75q-2 2 -6.5 4.5t-7.5 5.5t-3 7q0 22 21 37t44 15z" />
    <glyph glyph-name="X" unicode="X" horiz-adv-x="452" 
d="M124 95h1q5 3 17.5 18.5t14.5 17.5q5 13 -34.5 107.5t-69.5 108.5q-7 4 -7 10q0 17 37 48.5t54 31.5q22 0 41 -23t28 -45.5t20.5 -61.5t13.5 -44q33 57 88.5 115t102.5 58q6 0 6 -5q0 -20 -15.5 -34.5t-36 -26t-26.5 -19.5q-19 -26 -49 -79t-45 -75q47 -108 114 -108
q13 0 13 -6q0 -23 -39.5 -53t-62.5 -30q-66 0 -113 89q-1 -1 -20 -17t-23 -19t-20.5 -15.5t-25 -16t-23 -10.5t-27.5 -9t-27 -2q-12 0 -12 8q0 20 18 37t38.5 25.5t43.5 16t25 8.5zM122 93h-1v-1z" />
    <glyph glyph-name="Y" unicode="Y" horiz-adv-x="357" 
d="M-1 388q37 33 75 63q28 -19 28 -53q0 -16 -8 -46t-8 -45q0 -54 93 -54q25 0 49.5 12.5t24.5 34.5q0 53 -27 98q2 2 76 64q36 -68 36 -115q0 -16 -5 -28.5t-11 -19.5t-20 -21q-43 -43 -86 -69q-17 -49 -17 -97q0 -23 7.5 -35t29.5 -12q3 0 3 -4q0 -23 -35.5 -43.5
t-60.5 -20.5q-29 0 -44.5 17.5t-15.5 45.5q0 39 23 116q-29 -2 -62 18t-33 49q0 15 8 45.5t8 46.5q0 34 -28 53z" />
    <glyph glyph-name="Z" unicode="Z" horiz-adv-x="394" 
d="M185 -2h-175q-10 29 -10 69q0 50 23 88.5t57.5 64t71 47.5t68 52t43.5 65q-42 0 -66.5 -0.5t-52 -3t-40.5 -8t-14 -14.5l-10 1q-18 13 -18 34q0 22 16.5 33t39.5 11h260l1 -15q0 -52 -18.5 -87t-48 -54.5t-61 -34.5t-63.5 -37t-49 -52l1 1q-7 -21 -7 -37q0 -46 52 -46
q20 0 51 11t33 27h13q28 -19 28 -59q0 -14 -4 -24t-13.5 -16t-17.5 -10t-22.5 -5t-23 -1.5t-24.5 0t-20 0.5z" />
    <glyph glyph-name="bracketleft" unicode="[" horiz-adv-x="210" 
d="M110 438h-33v-381h102q3 0 3 -3q0 -13 -29.5 -38t-42.5 -25h-107l-4 4v448q45 61 73 61h107q3 0 3 -4q0 -12 -30 -37t-42 -25z" />
    <glyph glyph-name="backslash" unicode="\" horiz-adv-x="360" 
d="M281 119l64 -112q0 -4 -1 -4q-13 0 -45 19t-44 31q-6 6 -92.5 160.5t-100.5 173.5l-65 112q0 4 1 4q14 0 46.5 -19.5t43.5 -31.5q5 -5 92 -159t101 -174z" />
    <glyph glyph-name="bracketright" unicode="]" horiz-adv-x="213" 
d="M178 504l4 -4v-447q-9 -19 -32 -40.5t-41 -21.5h-107q-4 0 -4 3q0 13 30.5 38t42.5 25h34v381h-103q-4 0 -4 3q0 13 30.5 38t42.5 25h107z" />
    <glyph glyph-name="asciicircum" unicode="^" horiz-adv-x="316" 
d="M292 428q0 -12 -26 -32.5t-39 -20.5q-74 94 -81 104q-4 -4 -24 -30.5t-38 -50t-19 -23.5q-13 0 -39.5 20.5t-26.5 32.5q99 134 108 141q3 5 38 5q17 0 39 -5q9 -9 58.5 -74t49.5 -67z" />
    <glyph glyph-name="underscore" unicode="_" horiz-adv-x="478" 
d="M397 -35h-393q-4 0 -4 4q0 12 29.5 37.5t43.5 25.5h393q4 0 4 -4q0 -12 -30 -37.5t-43 -25.5z" />
    <glyph glyph-name="grave" unicode="`" horiz-adv-x="145" 
d="M120 473q0 -8 -17.5 -22t-25.5 -14h-3q-2 4 -20.5 28t-36 46.5t-17.5 24.5q0 6 18 21t26 15q1 0 2 -1q2 -4 38 -49.5t36 -48.5z" />
    <glyph glyph-name="a" unicode="a" horiz-adv-x="329" 
d="M198 51q-54 -54 -108 -54q-43 0 -65.5 34t-22.5 78q0 64 55 130t118 66q45 0 73 -43q7 9 24 19.5t27 10.5q6 0 6 -4q0 -11 -18 -71.5t-18 -94.5q0 -60 33 -60q10 0 10 -3q0 -18 -26.5 -38.5t-46.5 -20.5q-34 0 -41 51zM94 242q-21 -28 -21 -77q0 -41 21 -74t60 -33
q4 0 10.5 1.5t8.5 1.5q21 32 21 76q0 41 -21.5 74t-59.5 33q-9 0 -19 -2z" />
    <glyph glyph-name="b" unicode="b" horiz-adv-x="299" 
d="M282 191q0 -64 -56.5 -129t-118.5 -65q-19 0 -36 9q-18 -6 -27 -6q-44 0 -44 60q0 48 27.5 142.5t27.5 144.5q0 28 -5 33q-1 2 -6.5 6t-5.5 7q0 17 24.5 35t43.5 23q22 -9 22 -48q0 -48 -22 -136q15 15 40.5 26.5t45.5 11.5q43 0 66.5 -34.5t23.5 -79.5zM110 242
q-20 -38 -20 -77q0 -41 21 -74t60 -33q4 0 10.5 1.5t8.5 1.5q21 26 21 76q0 41 -21 74t-60 33q-6 0 -20 -2z" />
    <glyph glyph-name="c" unicode="c" 
d="M263 211q0 -9 -28 -32.5t-38 -23.5q-5 0 -6 3q-22 86 -81 86q-8 0 -18 -2q-22 -32 -22 -78q0 -38 23 -72t60 -34q10 0 25 5t21 6q-12 -28 -46.5 -50t-64.5 -22q-42 0 -65.5 35t-23.5 79q0 63 56.5 128.5t117.5 65.5q35 0 62.5 -29.5t27.5 -64.5z" />
    <glyph glyph-name="d" unicode="d" horiz-adv-x="340" 
d="M251 348q0 15 -4.5 25.5t-8.5 16t-4 6.5q0 16 24.5 33t43.5 22q22 -9 22 -48q0 -51 -27.5 -147t-27.5 -145t35 -49q9 0 9 -4q0 -17 -27 -37.5t-45 -20.5q-42 0 -44 51q-60 -54 -108 -54q-42 0 -65.5 34t-23.5 78q0 64 55.5 130t117.5 66q44 0 69 -36q1 9 3.5 25t4 29
t1.5 25zM172 61q21 32 21 75q0 41 -21.5 74.5t-60.5 33.5q-5 0 -19 -2q-21 -40 -21 -76q0 -41 21.5 -74.5t60.5 -33.5q4 0 10.5 1.5t8.5 1.5z" />
    <glyph glyph-name="e" unicode="e" 
d="M263 214q0 -31 -66.5 -71.5t-105.5 -48.5q31 -36 63 -36q9 0 24.5 5t21.5 6q-10 -28 -45 -50t-66 -22q-42 0 -65.5 34.5t-23.5 78.5q0 63 56.5 129t118.5 66q33 0 60.5 -29t27.5 -62zM73 143q7 4 14 4q37 0 94 16q8 3 10 4q-8 33 -29 55.5t-52 22.5q-2 0 -8 -1.5
t-10 -1.5q-21 -34 -21 -74q0 -7 2 -25z" />
    <glyph glyph-name="f" unicode="f" horiz-adv-x="285" 
d="M64 132q14 63 56 118t99 55q49 0 49 -55q0 -30 -20.5 -58.5t-49.5 -28.5q-5 0 -5 7t2 17.5t2 12.5q0 42 -41 42q-3 -3 -16 -51t-13 -59h73q4 0 4 -3q0 -25 -31.5 -42t-57.5 -17q-24 -128 -51 -175q-28 -52 -67 -52q-33 0 -54 26.5t-21 59.5q0 8 4 8q1 0 13.5 -4.5
t21.5 -4.5q66 0 91 142q-53 0 -53 3q0 14 25 35.5t40 23.5z" />
    <glyph glyph-name="g" unicode="g" horiz-adv-x="309" 
d="M264 306q23 -9 23 -41q0 -46 -18.5 -142t-57 -188t-79.5 -92q-32 0 -52.5 25t-20.5 59q0 10 3 10q1 0 14 -5t22 -5q32 0 56 41t29 77q-43 -48 -97 -48q-42 0 -65.5 35t-23.5 79q0 63 57 128.5t118 65.5q30 0 52 -20q15 15 40 21zM189 69q15 65 19 90q-5 -4 -14 -4
q-1 0 -4 3q-22 86 -82 86q-4 0 -18 -2q-22 -34 -22 -78q0 -39 23 -72.5t61 -33.5q7 0 13 1.5t13 5t11 4.5z" />
    <glyph glyph-name="h" unicode="h" horiz-adv-x="270" 
d="M172 220q0 28 -26 25q-14 0 -57 -43q-16 -62 -16 -89q0 -51 40 -51q4 0 4 -4q0 -16 -27 -37t-45 -21q-45 0 -45 60q0 48 27.5 142.5t27.5 144.5q0 14 -2.5 23.5t-6 13t-6 6.5t-2.5 5q0 16 24 32.5t43 23.5q23 -9 23 -48q0 -48 -29 -162q5 3 24 18t30.5 23t28.5 16t29 8
q29 0 29 -37l-22 -94q-9 -45 -9 -62q0 -51 40 -51q5 0 5 -4q0 -16 -28 -37t-44 -21q-44 0 -44 61q0 26 18 79.5t16 79.5z" />
    <glyph glyph-name="i" unicode="i" horiz-adv-x="136" 
d="M31 219q0 14 -8.5 21t-8.5 10q0 12 27 34.5t39 22.5q10 0 16.5 -13t6.5 -25q0 -20 -14 -60q-17 -49 -17 -98t39 -49q5 0 5 -4q0 -17 -27 -37.5t-45 -20.5q-44 0 -44 61q0 28 15.5 81t15.5 77zM103 395q0 -25 -9.5 -40.5t-31.5 -30.5q-26 -13 -32 -13q-4 0 -4 3
q0 4 2 14.5t2 16.5q0 15 -8 21.5t-8 9.5q0 12 26.5 34t38.5 22q11 0 17.5 -13t6.5 -24z" />
    <glyph glyph-name="j" unicode="j" horiz-adv-x="108" 
d="M-139 -72l7 9q18 -10 32 -10q36 0 64.5 61t40.5 125t12 102q0 15 -9 24.5t-9 10.5q0 15 25 33t43 23q22 -9 22 -42q0 -29 -6 -67t-12 -65.5t-17.5 -72t-15.5 -63.5q-38 -153 -104 -153q-32 0 -52.5 26t-20.5 59zM88 395q0 -43 -41 -71q-26 -13 -32 -13q-4 0 -4 3
q0 4 2 14.5t2 16.5q0 15 -8 21.5t-8 9.5q0 12 26.5 34t38.5 22q11 0 17.5 -12.5t6.5 -24.5z" />
    <glyph glyph-name="k" unicode="k" horiz-adv-x="314" 
d="M117 54q0 -18 -26.5 -39t-46.5 -21q-44 0 -44 60q0 48 27.5 142.5t27.5 144.5q0 8 -4.5 19.5t-8.5 19.5l-4 8q0 17 24.5 35t43.5 23q22 -9 22 -48q0 -50 -24 -144q26 26 72.5 58.5t69.5 32.5q17 0 29.5 -12t12.5 -29q0 -38 -31 -72t-72 -55q13 -12 22 -26t17.5 -33
t14.5 -29q17 -28 50 -32q4 0 4 -3q0 -15 -25.5 -37.5t-41.5 -22.5q-26 0 -43.5 18.5t-26 42t-29 49t-50.5 36.5l-3 -33q0 -50 33 -50q10 0 10 -3zM186 284q-8 0 -22.5 -9.5t-26 -20t-27 -25t-18.5 -17.5q6 0 17.5 -0.5t17.5 -0.5q90 0 90 37q0 12 -9 24t-22 12z" />
    <glyph glyph-name="l" unicode="l" horiz-adv-x="152" 
d="M128 402q0 -50 -27.5 -146t-27.5 -144q0 -50 39 -50q4 0 4 -5q0 -17 -27 -37t-45 -20q-44 0 -44 60q0 48 27.5 142.5t27.5 144.5q0 19 -4.5 29t-8.5 13.5t-4 5.5q0 12 25.5 34t37.5 22q27 0 27 -49z" />
    <glyph glyph-name="m" unicode="m" horiz-adv-x="408" 
d="M44 0q-44 0 -44 61q0 28 15.5 80.5t15.5 77.5q0 14 -8.5 21.5t-8.5 8.5q0 17 24.5 34.5t43.5 22.5q28 -12 16 -64q3 2 23.5 17t32 23t28.5 16t28 8q22 0 27 -24t-2 -40q84 64 112 64q29 0 29 -37q0 -15 -8 -39q0 -4 -5 -16l-1 -5q-1 -8 -9.5 -42.5t-8.5 -54.5
q0 -50 40 -50q5 0 5 -3q0 -17 -26.5 -38t-45.5 -21q-44 0 -44 61q0 27 15 79t15 77q0 16 -13 27l-8 1q-15 0 -58 -43q-16 -62 -16 -90q0 -50 40 -50q4 0 4 -3q0 -17 -26 -38t-45 -21q-44 0 -44 61q0 27 15 79t15 77q0 14 -13 27l-8 1q-16 0 -59 -43q-16 -71 -16 -90
q0 -50 40 -50q5 0 5 -3q0 -17 -26.5 -38t-45.5 -21z" />
    <glyph glyph-name="n" unicode="n" horiz-adv-x="272" 
d="M87 202q-16 -71 -16 -89q0 -51 40 -51q5 0 5 -4q0 -16 -27 -37t-45 -21q-44 0 -44 61q0 28 15.5 80.5t15.5 77.5q0 15 -8.5 22t-8.5 9q0 12 27 34t39 22q17 0 20.5 -26.5t-2.5 -37.5q82 64 113 64q28 0 28 -37q0 -18 -7 -39q-1 -1 -2 -5l-5 -16q-1 -13 -9 -45.5t-8 -50.5
q0 -51 40 -51q4 0 4 -4q0 -17 -27 -37.5t-44 -20.5q-44 0 -44 61q0 27 15 79t15 77q0 17 -13 27l-8 1q-8 0 -19 -8.5t-24 -20.5t-16 -14z" />
    <glyph glyph-name="o" unicode="o" horiz-adv-x="279" 
d="M178 301q43 0 67 -35.5t24 -79.5q0 -63 -56.5 -128.5t-119.5 -65.5q-39 0 -65 30t-26 70q0 64 56.5 136.5t119.5 72.5zM176 56q21 29 21 76q0 41 -21.5 74t-59.5 33q-10 0 -20 -2q-20 -38 -20 -76q0 -43 20.5 -75.5t60.5 -32.5q10 0 19 3z" />
    <glyph glyph-name="p" unicode="p" horiz-adv-x="312" 
d="M128 245v-6q52 48 102 48q32 0 49.5 -24t17.5 -57q0 -72 -64 -140t-137 -68l-18 2l-1 -15q0 -84 63 -84q10 0 10 -3q0 -17 -27.5 -38.5t-46.5 -21.5q-70 0 -70 96q0 46 25 132.5t25 127.5q0 14 -4 24.5t-9.5 14t-9.5 7t-4 5.5q0 16 24.5 33.5t43.5 22.5q31 -12 31 -56z
M158 62q28 0 37 6q11 9 20.5 38.5t9.5 47.5q0 26 -15 49t-40 23q-3 0 -18 -3q-21 -21 -36 -44q-4 -10 -15 -52t-11 -48q1 0 28 -8.5t40 -8.5z" />
    <glyph glyph-name="q" unicode="q" horiz-adv-x="279" 
d="M89 -8q-42 0 -65.5 34t-23.5 78q0 64 55.5 130.5t117.5 66.5q43 0 67 -35.5t24 -80.5q0 -75 -73 -144q10 -68 38 -71q3 -1 8.5 0.5t8.5 2t4 -2.5q2 -14 -22 -29.5t-40 -15.5q-22 0 -34 26t-15 54q-26 -13 -50 -13zM92 237q-21 -40 -21 -76q0 -72 59 -104q-8 23 -20 23
l-3 3q0 11 17.5 26.5t30.5 15.5q22 0 30 -42q8 26 8 48q0 41 -21.5 74.5t-60.5 33.5q-5 0 -19 -2z" />
    <glyph glyph-name="r" unicode="r" horiz-adv-x="249" 
d="M170 179q-4 0 -4.5 4.5t0.5 12.5t1 9q0 15 -13 28h-8q-8 0 -33 -19t-25 -23q-16 -62 -16 -91q0 -49 39 -49q5 0 5 -4q0 -17 -27 -38t-45 -21q-44 0 -44 62q0 27 15.5 79.5t15.5 77.5q0 16 -8.5 22.5t-8.5 9.5q0 12 26 34t40 22q18 0 21.5 -26.5t-2.5 -38.5q23 21 57 43
t53 22q30 0 30 -38q0 -23 -23.5 -50.5t-45.5 -27.5z" />
    <glyph glyph-name="s" unicode="s" horiz-adv-x="228" 
d="M144 196q-2 0 -6.5 14t-15 27.5t-27.5 13.5q0 -17 16 -32.5t35.5 -25.5t35.5 -28.5t16 -40.5q0 -42 -48 -83t-90 -41q-60 0 -60 87q0 10 24.5 31t37.5 25q-39 27 -39 55q0 35 48 75.5t85 40.5q22 0 38 -19t16 -42q0 -11 -27.5 -34t-38.5 -23zM128 71q0 31 -57 66
q0 -3 1 -12.5t1.5 -13.5t2.5 -11.5t4.5 -12t6.5 -9.5t10 -9q11 -7 26 -7h4q1 3 1 9z" />
    <glyph glyph-name="t" unicode="t" horiz-adv-x="135" 
d="M182 419q14 0 43 -5t29 -11q0 -23 -49.5 -49.5t-84.5 -36.5q-1 -4 -22.5 -85t-21.5 -119q0 -51 35 -51q9 0 9 -4q0 -16 -27 -37t-45 -21q-45 0 -45 60q0 45 24 130t28 116q-2 0 -16.5 -0.5t-28 -0.5t-28.5 0.5t-24.5 4t-9.5 9.5q0 3 9.5 6.5t14.5 3.5q14 0 28 2t31 5.5
t27 4.5q0 32 -5 39q-1 2 -6.5 6t-5.5 7q0 18 24 35.5t44 22.5q22 -7 22 -48l-1 -21q7 6 15.5 17t16 15.5t20.5 4.5z" />
    <glyph glyph-name="u" unicode="u" horiz-adv-x="267" 
d="M182 1q-35 0 -43 36q-40 -37 -98 -37q-41 4 -41 62q0 28 15.5 80t15.5 78q0 14 -8.5 21t-8.5 10q0 12 27 34t39 22q10 0 16.5 -13t6.5 -24q-6 -38 -14.5 -72.5t-12.5 -52.5t-4 -33q0 -49 40 -49q11 0 25 8q1 24 15.5 74t14.5 75q0 14 -8 21t-8 10q0 12 26 34t40 22
q9 0 15.5 -13t6.5 -24q-6 -37 -14 -71.5t-12 -52.5t-4 -33q0 -50 39 -50q5 0 5 -4q0 -16 -27 -37t-44 -21z" />
    <glyph glyph-name="v" unicode="v" horiz-adv-x="249" 
d="M17 220q0 14 -8 21t-8 10q0 12 26 34t39 22q10 0 16.5 -13t6.5 -25q0 -14 -8 -42.5t-8 -44.5q0 -62 51 -101q2 20 16 68t14 71q0 14 -8.5 21t-8.5 10q0 12 26 34t40 22q10 0 16.5 -13t6.5 -24q0 -18 -14 -63v3q-17 -49 -17 -98t39 -49q5 0 5 -4q0 -17 -27 -37.5
t-45 -20.5q-28 0 -38 25q-24 -24 -40 -24q-31 0 -60 47t-29 81q0 16 8.5 45t8.5 45z" />
    <glyph glyph-name="w" unicode="w" horiz-adv-x="401" 
d="M221 306q19 -8 21 -36q3 -23 -13.5 -86t-16.5 -72q0 -49 39 -49q14 0 25 8q1 23 16 73.5t15 75.5q0 14 -9 22l-8 7q0 16 25 34t43 23q13 -6 21 -36q2 -11 -14.5 -78.5t-16.5 -79.5q0 -49 39 -49q5 0 5 -3q0 -18 -26.5 -38.5t-45.5 -20.5q-33 0 -42 36q-37 -37 -99 -37
l1 1q-31 1 -38 39q-40 -40 -102 -40v1q-40 4 -40 61q0 27 15.5 79.5t15.5 78.5q0 14 -8.5 21t-8.5 11q0 14 26.5 33t41.5 21q18 -9 20 -36q3 -38 -14 -91.5t-17 -65.5q0 -50 40 -50q13 0 29 10q1 23 15.5 72t14.5 74q0 14 -8 22l-8 8q0 17 23.5 34t43.5 23z" />
    <glyph glyph-name="x" unicode="x" horiz-adv-x="318" 
d="M33 251q0 12 26 33.5t38 21.5t22.5 -9t18.5 -25.5t13 -29.5t10.5 -33t7.5 -24q21 40 61 80.5t73 40.5q4 0 4 -4q0 -10 -23.5 -34.5t-31.5 -20.5q-47 -65 -65 -109q29 -75 80 -75q8 -2 8 -5q0 -17 -27 -37t-45 -20q-43 0 -78 62q-62 -62 -113 -62q-12 0 -12 5
q0 14 26.5 35.5t41.5 21.5q18 2 24.5 7t18.5 22q-5 12 -16 51.5t-24 65t-33 35.5q-5 2 -5 7z" />
    <glyph glyph-name="y" unicode="y" horiz-adv-x="253" 
d="M221 306q22 -9 22 -41q0 -24 -3 -50.5t-9.5 -58t-11.5 -51.5t-15 -58t-13 -50q-37 -153 -102 -153q-34 0 -54 25.5t-20 59.5l7 8q16 -9 32 -9q26 0 56.5 42t26.5 65q-36 -35 -96 -35v1q-41 4 -41 61q0 27 16 79.5t16 78.5q0 14 -8.5 21.5t-8.5 10.5q0 14 25.5 32.5
t42.5 21.5q19 -10 24 -34q3 -14 -1.5 -31t-13.5 -37t-11 -28q-9 -32 -9 -63q0 -50 40 -50q17 0 35 14q24 96 24 138q0 17 -9 25t-9 12q0 14 25.5 32.5t42.5 21.5z" />
    <glyph glyph-name="z" unicode="z" horiz-adv-x="300" 
d="M275 308l3 -4q-3 -60 -49.5 -116t-105.5 -56q-17 0 -32 -4q-17 -29 -19 -67h149q4 0 4 -3q0 -13 -27 -35.5t-40 -22.5h-154l-4 5q2 77 58.5 128t135.5 61q11 26 12 54q-52 -1 -154 -1q-4 0 -4 3q0 12 27.5 35t40.5 23h159z" />
    <glyph glyph-name="braceleft" unicode="{" horiz-adv-x="157" 
d="M67 -9q-8 0 -14.5 5.5t-10 16t-6 21.5t-3 26t-1 24.5t0 22.5t0.5 15q0 63 -13 83q-9 8 -16 9q-4 1 -4 4q0 5 10.5 17.5t16.5 16.5q3 21 3 74.5t10 86.5t40 60q35 30 56 30q4 0 4 -4q0 -6 -9.5 -18t-16.5 -16q-4 -19 -4.5 -88t-20.5 -103q8 -6 12.5 -17.5t6.5 -29t2.5 -28
t0 -31t-0.5 -21.5q0 -66 12 -81q2 -2 10 -5t8 -7q0 -13 -30 -38t-43 -25z" />
    <glyph glyph-name="bar" unicode="|" horiz-adv-x="124" 
d="M68 509l5 -5v-445q-14 -21 -34.5 -41.5t-37.5 -20.5l-6 5v445q13 20 34 40t39 22z" />
    <glyph glyph-name="braceright" unicode="}" horiz-adv-x="151" 
d="M138 277q0 -10 -26 -36q-4 -24 -3.5 -75.5t-9.5 -84.5t-41 -61q-36 -29 -56 -29q-4 0 -4 3q0 4 5.5 11t12 14t8.5 10q4 20 4.5 89t20.5 102q-5 3 -9 10t-6 17.5t-3.5 19.5t-2 22.5t-0.5 21v20.5v15q0 69 -11 82q-2 2 -10.5 5t-8.5 7q0 13 30.5 38t42.5 25q8 0 14.5 -5.5
t10 -16.5t6 -21.5t3 -26t1 -24.5t0 -22.5t-0.5 -15.5q0 -68 14 -82q2 -2 10.5 -4.5t8.5 -7.5z" />
    <glyph glyph-name="asciitilde" unicode="~" horiz-adv-x="437" 
d="M74 185q-14 0 -27.5 -6.5t-29.5 -17t-26 -14.5q-3 0 -3 3q0 26 60 63.5t89 37.5q40 0 108 -39t92 -35q23 4 35 8.5t25 14t19 13.5q4 1 4 -3q0 -25 -59 -62t-89 -37q-34 0 -94 38t-104 36z" />
    <glyph glyph-name="exclamdown" unicode="&#xa1;" horiz-adv-x="184" 
d="M77 422q0 51 54 51q13 0 21.5 -7.5t8.5 -19.5q0 -19 -19.5 -39t-37.5 -20q-27 0 -27 35zM131 345q0 -13 -21.5 -122t-23.5 -128q-1 -3 -3 -14t-3 -16t-5 -13t-9 -14q-15 -15 -36 -15q-31 0 -31 30q0 26 5 58.5t15 78t13 58.5q-14 -8 -20 -8q-4 0 -4 3q0 18 48 65t67 47
q8 0 8 -10z" />
    <glyph glyph-name="cent" unicode="&#xa2;" horiz-adv-x="219" 
d="M203 255q-7 -12 -23 -27.5t-27 -15.5l-3 3q-15 63 -61 63q-12 0 -13 -1q-15 -21 -15 -58q0 -29 16.5 -53.5t44.5 -24.5q6 0 16.5 4t16.5 4q-12 -35 -62 -51q2 -10 -16 -27.5t-30 -17.5q-2 0 -2 3q0 8 4 23t4 21l-2 1q-21 7 -33 33q-10 20 -10 47q0 70 78 124
q3 24 15.5 46.5t34.5 22.5l1 -3q0 -4 -3.5 -24t-4.5 -24l8 1q27 0 44.5 -20.5t21.5 -48.5z" />
    <glyph glyph-name="sterling" unicode="&#xa3;" horiz-adv-x="280" 
d="M197 299q-4 0 -4 8t2 18t2 11q0 42 -32 42l-9 -1q-4 -4 -16.5 -51t-12.5 -57q2 0 12 0.5t20.5 1t21 0t17 -2t6.5 -4.5q0 -24 -32 -41t-57 -17l-12 -60h-2l-7 -33h1q-8 -30 -8 -45q0 -14 7.5 -22.5t21.5 -10t26.5 -1.5t28.5 2t22 2q-33 -26 -47 -40l-93 -1q-36 0 -36 38
q0 21 9.5 60.5t11.5 50.5q2 3 7.5 29.5t6.5 30.5q-53 0 -53 3q0 15 24.5 36t40.5 23q15 64 56.5 118.5t99.5 54.5q24 0 36.5 -15t12.5 -39q0 -30 -21 -59t-51 -29z" />
    <glyph glyph-name="currency" unicode="&#xa4;" horiz-adv-x="354" 
d="M290 91q15 0 29.5 -29.5t20.5 -54.5q-3 -5 -7 -5q-19 0 -118 99q-43 -39 -76 -39q-20 0 -38 15q-11 -11 -11 -22q0 -9 16 -9q2 0 2 -1q0 -8 -40 -27.5t-53 -19.5q-14 0 -14 12q0 6 5 15t11.5 17.5t17 20.5t17.5 18.5t17.5 17l11.5 11.5q-14 55 23 105q-1 1 -10 8.5
t-14.5 12t-13.5 9t-13 4.5q-9 0 -9 -16v-1q0 -1 -1 -1q-10 0 -28.5 39.5t-18.5 52.5q0 15 11 15q8 0 20.5 -8t28 -22t27 -25t26.5 -26.5t17 -17.5q44 35 71 35q20 0 34 -11q17 17 17 30l-2 1q-2 2 0 4q9 12 31 22q25 16 55 22q4 -1 4 -7q0 -20 -83 -103q6 -18 6 -36
q0 -29 -22 -68q37 -37 53 -37zM196 106q14 26 14 52q0 30 -14.5 52t-43.5 22q-3 0 -11 -2q-6 -2 -10 -21.5t-4 -29.5q0 -30 14.5 -52.5t42.5 -22.5q4 0 12 2z" />
    <glyph glyph-name="yen" unicode="&#xa5;" horiz-adv-x="354" 
d="M215 200l-8 -30h89q4 0 4 -3q0 -19 -67 -62q2 0 11 0.5t17.5 0.5h18t15 -1.5t5.5 -3.5q0 -12 -30 -37t-43 -25h-44l-7 -41h-100l8 41h-80q-4 0 -4 4q0 12 24.5 31.5t42.5 29.5q-2 0 -11 -0.5t-17.5 -0.5h-18t-15 1.5t-5.5 3.5q0 23 35.5 42.5t59.5 19.5q-29 4 -52.5 21
t-23.5 42q0 14 7.5 42.5t7.5 43.5q0 34 -26 52l72 60q27 -18 27 -51q0 -15 -8.5 -43.5t-8.5 -42.5q0 -31 32 -47.5t66 -16.5t66 12q6 22 6 33q0 45 -36 106q34 31 72 60q35 -58 35 -109q0 -29 -44 -77.5t-72 -54.5z" />
    <glyph glyph-name="brokenbar" unicode="&#xa6;" horiz-adv-x="114" 
d="M78 510v-178q-10 -17 -33 -39t-39 -22q-5 0 -5 4v178q10 17 33 39.5t39 22.5q5 0 5 -5zM77 231v-166q-12 -19 -33.5 -40.5t-38.5 -21.5q-5 0 -5 5v166q10 17 33 39.5t39 22.5q5 0 5 -5z" />
    <glyph glyph-name="section" unicode="&#xa7;" horiz-adv-x="243" 
d="M123 398q0 -21 15.5 -38t34 -27t34 -25.5t15.5 -34.5q0 -39 -61 -85q13 -16 13 -37q0 -39 -44.5 -81t-83.5 -42q-5 0 -14.5 3t-9.5 6t3 4q5 2 20 5.5t21.5 6.5t15.5 9t12.5 15.5t3.5 23.5q0 20 -15.5 37t-34 27t-34 26t-15.5 34q0 38 62 86q-14 14 -14 36q0 39 45 81
t84 42q5 0 14.5 -3t9.5 -7q0 -1 -8 -3t-18.5 -4.5t-13.5 -3.5q-16 -6 -26.5 -20t-10.5 -31zM71 278q0 -15 11.5 -28t36 -29t27.5 -18q4 7 4 18q0 14 -11.5 27t-35.5 29l-27 18q-5 -8 -5 -17z" />
    <glyph glyph-name="dieresis" unicode="&#xa8;" horiz-adv-x="219" 
d="M32 448q-18 0 -25 7.5t-7 24.5q0 14 23.5 34.5t37.5 20.5q9 0 16.5 -14t7.5 -24q0 -24 -14.5 -36.5t-38.5 -12.5zM178 535q9 0 16.5 -14t7.5 -24q0 -24 -14.5 -36.5t-38.5 -12.5q-32 0 -32 23v9q0 14 23.5 34.5t37.5 20.5z" />
    <glyph glyph-name="copyright" unicode="&#xa9;" horiz-adv-x="301" 
d="M286 253q0 -56 -54 -107.5t-110 -51.5q-51 0 -87 34t-36 84q0 59 54.5 110t113.5 51q47 0 83 -36.5t36 -83.5zM233 214q0 45 -34.5 79.5t-79.5 34.5q-67 0 -67 -74q0 -45 33.5 -80t78.5 -35q25 0 48 11q21 28 21 64zM198 259q-2 -6 -12.5 -15t-16.5 -9q-2 0 -2 1
q-4 19 -11 27.5t-25 8.5h-6q-9 -22 -9 -33q0 -17 10 -31t26 -14q4 0 10 2.5t9 2.5q-2 -11 -18.5 -21t-28.5 -10q-19 0 -28 14.5t-9 34.5q0 26 24 54t50 28q15 0 24.5 -12t12.5 -28z" />
    <glyph glyph-name="ordfeminine" unicode="&#xaa;" horiz-adv-x="159" 
d="M144 432q0 -6 -8 -34.5t-8 -44.5q0 -27 15 -27q5 0 5 -2q0 -9 -12.5 -18.5t-22.5 -9.5q-17 0 -19 24q-25 -25 -52 -25q-20 0 -30.5 15.5t-10.5 36.5q0 30 25.5 61.5t55.5 31.5q24 0 35 -20q9 8 25 14q2 0 2 -2zM83 325q9 17 9 36q0 20 -10 35t-29 15q-2 0 -4.5 -0.5
t-4.5 -0.5q-9 -15 -9 -36q0 -20 10 -35.5t29 -15.5q1 0 9 2z" />
    <glyph glyph-name="guillemotleft" unicode="&#xab;" horiz-adv-x="352" 
d="M128 110q-19 0 -35 13.5t-25.5 30.5t-27 32t-40.5 18q-3 0 -3 3q0 14 21.5 25.5t37.5 15.5q9 8 28.5 34.5t40 42.5t48.5 16q3 0 3 -3q0 -13 -21 -26t-36 -16q-5 -6 -14 -17.5t-17 -21t-16 -17.5q19 -9 40 -39q25 -42 61 -48q3 -1 3 -3q0 -9 -19.5 -24.5t-28.5 -15.5z
M280 341q9 0 28 -15.5t19 -24.5q0 -1 -2 -3q-16 -4 -27.5 -11t-17 -13.5t-17.5 -23.5q-21 -31 -39 -39q10 -11 25 -30t21 -26q15 -3 36 -16t21 -26q0 -3 -2 -3q-28 0 -49 16t-40 42.5t-28 34.5q-17 3 -38 15t-21 26q0 3 3 3q23 3 40.5 18t26.5 32t25 30.5t36 13.5z" />
    <glyph glyph-name="logicalnot" unicode="&#xac;" horiz-adv-x="387" 
d="M376 203v-144l-4 -4q-13 0 -37.5 29.5t-24.5 43.5v15l-8 -2h-299l-4 4q0 12 30.5 37t42.5 25h292q12 1 12 -4z" />
    <glyph glyph-name="registered" unicode="&#xae;" horiz-adv-x="186" 
d="M0 388q0 37 32.5 67t70.5 30q30 0 51.5 -21t21.5 -52q0 -36 -32.5 -67t-69.5 -31q-30 0 -52 21.5t-22 52.5zM104 342q40 0 40 46q0 30 -21.5 50t-51.5 20q-39 0 -39 -46q0 -30 21 -50t51 -20zM113 419q0 -2 -1.5 -4.5t-3.5 -4t-5 -4t-4 -3.5q1 -2 4 -4.5t4.5 -4.5t3 -6
t1.5 -9v-5l-11 -9q0 12 -7.5 22t-7.5 11h-4q-2 -6 -2 -10q0 -7 5 -7q1 0 1 -1q0 -3 -5.5 -6t-8.5 -3q-9 0 -9 9q0 6 4 19t4 21v5l-1 1q-2 0 -2 1q0 3 4.5 5.5t7.5 2.5h26q1 0 1 -1q6 -4 6 -15zM87 422l-3 -15q14 0 17 3l-1 2q0 2 -1 5.5t-1 6.5q0 2 -2 2h-8v-2z" />
    <glyph glyph-name="degree" unicode="&#xb0;" horiz-adv-x="198" 
d="M0 388q0 37 32.5 67t70.5 30q30 0 51.5 -21t21.5 -52q0 -36 -32.5 -67t-69.5 -31q-30 0 -52 21.5t-22 52.5zM104 342q40 0 40 46q0 30 -21.5 50t-51.5 20q-39 0 -39 -46q0 -30 21 -50t51 -20z" />
    <glyph glyph-name="plusminus" unicode="&#xb1;" 
d="M90 191q-4 0 -4 5v82h-83q-4 0 -4 4q0 19 33.5 40.5t53.5 21.5v26q0 12 30 36.5t44 24.5q4 0 4 -4v-83h82q4 0 4 -3q0 -19 -33 -41t-53 -22v-25q0 -12 -30 -37t-44 -25zM71 141h174q3 0 3 -3q0 -12 -30 -37.5t-42 -25.5h-174q-5 0 -5 4q0 12 30.5 37t43.5 25z" />
    <glyph glyph-name="twosuperior" unicode="&#xb2;" horiz-adv-x="125" 
d="M0 304q5 19 68 54v1q15 13 15 30q0 26 -38 26q2 -8 -12.5 -22t-21.5 -14q-2 0 -2 2q0 3 8.5 17t8.5 15q25 29 54 29q33 0 33 -29q0 -34 -54 -75h14q25 0 25 -6q0 -4 -13 -14t-17 -10t-12.5 2t-13.5 2q-15 0 -26 -4t-16 -4z" />
    <glyph glyph-name="threesuperior" unicode="&#xb3;" horiz-adv-x="123" 
d="M65 398q2 0 6.5 0.5t6.5 0.5q25 0 25 -27q0 -23 -25.5 -45t-50.5 -22q-9 0 -18 7.5t-9 16.5q0 6 13 16.5t17 10.5l1 -1q7 -15 10 -18q7 -5 15 -5q9 0 12 1q3 4 3 17q0 22 -20 22q-9 0 -26 -7.5t-24 -7.5q-2 0 -2 2q0 6 14.5 17.5t35 24t21.5 13.5h-8q-8 0 -26.5 -1
t-27.5 -1q-2 0 -2 1q0 4 5 9q10 10 25.5 14.5t22.5 4.5h30q18 0 18 -3q0 -14 -42 -40z" />
    <glyph glyph-name="acute" unicode="&#xb4;" horiz-adv-x="147" 
d="M47 437h-3q-8 0 -26 14t-18 22q0 1 35 47t39 51q1 1 3 1q7 0 25.5 -15t18.5 -21q0 -2 -17.5 -24.5t-36 -46.5t-20.5 -28z" />
    <glyph glyph-name="mu" unicode="&#xb5;" horiz-adv-x="270" 
d="M244 62q8 0 8 -3q0 -16 -27 -37.5t-44 -21.5q-36 0 -42 37q-25 -25 -62 -33v-80q-11 -19 -33 -40t-39 -21q-5 0 -5 5v197q0 27 15.5 78t15.5 76q0 14 -8.5 22t-8.5 10q0 16 25 33t43 22q21 -10 21 -37q0 -18 -8 -39q-8 -29 -14.5 -70t-8.5 -50q0 -24 8 -34.5t31 -13.5
q8 0 26 9q0 25 15 75t15 73q0 14 -8 22t-8 10q0 16 23.5 32t43.5 23q21 -9 21 -37q0 -18 -9.5 -70t-20.5 -89q-4 -18 5 -33t30 -15z" />
    <glyph glyph-name="paragraph" unicode="&#xb6;" horiz-adv-x="258" 
d="M230 485v-561q0 -9 -22 -27.5t-32 -18.5q-3 0 -3 3v343h-19v-311l-16 -17l-13 -4v332h-10v-311l-16 -17l-13 -4v339q-39 13 -63.5 47.5t-24.5 75.5q0 54 39 92.5t92 38.5h101z" />
    <glyph glyph-name="periodcentered" unicode="&#xb7;" horiz-adv-x="112" 
d="M16 474q0 15 -8 21.5t-8 9.5q0 12 26.5 34t38.5 22q11 0 17.5 -13t6.5 -24q0 -12 -5 -27q-4 -17 -27 -37t-40 -20q-5 0 -5 3q0 5 2 15t2 16z" />
    <glyph glyph-name="cedilla" unicode="&#xb8;" horiz-adv-x="185" 
d="M128 -81q39 -14 39 -51q0 -44 -52.5 -80.5t-99.5 -36.5q-4 0 -4 2q0 15 31 39.5t47 24.5q-2 9 -14 24.5t-19 11.5l-5 6v73q0 11 30.5 36.5t42.5 25.5q3 0 4.5 -6.5t1.5 -16.5t-0.5 -20t-1 -19.5t-0.5 -12.5z" />
    <glyph glyph-name="onesuperior" unicode="&#xb9;" horiz-adv-x="73" 
d="M65 444q0 -18 -20 -118q11 0 11 -2q0 -4 -13 -14.5t-17 -10.5h-24q-2 0 -2 1q0 3 7 9.5t10 8.5q2 18 7.5 50t7.5 42q-5 -3 -7 -3t-2 2t4 7t6 6h1q2 6 13 15t17 9q1 0 1 -2z" />
    <glyph glyph-name="ordmasculine" unicode="&#xba;" horiz-adv-x="222" 
d="M134 483q33 0 51 -26.5t18 -60.5q0 -49 -42.5 -97.5t-89.5 -48.5q-29 0 -49.5 22.5t-20.5 51.5q0 49 43 104t90 55zM133 298q16 21 16 57q0 30 -16.5 55.5t-44.5 25.5q-11 0 -15 -1q-16 -28 -16 -58q0 -31 16.5 -56.5t45.5 -25.5q7 0 14 3z" />
    <glyph glyph-name="guillemotright" unicode="&#xbb;" horiz-adv-x="348" 
d="M196 340q19 0 35 -13t25.5 -29.5t27.5 -32t40 -19.5q2 0 2 -3q0 -13 -21 -25.5t-37 -15.5q-9 -8 -28.5 -34t-40 -42t-48.5 -16q-2 0 -2 3q0 13 20.5 25.5t36.5 15.5q38 48 46 56q-17 8 -40 39q-2 2 -6.5 8.5t-6 9t-5.5 7.5t-6.5 7t-7 5t-8.5 5t-9.5 3.5t-11.5 2.5
q-2 2 -2 3q0 9 18.5 24.5t28.5 15.5zM44 110q-9 0 -28 15t-19 24q0 3 2 3q16 2 28 10t17.5 14.5t16.5 23.5q21 30 40 39q-7 7 -47 57q-12 0 -34.5 14.5t-22.5 26.5q0 3 2 3q28 0 49 -17t39.5 -42t28.5 -33q59 -18 59 -42q0 -3 -2 -3q-23 -3 -41 -18t-27.5 -31.5t-25 -30
t-35.5 -13.5z" />
    <glyph glyph-name="onequarter" unicode="&#xbc;" horiz-adv-x="360" 
d="M67 252h-34q-2 0 -2 2q0 5 22 27l23 130q-4 -3 -8 -3t-4 2q37 54 58 54h2q0 -19 -14 -92t-15 -82q15 0 15 -2q0 -7 -17.5 -21.5t-25.5 -14.5zM242 -35q-3 0 -3 2q0 17 6 47q-8 0 -24.5 -0.5t-23.5 -0.5q-36 0 -36 4q0 3 31.5 51.5t31.5 62.5q0 7 17 21.5t25 14.5
q3 0 3 -3q0 -17 -60 -111l46 -1q25 76 59 76q1 0 2 -1l1 -1l-1 -4q-2 -7 -8 -20t-8 -18q-7 -23 -16 -83q-2 -8 -18.5 -22t-23.5 -14zM-10 -35q-2 0 -2 3q0 1 14.5 27t30.5 53.5t20 31.5q10 16 56 98.5t87.5 155.5t48.5 80q14 14 44.5 32t45.5 18v-3l-64 -112
q-185 -326 -193 -334q-11 -11 -43.5 -30.5t-44.5 -19.5z" />
    <glyph glyph-name="onehalf" unicode="&#xbd;" horiz-adv-x="370" 
d="M235 -23h-23q-10 0 -22.5 -5.5t-17.5 -6.5l-1 2q0 11 20 26t46.5 30.5t32.5 20.5q20 22 20 45q0 17 -11.5 27t-29.5 10q-8 0 -12 -1q-1 0 -7.5 -12.5t-18 -25.5t-23.5 -13q-3 0 -3 3q0 26 37 56.5t65 30.5q48 0 48 -42q0 -26 -26 -58t-53 -47q56 0 56 -9q0 -8 -17 -23
t-26 -15q-4 0 -16 3.5t-18 3.5zM77 252h-35q-2 0 -2 2q0 4 23 27l23 130l-9 -3q-3 0 -3 2q37 54 57 54h3q0 -18 -14 -90t-16 -84q15 0 15 -2q0 -7 -17 -21.5t-25 -14.5zM0 -35q-3 0 -3 3q0 2 31.5 54t33.5 58q10 17 56 99t88 155t49 80q10 13 42.5 31.5t46.5 18.5q1 0 1 -3
l-64 -112q-8 -15 -56 -97.5t-91.5 -157.5t-45.5 -79q-12 -12 -44 -31t-44 -19z" />
    <glyph glyph-name="threequarters" unicode="&#xbe;" horiz-adv-x="371" 
d="M128 464q27 0 27 -4q0 -10 -22.5 -29t-38.5 -29q15 3 19 3q35 0 35 -39q0 -35 -36.5 -66t-71.5 -31q-15 0 -27 11t-12 25q0 8 17.5 22t25.5 14h1q7 -20 14 -27q8 -7 21 -7q14 0 19 3q4 5 4 23q0 33 -29 33q-15 0 -39 -11t-33 -11q-3 0 -3 3q0 9 21 25t49 33t32 20
q-3 1 -12 1q-12 0 -38.5 -1.5t-39.5 -1.5q-2 0 -2 2q0 4 8 12q7 8 15.5 13.5t16 8t20 4t18.5 2t21.5 0t19.5 -0.5zM253 -35q-2 0 -2 2q0 17 6 47q-8 0 -24 -0.5t-24 -0.5q-35 0 -35 4t31 51.5t31 62.5q0 7 17 21.5t25 14.5q3 0 3 -5q0 -12 -23.5 -53.5t-36.5 -55.5
q18 -2 27 -2l20 1q25 76 58 76q1 0 2 -1l1 -1l-1 -4q-23 -68 -32 -121q-1 -9 -18 -22.5t-25 -13.5zM2 -35q-2 0 -2 3q0 1 14.5 27t31 54t19.5 31q17 34 100.5 180t91.5 154q17 14 47 32t43 18v-3l-64 -112q-10 -15 -56.5 -98t-89 -157t-47.5 -79q-12 -12 -44 -31t-44 -19z
" />
    <glyph glyph-name="questiondown" unicode="&#xbf;" horiz-adv-x="336" 
d="M227 475q32 0 32 -29q0 -16 -22 -36.5t-37 -20.5q-13 0 -20 11t-7 25q0 22 16 36t38 14zM319 208q0 -15 -53 -97q-81 -90 -165 -90q-43 0 -72.5 23t-29.5 65q0 56 77 149t121 93q18 0 18 -11q0 -10 -18.5 -25t-41.5 -29.5t-41.5 -42.5t-18.5 -61q0 -37 26 -59t64 -22
q12 0 17 3q3 1 19 29t41 54t52 26q5 0 5 -5z" />
    <glyph glyph-name="Agrave" unicode="&#xc0;" horiz-adv-x="395" 
d="M166 51q0 -18 -41.5 -35.5t-62.5 -17.5q-26 0 -43 12.5t-17 36.5q0 39 68 157t68 164q0 9 -4 14.5t-4 6.5q0 15 35 31t53 16h41q16 0 28.5 -6.5t19.5 -20t11.5 -25.5t6 -33t2 -32t0 -33t-0.5 -26q0 -6 -2 -36t-1.5 -52.5t4 -49.5t15.5 -42t32 -15q9 0 9 -5q0 -25 -29 -44
t-55 -19q-25 0 -41 10t-23.5 30t-10 35t-3.5 41h-82q-5 -15 -5 -28q0 -15 8 -21.5t16 -8t8 -4.5zM222 277q-17 -35 -55 -101h55q-1 9 0.5 28t1.5 27q0 14 -2 46zM257 623q0 -8 -17.5 -22t-25.5 -14h-3q-2 4 -20.5 28t-36 46.5t-17.5 24.5q0 6 18 21t26 15q1 0 2 -1
q2 -4 38 -49.5t36 -48.5z" />
    <glyph glyph-name="Aacute" unicode="&#xc1;" horiz-adv-x="395" 
d="M166 51q0 -18 -41.5 -35.5t-62.5 -17.5q-26 0 -43 12.5t-17 36.5q0 39 68 157t68 164q0 9 -4 14.5t-4 6.5q0 15 35 31t53 16h41q16 0 28.5 -6.5t19.5 -20t11.5 -25.5t6 -33t2 -32t0 -33t-0.5 -26q0 -6 -2 -36t-1.5 -52.5t4 -49.5t15.5 -42t32 -15q9 0 9 -5q0 -25 -29 -44
t-55 -19q-25 0 -41 10t-23.5 30t-10 35t-3.5 41h-82q-5 -15 -5 -28q0 -15 8 -21.5t16 -8t8 -4.5zM222 277q-17 -35 -55 -101h55q-1 9 0.5 28t1.5 27q0 14 -2 46zM184 587h-3q-8 0 -26 14t-18 22q0 1 35 47t39 51q1 1 3 1q7 0 25.5 -15t18.5 -21q0 -2 -17.5 -24.5t-36 -46.5
t-20.5 -28z" />
    <glyph glyph-name="Acircumflex" unicode="&#xc2;" horiz-adv-x="395" 
d="M166 51q0 -18 -41.5 -35.5t-62.5 -17.5q-26 0 -43 12.5t-17 36.5q0 39 68 157t68 164q0 9 -4 14.5t-4 6.5q0 15 35 31t53 16h41q16 0 28.5 -6.5t19.5 -20t11.5 -25.5t6 -33t2 -32t0 -33t-0.5 -26q0 -6 -2 -36t-1.5 -52.5t4 -49.5t15.5 -42t32 -15q9 0 9 -5q0 -25 -29 -44
t-55 -19q-25 0 -41 10t-23.5 30t-10 35t-3.5 41h-82q-5 -15 -5 -28q0 -15 8 -21.5t16 -8t8 -4.5zM222 277q-17 -35 -55 -101h55q-1 9 0.5 28t1.5 27q0 14 -2 46zM299 623q0 -8 -18 -22t-27 -14q-2 0 -56 72l-56 -72q-9 0 -27 14t-18 22q0 1 35 47t39 51q3 3 26 3
q4 0 8.5 -0.5t10 -1.5t8.5 -1q2 -3 22 -27.5t36.5 -46.5t16.5 -24z" />
    <glyph glyph-name="Atilde" unicode="&#xc3;" horiz-adv-x="395" 
d="M166 51q0 -18 -41.5 -35.5t-62.5 -17.5q-26 0 -43 12.5t-17 36.5q0 39 68 157t68 164q0 9 -4 14.5t-4 6.5q0 15 35 31t53 16h41q16 0 28.5 -6.5t19.5 -20t11.5 -25.5t6 -33t2 -32t0 -33t-0.5 -26q0 -6 -2 -36t-1.5 -52.5t4 -49.5t15.5 -42t32 -15q9 0 9 -5q0 -25 -29 -44
t-55 -19q-25 0 -41 10t-23.5 30t-10 35t-3.5 41h-82q-5 -15 -5 -28q0 -15 8 -21.5t16 -8t8 -4.5zM222 277q-17 -35 -55 -101h55q-1 9 0.5 28t1.5 27q0 14 -2 46zM125 638q-8 0 -15 -3t-16.5 -9.5t-13.5 -8.5q-3 0 -3 2q0 14 34 35t50 21q21 0 59 -21.5t52 -19.5q10 1 16.5 3
t9.5 4t9 6.5t9 6.5q1 1 1 -2q0 -14 -32.5 -34.5t-48.5 -20.5q-20 0 -53 21.5t-58 19.5z" />
    <glyph glyph-name="Adieresis" unicode="&#xc4;" horiz-adv-x="395" 
d="M166 51q0 -18 -41.5 -35.5t-62.5 -17.5q-26 0 -43 12.5t-17 36.5q0 39 68 157t68 164q0 9 -4 14.5t-4 6.5q0 15 35 31t53 16h41q16 0 28.5 -6.5t19.5 -20t11.5 -25.5t6 -33t2 -32t0 -33t-0.5 -26q0 -6 -2 -36t-1.5 -52.5t4 -49.5t15.5 -42t32 -15q9 0 9 -5q0 -25 -29 -44
t-55 -19q-25 0 -41 10t-23.5 30t-10 35t-3.5 41h-82q-5 -15 -5 -28q0 -15 8 -21.5t16 -8t8 -4.5zM222 277q-17 -35 -55 -101h55q-1 9 0.5 28t1.5 27q0 14 -2 46zM128 598q-18 0 -24.5 7t-6.5 25q0 14 23.5 34.5t36.5 20.5q11 0 17.5 -13.5t6.5 -24.5q0 -24 -14.5 -36.5
t-38.5 -12.5zM274 685q11 0 17.5 -13.5t6.5 -24.5q0 -24 -14.5 -36.5t-38.5 -12.5q-31 0 -31 23v9q0 14 23.5 34.5t36.5 20.5z" />
    <glyph glyph-name="Aring" unicode="&#xc5;" horiz-adv-x="395" 
d="M166 51q0 -18 -41.5 -35.5t-62.5 -17.5q-26 0 -43 12.5t-17 36.5q0 39 68 157t68 164q0 9 -4 14.5t-4 6.5q0 15 35 31t53 16h41q16 0 28.5 -6.5t19.5 -20t11.5 -25.5t6 -33t2 -32t0 -33t-0.5 -26q0 -6 -2 -36t-1.5 -52.5t4 -49.5t15.5 -42t32 -15q9 0 9 -5q0 -25 -29 -44
t-55 -19q-25 0 -41 10t-23.5 30t-10 35t-3.5 41h-82q-5 -15 -5 -28q0 -15 8 -21.5t16 -8t8 -4.5zM222 277q-17 -35 -55 -101h55q-1 9 0.5 28t1.5 27q0 14 -2 46zM125 641q0 30 27 55t57 25q25 0 43.5 -17.5t18.5 -42.5q0 -30 -27.5 -55.5t-56.5 -25.5q-27 0 -44.5 17
t-17.5 44zM207 616q25 0 25 28q0 18 -13.5 30t-32.5 12q-23 0 -23 -27q0 -20 12.5 -31.5t31.5 -11.5z" />
    <glyph glyph-name="AE" unicode="&#xc6;" horiz-adv-x="585" 
d="M359 446l181 -1q28 -28 28 -56q0 -16 -31 -36.5t-49 -23.5q-4 3 -9 24t-17 27h-55q-7 -54 -21 -112h114l-77 -65h-54q-15 -62 -15 -89q0 -21 14.5 -33t40 -15.5t47.5 -4t51.5 1.5t37.5 2l-77 -65q-28 0 -85 -1.5t-87 -1.5q-23 0 -38 11t-22 31.5t-9 36t-4 39.5h-83
q-6 -18 -6 -29q0 -26 30 -30l1 -1q2 -1 2 -2q0 -19 -42 -37t-65 -18q-26 0 -43 13.5t-17 38.5q0 32 35 94.5t69.5 129t34.5 108.5q0 2 -1.5 5t-2.5 4.5t-3 2.5l-1 2q0 25 39.5 36t71.5 11q5 0 14.5 0.5t14 0.5t11.5 -1.5t13 -5t12 -9.5q25 18 52 18zM168 179h56q0 10 1 28.5
t1 28.5q0 15 -2 47q-3 -6 -56 -104z" />
    <glyph glyph-name="Ccedilla" unicode="&#xc7;" horiz-adv-x="381" 
d="M59 -3q-28 0 -43.5 17.5t-15.5 46.5q0 46 26.5 136t26.5 138q0 11 -4 22t-8 17l-4 7q0 20 31 37.5t53 17.5l175 -1q14 -8 26.5 -38.5t12.5 -49.5q0 -27 -22 -51t-49 -24l-10 6q3 15 3 17q0 15 -12 42t-24 35h-54q-2 -34 -25 -111t-23 -110q0 -32 26 -50t59 -18
q39 0 46.5 6t7.5 39q0 13 32.5 48t43.5 35q6 0 8 -5.5t0.5 -12t0.5 -11.5q1 -11 10 -32.5t9 -36.5q0 -16 -9.5 -31.5t-18 -23.5t-26.5 -23q-24 -20 -59 -29.5t-57.5 -10.5t-72 0.5t-60.5 1.5zM230 -81q39 -14 39 -51q0 -44 -52.5 -80.5t-99.5 -36.5q-4 0 -4 2q0 15 31 39.5
t47 24.5q-2 9 -14 24.5t-19 11.5l-5 6v73q0 11 30.5 36.5t42.5 25.5q3 0 4.5 -6.5t1.5 -16.5t-0.5 -20t-1 -19.5t-0.5 -12.5z" />
    <glyph glyph-name="Egrave" unicode="&#xc8;" horiz-adv-x="345" 
d="M-1 61q0 46 27 137t27 138q0 13 -5 30q0 3 -6 7.5t-6 6.5q0 21 31.5 38.5t54.5 17.5l175 -1q27 -27 27 -52q0 -15 -30 -38.5t-46 -23.5h-2q-3 3 -7 22.5t-18 28.5h-54q-7 -64 -21 -110h112l-76 -63h-52q-15 -60 -15 -85q0 -28 9 -38q3 -6 20.5 -9.5t43 -4t47.5 -0.5
t44 0.5t23 0.5q-13 -10 -38 -31.5t-37 -31.5q-29 0 -84.5 -1.5t-83.5 -1.5q-29 0 -44.5 17t-15.5 47zM233 623q0 -8 -17.5 -22t-26.5 -14h-2q-5 5 -39.5 51t-34.5 48q0 6 18 21t25 15q1 0 2 -1q6 -6 40.5 -50.5t34.5 -47.5z" />
    <glyph glyph-name="Eacute" unicode="&#xc9;" horiz-adv-x="345" 
d="M-1 61q0 46 27 137t27 138q0 13 -5 30q0 3 -6 7.5t-6 6.5q0 21 31.5 38.5t54.5 17.5l175 -1q27 -27 27 -52q0 -15 -30 -38.5t-46 -23.5h-2q-3 3 -7 22.5t-18 28.5h-54q-7 -64 -21 -110h112l-76 -63h-52q-15 -60 -15 -85q0 -28 9 -38q3 -6 20.5 -9.5t43 -4t47.5 -0.5
t44 0.5t23 0.5q-13 -10 -38 -31.5t-37 -31.5q-29 0 -84.5 -1.5t-83.5 -1.5q-29 0 -44.5 17t-15.5 47zM156 587q-9 0 -26.5 14t-17.5 22q0 1 17 24t35.5 47t21.5 27q1 1 2 1q8 0 26 -15t18 -21q0 -2 -34 -48t-40 -51h-2z" />
    <glyph glyph-name="Ecircumflex" unicode="&#xca;" horiz-adv-x="345" 
d="M-1 61q0 46 27 137t27 138q0 13 -5 30q0 3 -6 7.5t-6 6.5q0 21 31.5 38.5t54.5 17.5l175 -1q27 -27 27 -52q0 -15 -30 -38.5t-46 -23.5h-2q-3 3 -7 22.5t-18 28.5h-54q-7 -64 -21 -110h112l-76 -63h-52q-15 -60 -15 -85q0 -28 9 -38q3 -6 20.5 -9.5t43 -4t47.5 -0.5
t44 0.5t23 0.5q-13 -10 -38 -31.5t-37 -31.5q-29 0 -84.5 -1.5t-83.5 -1.5q-29 0 -44.5 17t-15.5 47zM273 623q0 -8 -17.5 -22t-26.5 -14q-52 64 -56 72q-3 -3 -17 -21.5t-26.5 -34.5t-13.5 -16q-9 0 -27 14t-18 22q0 1 17 24t36 47t22 27t26 3q4 0 8.5 -0.5t10 -1.5t8.5 -1
q2 -3 21.5 -28t36 -46.5t16.5 -23.5z" />
    <glyph glyph-name="Edieresis" unicode="&#xcb;" horiz-adv-x="345" 
d="M-1 61q0 46 27 137t27 138q0 13 -5 30q0 3 -6 7.5t-6 6.5q0 21 31.5 38.5t54.5 17.5l175 -1q27 -27 27 -52q0 -15 -30 -38.5t-46 -23.5h-2q-3 3 -7 22.5t-18 28.5h-54q-7 -64 -21 -110h112l-76 -63h-52q-15 -60 -15 -85q0 -28 9 -38q3 -6 20.5 -9.5t43 -4t47.5 -0.5
t44 0.5t23 0.5q-13 -10 -38 -31.5t-37 -31.5q-29 0 -84.5 -1.5t-83.5 -1.5q-29 0 -44.5 17t-15.5 47zM103 598q-18 0 -25 7.5t-7 24.5q0 14 23.5 34.5t37.5 20.5q9 0 16.5 -14t7.5 -24q0 -24 -14.5 -36.5t-38.5 -12.5zM249 685q9 0 16.5 -14t7.5 -24q0 -24 -14.5 -36.5
t-38.5 -12.5q-32 0 -32 23v9q0 14 23.5 34.5t37.5 20.5z" />
    <glyph glyph-name="Igrave" unicode="&#xcc;" horiz-adv-x="188" 
d="M0 60q0 46 26.5 137t26.5 139q0 23 -8 34l-8 11q0 19 30.5 37t51.5 18q49 0 49 -49q0 -47 -26 -138t-26 -137q0 -47 36 -47q4 0 4 -3q0 -24 -35.5 -44.5t-61.5 -20.5q-29 0 -44 17t-15 46zM154 623q0 -8 -17.5 -22t-26.5 -14h-2q-6 5 -40 51t-34 48q0 6 18 21t25 15
q1 0 2 -1q6 -6 40.5 -50.5t34.5 -47.5z" />
    <glyph glyph-name="Iacute" unicode="&#xcd;" horiz-adv-x="188" 
d="M0 60q0 46 26.5 137t26.5 139q0 23 -8 34l-8 11q0 19 30.5 37t51.5 18q49 0 49 -49q0 -47 -26 -138t-26 -137q0 -47 36 -47q4 0 4 -3q0 -24 -35.5 -44.5t-61.5 -20.5q-29 0 -44 17t-15 46zM78 587q-9 0 -26.5 14t-17.5 22q0 1 17 24t35.5 47t21.5 27q1 1 2 1q8 0 26 -15
t18 -21q0 -2 -34 -48t-40 -51h-2z" />
    <glyph glyph-name="Icircumflex" unicode="&#xce;" horiz-adv-x="188" 
d="M0 60q0 46 26.5 137t26.5 139q0 23 -8 34l-8 11q0 19 30.5 37t51.5 18q49 0 49 -49q0 -47 -26 -138t-26 -137q0 -47 36 -47q4 0 4 -3q0 -24 -35.5 -44.5t-61.5 -20.5q-29 0 -44 17t-15 46zM195 623q0 -8 -17.5 -22t-26.5 -14q-52 64 -56 72q-3 -3 -17 -21.5t-26.5 -34.5
t-13.5 -16q-9 0 -27 14t-18 22q0 1 17 24t36 47t22 27t26 3q4 0 8.5 -0.5t10 -1.5t8.5 -1q2 -3 21.5 -28t36 -46.5t16.5 -23.5z" />
    <glyph glyph-name="Idieresis" unicode="&#xcf;" horiz-adv-x="188" 
d="M0 60q0 46 26.5 137t26.5 139q0 23 -8 34l-8 11q0 19 30.5 37t51.5 18q49 0 49 -49q0 -47 -26 -138t-26 -137q0 -47 36 -47q4 0 4 -3q0 -24 -35.5 -44.5t-61.5 -20.5q-29 0 -44 17t-15 46zM25 598q-18 0 -25 7.5t-7 24.5q0 14 23.5 34.5t37.5 20.5q9 0 16.5 -14t7.5 -24
q0 -24 -14.5 -36.5t-38.5 -12.5zM171 685q9 0 16.5 -14t7.5 -24q0 -24 -14.5 -36.5t-38.5 -12.5q-32 0 -32 23v9q0 14 23.5 34.5t37.5 20.5z" />
    <glyph glyph-name="Eth" unicode="&#xd0;" horiz-adv-x="400" 
d="M120 437q173 0 184 -3q30 -14 52 -102.5t22 -137.5q0 -78 -63 -139t-142 -61q-16 0 -47.5 3.5t-47.5 3.5q-41 0 -59 11t-18 50q0 19 4.5 39.5t11 44t9.5 36.5q-24 0 -24 3q0 9 12.5 22.5t23.5 21.5q16 82 16 109q0 24 -9 36q-7 2 -7 6q0 21 30.5 39t51.5 18zM169 98
q46 0 83.5 33t37.5 78q0 28 -22.5 96t-42.5 68h-57q-6 -63 -24 -125h104q4 0 4 -2q0 -13 -29.5 -38.5t-43.5 -25.5h-51q-1 -8 -1 -25q0 -59 42 -59z" />
    <glyph glyph-name="Ntilde" unicode="&#xd1;" horiz-adv-x="381" 
d="M157 62q0 -23 -36 -44t-62 -21q-27 0 -43 17.5t-16 47.5q0 45 26.5 135.5t26.5 139.5q0 16 -3.5 25.5t-7.5 13.5t-4 5q0 19 31 37.5t52 18.5q47 0 47 -51q0 -4 -0.5 -11t-0.5 -10q28 26 70 48.5t72 22.5q28 0 41 -10.5t13 -38.5q0 -47 -26 -138t-26 -137q0 -47 33 -47
q8 0 8 -3q0 -23 -36 -44t-62 -21q-27 0 -43 17.5t-16 47.5q0 45 26.5 135.5t26.5 139.5q0 27 -8 35q-60 -13 -82 -58q-9 -20 -25.5 -100t-16.5 -102q0 -47 33 -47q8 0 8 -3zM118 638q-8 0 -15 -3t-16.5 -9.5t-13.5 -8.5q-3 0 -3 2q0 14 34 35t50 21q21 0 59 -21.5t52 -19.5
q10 1 16.5 3t9.5 4t9 6.5t9 6.5q1 1 1 -2q0 -14 -32.5 -34.5t-48.5 -20.5q-20 0 -53 21.5t-58 19.5z" />
    <glyph glyph-name="Ograve" unicode="&#xd2;" horiz-adv-x="390" 
d="M125 -4q-60 0 -93.5 49t-33.5 111q0 58 35.5 123.5t94 111.5t117.5 46q62 0 96 -50.5t34 -114.5q0 -57 -36.5 -122t-96 -109.5t-117.5 -44.5zM130 345q-30 -49 -30 -108t30 -106.5t86 -47.5q5 0 15 2t13 2q29 46 29 109q0 59 -30 106t-87 47q-18 0 -26 -4zM255 623
q0 -8 -17.5 -22t-25.5 -14h-3q-2 4 -20.5 28t-36 46.5t-17.5 24.5q0 6 18 21t26 15q1 0 2 -1q2 -4 38 -49.5t36 -48.5z" />
    <glyph glyph-name="Oacute" unicode="&#xd3;" horiz-adv-x="390" 
d="M125 -4q-60 0 -93.5 49t-33.5 111q0 58 35.5 123.5t94 111.5t117.5 46q62 0 96 -50.5t34 -114.5q0 -57 -36.5 -122t-96 -109.5t-117.5 -44.5zM130 345q-30 -49 -30 -108t30 -106.5t86 -47.5q5 0 15 2t13 2q29 46 29 109q0 59 -30 106t-87 47q-18 0 -26 -4zM182 587h-3
q-8 0 -26 14t-18 22q0 1 35 47t39 51q1 1 3 1q7 0 25.5 -15t18.5 -21q0 -2 -17.5 -24.5t-36 -46.5t-20.5 -28z" />
    <glyph glyph-name="Ocircumflex" unicode="&#xd4;" horiz-adv-x="390" 
d="M125 -4q-60 0 -93.5 49t-33.5 111q0 58 35.5 123.5t94 111.5t117.5 46q62 0 96 -50.5t34 -114.5q0 -57 -36.5 -122t-96 -109.5t-117.5 -44.5zM130 345q-30 -49 -30 -108t30 -106.5t86 -47.5q5 0 15 2t13 2q29 46 29 109q0 59 -30 106t-87 47q-18 0 -26 -4zM296 623
q0 -8 -17.5 -22t-26.5 -14q-52 64 -56 72q-3 -3 -17 -21.5t-26.5 -34.5t-13.5 -16q-9 0 -27 14t-18 22q0 1 17 24t36 47t22 27t26 3q4 0 8.5 -0.5t10 -1.5t8.5 -1q2 -3 21.5 -28t36 -46.5t16.5 -23.5z" />
    <glyph glyph-name="Otilde" unicode="&#xd5;" horiz-adv-x="390" 
d="M125 -4q-60 0 -93.5 49t-33.5 111q0 58 35.5 123.5t94 111.5t117.5 46q62 0 96 -50.5t34 -114.5q0 -57 -36.5 -122t-96 -109.5t-117.5 -44.5zM130 345q-30 -49 -30 -108t30 -106.5t86 -47.5q5 0 15 2t13 2q29 46 29 109q0 59 -30 106t-87 47q-18 0 -26 -4zM122 638
q-7 0 -14 -3t-16.5 -9t-14.5 -9q-2 0 -2 2q0 14 33.5 35t49.5 21q22 0 60 -21.5t51 -19.5q7 0 12 1.5t8.5 2t7 3t5 3.5t5.5 5t6 5q1 1 1.5 0.5t0.5 -2.5q0 -14 -32.5 -34.5t-49.5 -20.5q-19 0 -52.5 21.5t-58.5 19.5z" />
    <glyph glyph-name="Odieresis" unicode="&#xd6;" horiz-adv-x="390" 
d="M125 -4q-60 0 -93.5 49t-33.5 111q0 58 35.5 123.5t94 111.5t117.5 46q62 0 96 -50.5t34 -114.5q0 -57 -36.5 -122t-96 -109.5t-117.5 -44.5zM130 345q-30 -49 -30 -108t30 -106.5t86 -47.5q5 0 15 2t13 2q29 46 29 109q0 59 -30 106t-87 47q-18 0 -26 -4zM126 598
q-18 0 -24.5 7t-6.5 25q0 14 23.5 34.5t36.5 20.5q11 0 17.5 -13.5t6.5 -24.5q0 -24 -14.5 -36.5t-38.5 -12.5zM272 685q11 0 17.5 -13.5t6.5 -24.5q0 -24 -14.5 -36.5t-38.5 -12.5q-31 0 -31 23v9q0 14 23.5 34.5t36.5 20.5z" />
    <glyph glyph-name="multiply" unicode="&#xd7;" horiz-adv-x="222" 
d="M201 141q0 -10 -30.5 -36t-41.5 -26q-3 0 -55 52q-13 -15 -35.5 -33t-34.5 -18q-4 0 -4 3q0 5 11.5 18.5t27 28.5t17.5 18q-57 57 -57 59q0 11 30.5 36.5t41.5 25.5q4 0 55 -51q3 2 18 17t28.5 24.5t23.5 9.5q4 0 4 -3q0 -10 -56 -66q5 -4 31 -30.5t26 -28.5z" />
    <glyph glyph-name="Oslash" unicode="&#xd8;" horiz-adv-x="435" 
d="M435 450q6 -2 6 -8q0 -25 -66 -91q17 -39 17 -79q0 -83 -73.5 -166.5t-154.5 -83.5q-28 0 -51 14q-3 -2 -20.5 -12t-25.5 -13.5t-22 -8t-26 -4.5q-19 0 -19 15q0 9 8 22.5t16 23t21.5 25t15.5 17.5q-11 29 -11 66q0 83 72 168.5t153 85.5q33 0 58 -19q47 34 102 48z
M169 338q-27 -47 -27 -99q0 -29 7 -53q73 68 114 113l1 2l4 4q-30 36 -75 36zM272 104q27 41 27 99q0 37 -9 61q-14 -11 -65.5 -61t-56.5 -58q30 -44 81 -44q16 0 23 3z" />
    <glyph glyph-name="Ugrave" unicode="&#xd9;" horiz-adv-x="402" 
d="M0 61q0 46 26.5 136t26.5 138q0 28 -9 38l-7 7q0 19 31 38t52 19q48 0 48 -49q0 -47 -26 -138t-26 -137q0 -49 41 -49h136q12 33 12 77q0 83 -48 227q36 32 75 63q48 -129 48 -228q0 -65 -26.5 -104.5t-86.5 -81.5q-10 -9 -27 -15q-22 -6 -54 -7t-74 1t-53 2
q-28 0 -43.5 17.5t-15.5 45.5zM261 623q0 -8 -17.5 -22t-25.5 -14h-3q-2 4 -20.5 28t-36 46.5t-17.5 24.5q0 6 18 21t26 15q1 0 2 -1q2 -4 38 -49.5t36 -48.5z" />
    <glyph glyph-name="Uacute" unicode="&#xda;" horiz-adv-x="402" 
d="M0 61q0 46 26.5 136t26.5 138q0 28 -9 38l-7 7q0 19 31 38t52 19q48 0 48 -49q0 -47 -26 -138t-26 -137q0 -49 41 -49h136q12 33 12 77q0 83 -48 227q36 32 75 63q48 -129 48 -228q0 -65 -26.5 -104.5t-86.5 -81.5q-10 -9 -27 -15q-22 -6 -54 -7t-74 1t-53 2
q-28 0 -43.5 17.5t-15.5 45.5zM188 587h-3q-8 0 -26 14t-18 22q0 1 35 47t39 51q1 1 3 1q7 0 25.5 -15t18.5 -21q0 -2 -17.5 -24.5t-36 -46.5t-20.5 -28z" />
    <glyph glyph-name="Ucircumflex" unicode="&#xdb;" horiz-adv-x="402" 
d="M0 61q0 46 26.5 136t26.5 138q0 28 -9 38l-7 7q0 19 31 38t52 19q48 0 48 -49q0 -47 -26 -138t-26 -137q0 -49 41 -49h136q12 33 12 77q0 83 -48 227q36 32 75 63q48 -129 48 -228q0 -65 -26.5 -104.5t-86.5 -81.5q-10 -9 -27 -15q-22 -6 -54 -7t-74 1t-53 2
q-28 0 -43.5 17.5t-15.5 45.5zM302 623q0 -8 -17.5 -22t-26.5 -14q-52 64 -56 72q-3 -3 -17 -21.5t-26.5 -34.5t-13.5 -16q-9 0 -27 14t-18 22q0 1 17 24t36 47t22 27t26 3l27 -3q2 -3 21.5 -28t36 -46.5t16.5 -23.5z" />
    <glyph glyph-name="Udieresis" unicode="&#xdc;" horiz-adv-x="402" 
d="M0 61q0 46 26.5 136t26.5 138q0 28 -9 38l-7 7q0 19 31 38t52 19q48 0 48 -49q0 -47 -26 -138t-26 -137q0 -49 41 -49h136q12 33 12 77q0 83 -48 227q36 32 75 63q48 -129 48 -228q0 -65 -26.5 -104.5t-86.5 -81.5q-10 -9 -27 -15q-22 -6 -54 -7t-74 1t-53 2
q-28 0 -43.5 17.5t-15.5 45.5zM132 598q-18 0 -24.5 7t-6.5 25q0 14 23.5 34.5t36.5 20.5q11 0 17.5 -13.5t6.5 -24.5q0 -24 -14.5 -36.5t-38.5 -12.5zM278 685q11 0 17.5 -13.5t6.5 -24.5q0 -24 -14.5 -36.5t-38.5 -12.5q-31 0 -31 23v9q0 14 23.5 34.5t36.5 20.5z" />
    <glyph glyph-name="Yacute" unicode="&#xdd;" horiz-adv-x="357" 
d="M-1 388q37 33 75 63q28 -19 28 -53q0 -16 -8 -46t-8 -45q0 -54 93 -54q25 0 49.5 12.5t24.5 34.5q0 53 -27 98q2 2 76 64q36 -68 36 -115q0 -16 -5 -28.5t-11 -19.5t-20 -21q-43 -43 -86 -69q-17 -49 -17 -97q0 -23 7.5 -35t29.5 -12q3 0 3 -4q0 -23 -35.5 -43.5
t-60.5 -20.5q-29 0 -44.5 17.5t-15.5 45.5q0 39 23 116q-29 -2 -62 18t-33 49q0 15 8 45.5t8 46.5q0 34 -28 53zM163 587q-9 0 -26.5 14t-17.5 22q0 1 17 24t35.5 47t21.5 27q1 1 2 1q8 0 26 -15t18 -21q0 -2 -34.5 -48t-39.5 -51h-2z" />
    <glyph glyph-name="Thorn" unicode="&#xde;" horiz-adv-x="225" 
d="M77 416q37 1 64.5 -21.5t41.5 -58.5t20.5 -71.5t6.5 -67.5q0 -45 -23.5 -78t-67.5 -33q-22 0 -42 57v-87q-12 -18 -34 -39.5t-38 -21.5q-5 0 -5 5v446q12 18 33.5 39t37.5 21q4 0 6 -8t2 -20.5t-0.5 -24t-1 -23.5t-0.5 -14zM77 372v-187q79 5 79 87v35q-19 10 -41 10
q-11 0 -38 55z" />
    <glyph glyph-name="germandbls" unicode="&#xdf;" horiz-adv-x="398" 
d="M140 442q176 0 183 -5q36 -56 36 -102q0 -37 -40 -70q3 -5 18.5 -32t22.5 -41t15 -36.5t8 -38.5q0 -15 -13.5 -32.5t-27.5 -30t-37.5 -30t-29.5 -22.5q0 -20 -16 -20q-23 0 -39.5 13t-16.5 36q0 20 10.5 35.5t23.5 23t23.5 19.5t10.5 26q0 28 -32.5 62t-32.5 43
q0 11 11.5 16.5t26 6.5t26 9.5t11.5 26.5q0 22 -15.5 50.5t-35.5 28.5h-42q-9 -75 -25.5 -157t-41.5 -191t-35 -157h-106q6 28 34.5 140.5t44 193t15.5 137.5q0 13 -4 22.5t-8 15t-4 6.5q0 18 30.5 36t51.5 18z" />
    <glyph glyph-name="agrave" unicode="&#xe0;" horiz-adv-x="329" 
d="M198 51q-54 -54 -108 -54q-43 0 -65.5 34t-22.5 78q0 64 55 130t118 66q45 0 73 -43q7 9 24 19.5t27 10.5q6 0 6 -4q0 -11 -18 -71.5t-18 -94.5q0 -60 33 -60q10 0 10 -3q0 -18 -26.5 -38.5t-46.5 -20.5q-34 0 -41 51zM94 242q-21 -28 -21 -77q0 -41 21 -74t60 -33
q4 0 10.5 1.5t8.5 1.5q21 32 21 76q0 41 -21.5 74t-59.5 33q-9 0 -19 -2zM224 473q0 -8 -17.5 -22t-25.5 -14h-3q-2 4 -20.5 28t-36 46.5t-17.5 24.5q0 6 18 21t26 15q1 0 2 -1q2 -4 38 -49.5t36 -48.5z" />
    <glyph glyph-name="aacute" unicode="&#xe1;" horiz-adv-x="329" 
d="M198 51q-54 -54 -108 -54q-43 0 -65.5 34t-22.5 78q0 64 55 130t118 66q45 0 73 -43q7 9 24 19.5t27 10.5q6 0 6 -4q0 -11 -18 -71.5t-18 -94.5q0 -60 33 -60q10 0 10 -3q0 -18 -26.5 -38.5t-46.5 -20.5q-34 0 -41 51zM94 242q-21 -28 -21 -77q0 -41 21 -74t60 -33
q4 0 10.5 1.5t8.5 1.5q21 32 21 76q0 41 -21.5 74t-59.5 33q-9 0 -19 -2zM151 437h-3q-8 0 -26 14t-18 22q0 1 35 47t39 51q1 1 3 1q7 0 25.5 -15t18.5 -21q0 -2 -17.5 -24.5t-36 -46.5t-20.5 -28z" />
    <glyph glyph-name="acircumflex" unicode="&#xe2;" horiz-adv-x="329" 
d="M198 51q-54 -54 -108 -54q-43 0 -65.5 34t-22.5 78q0 64 55 130t118 66q45 0 73 -43q7 9 24 19.5t27 10.5q6 0 6 -4q0 -11 -18 -71.5t-18 -94.5q0 -60 33 -60q10 0 10 -3q0 -18 -26.5 -38.5t-46.5 -20.5q-34 0 -41 51zM94 242q-21 -28 -21 -77q0 -41 21 -74t60 -33
q4 0 10.5 1.5t8.5 1.5q21 32 21 76q0 41 -21.5 74t-59.5 33q-9 0 -19 -2zM266 473q0 -8 -18 -22t-27 -14q-2 0 -56 72l-56 -72q-9 0 -27 14t-18 22q0 1 35 47t39 51q3 3 26 3q4 0 8.5 -0.5t10 -1.5t8.5 -1q3 -4 22 -28t36 -46t17 -24z" />
    <glyph glyph-name="atilde" unicode="&#xe3;" horiz-adv-x="329" 
d="M198 51q-54 -54 -108 -54q-43 0 -65.5 34t-22.5 78q0 64 55 130t118 66q45 0 73 -43q7 9 24 19.5t27 10.5q6 0 6 -4q0 -11 -18 -71.5t-18 -94.5q0 -60 33 -60q10 0 10 -3q0 -18 -26.5 -38.5t-46.5 -20.5q-34 0 -41 51zM94 242q-21 -28 -21 -77q0 -41 21 -74t60 -33
q4 0 10.5 1.5t8.5 1.5q21 32 21 76q0 41 -21.5 74t-59.5 33q-9 0 -19 -2zM92 488q-8 0 -15 -3t-16.5 -9.5t-13.5 -8.5q-3 0 -3 2q0 14 34 35t50 21q21 0 59 -21.5t52 -19.5q10 1 16.5 3t9.5 4t9 6.5t9 6.5q1 1 1 -2q0 -14 -32.5 -34.5t-48.5 -20.5q-20 0 -53 21.5t-58 19.5z
" />
    <glyph glyph-name="adieresis" unicode="&#xe4;" horiz-adv-x="329" 
d="M198 51q-54 -54 -108 -54q-43 0 -65.5 34t-22.5 78q0 64 55 130t118 66q45 0 73 -43q7 9 24 19.5t27 10.5q6 0 6 -4q0 -11 -18 -71.5t-18 -94.5q0 -60 33 -60q10 0 10 -3q0 -18 -26.5 -38.5t-46.5 -20.5q-34 0 -41 51zM94 242q-21 -28 -21 -77q0 -41 21 -74t60 -33
q4 0 10.5 1.5t8.5 1.5q21 32 21 76q0 41 -21.5 74t-59.5 33q-9 0 -19 -2zM95 448q-18 0 -24.5 7t-6.5 25q0 14 23.5 34.5t36.5 20.5q11 0 17.5 -13.5t6.5 -24.5q0 -24 -14.5 -36.5t-38.5 -12.5zM241 535q11 0 17.5 -13.5t6.5 -24.5q0 -24 -14.5 -36.5t-38.5 -12.5
q-31 0 -31 23v9q0 14 23.5 34.5t36.5 20.5z" />
    <glyph glyph-name="aring" unicode="&#xe5;" horiz-adv-x="329" 
d="M198 51q-54 -54 -108 -54q-43 0 -65.5 34t-22.5 78q0 64 55 130t118 66q45 0 73 -43q7 9 24 19.5t27 10.5q6 0 6 -4q0 -11 -18 -71.5t-18 -94.5q0 -60 33 -60q10 0 10 -3q0 -18 -26.5 -38.5t-46.5 -20.5q-34 0 -41 51zM94 242q-21 -28 -21 -77q0 -41 21 -74t60 -33
q4 0 10.5 1.5t8.5 1.5q21 32 21 76q0 41 -21.5 74t-59.5 33q-9 0 -19 -2zM92 491q0 30 27 55t57 25q25 0 43.5 -17.5t18.5 -42.5q0 -30 -27.5 -55.5t-56.5 -25.5q-28 0 -45 17t-17 44zM174 466q25 0 25 28q0 18 -13.5 30t-32.5 12q-23 0 -23 -27q0 -20 12.5 -31.5
t31.5 -11.5z" />
    <glyph glyph-name="ae" unicode="&#xe6;" horiz-adv-x="509" 
d="M402 308q33 0 61 -29t28 -62q0 -31 -66.5 -71.5t-105.5 -48.5q29 -36 62 -36q10 0 25.5 5t21.5 6q-12 -28 -46 -50t-66 -22q-30 0 -53.5 22t-29.5 52q-59 -73 -133 -73q-47 0 -73.5 33t-26.5 81q0 63 55.5 130t117.5 67q45 0 73 -43q18 17 51 30q6 0 6 -5q0 -4 -3 -13
t-7 -20t-5 -15q62 62 114 62zM172 67q21 35 21 75q0 42 -21 75.5t-61 33.5q-4 0 -10 -1.5t-9 -1.5q-21 -29 -21 -76q0 -41 21.5 -74t59.5 -33q10 0 20 2zM300 146q8 4 51.5 7t67.5 17q-10 32 -30.5 55t-50.5 23q-9 0 -18 -4q-21 -40 -21 -77q0 -14 1 -21z" />
    <glyph glyph-name="ccedilla" unicode="&#xe7;" 
d="M263 211q0 -9 -28 -32.5t-38 -23.5q-5 0 -6 3q-22 86 -81 86q-8 0 -18 -2q-22 -32 -22 -78q0 -38 23 -72t60 -34q10 0 25 5t21 6q-12 -28 -46.5 -50t-64.5 -22q-42 0 -65.5 35t-23.5 79q0 63 56.5 128.5t117.5 65.5q35 0 62.5 -29.5t27.5 -64.5zM177 -81q16 -6 27 -20
t11 -31q0 -44 -52 -80.5t-99 -36.5q-4 0 -4 2q0 15 30.5 39.5t46.5 24.5q0 9 -12.5 24t-20.5 12l-4 6v73q0 11 30 36.5t42 25.5q3 0 4.5 -6.5t1.5 -16.5v-19.5t-0.5 -20t-0.5 -12.5z" />
    <glyph glyph-name="egrave" unicode="&#xe8;" 
d="M263 214q0 -31 -66.5 -71.5t-105.5 -48.5q31 -36 63 -36q9 0 24.5 5t21.5 6q-10 -28 -45 -50t-66 -22q-42 0 -65.5 34.5t-23.5 78.5q0 63 56.5 129t118.5 66q33 0 60.5 -29t27.5 -62zM73 143q7 4 14 4q37 0 94 16q8 3 10 4q-8 33 -29 55.5t-52 22.5q-2 0 -8 -1.5
t-10 -1.5q-21 -34 -21 -74q0 -7 2 -25zM198 473q0 -8 -17.5 -22t-25.5 -14h-3q-2 4 -20.5 28t-36 46.5t-17.5 24.5q0 6 18 21t26 15q1 0 2 -1q2 -4 38 -49.5t36 -48.5z" />
    <glyph glyph-name="eacute" unicode="&#xe9;" 
d="M263 214q0 -31 -66.5 -71.5t-105.5 -48.5q31 -36 63 -36q9 0 24.5 5t21.5 6q-10 -28 -45 -50t-66 -22q-42 0 -65.5 34.5t-23.5 78.5q0 63 56.5 129t118.5 66q33 0 60.5 -29t27.5 -62zM73 143q7 4 14 4q37 0 94 16q8 3 10 4q-8 33 -29 55.5t-52 22.5q-2 0 -8 -1.5
t-10 -1.5q-21 -34 -21 -74q0 -7 2 -25zM125 437h-3q-8 0 -26 14t-18 22q0 1 35 47t39 51q1 1 3 1q7 0 25.5 -15t18.5 -21q0 -2 -17.5 -24.5t-36 -46.5t-20.5 -28z" />
    <glyph glyph-name="ecircumflex" unicode="&#xea;" 
d="M263 214q0 -31 -66.5 -71.5t-105.5 -48.5q31 -36 63 -36q9 0 24.5 5t21.5 6q-10 -28 -45 -50t-66 -22q-42 0 -65.5 34.5t-23.5 78.5q0 63 56.5 129t118.5 66q33 0 60.5 -29t27.5 -62zM73 143q7 4 14 4q37 0 94 16q8 3 10 4q-8 33 -29 55.5t-52 22.5q-2 0 -8 -1.5
t-10 -1.5q-21 -34 -21 -74q0 -7 2 -25zM239 473q0 -8 -17.5 -22t-26.5 -14q-52 64 -56 72q-3 -3 -17 -21.5t-26.5 -34.5t-13.5 -16q-9 0 -27 14t-18 22q0 1 17 24t36 47t22 27t26 3l27 -3q3 -4 21.5 -28t35.5 -46t17 -24z" />
    <glyph glyph-name="edieresis" unicode="&#xeb;" 
d="M263 214q0 -31 -66.5 -71.5t-105.5 -48.5q31 -36 63 -36q9 0 24.5 5t21.5 6q-10 -28 -45 -50t-66 -22q-42 0 -65.5 34.5t-23.5 78.5q0 63 56.5 129t118.5 66q33 0 60.5 -29t27.5 -62zM73 143q7 4 14 4q37 0 94 16q8 3 10 4q-8 33 -29 55.5t-52 22.5q-2 0 -8 -1.5
t-10 -1.5q-21 -34 -21 -74q0 -7 2 -25zM69 448q-18 0 -24.5 7t-6.5 25q0 14 23.5 34.5t36.5 20.5q11 0 17.5 -13.5t6.5 -24.5q0 -24 -14.5 -36.5t-38.5 -12.5zM215 535q11 0 17.5 -13.5t6.5 -24.5q0 -24 -14.5 -36.5t-38.5 -12.5q-31 0 -31 23v9q0 14 23.5 34.5t36.5 20.5z
" />
    <glyph glyph-name="igrave" unicode="&#xec;" horiz-adv-x="136" 
d="M31 219q0 14 -8.5 21t-8.5 10q0 12 27 34.5t39 22.5q10 0 16.5 -13t6.5 -25q0 -20 -14 -60q-17 -49 -17 -98t39 -49q5 0 5 -4q0 -17 -27 -37.5t-45 -20.5q-44 0 -44 61q0 28 15.5 81t15.5 77zM103 395q0 -25 -9.5 -40.5t-31.5 -30.5q-26 -13 -32 -13q-4 0 -4 3
q0 4 2 14.5t2 16.5q0 15 -8 21.5t-8 9.5q0 12 26.5 34t38.5 22q11 0 17.5 -13t6.5 -24zM128 473q0 -8 -17.5 -22t-25.5 -14h-3q-2 4 -20.5 28t-36 46.5t-17.5 24.5q0 6 18 21t26 15q1 0 2 -1q2 -4 38 -49.5t36 -48.5z" />
    <glyph glyph-name="iacute" unicode="&#xed;" horiz-adv-x="136" 
d="M31 219q0 14 -8.5 21t-8.5 10q0 12 27 34.5t39 22.5q10 0 16.5 -13t6.5 -25q0 -20 -14 -60q-17 -49 -17 -98t39 -49q5 0 5 -4q0 -17 -27 -37.5t-45 -20.5q-44 0 -44 61q0 28 15.5 81t15.5 77zM103 395q0 -25 -9.5 -40.5t-31.5 -30.5q-26 -13 -32 -13q-4 0 -4 3
q0 4 2 14.5t2 16.5q0 15 -8 21.5t-8 9.5q0 12 26.5 34t38.5 22q11 0 17.5 -13t6.5 -24zM52 437q-9 0 -26.5 14t-17.5 22q0 1 17 24t35.5 47t21.5 27q1 1 2 1q8 0 26 -15t18 -21q0 -2 -34 -48t-40 -51h-2z" />
    <glyph glyph-name="icircumflex" unicode="&#xee;" horiz-adv-x="136" 
d="M31 219q0 14 -8.5 21t-8.5 10q0 12 27 34.5t39 22.5q10 0 16.5 -13t6.5 -25q0 -20 -14 -60q-17 -49 -17 -98t39 -49q5 0 5 -4q0 -17 -27 -37.5t-45 -20.5q-44 0 -44 61q0 28 15.5 81t15.5 77zM103 395q0 -25 -9.5 -40.5t-31.5 -30.5q-26 -13 -32 -13q-4 0 -4 3
q0 4 2 14.5t2 16.5q0 15 -8 21.5t-8 9.5q0 12 26.5 34t38.5 22q11 0 17.5 -13t6.5 -24zM170 473q0 -8 -18 -22t-27 -14q-2 0 -56 72l-56 -72q-9 0 -27.5 14t-18.5 22l17 23q18 24 37.5 48.5t20.5 26.5q3 3 26 3q4 0 8.5 -0.5t10 -1.5t8.5 -1q3 -4 22 -28t36 -46t17 -24z" />
    <glyph glyph-name="idieresis" unicode="&#xef;" horiz-adv-x="136" 
d="M31 219q0 14 -8.5 21t-8.5 10q0 12 27 34.5t39 22.5q10 0 16.5 -13t6.5 -25q0 -20 -14 -60q-17 -49 -17 -98t39 -49q5 0 5 -4q0 -17 -27 -37.5t-45 -20.5q-44 0 -44 61q0 28 15.5 81t15.5 77zM103 395q0 -25 -9.5 -40.5t-31.5 -30.5q-26 -13 -32 -13q-4 0 -4 3
q0 4 2 14.5t2 16.5q0 15 -8 21.5t-8 9.5q0 12 26.5 34t38.5 22q11 0 17.5 -13t6.5 -24zM-1 448q-18 0 -25 7.5t-7 24.5q0 14 24 34.5t37 20.5q11 0 17.5 -13.5t6.5 -24.5q0 -24 -14.5 -36.5t-38.5 -12.5zM145 535q11 0 17.5 -13.5t6.5 -24.5q0 -24 -14.5 -36.5t-38.5 -12.5
q-31 0 -31 23v9q0 14 23.5 34.5t36.5 20.5z" />
    <glyph glyph-name="eth" unicode="&#xf0;" horiz-adv-x="311" 
d="M207 -20q-63 0 -108.5 52.5t-45.5 116.5q0 47 22 84t64 54q-22 14 -75 66.5t-53 66.5q0 6 4 6q18 0 103.5 -78.5t109.5 -107.5q63 -75 63 -155q0 -45 -20.5 -75t-63.5 -30zM194 183q-46 -42 -46 -103q0 -2 0.5 -7t0.5 -7l7 4q40 23 40 86q0 9 -2 27z" />
    <glyph glyph-name="ntilde" unicode="&#xf1;" horiz-adv-x="272" 
d="M87 202q-16 -71 -16 -89q0 -51 40 -51q5 0 5 -4q0 -16 -27 -37t-45 -21q-44 0 -44 61q0 28 15.5 80.5t15.5 77.5q0 15 -8.5 22t-8.5 9q0 12 27 34t39 22q17 0 20.5 -26.5t-2.5 -37.5q82 64 113 64q28 0 28 -37q0 -18 -7 -39q-1 -1 -2 -5l-5 -16q-1 -13 -9 -45.5t-8 -50.5
q0 -51 40 -51q4 0 4 -4q0 -17 -27 -37.5t-44 -20.5q-44 0 -44 61q0 27 15 79t15 77q0 17 -13 27l-8 1q-8 0 -19 -8.5t-24 -20.5t-16 -14zM63 488q-7 0 -14 -3t-16.5 -9t-14.5 -9q-2 0 -2 2q0 14 33.5 35t49.5 21q22 0 60 -21.5t51 -19.5q7 0 12 1.5t8.5 2t7 3t5 3.5t5.5 5
t6 5q1 1 1.5 0.5t0.5 -2.5q0 -14 -33 -34.5t-49 -20.5q-19 0 -52.5 21.5t-58.5 19.5z" />
    <glyph glyph-name="ograve" unicode="&#xf2;" horiz-adv-x="279" 
d="M178 301q43 0 67 -35.5t24 -79.5q0 -63 -56.5 -128.5t-119.5 -65.5q-39 0 -65 30t-26 70q0 64 56.5 136.5t119.5 72.5zM176 56q21 29 21 76q0 41 -21.5 74t-59.5 33q-10 0 -20 -2q-20 -38 -20 -76q0 -43 20.5 -75.5t60.5 -32.5q10 0 19 3zM200 473q0 -8 -17.5 -22
t-26.5 -14h-2q-5 5 -39.5 51t-34.5 48q0 6 18 21t25 15q1 0 2 -1q6 -6 40.5 -50.5t34.5 -47.5z" />
    <glyph glyph-name="oacute" unicode="&#xf3;" horiz-adv-x="279" 
d="M178 301q43 0 67 -35.5t24 -79.5q0 -63 -56.5 -128.5t-119.5 -65.5q-39 0 -65 30t-26 70q0 64 56.5 136.5t119.5 72.5zM176 56q21 29 21 76q0 41 -21.5 74t-59.5 33q-10 0 -20 -2q-20 -38 -20 -76q0 -43 20.5 -75.5t60.5 -32.5q10 0 19 3zM124 437q-9 0 -26.5 14
t-17.5 22q0 1 17 24t35.5 47t21.5 27q1 1 2 1q8 0 26 -15t18 -21q0 -2 -34.5 -48t-39.5 -51h-2z" />
    <glyph glyph-name="ocircumflex" unicode="&#xf4;" horiz-adv-x="279" 
d="M178 301q43 0 67 -35.5t24 -79.5q0 -63 -56.5 -128.5t-119.5 -65.5q-39 0 -65 30t-26 70q0 64 56.5 136.5t119.5 72.5zM176 56q21 29 21 76q0 41 -21.5 74t-59.5 33q-10 0 -20 -2q-20 -38 -20 -76q0 -43 20.5 -75.5t60.5 -32.5q10 0 19 3zM241 473q0 -8 -18 -22t-27 -14
q-2 0 -56 72l-56 -72q-9 0 -27 14t-18 22q0 1 35 47t39 51q3 3 26 3l27 -3q3 -4 22 -28t36 -46t17 -24z" />
    <glyph glyph-name="otilde" unicode="&#xf5;" horiz-adv-x="279" 
d="M178 301q43 0 67 -35.5t24 -79.5q0 -63 -56.5 -128.5t-119.5 -65.5q-39 0 -65 30t-26 70q0 64 56.5 136.5t119.5 72.5zM176 56q21 29 21 76q0 41 -21.5 74t-59.5 33q-10 0 -20 -2q-20 -38 -20 -76q0 -43 20.5 -75.5t60.5 -32.5q10 0 19 3zM67 488q-8 0 -15 -3t-16.5 -9.5
t-13.5 -8.5q-3 0 -3 2q0 14 34 35t50 21q21 0 59 -21.5t52 -19.5q10 1 16.5 3t9.5 4t9 6.5t9 6.5q1 1 1 -2q0 -14 -32.5 -34.5t-48.5 -20.5q-20 0 -53 21.5t-58 19.5z" />
    <glyph glyph-name="odieresis" unicode="&#xf6;" horiz-adv-x="279" 
d="M178 301q43 0 67 -35.5t24 -79.5q0 -63 -56.5 -128.5t-119.5 -65.5q-39 0 -65 30t-26 70q0 64 56.5 136.5t119.5 72.5zM176 56q21 29 21 76q0 41 -21.5 74t-59.5 33q-10 0 -20 -2q-20 -38 -20 -76q0 -43 20.5 -75.5t60.5 -32.5q10 0 19 3zM71 448q-18 0 -25 7.5t-7 24.5
q0 14 23.5 34.5t37.5 20.5q9 0 16.5 -14t7.5 -24q0 -24 -14.5 -36.5t-38.5 -12.5zM217 535q9 0 16.5 -14t7.5 -24q0 -24 -14.5 -36.5t-38.5 -12.5q-32 0 -32 23v9q0 14 23.5 34.5t37.5 20.5z" />
    <glyph glyph-name="divide" unicode="&#xf7;" horiz-adv-x="264" 
d="M158 86q0 -23 -14.5 -36t-38.5 -13q-32 0 -32 28q0 1 0.5 2t0.5 2q0 11 14 25q30 30 46 30q9 0 16.5 -13.5t7.5 -24.5zM152 317q9 0 16.5 -13t7.5 -24q0 -24 -14.5 -37t-38.5 -13q-32 0 -32 28l1 2v3q0 13 14 24q30 30 46 30zM250 203q0 -12 -29.5 -37t-43.5 -25h-174
q-4 0 -4 4q0 12 30 37t43 25h174q4 0 4 -4z" />
    <glyph glyph-name="oslash" unicode="&#xf8;" horiz-adv-x="330" 
d="M325 342q4 -1 4 -7q0 -14 -31.5 -50.5t-51.5 -52.5q7 -17 7 -38q0 -43 -39 -87.5t-82 -44.5q-17 0 -37 15q-12 -12 -12 -22q0 -9 16 -9h1q1 0 1 -1q0 -9 -39.5 -28t-52.5 -19q-15 0 -15 12q0 6 5 15t12 17.5t18 20.5t18 19l17 17l11 11q-12 51 25.5 107.5t90.5 56.5
q19 0 33 -11q17 17 17 24q0 6 -1 7q-2 2 0.5 5.5t9.5 8t11 7t9 5.5q29 17 55 22zM134 230q-14 -30 -14 -52q0 -11 2 -23q42 40 61 61q-13 16 -37 16q-4 0 -12 -2zM189 106q14 26 14 52q0 1 -3 28q-10 -10 -31.5 -30t-32.5 -31q16 -21 42 -21q3 0 11 2z" />
    <glyph glyph-name="ugrave" unicode="&#xf9;" horiz-adv-x="267" 
d="M182 1q-35 0 -43 36q-40 -37 -98 -37q-41 4 -41 62q0 28 15.5 80t15.5 78q0 14 -8.5 21t-8.5 10q0 12 27 34t39 22q10 0 16.5 -13t6.5 -24q-6 -38 -14.5 -72.5t-12.5 -52.5t-4 -33q0 -49 40 -49q11 0 25 8q1 24 15.5 74t14.5 75q0 14 -8 21t-8 10q0 12 26 34t40 22
q9 0 15.5 -13t6.5 -24q-6 -37 -14 -71.5t-12 -52.5t-4 -33q0 -50 39 -50q5 0 5 -4q0 -16 -27 -37t-44 -21zM194 473q0 -8 -17.5 -22t-26.5 -14h-2q-5 5 -39.5 51t-34.5 48q0 6 18 21t25 15q1 0 2 -1q6 -6 40.5 -50.5t34.5 -47.5z" />
    <glyph glyph-name="uacute" unicode="&#xfa;" horiz-adv-x="267" 
d="M182 1q-35 0 -43 36q-40 -37 -98 -37q-41 4 -41 62q0 28 15.5 80t15.5 78q0 14 -8.5 21t-8.5 10q0 12 27 34t39 22q10 0 16.5 -13t6.5 -24q-6 -38 -14.5 -72.5t-12.5 -52.5t-4 -33q0 -49 40 -49q11 0 25 8q1 24 15.5 74t14.5 75q0 14 -8 21t-8 10q0 12 26 34t40 22
q9 0 15.5 -13t6.5 -24q-6 -37 -14 -71.5t-12 -52.5t-4 -33q0 -50 39 -50q5 0 5 -4q0 -16 -27 -37t-44 -21zM118 437q-9 0 -26.5 14t-17.5 22q0 1 17 24t35.5 47t21.5 27q1 1 2 1q8 0 26 -15t18 -21q0 -2 -34.5 -48t-39.5 -51h-2z" />
    <glyph glyph-name="ucircumflex" unicode="&#xfb;" horiz-adv-x="267" 
d="M182 1q-35 0 -43 36q-40 -37 -98 -37q-41 4 -41 62q0 28 15.5 80t15.5 78q0 14 -8.5 21t-8.5 10q0 12 27 34t39 22q10 0 16.5 -13t6.5 -24q-6 -38 -14.5 -72.5t-12.5 -52.5t-4 -33q0 -49 40 -49q11 0 25 8q1 24 15.5 74t14.5 75q0 14 -8 21t-8 10q0 12 26 34t40 22
q9 0 15.5 -13t6.5 -24q-6 -37 -14 -71.5t-12 -52.5t-4 -33q0 -50 39 -50q5 0 5 -4q0 -16 -27 -37t-44 -21zM235 473q0 -8 -18 -22t-27 -14q-2 0 -56 72l-56 -72q-9 0 -27 14t-18 22q0 1 35 47t39 51q3 3 26 3l27 -3q3 -4 22 -28t36 -46t17 -24z" />
    <glyph glyph-name="udieresis" unicode="&#xfc;" horiz-adv-x="267" 
d="M182 1q-35 0 -43 36q-40 -37 -98 -37q-41 4 -41 62q0 28 15.5 80t15.5 78q0 14 -8.5 21t-8.5 10q0 12 27 34t39 22q10 0 16.5 -13t6.5 -24q-6 -38 -14.5 -72.5t-12.5 -52.5t-4 -33q0 -49 40 -49q11 0 25 8q1 24 15.5 74t14.5 75q0 14 -8 21t-8 10q0 12 26 34t40 22
q9 0 15.5 -13t6.5 -24q-6 -37 -14 -71.5t-12 -52.5t-4 -33q0 -50 39 -50q5 0 5 -4q0 -16 -27 -37t-44 -21zM65 448q-18 0 -25 7.5t-7 24.5q0 14 23.5 34.5t37.5 20.5q9 0 16.5 -14t7.5 -24q0 -24 -14.5 -36.5t-38.5 -12.5zM211 535q9 0 16.5 -14t7.5 -24q0 -24 -14.5 -36.5
t-38.5 -12.5q-32 0 -32 23v9q0 14 23.5 34.5t37.5 20.5z" />
    <glyph glyph-name="yacute" unicode="&#xfd;" horiz-adv-x="253" 
d="M221 306q22 -9 22 -41q0 -24 -3 -50.5t-9.5 -58t-11.5 -51.5t-15 -58t-13 -50q-37 -153 -102 -153q-34 0 -54 25.5t-20 59.5l7 8q16 -9 32 -9q26 0 56.5 42t26.5 65q-36 -35 -96 -35v1q-41 4 -41 61q0 27 16 79.5t16 78.5q0 14 -8.5 21.5t-8.5 10.5q0 14 25.5 32.5
t42.5 21.5q19 -10 24 -34q3 -14 -1.5 -31t-13.5 -37t-11 -28q-9 -32 -9 -63q0 -50 40 -50q17 0 35 14q24 96 24 138q0 17 -9 25t-9 12q0 14 25.5 32.5t42.5 21.5zM113 437h-3q-8 0 -26 14t-18 22q0 1 35 47t39 51q1 1 3 1q7 0 25.5 -15t18.5 -21q0 -2 -17.5 -24.5t-36 -46.5
t-20.5 -28z" />
    <glyph glyph-name="thorn" unicode="&#xfe;" horiz-adv-x="208" 
d="M74 502v-154q104 -11 104 -127q0 -66 -86 -66q-14 7 -18 17v-116q-44 -61 -74 -61q-4 0 -4 5v446q42 60 74 60q4 0 4 -4zM74 308v-95q26 0 49.5 11.5t23.5 35.5q0 12 -7 19t-13 8.5t-20.5 2.5t-17.5 1q-3 1 -15 17z" />
    <glyph glyph-name="ydieresis" unicode="&#xff;" horiz-adv-x="253" 
d="M221 306q22 -9 22 -41q0 -24 -3 -50.5t-9.5 -58t-11.5 -51.5t-15 -58t-13 -50q-37 -153 -102 -153q-34 0 -54 25.5t-20 59.5l7 8q16 -9 32 -9q26 0 56.5 42t26.5 65q-36 -35 -96 -35v1q-41 4 -41 61q0 27 16 79.5t16 78.5q0 14 -8.5 21.5t-8.5 10.5q0 14 25.5 32.5
t42.5 21.5q19 -10 24 -34q3 -14 -1.5 -31t-13.5 -37t-11 -28q-9 -32 -9 -63q0 -50 40 -50q17 0 35 14q24 96 24 138q0 17 -9 25t-9 12q0 14 25.5 32.5t42.5 21.5zM57 448q-18 0 -24.5 7t-6.5 25q0 14 23.5 34.5t36.5 20.5q11 0 17.5 -13.5t6.5 -24.5q0 -24 -14.5 -36.5
t-38.5 -12.5zM203 535q11 0 17.5 -13.5t6.5 -24.5q0 -24 -14.5 -36.5t-38.5 -12.5q-31 0 -31 23v9q0 14 23.5 34.5t36.5 20.5z" />
    <glyph glyph-name="Lslash" unicode="&#x141;" horiz-adv-x="314" 
d="M53 215l203 58l4 -3q4 -11 -18.5 -44t-34.5 -35l-202 -58l-5 3q-4 11 18.5 44t34.5 35zM38 60q0 46 26 137t26 139q0 8 -1.5 15.5t-4 12.5t-5 8.5t-3.5 5.5l-2 2q0 19 31 37.5t52 18.5q49 0 49 -49q0 -47 -26.5 -138t-26.5 -137q0 -23 7.5 -35t29.5 -12l134 -2
q-8 -7 -23.5 -20t-28 -23.5t-23.5 -19.5q-26 0 -77 -1.5t-77 -1.5q-27 0 -42 17.5t-15 45.5z" />
    <glyph glyph-name="lslash" unicode="&#x142;" 
d="M53 215l203 58l4 -3q4 -11 -18.5 -44t-34.5 -35l-202 -58l-5 3q-4 11 18.5 44t34.5 35zM173 402q0 -50 -27.5 -146t-27.5 -144q0 -50 39 -50q4 0 4 -5q0 -17 -27 -37t-45 -20q-44 0 -44 60q0 48 27.5 142.5t27.5 144.5q0 19 -4 29t-8.5 13.5t-4.5 5.5q0 12 25.5 34
t37.5 22q27 0 27 -49z" />
    <glyph glyph-name="OE" unicode="&#x152;" horiz-adv-x="663" 
d="M431 446l180 -1q28 -28 28 -54q0 -16 -32 -39t-47 -23q-5 3 -10 24t-17 27h-55q-8 -63 -20 -112h113q-13 -13 -39.5 -33.5t-37.5 -31.5h-54q-15 -62 -15 -89q0 -21 14 -33t40 -15.5t48 -4t52 1.5t38 2q-30 -28 -78 -65q-30 0 -87 -1.5t-85 -1.5q-59 0 -59 65q0 23 4 40
q-37 -43 -86.5 -74t-96.5 -31q-60 0 -94.5 50t-34.5 113q0 59 37 126t97.5 114t119.5 47q58 0 94 -48q39 47 83 47zM251 90q30 46 30 110q0 61 -30.5 109t-88.5 48q-19 0 -28 -4q-30 -48 -30 -110q0 -61 31 -109t89 -48q15 0 27 4z" />
    <glyph glyph-name="oe" unicode="&#x153;" horiz-adv-x="472" 
d="M372 308q35 0 62 -29t27 -64q0 -30 -67 -70t-106 -48q29 -36 63 -36q10 0 25 5t21 6q-8 -27 -44 -49.5t-67 -22.5q-28 0 -50 18.5t-31 46.5q-61 -61 -116 -61q-42 0 -66 33.5t-24 77.5q0 63 56 130t118 67q29 0 51 -19t33 -48q63 63 115 63zM172 67q20 38 20 76
q0 43 -20.5 75.5t-60.5 32.5q-4 0 -10.5 -1.5t-8.5 -1.5q-21 -32 -21 -77q0 -41 21.5 -73.5t59.5 -32.5q10 0 20 2zM270 146q6 3 53.5 6.5t64.5 17.5q-8 33 -28.5 55.5t-51.5 22.5q-14 0 -18 -4q-8 -5 -14.5 -32t-6.5 -41q0 -16 1 -25z" />
    <glyph glyph-name="Scaron" unicode="&#x160;" horiz-adv-x="317" 
d="M283 170q0 -58 -69.5 -116t-127.5 -58q-86 0 -86 123q0 15 34.5 43.5t53.5 36.5q-54 38 -54 79q0 50 68 106.5t120 56.5q32 0 54.5 -27t22.5 -59q0 -15 -39 -47.5t-55 -32.5q-4 0 -10 19.5t-20.5 39t-38.5 19.5q0 -24 23 -46t50.5 -37t50.5 -41t23 -59zM136 92
q10 -10 27.5 -10.5t18.5 10.5q-2 21 -27 50t-53 48q1 -6 2.5 -21t2.5 -22t4.5 -18t9.5 -20t15 -17zM58 686q0 9 17.5 23t26.5 14q51 -64 56 -72q54 72 56 72q9 0 27 -14t18 -23q-67 -92 -74 -97q-3 -3 -26 -3l-27 3q-6 6 -40 50.5t-34 46.5z" />
    <glyph glyph-name="scaron" unicode="&#x161;" horiz-adv-x="228" 
d="M144 196q-2 0 -6.5 14t-15 27.5t-27.5 13.5q0 -17 16 -32.5t35.5 -25.5t35.5 -28.5t16 -40.5q0 -42 -48 -83t-90 -41q-60 0 -60 87q0 10 24.5 31t37.5 25q-39 27 -39 55q0 35 48 75.5t85 40.5q22 0 38 -19t16 -42q0 -11 -27.5 -34t-38.5 -23zM128 71q0 31 -57 66
q0 -3 1 -12.5t1.5 -13.5t2.5 -11.5t4.5 -12t6.5 -9.5t10 -9q11 -7 26 -7h4q1 3 1 9zM14 536q0 9 17.5 23t26.5 14q51 -64 56 -72q54 72 56 72q9 0 27 -14t18 -23q-67 -92 -74 -97q-3 -3 -26 -3l-27 3q-6 6 -40 50.5t-34 46.5z" />
    <glyph glyph-name="Ydieresis" unicode="&#x178;" horiz-adv-x="357" 
d="M-1 388q37 33 75 63q28 -19 28 -53q0 -16 -8 -46t-8 -45q0 -54 93 -54q25 0 49.5 12.5t24.5 34.5q0 53 -27 98q2 2 76 64q36 -68 36 -115q0 -16 -5 -28.5t-11 -19.5t-20 -21q-43 -43 -86 -69q-17 -49 -17 -97q0 -23 7.5 -35t29.5 -12q3 0 3 -4q0 -23 -35.5 -43.5
t-60.5 -20.5q-29 0 -44.5 17.5t-15.5 45.5q0 39 23 116q-29 -2 -62 18t-33 49q0 15 8 45.5t8 46.5q0 34 -28 53zM110 598q-18 0 -25 7.5t-7 24.5q0 14 23.5 34.5t37.5 20.5q9 0 16.5 -14t7.5 -24q0 -24 -14.5 -36.5t-38.5 -12.5zM256 685q9 0 16.5 -14t7.5 -24
q0 -24 -14.5 -36.5t-38.5 -12.5q-32 0 -32 23v9q0 14 23.5 34.5t37.5 20.5z" />
    <glyph glyph-name="Zcaron" unicode="&#x17d;" horiz-adv-x="394" 
d="M185 -2h-175q-10 29 -10 69q0 50 23 88.5t57.5 64t71 47.5t68 52t43.5 65q-42 0 -66.5 -0.5t-52 -3t-40.5 -8t-14 -14.5l-10 1q-18 13 -18 34q0 22 16.5 33t39.5 11h260l1 -15q0 -52 -18.5 -87t-48 -54.5t-61 -34.5t-63.5 -37t-49 -52l1 1q-7 -21 -7 -37q0 -46 52 -46
q20 0 51 11t33 27h13q28 -19 28 -59q0 -14 -4 -24t-13.5 -16t-17.5 -10t-22.5 -5t-23 -1.5t-24.5 0t-20 0.5zM96 686q0 9 17.5 23t26.5 14q1 0 13.5 -16t26.5 -34.5t17 -21.5l56 72q9 0 27 -14t18 -23q-69 -92 -74 -97q-3 -3 -27 -3q-4 0 -8.5 0.5t-10 1.5t-8.5 1
q-6 6 -40 50.5t-34 46.5z" />
    <glyph glyph-name="zcaron" unicode="&#x17e;" horiz-adv-x="300" 
d="M275 308l3 -4q-3 -60 -49.5 -116t-105.5 -56q-17 0 -32 -4q-17 -29 -19 -67h149q4 0 4 -3q0 -13 -27 -35.5t-40 -22.5h-154l-4 5q2 77 58.5 128t135.5 61q11 26 12 54q-52 -1 -154 -1q-4 0 -4 3q0 12 27.5 35t40.5 23h159zM50 536q0 9 17.5 23t26.5 14q51 -64 56 -72
q54 72 56 72q9 0 27 -14t18 -23q-67 -92 -74 -97q-3 -3 -26 -3q-4 0 -8.5 0.5t-10 1.5t-8.5 1q-6 6 -40 50.5t-34 46.5z" />
    <glyph glyph-name="florin" unicode="&#x192;" horiz-adv-x="285" 
d="M64 132q14 63 56 118t99 55q49 0 49 -55q0 -30 -20.5 -58.5t-49.5 -28.5q-5 0 -5 7t2 17.5t2 12.5q0 42 -41 42q-3 -3 -16 -51t-13 -59h73q4 0 4 -3q0 -25 -31.5 -42t-57.5 -17q-24 -128 -51 -175q-28 -52 -67 -52q-33 0 -54 26.5t-21 59.5q0 8 4 8q1 0 13.5 -4.5
t21.5 -4.5q66 0 91 142q-53 0 -53 3q0 14 25 35.5t40 23.5z" />
    <glyph glyph-name="circumflex" unicode="&#x2c6;" horiz-adv-x="222" 
d="M201 473q0 -8 -17.5 -22t-26.5 -14q-52 64 -56 72q-3 -3 -17 -21.5t-26.5 -34.5t-13.5 -16q-9 0 -27 14t-18 22q0 1 17 24t36 47t22 27t26 3q4 0 8.5 -0.5t10 -1.5t8.5 -1q3 -4 21.5 -28t35.5 -46t17 -24z" />
    <glyph glyph-name="caron" unicode="&#x2c7;" horiz-adv-x="225" 
d="M-2 536q0 9 18 23t27 14q51 -64 56 -72q54 72 56 72q9 0 27 -14t18 -23q-67 -92 -74 -97q-3 -3 -26 -3l-27 3q-4 4 -22.5 28t-35.5 46t-17 23z" />
    <glyph glyph-name="breve" unicode="&#x2d8;" horiz-adv-x="227" 
d="M119 513h24q7 14 7 26q0 8 23 19t33 11q8 0 8 -6q0 -34 -38 -59.5t-74 -25.5h-33q-28 0 -48.5 15.5t-20.5 43.5q0 11 23 21.5t36 10.5q4 0 5 -3q5 -36 26 -47q14 -6 29 -6z" />
    <glyph glyph-name="dotaccent" unicode="&#x2d9;" horiz-adv-x="110" 
d="M32 477q-17 0 -24.5 7.5t-7.5 24.5q0 13 23.5 33.5t37.5 20.5q9 0 16.5 -13.5t7.5 -23.5q0 -49 -53 -49z" />
    <glyph glyph-name="ring" unicode="&#x2da;" horiz-adv-x="159" 
d="M0 491q0 30 27 55t57 25q26 0 44 -17.5t18 -42.5q0 -31 -26.5 -56t-57.5 -25q-27 0 -44.5 17.5t-17.5 43.5zM83 466q24 0 24 28q0 18 -13.5 30t-31.5 12q-24 0 -24 -27q0 -19 13.5 -31t31.5 -12z" />
    <glyph glyph-name="ogonek" unicode="&#x2db;" horiz-adv-x="183" 
d="M90 -128q0 -55 74 -55q4 0 4 -2q0 -14 -29.5 -39t-43.5 -25q-33 0 -57.5 14.5t-24.5 44.5q0 33 37 66v56q0 12 30.5 37t42.5 25q5 0 5 -5v-74q0 -6 -14.5 -21t-23.5 -22z" />
    <glyph glyph-name="tilde" unicode="&#x2dc;" horiz-adv-x="255" 
d="M45 488q-7 0 -14 -3t-16.5 -9t-14.5 -9q-3 0 -3 2q0 14 34 35t50 21q22 0 60 -21.5t51 -19.5q7 0 12 1.5t8.5 2t7 3t5 3.5t5.5 5t6 5q1 1 1.5 0.5t0.5 -2.5q0 -14 -33 -34.5t-49 -20.5q-19 0 -52.5 21.5t-58.5 19.5z" />
    <glyph glyph-name="hungarumlaut" unicode="&#x2dd;" horiz-adv-x="295" 
d="M47 437h-3q-8 0 -26 14t-18 22q0 1 35 47t39 51q1 1 3 1q7 0 25.5 -15t18.5 -21q0 -2 -17.5 -24.5t-36 -46.5t-20.5 -28zM192 437q-9 0 -26.5 14t-17.5 22q0 1 35 47t39 51q1 1 2 1q8 0 26.5 -15t18.5 -21q0 -2 -34.5 -47.5t-40.5 -51.5h-2z" />
    <glyph glyph-name="endash" unicode="&#x2013;" horiz-adv-x="384" 
d="M72 207h299l4 -4q0 -12 -29.5 -37t-43.5 -25h-299l-4 4q0 12 30.5 37t42.5 25z" />
    <glyph glyph-name="emdash" unicode="&#x2014;" horiz-adv-x="478" 
d="M395 141h-393q-4 0 -4 4q0 12 30.5 37t42.5 25h393q4 0 4 -4q0 -12 -29.5 -37t-43.5 -25z" />
    <glyph glyph-name="quoteleft" unicode="&#x2018;" horiz-adv-x="108" 
d="M73 446q4 0 4 -3q0 -5 -2.5 -15.5t-2.5 -16.5q0 -15 8 -22t8 -9q0 -12 -26.5 -34t-38.5 -22q-10 0 -16.5 13t-6.5 25q0 15 4 27q4 17 27.5 37t41.5 20z" />
    <glyph glyph-name="quoteright" unicode="&#x2019;" horiz-adv-x="103" 
d="M16 324q-4 0 -4 3q0 4 2.5 15t2.5 17q0 15 -8 21.5t-8 8.5q0 12 26 34.5t38 22.5q11 0 17.5 -13t6.5 -25q0 -14 -4 -27q-4 -16 -28 -36.5t-41 -20.5z" />
    <glyph glyph-name="quotesinglbase" unicode="&#x201a;" horiz-adv-x="104" 
d="M16 -3q0 15 -8 21.5t-8 9.5q0 12 26.5 34t38.5 22q11 0 17.5 -13t6.5 -24q0 -12 -5 -27q-4 -17 -27.5 -37.5t-39.5 -20.5q-5 0 -5 3q0 5 2 16t2 16z" />
    <glyph glyph-name="quotedblleft" unicode="&#x201c;" horiz-adv-x="211" 
d="M176 446q4 0 4 -3q0 -5 -2 -15.5t-2 -16.5q0 -15 7.5 -22t7.5 -9q0 -12 -26 -34t-38 -22q-11 0 -17 13t-6 25l3 27q4 16 28 36.5t41 20.5zM73 446q4 0 4 -3q0 -5 -2.5 -15.5t-2.5 -16.5q0 -15 8 -22t8 -9q0 -12 -26.5 -34t-38.5 -22q-10 0 -16.5 13t-6.5 25q0 15 4 27
q4 17 27.5 37t41.5 20z" />
    <glyph glyph-name="quotedblright" unicode="&#x201d;" horiz-adv-x="209" 
d="M16 324q-4 0 -4 3q0 4 2.5 15t2.5 17q0 15 -8 21.5t-8 8.5q0 12 26 34.5t38 22.5q11 0 17.5 -13t6.5 -25q0 -14 -4 -27q-4 -16 -28 -36.5t-41 -20.5zM119 324q-3 0 -3 3q0 4 2 15t2 17q0 15 -8 21.5t-8 8.5q0 12 26.5 34.5t38.5 22.5q11 0 17 -13t6 -25q0 -14 -4 -27
q-4 -17 -27.5 -37t-41.5 -20z" />
    <glyph glyph-name="quotedblbase" unicode="&#x201e;" horiz-adv-x="205" 
d="M16 -3q0 15 -8 21.5t-8 9.5q0 12 26.5 34t38.5 22q11 0 17.5 -13t6.5 -24q0 -12 -5 -27q-4 -17 -27.5 -37.5t-39.5 -20.5q-5 0 -5 3q0 5 2 16t2 16zM114 -3q0 15 -8 21.5t-8 9.5q0 12 26.5 34t38.5 22q11 0 17.5 -13t6.5 -24q0 -12 -5 -27q-4 -17 -27.5 -37.5
t-39.5 -20.5q-5 0 -5 3q0 5 2 16t2 16z" />
    <glyph glyph-name="dagger" unicode="&#x2020;" horiz-adv-x="169" 
d="M137 234h-14v-175q-11 -18 -33.5 -40t-38.5 -22q-5 0 -5 5v232h-83q-4 0 -4 4q0 12 30.5 37t42.5 25h14v147q10 17 33 39.5t39 22.5q5 0 5 -5v-204h83q4 0 4 -3q0 -13 -29.5 -38t-43.5 -25z" />
    <glyph glyph-name="daggerdbl" unicode="&#x2021;" horiz-adv-x="169" 
d="M137 241h-14v-46h83q4 0 4 -3q0 -13 -29.5 -38t-43.5 -25h-14v-70q-11 -18 -33.5 -40t-38.5 -22q-5 0 -5 5v127h-83q-4 0 -4 4q0 12 30.5 37t42.5 25h14v46h-83q-4 0 -4 4q0 12 30.5 37t42.5 25h14v140q10 17 33 39.5t39 22.5q5 0 5 -5v-197h83q4 0 4 -3q0 -13 -29.5 -38
t-43.5 -25z" />
    <glyph glyph-name="bullet" unicode="&#x2022;" horiz-adv-x="193" 
d="M38 153q-18 0 -28 14.5t-10 32.5q0 27 23.5 55.5t50.5 28.5q18 0 28.5 -15t10.5 -34q0 -27 -24 -54.5t-51 -27.5z" />
    <glyph glyph-name="ellipsis" unicode="&#x2026;" horiz-adv-x="445" 
d="M29 -3q-32 0 -32 32q0 14 24 34.5t38 20.5q9 0 16.5 -13.5t7.5 -23.5q0 -50 -54 -50zM178 -3q-32 0 -32 32q0 14 23.5 34.5t37.5 20.5q11 0 17.5 -13t6.5 -24q0 -50 -53 -50zM326 -3q-31 0 -31 32q0 14 23 34.5t38 20.5q9 0 16.5 -13.5t7.5 -23.5q0 -50 -54 -50z" />
    <glyph glyph-name="perthousand" unicode="&#x2030;" horiz-adv-x="412" 
d="M335 462q0 -1 -15 -26t-31.5 -53t-18.5 -33q-17 -35 -100.5 -179.5t-92.5 -153.5q-11 -14 -42.5 -32.5t-46.5 -18.5q-1 0 -1 4l65 112q185 326 193 334q12 12 43.5 31t45.5 19q1 0 1 -4zM93 311q-18 0 -27.5 14t-9.5 33q0 27 23 55t50 28q19 0 29 -14.5t10 -34.5
q0 -28 -24 -54.5t-51 -26.5zM103 415q-2 0 -4.5 -0.5t-3.5 -0.5q-9 -16 -9 -33q0 -18 9 -31.5t26 -13.5q1 0 4 0.5t4 0.5q0 2 4.5 12t4.5 20q0 17 -9 31.5t-26 14.5zM164 44q0 28 23.5 56t49.5 28q19 0 29 -14.5t10 -33.5q0 -27 -24 -55t-50 -28q-19 0 -28.5 14.5t-9.5 32.5
zM229 23q1 0 4 0.5t4 0.5q9 20 9 32q0 18 -9.5 32t-26.5 14q-6 0 -7 -1q-9 -9 -9 -33q0 -17 9.5 -31t25.5 -14zM289 44q0 28 23.5 56t49.5 28q19 0 29 -14.5t10 -33.5q0 -27 -24 -55t-50 -28q-19 0 -28.5 14.5t-9.5 32.5zM354 23q2 0 4.5 0.5t3.5 0.5q9 20 9 32q0 18 -9 32
t-27 14q-6 0 -7 -1q-8 -8 -8 -33q0 -18 8.5 -31.5t25.5 -13.5z" />
    <glyph glyph-name="guilsinglleft" unicode="&#x2039;" horiz-adv-x="203" 
d="M128 110q-19 0 -35 13.5t-25.5 30.5t-27 32t-40.5 18q-3 0 -3 3q0 14 21.5 25.5t37.5 15.5q9 8 28.5 34.5t40 42.5t48.5 16q3 0 3 -3q0 -13 -21 -26t-36 -16q-5 -6 -14 -17.5t-17 -21t-16 -17.5q19 -9 40 -39q25 -42 61 -48q3 -1 3 -3q0 -9 -19.5 -24.5t-28.5 -15.5z" />
    <glyph glyph-name="guilsinglright" unicode="&#x203a;" horiz-adv-x="197" 
d="M44 340q20 0 36 -13t25.5 -29.5t27.5 -32t40 -19.5q2 0 2 -3q0 -13 -21.5 -25.5t-37.5 -15.5q-9 -8 -28 -34t-40 -42t-49 -16q-2 0 -2 3q0 13 21 25.5t36 15.5q1 1 18.5 23.5t28.5 32.5q-17 8 -40 39q-3 4 -9 11.5t-8.5 11t-7.5 8.5t-10 8t-11.5 5.5t-15.5 3.5q-2 2 -2 3
q0 9 19 24.5t28 15.5z" />
    <glyph glyph-name="fraction" unicode="&#x2044;" horiz-adv-x="323" 
d="M-12 -34v4l65 112q20 37 103.5 183t88.5 151q17 14 47 32t43 18v-4q0 -1 -14.5 -26t-31 -53t-18.5 -33q-9 -15 -55.5 -97.5t-88.5 -155.5t-49 -80q-12 -14 -43 -32.5t-47 -18.5z" />
    <glyph glyph-name="Euro" unicode="&#x20ac;" horiz-adv-x="413" 
d="M177 20q-47 0 -74 35t-34 85q-2 0 -11 -0.5t-18.5 -1t-19 -0.5t-15.5 1.5t-6 4.5q0 14 30.5 38t44.5 24l3 12q-2 0 -12.5 -0.5t-20.5 -1t-20.5 -0.5t-17.5 1.5t-7 4.5q0 13 30 37.5t43 24.5h38q34 43 81.5 77.5t89.5 34.5q44 0 72.5 -34t35.5 -81q-11 -19 -37 -44
t-44 -25q-4 0 -6 5q-22 104 -99 104q-18 0 -22 -3q-10 -14 -17 -34h82q4 0 4 -2q0 -24 -35 -44t-60 -20v-12h91q4 0 4 -2q0 -16 -25 -34.5t-46 -29.5q31 -45 76 -45q12 0 30 6t26 7q-12 -35 -54 -61.5t-80 -26.5z" />
    <glyph glyph-name="trademark" unicode="&#x2122;" horiz-adv-x="297" 
d="M167 418q0 -7 -9.5 -12t-17.5 -5q-15 0 -15 16q0 12 7 36t7 36q0 2 -2 8l-2 4q0 6 7.5 10.5t13.5 4.5q13 0 13 -13v-6q23 19 39 19q13 0 13 -13v-6q19 19 39 19q12 0 12 -13q0 -12 -6.5 -36t-6.5 -36t8 -12q2 0 2 -2q0 -6 -9.5 -11t-16.5 -5q-15 0 -15 16q0 12 7 36t7 36
q0 8 -2 10q-9 -3 -13.5 -6.5t-6 -6.5t-4 -11t-4.5 -14q0 -3 -2.5 -13.5t-2.5 -16.5q0 -12 8 -12q3 0 3 -1q0 -7 -9.5 -12t-17.5 -5q-15 0 -15 16q0 12 7.5 36t7.5 36q0 7 -3 10q-7 -2 -11.5 -4.5t-6.5 -6t-3 -6t-2.5 -9t-3.5 -12.5q-6 -18 -6 -30t9 -12q3 0 3 -1zM26 485
l-20 -16q-6 9 -6 19l3 12l8 6l12 10h86q11 -20 11 -28v-3l-19 -16v2q0 9 -11 29h-15q-1 -4 -7 -30.5t-6 -38.5t9 -12q1 0 1 -2q0 -5 -9.5 -10.5t-15.5 -5.5q-15 0 -15 16q0 12 6.5 36t6.5 36q0 9 -2 11h-23q2 -8 6 -15z" />
    <glyph glyph-name="minus" unicode="&#x2212;" horiz-adv-x="258" 
d="M71 207h174q3 0 3 -3q0 -12 -30 -37.5t-42 -25.5h-174q-5 0 -5 4q0 12 30.5 37t43.5 25z" />
    <glyph glyph-name="fi" unicode="&#xfb01;" horiz-adv-x="419" 
d="M572 -303l3 2q3 4 13 19.5t16.5 23.5t17.5 19t22.5 16.5t23.5 5.5q3 0 1 -4q-1 -3 -1 -4q-9 -28 -50.5 -69.5t-73.5 -63.5q-100 -68 -206 -68q-180 0 -489 165q-120 -70 -254 -70q-23 0 -45 4t-45 12.5t-37 26.5t-14 43q0 58 66.5 104.5t126.5 46.5q25 0 51.5 -5.5
t58.5 -18.5t50.5 -21.5t56 -27.5t46.5 -23q48 31 86.5 109.5t52.5 148.5h-50l15 33l46 29q14 65 56.5 119t101.5 54q21 0 33.5 -16t12.5 -38q0 -14 -3.5 -25t-7 -16t-14 -16.5t-15.5 -17.5l-36 -7q2 17 3 33.5t-8.5 28t-30.5 10.5q0 -1 -6 -17t-10.5 -32t-1.5 -19l-7 -41h68
l-14 -33l-49 -29h-21q-47 -157 -178 -270q77 -38 116.5 -56t111 -47t132 -42t117.5 -13q63 0 120 25l31 20zM-336 -266q74 0 143 25q-15 7 -53 25t-61 28t-56 19t-61 9q-45 0 -45 -26q0 -41 43 -60.5t90 -19.5zM304 219q0 14 -8 21t-8 10q0 12 26.5 34.5t38.5 22.5
q10 0 16.5 -13t6.5 -25q0 -8 -13 -60q-17 -49 -17 -98t39 -49q4 0 4 -4q0 -17 -27 -37.5t-44 -20.5q-44 0 -44 61q0 28 15 81t15 77zM376 395q0 -25 -9.5 -40.5t-31.5 -30.5q-23 -13 -31 -13q-4 0 -4 3q0 4 2 14.5t2 16.5q0 15 -8 21.5t-8 9.5q0 12 26 34t38 22
q11 0 17.5 -13t6.5 -24z" />
    <glyph glyph-name="fl" unicode="&#xfb02;" horiz-adv-x="423" 
d="M572 -303l3 2q3 4 13 19.5t16.5 23.5t17.5 19t22.5 16.5t23.5 5.5q3 0 1 -4q-1 -3 -1 -4q-9 -28 -50.5 -69.5t-73.5 -63.5q-100 -68 -206 -68q-180 0 -489 165q-120 -70 -254 -70q-23 0 -45 4t-45 12.5t-37 26.5t-14 43q0 58 66.5 104.5t126.5 46.5q25 0 51.5 -5.5
t58.5 -18.5t50.5 -21.5t56 -27.5t46.5 -23q48 31 86.5 109.5t52.5 148.5h-50l15 33l46 29q14 65 56.5 119t101.5 54q21 0 33.5 -16t12.5 -38q0 -14 -3.5 -25t-7 -16t-14 -16.5t-15.5 -17.5l-36 -7q2 17 3 33.5t-8.5 28t-30.5 10.5q0 -1 -6 -17t-10.5 -32t-1.5 -19l-7 -41h68
l-14 -33l-49 -29h-21q-47 -157 -178 -270q77 -38 116.5 -56t111 -47t132 -42t117.5 -13q63 0 120 25l31 20zM-336 -266q74 0 143 25q-15 7 -53 25t-61 28t-56 19t-61 9q-45 0 -45 -26q0 -41 43 -60.5t90 -19.5zM385 402q0 -50 -27.5 -146t-27.5 -144q0 -50 39 -50q5 0 5 -5
q0 -17 -27 -37t-45 -20q-44 0 -44 60q0 48 27 142.5t27 144.5q0 19 -4 29t-8.5 13.5t-4.5 5.5q0 12 26 34t38 22q26 0 26 -49z" />
    <glyph glyph-name="a.end" horiz-adv-x="609" 
d="M455 569q40 0 72.5 -42t47.5 -92t15 -87q0 -74 -39.5 -160t-111 -149t-149.5 -63q-35 0 -62 20t-35 53q-53 -51 -104 -51q-42 0 -65.5 34t-23.5 78q0 65 56.5 131t119.5 66q44 0 71 -44q29 29 52 29q3 0 3 -2q0 -24 -16.5 -74.5t-16.5 -76.5q0 -43 22 -69t65 -26
q41 0 72.5 25t49 64t26 79.5t8.5 77.5q0 55 -17 100q-9 23 -22 41t-21.5 25.5t-33.5 24.5t-34 24l-1 2q0 12 29.5 37t42.5 25zM173 62q20 35 20 76q0 43 -21.5 75t-61.5 32q-4 0 -10 -1.5t-8 -1.5q-20 -35 -20 -76t21 -74t60 -33q9 0 20 3z" />
    <glyph glyph-name="m.end" horiz-adv-x="689" 
d="M668 347q0 -55 -24.5 -119.5t-64 -120.5t-96.5 -93.5t-115 -37.5q-45 0 -72.5 27.5t-27.5 71.5q0 21 16.5 66t16.5 65l-1 25l-11 14h-8q-8 0 -19 -7.5t-26 -21.5l-14 -13q-15 -66 -15 -90q0 -50 39 -50q5 0 5 -3q0 -18 -27.5 -38.5t-46.5 -20.5q-42 0 -42 61
q0 26 14.5 74t14.5 70v25l-12 14h-8q-16 0 -58 -42q-15 -58 -15 -90q0 -50 39 -50q4 0 4 -3q0 -18 -27 -38.5t-46 -20.5q-43 0 -43 61q0 27 15.5 80t15.5 78q0 1 -2.5 6l-5.5 11l-4 8q-3 0 -3 6q0 27 66 56q18 -9 20 -28.5t-3 -36.5q75 65 110 65q40 0 26 -65q71 65 111 65
q30 0 30 -36q0 -23 -14.5 -69t-14.5 -70q0 -35 32 -69q2 1 3.5 0.5t2.5 -1.5t2 -3t2 -3q12 -12 49 -12q40 0 71.5 25.5t48.5 65t25.5 80t8.5 77.5q0 72 -32 128t-96 85q45 64 72 64q39 0 71.5 -43t47.5 -93t15 -86z" />
    <glyph glyph-name="n.end" horiz-adv-x="554" 
d="M533 349q0 -55 -24.5 -119.5t-63.5 -121t-96 -94.5t-116 -38q-46 0 -73 27.5t-27 72.5q0 21 16.5 65.5t16.5 64.5l-1 25l-11 14h-8q-8 0 -19.5 -8t-24 -20t-15.5 -14q-16 -71 -16 -90q0 -50 40 -50q5 0 5 -2q0 -19 -27 -39.5t-46 -20.5q-43 0 -43 61q0 27 15.5 80
t15.5 78q0 9 -8 19.5t-8 11.5q0 17 22.5 32.5t44.5 23.5q18 -9 20 -28.5t-4 -36.5q71 65 111 65q30 0 30 -36q0 -23 -14.5 -67t-14.5 -67q0 -39 32 -74q2 2 3.5 1t2.5 -2t2 -3t2 -3q12 -12 49 -12q40 0 71.5 25.5t48.5 64.5t25.5 80t8.5 78q0 53 -17 98q-12 30 -30.5 52
t-30.5 30t-50 33l-1 1q0 13 29 38t44 25q39 0 71.5 -42t47.5 -91.5t15 -86.5z" />
    <glyph glyph-name="u.end" horiz-adv-x="563" 
d="M539 348q0 -74 -39.5 -159.5t-111 -149t-148.5 -63.5q-29 0 -62 18t-39 44q-37 -37 -96 -37q-43 0 -43 61q0 29 15.5 81t15.5 77q0 9 -8 19.5t-8 11.5q0 28 67 56q21 -10 21 -37q0 -23 -14 -63v3v-4l-8 -30q-9 -47 -9 -63q0 -25 9 -37.5t32 -12.5q5 0 24 8q1 25 16 75
t15 74q0 10 -8 19.5t-8 11.5q0 29 67 56q18 -8 20 -36q5 -27 -6 -65t-12 -42q-14 -48 12 -84t75 -36q52 0 89 44.5t51 98t14 103.5q0 55 -17 100q-6 15 -14 28t-13 20.5t-19.5 19.5t-17.5 14.5t-24 16.5t-23 16l-2 1q0 12 28.5 37.5t42.5 25.5q41 0 73.5 -41.5t47.5 -91
t15 -88.5z" />
    <glyph glyph-name="w.end" horiz-adv-x="698" 
d="M674 347q0 -55 -24.5 -119.5t-64 -120.5t-96.5 -93.5t-115 -37.5q-29 0 -59 18t-36 44q-37 -37 -97 -37q-33 0 -40 39q-39 -39 -99 -39q-43 0 -43 61q0 27 16 80t16 78q0 1 -6 11.5t-6 13.5q-4 1 -4 6q0 29 67 56q20 -11 20 -36q0 -24 -14 -64v3v-4l-8 -30q-9 -38 -9 -63
t9 -37.5t32 -12.5q12 0 27 11q1 23 16 72t15 74q0 1 -2.5 6l-5.5 11l-4 8q-4 1 -4 6q0 28 67 56q20 -9 20 -36q0 -26 -15 -78t-15 -80q0 -20 10 -37.5t31 -12.5l22 7v4q0 25 16.5 73.5t16.5 72.5q0 1 -6 11.5t-6 13.5q-4 1 -4 6q0 29 67 56q20 -9 20 -36q0 -17 -3 -35.5
t-6 -31t-9.5 -36t-9.5 -35.5q-11 -40 16 -67.5t76 -21.5q52 7 88.5 51.5t50.5 95.5t14 101q0 72 -32 128t-96 85q1 1 9 11.5t13.5 17.5t14 16t17 14t15.5 5q41 0 74 -42t48 -92t15 -88z" />
    <glyph glyph-name="v.end" horiz-adv-x="546" 
d="M519 347q0 -74 -40 -160t-111 -148.5t-148 -62.5q-26 0 -54 14.5t-38 35.5q-24 -24 -39 -24q-31 0 -60 47t-29 81q0 16 8.5 45t8.5 46q0 9 -7.5 19t-7.5 11q0 27 66 56q21 -10 21 -36q0 -16 -8 -45t-8 -44q0 -57 47 -97q2 18 18 64.5t16 70.5q0 9 -8 19.5t-8 11.5
q0 28 67 56q20 -9 20 -37q0 -20 -16 -66.5t-12 -72.5q5 -29 17.5 -48.5t28.5 -27t25.5 -9.5t18.5 -2q40 0 71.5 25.5t49 64.5t26 80t8.5 78q0 53 -17 98q-7 16 -14.5 29t-13.5 21t-18 18.5t-18 14.5t-23 15.5t-24 16.5l-2 1q0 13 29.5 38t44.5 25q39 0 71.5 -43t47 -93
t14.5 -86z" />
    <glyph glyph-name="z.end" horiz-adv-x="555" 
d="M396 569q40 0 72 -42.5t47 -92.5t15 -87q0 -87 -35 -156.5t-95 -113t-135 -66t-159 -22.5q-46 0 -106 5l-1 13q0 71 60.5 125t132.5 58q11 27 14 54h-156q-3 0 -3 1q0 22 17.5 36.5t50.5 19t56.5 6t62 0t39.5 -1.5l4 -4q-2 -61 -49 -114.5t-106 -57.5q-28 -2 -38 -18.5
t-13 -49.5q29 -4 152 -4q35 0 93.5 15t80.5 35q-1 1 2 3l10 14q11 14 21 41q24 60 24 125q0 54 -18 100q-11 30 -25.5 47.5t-44.5 38t-41 29.5l-2 2q0 12 30.5 37t42.5 25z" />
    <glyph glyph-name="f.alt1" horiz-adv-x="285" 
d="M572 -303l3 2q3 4 13 19.5t16.5 23.5t17.5 19t22.5 16.5t23.5 5.5q3 0 1 -4q-1 -3 -1 -4q-9 -28 -50.5 -69.5t-73.5 -63.5q-100 -68 -206 -68q-180 0 -489 165q-120 -70 -254 -70q-23 0 -45 4t-45 12.5t-37 26.5t-14 43q0 58 66.5 104.5t126.5 46.5q25 0 51.5 -5.5
t58.5 -18.5t50.5 -21.5t56 -27.5t46.5 -23q48 31 86.5 109.5t52.5 148.5h-50l15 33l46 29q14 65 56.5 119t101.5 54q21 0 33.5 -16t12.5 -38q0 -14 -3.5 -25t-7 -16t-14 -16.5t-15.5 -17.5l-36 -7q2 17 3 33.5t-8.5 28t-30.5 10.5q0 -1 -6 -17t-10.5 -32t-1.5 -19l-7 -41h68
l-14 -33l-49 -29h-21q-47 -157 -178 -270q77 -38 116.5 -56t111 -47t132 -42t117.5 -13q63 0 120 25l31 20zM-336 -266q74 0 143 25q-15 7 -53 25t-61 28t-56 19t-61 9q-45 0 -45 -26q0 -41 43 -60.5t90 -19.5z" />
    <glyph glyph-name="y.alt1" horiz-adv-x="253" 
d="M506 -360q54 0 93.5 15t61 36t36.5 42t30 36t33 15q5 0 5 -2q0 -48 -64.5 -98.5t-142 -80t-124.5 -29.5q-177 0 -489 165q-118 -70 -257 -70q-51 0 -94.5 20.5t-43.5 65.5q0 55 66.5 103t125.5 48q24 0 51 -5.5t58.5 -18.5t51 -21.5t56.5 -27l47 -23.5q42 26 77.5 92.5
t53.5 129.5q-40 -35 -89 -35t-49 62q0 27 15 79.5t15 78.5q0 19 -10 25l13 33q28 25 50 29q20 -33 20 -36q0 -11 -7 -41l-6 -18l-1 -5l1 3l-1 -4l-8 -30q-9 -38 -9 -63t8.5 -36.5t31.5 -13.5q10 0 35 15q7 7 15 69t8 83q0 6 -12 15l13 33q28 25 50 29q22 -9 22 -44
q0 -40 -10.5 -93.5t-19.5 -82.5t-28 -90l-3 3q-51 -112 -152 -199q77 -38 116.5 -56t111 -47t132 -42t117.5 -13zM-380 -170v1l-2 -2q1 1 2 1zM-240 -266q23 0 45.5 3.5t54 11t44.5 10.5q-14 6 -53.5 25t-61.5 28.5t-55.5 18.5t-61.5 9q-21 0 -41 -5q-3 -8 -3 -21
q0 -41 42.5 -60.5t89.5 -19.5z" />
    <glyph glyph-name="g.alt1" horiz-adv-x="309" 
d="M715 -303l2 2q45 68 72 81q9 4 17 4q6 0 6 -2q0 -47 -65 -97.5t-143 -80.5t-124 -30q-173 0 -489 165q-115 -70 -258 -70q-50 0 -93.5 20.5t-43.5 64.5q0 56 66.5 104t124.5 48q31 0 70.5 -11.5t62.5 -21t73.5 -34.5t59.5 -29q43 28 81 100t51 133q-61 -49 -96 -49
q-42 0 -65.5 36t-23.5 80q0 62 56.5 127.5t117.5 65.5q30 0 53 -19q16 13 39 20q23 -10 23 -44q0 -105 -59 -266l-3 2q-26 -59 -62 -104.5t-89 -93.5q93 -47 154.5 -74.5t155 -55.5t166.5 -28q66 0 120 25q16 7 32 20zM153 56q7 0 38 12q16 66 19 90q-8 -6 -13 -6q-3 0 -5 5
q-20 85 -82 85q-11 0 -18 -3q-21 -28 -21 -77q0 -40 22 -73t60 -33zM-333 -169h-1q0 -1 -2 -1v-1q1 1 2 1q0 1 1 1zM-194 -266q74 0 143 25q-11 5 -42 20t-48.5 23t-44.5 18.5t-50.5 15t-45.5 4.5q-19 0 -41 -5q-4 -9 -4 -21q0 -41 43 -60.5t90 -19.5z" />
    <glyph glyph-name="j.alt1" horiz-adv-x="148" 
d="M101 431q11 0 17.5 -13t6.5 -24q0 -17 -4 -29q-4 -15 -28.5 -35.5t-39.5 -20.5q-4 0 -4 3q0 4 2 14.5t2 16.5q0 14 -8 21t-8 10q0 12 26 34.5t38 22.5zM318 -426q-180 0 -489 165q-118 -70 -260 -70q-50 0 -92.5 20.5t-42.5 65.5q0 56 67 103.5t125 47.5q20 0 44.5 -5
t43.5 -11t48 -18.5t43 -19.5l45 -22.5l39 -19.5q38 22 63.5 61.5t36 75.5t24 88t24.5 80q16 39 16 112q0 2 -5 8.5t-7 6.5l14 33q25 23 49 29q25 -12 23 -42q-6 -136 -45.5 -235.5t-146.5 -242.5q176 -83 248 -107q112 -37 206 -37q54 0 94 15t61 36t36.5 42t30.5 36t33 15
q5 0 5 -2q0 -48 -65 -98.5t-142 -80t-124 -29.5zM-498 -171q1 1 2 1v1zM-213 -241q-13 6 -53 25t-61 28.5t-55 18.5t-62 9q-20 0 -42 -5q-3 -11 -3 -21q0 -41 43 -60.5t90 -19.5q36 0 143 25z" />
    <glyph glyph-name="b.alt1" horiz-adv-x="299" 
d="M463 745q65 0 94 -32t29 -97l-1 -44q-8 -18 -27 -32t-37 -14q1 44 -1 68t-13 49.5t-37 36.5t-69 11q-64 0 -161 -33.5t-168 -72.5q5 -16 19.5 -62t21.5 -77.5t7 -63.5q0 -62 -16 -119q49 38 83 38q45 0 69.5 -34t24.5 -81q0 -73 -50.5 -122t-126.5 -72q-6 -2 -18.5 1.5
t-17.5 8.5q-32 -15 -51 1.5t-19 52.5q0 49 26.5 146.5t26.5 150.5q0 79 -50 196q-70 -36 -106.5 -53.5t-99.5 -44t-118.5 -38t-109.5 -11.5q-34 0 -69.5 8t-68 24.5t-53.5 45.5t-21 67q0 70 64.5 129t146 88t149.5 29q238 0 344 -185q76 39 130 63.5t134 49t140 24.5z
M109 237q-21 -34 -21 -76t21 -75t61 -33q3 0 18 3q21 34 21 76q0 43 -20.5 75.5t-61.5 32.5q-13 0 -18 -3zM-378 456q147 0 365 115q-104 168 -330 168q-35 0 -72.5 -6.5t-76.5 -21.5t-64 -44t-25 -68q0 -48 34 -82t78 -47.5t91 -13.5z" />
    <glyph glyph-name="h.alt1" horiz-adv-x="270" 
d="M464 745q122 0 122 -128l-1 -45q-8 -18 -26 -32t-37 -14v51t-6 45t-17 36.5t-34 24t-56 8.5q-68 0 -166.5 -33t-170.5 -73q52 -109 52 -212q0 -17 -3 -37t-5.5 -31t-9.5 -37.5t-8 -31.5q76 66 108 66q33 0 33 -37q0 -25 -15.5 -78t-15.5 -80q0 -23 9.5 -37t30.5 -12
l-14 -34l-49 -29q-49 0 -49 61q0 26 15 74.5t15 69.5l-1 26l-11 13l-8 1q-16 0 -59 -43q-15 -60 -15 -90q0 -22 9.5 -36.5t29.5 -12.5l-13 -34l-50 -29q-49 0 -49 61q0 50 27 149t27 152q0 39 -5 65l1 1q-17 70 -47 126q-165 -84 -235 -109q-107 -38 -199 -38q-35 0 -70 8
t-68 24.5t-54 45.5t-21 67q0 70 64.5 129t146 88t149.5 29q236 0 345 -185q262 137 404 137zM-378 456q146 0 366 115q-108 168 -331 168q-35 0 -72.5 -6.5t-76 -21.5t-63.5 -44t-25 -68q0 -70 63 -106.5t139 -36.5z" />
    <glyph glyph-name="d.alt1" horiz-adv-x="340" 
d="M664 745q64 0 93 -32t29 -96l-1 -45q-6 -18 -25.5 -32t-37.5 -14v51t-6 45t-17.5 36.5t-34 24t-55.5 8.5q-68 0 -166.5 -33t-170.5 -73q48 -93 48 -196q0 -49 -25.5 -142t-25.5 -140q0 -22 9.5 -36.5t30.5 -12.5l-14 -34l-49 -29q-47 0 -49 52q-13 -13 -23.5 -21.5
t-27 -15t-23.5 -8.5t-34 -10q-37 -11 -63 31.5t-26 80.5q0 63 55.5 130t116.5 67q43 0 70 -36q11 73 11 102q0 35 -7 64l1 1q-21 73 -45 117q-89 -47 -141.5 -71.5t-137 -50t-155.5 -25.5q-48 0 -94 13.5t-82 48t-36 83.5q0 54 38 102t94.5 78.5t117 48t110.5 17.5
q238 0 344 -185q77 39 130 63.5t133.5 49t140.5 24.5zM172 56q21 32 21 76q0 42 -21 75t-61 33q-12 0 -19 -3q-20 -35 -20 -76q0 -42 20.5 -75t61.5 -33q3 0 18 3zM-178 456q147 0 367 115q-108 168 -331 168q-35 0 -72.5 -6.5t-76.5 -21.5t-64 -44t-25 -68q0 -70 63 -106.5
t139 -36.5z" />
    <glyph glyph-name="t.alt1" horiz-adv-x="135" 
d="M469 745q64 0 93 -32t29 -96l-1 -45q-6 -18 -25 -31t-38 -15v51t-6 45t-17 36.5t-34 24t-56 8.5q-129 0 -337 -106q35 -69 46 -150q106 22 163 -16q-9 -17 -37 -34t-47 -17q-26 17 -77 19q-4 -41 -28 -135.5t-24 -142.5q0 -22 9.5 -37t29.5 -13l-13 -34l-50 -29
q-49 0 -49 60q0 47 25 139.5t29 132.5h1l1 52q-16 -3 -67.5 -20.5t-72.5 -17.5q-5 0 -5 2q0 30 142 75q-11 65 -46 130q-66 -34 -105.5 -53.5t-101 -44.5t-118 -37t-110.5 -12q-47 0 -93 13.5t-82 48t-36 83.5q0 54 38 102t94.5 78.5t117 48t110.5 17.5q241 0 344 -185
q76 39 130 63.5t134 49t140 24.5zM-373 456q86 0 172.5 30.5t193.5 84.5q-106 168 -330 168q-35 0 -72.5 -6.5t-76.5 -21.5t-64 -44t-25 -68q0 -70 63 -106.5t139 -36.5z" />
    <glyph glyph-name="k.alt1" horiz-adv-x="314" 
d="M466 745q65 0 94 -32t29 -97l-1 -44q-8 -18 -27 -32t-37 -14v51t-6 45t-17 36.5t-34 24t-56 8.5q-69 0 -167 -33t-169 -73q47 -97 47 -196q0 -54 -19 -130q100 90 147 90q11 0 24 -17t13 -28q0 -36 -31.5 -68.5t-71.5 -53.5q10 -11 28 -44.5t36 -55t40 -21.5l-13 -33
l-50 -29q-25 0 -42.5 18.5t-27 42.5t-30.5 49.5t-49 35.5l-4 -34q0 -22 9.5 -37t30.5 -13l-14 -33l-49 -29q-50 0 -50 60q0 50 28 150.5t28 154.5q0 32 -6 67v1q-21 73 -45 117q-70 -36 -106.5 -53.5t-99.5 -44t-118.5 -38t-109.5 -11.5q-34 0 -69.5 8t-68 24.5t-53.5 45.5
t-21 67q0 70 64.5 129t146 88t149.5 29q238 0 344 -185q76 39 130 63.5t134 49t140 24.5zM-375 456q147 0 365 115q-104 168 -330 168q-35 0 -72.5 -6.5t-76.5 -21.5t-64 -44t-25 -68q0 -48 33.5 -82t77.5 -47.5t92 -13.5zM185 288q-11 0 -52 -31.5t-41 -39.5q22 -2 34 -2
q51 0 86 15q4 9 4 21q0 13 -9 25t-22 12z" />
    </font>
</defs>
</svg>
