<?xml version="1.0" standalone="no"?>
<!DOCTYPE svg PUBLIC "-//W3C//DTD SVG 1.1//EN" "http://www.w3.org/Graphics/SVG/1.1/DTD/svg11.dtd" >
<svg>
<metadata>
Created by FontForge 20090914 at Thu Nov 28 19:30:33 2019
 By www-data
Copyright (c) 2019 by Lhotive Studio. All rights reserved.
</metadata>
<defs>
<font id="Syakia" horiz-adv-x="764" >
  <font-face 
    font-family="Syakia"
    font-weight="400"
    font-stretch="normal"
    units-per-em="1000"
    panose-1="2 0 5 3 0 0 0 2 0 4"
    ascent="750"
    descent="-250"
    x-height="323.504"
    cap-height="687.998"
    bbox="-1953.89 -665.89 2285.89 969.608"
    underline-thickness="50"
    underline-position="-50"
    unicode-range="U+000D-U+E225"
  />
<missing-glyph horiz-adv-x="200" 
 />
    <glyph glyph-name="t_t" unicode="tt" horiz-adv-x="522" 
d="M388 577c15.333 32 35.6709 58.332 61.0039 78.999s57 31 95 31c19.333 0 33.5 -3.83301 42.5 -11.5s14.333 -17.834 16 -30.501s-0.333008 -27.667 -6 -45s-13.334 -35.333 -23.001 -54s-21.334 -37.834 -35.001 -57.501s-27.834 -38.5 -42.501 -56.5
c46 -4.66699 90.333 -4.66699 133 0s83.334 17.667 122.001 39c6.66699 3.33301 11.667 4.16602 15 2.49902s3.66602 -5.5 0.999023 -11.5c-11.333 -26.667 -27.333 -47.167 -48 -61.5s-45 -24.166 -73 -29.499s-58.833 -7 -92.5 -5s-68.834 6 -105.501 12l-6 -6l-43 -42
c-10 -30.667 -19.167 -60.167 -27.5 -88.5s-14.666 -54.166 -18.999 -77.499s-6.83301 -43.5 -7.5 -60.5s1.33301 -29.5 6 -37.5c6 -9.33301 11.833 -15.166 17.5 -17.499s13.5 -0.833008 23.5 4.5c20 15.333 40.5 34.833 61.5 58.5s43.833 53.834 68.5 90.501l19 -18
c-8 -14 -17.167 -28.167 -27.5 -42.5s-21.333 -28.166 -33 -41.499s-23.667 -26 -36 -38s-24.5 -23 -36.5 -33c-13.333 -10.667 -27.333 -18.5 -42 -23.5s-29 -7.5 -43 -7.5c-17.333 0.666992 -31.166 3.66699 -41.499 9s-18.166 12.166 -23.499 20.499s-8.5 18 -9.5 29
s-0.833008 22.833 0.5 35.5c0.666992 8 1.16699 16.167 1.5 24.5s1.16602 16.833 2.49902 25.5c-15.333 -21.333 -32.5 -41.833 -51.5 -61.5s-37.167 -36.834 -54.5 -51.501c-13.333 -10.667 -27.333 -18.5 -42 -23.5s-29 -7.5 -43 -7.5
c-17.333 0.666992 -31.166 3.66699 -41.499 9s-18.166 12.166 -23.499 20.499s-8.5 18 -9.5 29s-0.833008 22.833 0.5 35.5c1.33301 20.667 3.16602 42 5.49902 64s6 45.5 11 70.5s11.5 52.167 19.5 81.5s18 61.666 30 96.999c4.66699 16.667 10.667 33.667 18 51
c-54 8.66699 -103.667 11.334 -149 8.00098s-82 -17.333 -110 -42c-8.66699 -2.66699 -14 -1.5 -16 3.5s-1 8.83301 3 11.5c20.667 18 42.167 32.333 64.5 43s45.833 18.5 70.5 23.5s50.167 7.5 76.5 7.5s53.5 -1.66699 81.5 -5l34 71c15.333 32 35.666 58.333 60.999 79
s57 31 95 31c25.333 0 42.166 -6.33301 50.499 -19s10.666 -29.167 6.99902 -49.5s-12.167 -43.166 -25.5 -68.499s-29 -50.666 -47 -75.999l66 -15c14.667 36.667 32.667 76 54 118zM181.005 371.999l-43 -42.0029c-10 -30.667 -19.167 -60.167 -27.5 -88.5
s-14.666 -54.166 -18.999 -77.499s-6.83301 -43.5 -7.5 -60.5s1.33301 -29.5 6 -37.5c6 -9.33301 11.833 -15.166 17.5 -17.499s13.5 -0.833008 23.5 4.5c20 15.333 40.5 34.833 61.5 58.5s43.833 53.834 68.5 90.501v-1c5.33301 28 12.166 58.5 20.499 91.5
s19.5 70.5 33.5 112.5l-86 20c-8 -10 -16.167 -19.5 -24.5 -28.5zM557.005 590.996c5.33301 13.333 8.66797 25.9971 10.001 37.9971s0.666016 20.333 -2.00098 25s-7.66699 4.33398 -15 -0.999023s-17 -18.666 -29 -39.999c-13.333 -23.333 -26.833 -49.666 -40.5 -78.999
s-27.167 -61 -40.5 -95l17 -2l32 46l29.5 43.5l23.5 37c6.66699 11 11.667 20.167 15 27.5zM296.007 590.993c5.33301 13.333 8.66699 25.998 10 37.998s0.666016 20.333 -2.00098 25s-7.66699 4.33398 -15 -0.999023s-17 -18.666 -29 -39.999
c-10 -17.333 -20 -36.5 -30 -57.5l-31 -66.5l29 -6l42 62.5c12.667 19 21.334 34.167 26.001 45.5zM155.008 375.991l38 57l-15 3l-12 -30c-4 -10 -7.66699 -20 -11 -30zM416.008 375.991c0.666992 1.33301 1.33203 2.5 1.99902 3.5s1.33398 2.16699 2.00098 3.5h-2z" />
    <glyph glyph-name=".notdef" horiz-adv-x="200" 
 />
    <glyph glyph-name="NULL" horiz-adv-x="0" 
 />
    <glyph glyph-name="NULL" horiz-adv-x="0" 
 />
    <glyph glyph-name="nonmarkingreturn" unicode="&#xd;" horiz-adv-x="200" 
 />
    <glyph glyph-name="space" unicode=" " horiz-adv-x="200" 
 />
    <glyph glyph-name="exclam" unicode="!" horiz-adv-x="268" 
d="M220 627l-92 -495c-2.66699 -12.667 -8.16699 -22.167 -16.5 -28.5s-16.833 -9.5 -25.5 -9.5s-16 3.16699 -22 9.5s-8 15.5 -6 27.5l63 493c3.33301 18 10.833 31.167 22.5 39.5s23.667 12.5 36 12.5s22.833 -4.16699 31.5 -12.5s11.667 -20.5 9 -36.5zM82 60
c10 0 17.833 -3.5 23.5 -10.5s7.83398 -15.5 6.50098 -25.5c-1.33301 -9.33301 -6 -17.5 -14 -24.5s-17 -10.5 -27 -10.5c-9.33301 0 -16.833 3.5 -22.5 10.5s-7.83398 15.167 -6.50098 24.5c1.33301 10 6 18.5 14 25.5s16.667 10.5 26 10.5z" />
    <glyph glyph-name="quotedbl" unicode="&#x22;" horiz-adv-x="227" 
d="M139 443c9.33301 0 17.502 -3.49902 24.502 -10.499s10.5 -15.167 10.5 -24.5c0 -6 -1.5 -12.833 -4.5 -20.5s-7.16699 -14.834 -12.5 -21.501s-11.5 -12.5 -18.5 -17.5s-14.5 -7.83301 -22.5 -8.5c9.33301 10 15.666 18.333 18.999 25s3.66602 10 0.999023 10
c-10 0 -17.833 3 -23.5 9s-8.5 14 -8.5 24c0 9.33301 3.33301 17.5 10 24.5s15 10.5 25 10.5zM61.002 443.001c9.33301 0 17.502 -3.49902 24.502 -10.499s10.5 -15.167 10.5 -24.5c0 -6 -1.5 -12.833 -4.5 -20.5s-7.16699 -14.834 -12.5 -21.501s-11.5 -12.5 -18.5 -17.5
s-14.5 -7.83301 -22.5 -8.5c9.33301 10 15.666 18.333 18.999 25s3.66602 10 0.999023 10c-10 0 -17.833 3 -23.5 9s-8.5 14 -8.5 24c0 9.33301 3.33301 17.5 10 24.5s15 10.5 25 10.5z" />
    <glyph glyph-name="numbersign" unicode="#" horiz-adv-x="427" 
d="M369 499l-42 -172h58l-14 -46h-55l-17 -70l65 1l-14 -46h-62l-38 -159l-48 -1l29 160h-111l-29 -159l-48 -1l20 160h-57l11 45h52l9 70h-51l11 45h46l22 173l77 3l-33 -176h111l31 170zM129 211h111l12 70h-110z" />
    <glyph glyph-name="dollar" unicode="$" horiz-adv-x="579" 
d="M492 448c-8.66699 -14 -19.501 -23.8311 -32.501 -29.498s-24.5 -7.33398 -34.5 -5.00098s-16.5 8.66602 -19.5 18.999s0.833008 24.166 11.5 41.499c12 19.333 18.833 35.833 20.5 49.5s-0.166016 25 -5.49902 34s-13.166 15.833 -23.499 20.5
s-21.166 7.66699 -32.499 9l-46 -226l54.5 -26c17.667 -8.66699 33.834 -18 48.501 -28c22 -15.333 36.333 -32.833 43 -52.5s7.5 -39.834 2.5 -60.501s-14.5 -40.667 -28.5 -60s-30.833 -36.666 -50.5 -51.999s-41.167 -27.5 -64.5 -36.5s-46.333 -13.167 -69 -12.5h-2
l-4 -19l29 5l-72 -60l-36 66l25 -7l5 22c-18 4.66699 -31.5 11.334 -40.5 20.001s-16.833 17.5 -23.5 26.5s-13.834 17.167 -21.501 24.5s-18.834 12 -33.501 14c-18 2.66699 -32.333 -3.5 -43 -18.5s-20.334 -32.5 -29.001 -52.5c-3.33301 -7.33301 -6.33301 -12 -9 -14
s-5 -2.16699 -7 -0.5s-3.33301 4.5 -4 8.5s-0.666992 8.33301 0 13c0.666992 10 4.5 23.5 11.5 40.5s16 33.667 27 50s23.833 30.833 38.5 43.5s30 19.667 46 21c12.667 0.666992 24.167 -1.83301 34.5 -7.5s19.5 -13.334 27.5 -23.001s15.5 -20.5 22.5 -32.5l20.5 -35
l36 170l-57.5 34c-19 11.333 -35.667 23.333 -50 36s-25.5 26.334 -33.5 41.001s-11 31 -9 49c2 20 9.83301 39.167 23.5 57.5s30.667 34.833 51 49.5s43 27 68 37s50.167 16.333 75.5 19l5 22l-18 -3l50 46l34 -49l-18 3l-4 -18c22.667 -2 44.5 -6.83301 65.5 -14.5
s37.667 -18.167 50 -31.5s18.833 -29.833 19.5 -49.5s-7.33301 -42.5 -24 -68.5zM271.999 71.002c0.666992 -0.666992 1.66699 -1 3 -1c10.667 -3.33301 23.5 -0.5 38.5 8.5s28.167 21 39.5 36s19.5 31 24.5 48s2.83301 31.833 -6.5 44.5c-14 18 -34.333 35.667 -61 53z
M325.999 582.002c-15.333 -5.33301 -31.001 -13.332 -47.001 -23.999s-29.833 -22.834 -41.5 -36.501s-19.667 -27.667 -24 -42s-2.16602 -27.833 6.50098 -40.5c7.33301 -11.333 16.5 -21.333 27.5 -30s23.167 -16.667 36.5 -24z" />
    <glyph glyph-name="percent" unicode="%" horiz-adv-x="434" 
d="M304 238c-28.667 0.666992 -51.998 -8.33496 -69.998 -27.002s-29.667 -51 -35 -97c-1.33301 -13.333 -1.83301 -26.5 -1.5 -39.5s2.5 -24.5 6.5 -34.5s10.667 -18.167 20 -24.5s22.666 -9.5 39.999 -9.5c10.667 0 20.667 3.5 30 10.5s17.666 16 24.999 27
s13.5 23.333 18.5 37s8.5 27.5 10.5 41.5c2 11.333 2.83301 23.833 2.5 37.5s-2.16602 26.334 -5.49902 38.001s-8.33301 21.334 -15 29.001s-15.334 11.5 -26.001 11.5zM140.002 651.998c-28.667 0.666992 -51.8311 -8.16699 -69.498 -26.5s-29.167 -50.5 -34.5 -96.5
c-2 -13.333 -3 -26.5 -3 -39.5s2.16699 -24.5 6.5 -34.5s11.333 -18.167 21 -24.5s22.834 -9.5 39.501 -9.5c11.333 0 21.666 3.33301 30.999 10s17.5 15.5 24.5 26.5s13 23.5 18 37.5s8.83301 28 11.5 42c2 11.333 2.83301 23.666 2.5 36.999s-2.33301 25.833 -6 37.5
s-8.83398 21.334 -15.501 29.001s-15.334 11.5 -26.001 11.5zM103.005 434.997c-7.33301 0 -12.666 5 -15.999 15s-5.16602 22.333 -5.49902 37s0.666992 30.667 3 48s6 33.333 11 48s11 27 18 37s14.833 15 23.5 15c7.33301 0 12.666 -5 15.999 -15
s5.16602 -22.333 5.49902 -37s-0.666992 -30.667 -3 -48s-6 -33.333 -11 -48s-11 -27 -18 -37s-14.833 -15 -23.5 -15zM38.0049 -8.00293l262 684h51l-255 -685zM266.005 20.9971c-7.33301 0 -12.668 5 -16.001 15s-5.16602 22.333 -5.49902 37s0.666992 30.667 3 48
s6 33.333 11 48s11 27 18 37s14.833 15 23.5 15c7.33301 0 12.833 -5 16.5 -15s5.66699 -22.333 6 -37s-0.666992 -30.667 -3 -48s-6 -33.333 -11 -48s-11.167 -27 -18.5 -37s-15.333 -15 -24 -15z" />
    <glyph glyph-name="ampersand" unicode="&#x26;" horiz-adv-x="606" 
d="M266 72c-2 -4.66699 -5.83789 -9 -11.5049 -13s-11.5 -6.83301 -17.5 -8.5s-10.833 -1.83398 -14.5 -0.500977s-4.5 5.33301 -2.5 12l137 416c3.33301 13.333 6.33301 28.166 9 44.499s3.33398 31.833 2.00098 46.5s-6 26.834 -14 36.501s-21 14.5 -39 14.5
c-34 0 -60.5 -8.33301 -79.5 -25s-31.167 -38 -36.5 -64c-4.66699 -22 -2.66699 -39.167 6 -51.5s19.834 -21.166 33.501 -26.499s27.5 -8 41.5 -8s24 1 30 3s11.333 1.5 16 -1.5s7.83398 -7.16699 9.50098 -12.5s1 -11 -2 -17s-9.16699 -11 -18.5 -15
c-10 -4 -22.5 -11.333 -37.5 -22s-30.167 -24.5 -45.5 -41.5s-29.833 -37.167 -43.5 -60.5s-23.834 -49.666 -30.501 -78.999c-4.66699 -22 -6.16699 -43.167 -4.5 -63.5s6.33398 -38.166 14.001 -53.499s17.667 -27.5 30 -36.5s27.166 -13.5 44.499 -13.5
c14 0 30.5 4.16699 49.5 12.5s37.5 19.166 55.5 32.499s34.5 28.166 49.5 44.499s25.5 32.5 31.5 48.5c6 16.667 9.16699 30.667 9.5 42s-1 20.666 -4 27.999s-7.16699 13.333 -12.5 18s-11 8.66699 -17 12c-11.333 6 -18.333 13.667 -21 23s-2.5 18.666 0.5 27.999
s7.83301 18 14.5 26s14 13.667 22 17c22 8.66699 40.333 18 55 28s28 22.333 40 37c6 6.66699 12.5 9.83398 19.5 9.50098s13 -2.66602 18 -6.99902s8.16699 -10.166 9.5 -17.499s-1 -14.666 -7 -21.999c-19.333 -24 -37.666 -42 -54.999 -54s-38.333 -20.667 -63 -26
c25.333 -12.667 43.5 -30.167 54.5 -52.5s11.167 -51.5 0.5 -87.5c-8 -28.667 -21.667 -54.167 -41 -76.5s-41.333 -41.166 -66 -56.499s-50.167 -27 -76.5 -35s-50.833 -12 -73.5 -12c-30.667 0 -59 6.33301 -85 19s-48 29.167 -66 49.5s-31.167 43.166 -39.5 68.499
s-9.83301 51 -4.5 77c5.33301 27.333 17 52.5 35 75.5s38.167 43.333 60.5 61s45 32.334 68 44.001s41.833 20.167 56.5 25.5c-18.667 -4 -37.667 -5.16699 -57 -3.5s-36.5 7 -51.5 16s-26.5 22 -34.5 39s-10 39.167 -6 66.5c2.66699 20.667 11.5 40 26.5 58
s32.667 33.667 53 47s41.833 23.666 64.5 30.999s43.334 10.666 62.001 9.99902c26 -1.33301 46.833 -7.66602 62.5 -18.999s27 -25.833 34 -43.5s10.333 -37.334 10 -59.001s-3.16602 -43.5 -8.49902 -65.5c-6 -22 -13.833 -47.333 -23.5 -76l-31 -89l-33.5 -91
l-30.5 -80.5l-22 -57.5c-5.66699 -14.667 -8.5 -22.334 -8.5 -23.001z" />
    <glyph glyph-name="quotesingle" unicode="'" horiz-adv-x="146" 
d="M61 443c9.33301 0 17.502 -3.49902 24.502 -10.499s10.5 -15.167 10.5 -24.5c0 -6 -1.5 -12.833 -4.5 -20.5s-7.16699 -14.834 -12.5 -21.501s-11.5 -12.5 -18.5 -17.5s-14.5 -7.83301 -22.5 -8.5c9.33301 10 15.666 18.333 18.999 25s3.66602 10 0.999023 10
c-10 0 -17.833 3 -23.5 9s-8.5 14 -8.5 24c0 9.33301 3.33301 17.5 10 24.5s15 10.5 25 10.5z" />
    <glyph glyph-name="parenleft" unicode="(" horiz-adv-x="312" 
d="M180 -8c-45.333 22.667 -80.002 52.3271 -104.002 88.9941s-39.333 76.834 -46 120.501s-5 88.834 5 135.501s26.667 91.334 50 134.001s52.833 81.667 88.5 117s75.834 63.333 120.501 84c9.33301 4 16.833 5.33301 22.5 4s9.33398 -4.16602 11.001 -8.49902
s1 -9.5 -2 -15.5s-8.5 -11.333 -16.5 -16c-23.333 -17.333 -46 -42.166 -68 -74.499s-41.833 -68.333 -59.5 -108s-32 -81.334 -43 -125.001s-17 -85.167 -18 -124.5s4 -74.666 15 -105.999s29.5 -55 55.5 -71c8 -4.66699 13.333 -9.66699 16 -15s3.16699 -10 1.5 -14
s-5 -6.66699 -10 -8s-11.167 -0.666016 -18.5 2.00098z" />
    <glyph glyph-name="parenright" unicode=")" horiz-adv-x="400" 
d="M150 670c44.667 -21.333 78.834 -50 102.501 -86s38.5 -75.5 44.5 -118.5s3.5 -87.833 -7.5 -134.5s-28.5 -91.334 -52.5 -134.001s-54 -81.667 -90 -117s-76.333 -63.333 -121 -84c-9.33301 -4 -16.833 -5.33301 -22.5 -4s-9.16699 4 -10.5 8s-0.666016 9 2.00098 15
s8 11.667 16 17c24 18 47.167 42.667 69.5 74s42.166 66 59.499 104s31.333 77.833 42 119.5s16.667 81.834 18 120.501s-2.83398 74.334 -12.501 107.001s-26.5 59 -50.5 79c-4.66699 4 -9.16699 9.16699 -13.5 15.5s-6.83301 12 -7.5 17s1.33301 8.16699 6 9.5
s14 -1.33398 28 -8.00098z" />
    <glyph glyph-name="asterisk" unicode="*" horiz-adv-x="276" 
d="M13 341l75 46l-70 56l19 21l68 -46l4 82l29 -4l1 -76l70 44l12 -43l-68 -37l75 -51l-36 -27l-52 41l1 -80l-43 13l4 76l-76 -42z" />
    <glyph glyph-name="plus" unicode="+" horiz-adv-x="612" 
d="M68 231h183l53 187l44 -3l-50 -184l203 1l-14 -46h-201l-50 -185h-50l52 185h-181z" />
    <glyph glyph-name="comma" unicode="," horiz-adv-x="170" 
d="M54 64c9.33301 0 17.5 -3.5 24.5 -10.5s10.5 -15.167 10.5 -24.5c0 -8.66699 -4 -17.834 -12 -27.501s-14.667 -18.167 -20 -25.5c-3.33301 -3.33301 -4.33301 -2.66602 -3 2.00098l6 16c-1.33301 0 -2.33301 -0.166992 -3 -0.5s-1.66699 -0.5 -3 -0.5
c-9.33301 0 -17.5 3.5 -24.5 10.5s-10.5 15.5 -10.5 25.5c0 9.33301 3.5 17.5 10.5 24.5s15.167 10.5 24.5 10.5z" />
    <glyph glyph-name="hyphen" unicode="-" horiz-adv-x="401" 
d="M58 231l286 1l-14 -46h-283z" />
    <glyph glyph-name="period" unicode="." horiz-adv-x="170" 
d="M48 61c9.33301 0 17.5 -3.5 24.5 -10.5s10.5 -15.5 10.5 -25.5c0 -9.33301 -3.5 -17.5 -10.5 -24.5s-15.167 -10.5 -24.5 -10.5c-10 0 -18.5 3.5 -25.5 10.5s-10.5 15.167 -10.5 24.5c0 10 3.5 18.5 10.5 25.5s15.5 10.5 25.5 10.5z" />
    <glyph glyph-name="slash" unicode="/" horiz-adv-x="513" 
d="M43 -8l324 684h51l-317 -685z" />
    <glyph glyph-name="zero" unicode="0" horiz-adv-x="432" 
d="M263 547c25.333 0 45.999 -9.16602 61.999 -27.499s28 -41.333 36 -69s12.5 -57.5 13.5 -89.5s-0.833008 -61.333 -5.5 -88c-6 -32.667 -14.833 -65.334 -26.5 -98.001s-26 -62.167 -43 -88.5s-36.5 -47.833 -58.5 -64.5s-46.333 -25 -73 -25
c-40.667 0 -72.167 7.33301 -94.5 22s-38.5 34.167 -48.5 58.5s-15.167 51.833 -15.5 82.5s1.5 62 5.5 94c6.66699 54 17 99.833 31 137.5s31.333 68.167 52 91.5s44.834 40 72.501 50s58.5 14.667 92.5 14zM173.999 32.001c20.667 0 39.3301 11.668 55.9971 35.001
s30.834 52.666 42.501 87.999s20.5 73.5 26.5 114.5s8.66699 79.167 8 114.5s-5.16699 64.666 -13.5 87.999s-21.166 35 -38.499 35c-16 0 -30.667 -6.66699 -44 -20s-25.333 -31.166 -36 -53.499s-19.834 -47.666 -27.501 -75.999s-13.667 -57.333 -18 -87
s-6.66602 -58.834 -6.99902 -87.501s1.16699 -54.167 4.5 -76.5s8.83301 -40.333 16.5 -54s17.834 -20.5 30.501 -20.5z" />
    <glyph glyph-name="one" unicode="1" horiz-adv-x="220" 
d="M215 531l-94.998 -511c-1.33301 -9.33301 -4.16602 -15.333 -8.49902 -18s-10.833 -4.33398 -19.5 -5.00098h-63c-7.33301 0.666992 -11.833 1.83398 -13.5 3.50098s-1.83398 6.16699 -0.500977 13.5l79 468c-1.33301 -6 -4.83301 -12.333 -10.5 -19
s-12.167 -12.834 -19.5 -18.501s-14.5 -10.667 -21.5 -15s-12.167 -7.16602 -15.5 -8.49902c-4 -1.33301 -6.83301 -0.5 -8.5 2.5s-2.33398 6.83301 -2.00098 11.5s1.5 9.33398 3.5 14.001s4.66699 8 8 10c12.667 7.33301 25.167 17.666 37.5 30.999s22.5 27 30.5 41
c2 4.66699 3.33301 8.16699 4 10.5s1.66699 4 3 5s3.16602 1.5 5.49902 1.5h11.5h85c10 0 13.333 -5.66699 10 -17z" />
    <glyph glyph-name="two" unicode="2" horiz-adv-x="570" 
d="M108 89c28 14.667 55.1709 23.6582 81.5039 26.9912s51.5 4 75.5 2s46.333 -5.16699 67 -9.5s39.167 -6.16602 55.5 -5.49902s30 5.16699 41 13.5s18.833 23.833 23.5 46.5l22 -18c-19.333 -42 -40.5 -73.167 -63.5 -93.5s-47 -33.833 -72 -40.5s-51 -8.66699 -78 -6
s-54 5.83398 -81 9.50098s-53.833 5.83398 -80.5 6.50098s-52.334 -4.33301 -77.001 -15c-12 -5.33301 -17.333 -4 -16 4s6 18.5 14 31.5s17.5 26.333 28.5 40s20.167 23.5 27.5 29.5c14 12 34.833 26.167 62.5 42.5l87.5 52.5c30.667 18.667 60.334 37.834 89.001 57.501
s51 38.5 67 56.5c12 14 22.167 30.833 30.5 50.5s12.666 39 12.999 58s-4 36 -13 51s-24.5 24.5 -46.5 28.5c-22.667 4 -45.334 2.83301 -68.001 -3.5s-43.5 -16.166 -62.5 -29.499s-35.5 -29.333 -49.5 -48s-23.833 -38.667 -29.5 -60s-6.5 -43 -2.5 -65
s14.333 -42.667 31 -62c-3.33301 -1.33301 -7.83301 -4.66602 -13.5 -9.99902s-10.167 -8.66602 -13.5 -9.99902c-24.667 36.667 -37.334 74.834 -38.001 114.501s8.5 75.834 27.5 108.501s46.5 59.667 82.5 81s78.333 32 127 32c44 0.666992 79 -5.83301 105 -19.5
s44.167 -32 54.5 -55s12.833 -49.667 7.5 -80s-17.666 -61.833 -36.999 -94.5c-16.667 -28 -40.834 -51 -72.501 -69s-65.834 -34.333 -102.501 -49l-110 -44.5c-36.667 -15 -68 -33.5 -94 -55.5z" />
    <glyph glyph-name="three" unicode="3" horiz-adv-x="420" 
d="M421 548c0 -0.666992 0.657227 -1.66797 1.99023 -3.00098l1 -1c-8 -22 -19.167 -41 -33.5 -57s-30 -29.667 -47 -41s-34.667 -20.833 -53 -28.5s-35.666 -14.334 -51.999 -20.001l-43.5 -15c-12.667 -4.33301 -21.667 -8.83301 -27 -13.5
c22.667 3.33301 47.334 3.5 74.001 0.5s50.667 -10.833 72 -23.5s38 -31 50 -55s15 -55.333 9 -94c-4 -29.333 -11.667 -56 -23 -80s-26 -44.833 -44 -62.5s-39.5 -31.5 -64.5 -41.5s-52.833 -15.333 -83.5 -16c-49.333 -1.33301 -87.833 10.5 -115.5 35.5
s-40.167 58.5 -37.5 100.5c1.33301 20 5.5 37.333 12.5 52s15.5 27 25.5 37s20.833 17.833 32.5 23.5s23.167 9.5 34.5 11.5c8.66699 2 15.834 1.5 21.501 -1.5s9.33398 -7 11.001 -12s0.833984 -10 -2.49902 -15s-9.66602 -8.5 -18.999 -10.5
c-19.333 -4 -36 -13.333 -50 -28s-22.333 -34.334 -25 -59.001c-1.33301 -14 0.833984 -27.5 6.50098 -40.5s13.667 -24.5 24 -34.5s22.5 -17.833 36.5 -23.5s28.667 -7.83398 44 -6.50098c18 1.33301 33.5 7 46.5 17s24 22.333 33 37s16.333 30.5 22 47.5
s10.5 33.5 14.5 49.5c9.33301 36 8.66602 64.833 -2.00098 86.5s-26.167 37.167 -46.5 46.5s-43.166 13 -68.499 11s-48.333 -9 -69 -21l11 50c18 19.333 38.333 35 61 47s45.5 22.667 68.5 32l67.5 28c22 9.33301 41.333 20.666 58 33.999
c-22.667 -11.333 -45.667 -17.166 -69 -17.499s-45.5 1 -66.5 4l-58 8.5c-17.667 2.66699 -32.167 1.33398 -43.5 -3.99902c-7.33301 -3.33301 -11.833 -7.66602 -13.5 -12.999s1.16602 -15.666 8.49902 -30.999c1.33301 -2.66699 1.33301 -5.16699 0 -7.5
s-3.16602 -4 -5.49902 -5s-4.83301 -1.33301 -7.5 -1s-4.66699 1.83301 -6 4.5c-7.33301 15.333 -11.166 31.166 -11.499 47.499s2.83398 28.833 9.50098 37.5c11.333 12.667 26 21.334 44 26.001s37.833 7.16699 59.5 7.5s43.834 -0.666992 66.501 -3
s44.5 -4.33301 65.5 -6s39.833 -2.16699 56.5 -1.5s29.667 4.33398 39 11.001z" />
    <glyph glyph-name="four" unicode="4" horiz-adv-x="524" 
d="M20 148c36 22 67.501 45.998 94.501 71.998s51.167 52.5 72.5 79.5s40.166 53.667 56.499 80s32.166 50.5 47.499 72.5s30.833 41.167 46.5 57.5s32.834 28.166 51.501 35.499c4 1.33301 10.5 2.5 19.5 3.5s17.833 1 26.5 0s16 -3.83301 22 -8.5s8 -12 6 -22l-61 -378
l41 3c4.66699 0 8 -2.16699 10 -6.5s2.66699 -9.16602 2 -14.499s-2.5 -10.166 -5.5 -14.499s-7.5 -6.5 -13.5 -6.5l-40 -2l-15 -100l-119 -2l16 101l-254 -4c-10 -0.666992 -16.5 1.33301 -19.5 6s-4 10.334 -3 17.001s3.33301 13 7 19s7.5 10 11.5 12zM329.001 402.998
c-16 -31.333 -31.333 -58.668 -46 -82.001s-30.167 -44.833 -46.5 -64.5s-33.833 -38.667 -52.5 -57s-40 -38.166 -64 -59.499l166 4z" />
    <glyph glyph-name="five" unicode="5" horiz-adv-x="450" 
d="M446 548l-11.999 -35.9971l-244 -5l-9 -36l-16 -62c2.66699 2 7.66699 6.66699 15 14s16.833 14.666 28.5 21.999s25.834 13.5 42.501 18.5s36 6.83301 58 5.5c30.667 -2.66699 54.167 -11.834 70.5 -27.501s27.333 -35.334 33 -59.001s6.66699 -50.5 3 -80.5
s-9.83398 -60.333 -18.501 -91c-8.66699 -30 -19.5 -57.667 -32.5 -83s-29 -47.5 -48 -66.5s-41 -34 -66 -45s-53.5 -16.833 -85.5 -17.5c-37.333 -0.666992 -67.5 5.16602 -90.5 17.499s-40 28.166 -51 47.499s-16.667 40.333 -17 63s3.5 44 11.5 64s19.667 37.167 35 51.5
s33 22.5 53 24.5c7.33301 1.33301 13.166 0.333008 17.499 -3s7 -7.33301 8 -12s0.333008 -9.16699 -2 -13.5s-6.83301 -6.83301 -13.5 -7.5c-16 -0.666992 -29.667 -5.83398 -41 -15.501s-19.666 -21.667 -24.999 -36s-7.5 -29.666 -6.5 -45.999s5.5 -31.5 13.5 -45.5
s19.833 -25.667 35.5 -35s35.5 -14 59.5 -14c12 0 23 2.5 33 7.5s19.5 11.833 28.5 20.5s17.167 18.5 24.5 29.5s14 22.167 20 33.5c14 26.667 26.333 57.334 37 92.001c6.66699 22.667 12.5 46.334 17.5 71.001s7 47 6 67s-6.5 36.333 -16.5 49s-26.333 18.667 -49 18
c-17.333 -1.33301 -32.5 -7 -45.5 -17s-24.333 -21.833 -34 -35.5s-17.834 -27.667 -24.501 -42l-17 -36.5h-104l54 252h364z" />
    <glyph glyph-name="six" unicode="6" horiz-adv-x="421" 
d="M266 384c20.667 -4 38.834 -10.998 54.501 -20.998s27.834 -23.5 36.501 -40.5s13.667 -37.833 15 -62.5s-2 -53.667 -10 -87c-10.667 -43.333 -24.834 -76.666 -42.501 -99.999s-37.167 -40.5 -58.5 -51.5s-43.333 -17.667 -66 -20s-44.334 -3.83301 -65.001 -4.5
c-30 -0.666992 -54.5 10.666 -73.5 33.999s-31.5 53 -37.5 89c-5.33301 34.667 -1 72.167 13 112.5s33.333 79.833 58 118.5s52.5 74.834 83.5 108.501s61.167 61.5 90.5 83.5c8.66699 6.66699 17.334 9.66699 26.001 9s15.5 -3.66699 20.5 -9s7.16699 -12.333 6.5 -21
s-5.33398 -17.334 -14.001 -26.001c-12 -11.333 -25.167 -25.5 -39.5 -42.5s-26.5 -32.167 -36.5 -45.5c-4.66699 -6 -8.66699 -11.667 -12 -17s-6.66602 -10.333 -9.99902 -15c5.33301 3.33301 14.166 6.16602 26.499 8.49902s23.833 2.16602 34.5 -0.500977zM256 172.002
c8 20 14.002 39.333 18.002 58s5.83301 36.167 5.5 52.5s-3.33301 30.666 -9 42.999s-14.167 21.833 -25.5 28.5c-11.333 6 -24 3.16699 -38 -8.5s-27.333 -26.5 -40 -44.5s-23.834 -36.667 -33.501 -56s-15.834 -33.666 -18.501 -42.999
c-3.33301 -12 -6.5 -27.333 -9.5 -46s-4.5 -37.167 -4.5 -55.5s2.33301 -34.5 7 -48.5s13 -22 25 -24c12.667 -2.66699 24.5 -1 35.5 5s21.333 15.5 31 28.5s19 28.833 28 47.5s18.5 39.667 28.5 63z" />
    <glyph glyph-name="seven" unicode="7" horiz-adv-x="520" 
d="M151 548h386.002c5.33301 0 8.83301 -1 10.5 -3s2.33398 -4.5 2.00098 -7.5s-1.33301 -6.16699 -3 -9.5s-2.83398 -6.33301 -3.50098 -9l-33 -78c-7.33301 -18 -22 -33.833 -44 -47.5s-47.5 -27.667 -76.5 -42l-92 -47.5c-32.333 -17.333 -62 -38.5 -89 -63.5
s-49.833 -55 -68.5 -90s-29 -77.5 -31 -127.5c0 -8 -5.16699 -14.167 -15.5 -18.5s-21.666 -6.83301 -33.999 -7.5s-23.5 1.33301 -33.5 6s-14.333 12 -13 22c7.33301 50.667 20.166 94.667 38.499 132s39.666 69.833 63.999 97.5s50.5 51.167 78.5 70.5
s55.667 36.166 83 50.499s53 27 77 38s44 21.833 60 32.5l-299 -1l-13 -29c-2.66699 -6.66699 -6.5 -11.5 -11.5 -14.5s-9.83301 -4.16699 -14.5 -3.5s-8.33398 2.83398 -11.001 6.50098s-3 8.5 -1 14.5l10 38c3.33301 12.667 8.33301 29.667 15 51l9 26.5
c2 5.66699 4.66699 9.5 8 11.5s8.33301 2.83301 15 2.5s16.667 -0.5 30 -0.5z" />
    <glyph glyph-name="eight" unicode="8" horiz-adv-x="437" 
d="M17 152c2.66699 14 6.99902 28.1631 12.999 42.4961s14 27.833 24 40.5s22.5 23.834 37.5 33.501s32.5 16.5 52.5 20.5c-17.333 6 -31.666 14.667 -42.999 26s-20 23.833 -26 37.5s-9.66699 27.5 -11 41.5s-0.666016 26.667 2.00098 38
c4.66699 22.667 12.667 41.667 24 57s24.833 27.333 40.5 36s32.667 14.667 51 18s36.833 4.33301 55.5 3c50 -3.33301 85 -17.666 105 -42.999s26.667 -57 20 -95c-2 -12 -6 -24 -12 -36s-12.833 -23.167 -20.5 -33.5s-15.834 -19.166 -24.501 -26.499s-17 -12.333 -25 -15
c10.667 -8 19.834 -16.333 27.501 -25s13.667 -18.667 18 -30s6.83301 -24.666 7.5 -39.999s-0.666016 -34 -3.99902 -56c-8.66699 -52 -29 -90.167 -61 -114.5s-74 -35.833 -126 -34.5c-24 0 -44.833 4.16699 -62.5 12.5s-31.834 19.5 -42.501 33.5
s-17.834 30.333 -21.501 49s-3.16699 38.667 1.5 60zM233.999 328.996c6.66699 0 13.5029 2.83008 20.5029 8.49707s13.5 12.834 19.5 21.501s11.333 18.167 16 28.5s8 20.5 10 30.5c2.66699 12 3.16699 23.833 1.5 35.5s-5.33398 22.334 -11.001 32.001
s-13.334 17.667 -23.001 24s-21.5 9.83301 -35.5 10.5c-7.33301 0 -15.5 -2.16699 -24.5 -6.5s-17.5 -10.5 -25.5 -18.5s-15 -17.333 -21 -28s-9.66699 -22 -11 -34c-2 -15.333 0.166992 -29.166 6.5 -41.499s14.333 -23 24 -32s19.667 -16.167 30 -21.5
s18.166 -8.33301 23.499 -9zM179.002 262.993c-12 0 -23.501 -3.33105 -34.501 -9.99805s-21 -15.334 -30 -26.001s-16.667 -22.667 -23 -36s-10.833 -26.666 -13.5 -39.999c-3.33301 -14.667 -3.83301 -29.334 -1.5 -44.001s6.66602 -27.834 12.999 -39.501
s14.5 -21.167 24.5 -28.5s21 -11 33 -11c20 -1.33301 37.333 6 52 22s25.667 44 33 84c2.66699 16.667 2.83398 32.667 0.500977 48s-6.33301 29 -12 41s-12.167 21.667 -19.5 29s-14.666 11 -21.999 11z" />
    <glyph glyph-name="nine" unicode="9" horiz-adv-x="408" 
d="M360 427c4 -35.333 -0.833008 -72.833 -14.5 -112.5s-32.5 -78.667 -56.5 -117s-51.167 -74.333 -81.5 -108s-60.166 -61.5 -89.499 -83.5c-9.33301 -6.66699 -18.333 -9.66699 -27 -9s-15.667 3.66699 -21 9s-7.83301 12 -7.5 20s5.16602 16.333 14.499 25
c12.667 12.667 26.167 27.334 40.5 44.001s26.5 31.667 36.5 45l12.5 17.5c3.66699 5 6.5 9.83301 8.5 14.5c-5.33301 -3.33301 -14 -6 -26 -8s-23.333 -2 -34 0c-21.333 4.66699 -39.833 12 -55.5 22s-27.834 23.5 -36.501 40.5s-13.5 37.667 -14.5 62
s2.5 53.166 10.5 86.499c10.667 42.667 24.5 75.667 41.5 99s35.5 40.5 55.5 51.5s40.833 17.5 62.5 19.5s42.834 3 63.501 3c30 0 56.167 -11.167 78.5 -33.5s35.5 -51.5 39.5 -87.5zM136 194c14 -8 29 -5.66797 45 6.99902s31 31 45 55s26.167 51.167 36.5 81.5
s17.166 59 20.499 86s2.5 49.833 -2.5 68.5s-16.167 28.334 -33.5 29.001c-16 0 -31.833 -6.83301 -47.5 -20.5s-30 -31.167 -43 -52.5s-24.167 -45 -33.5 -71s-15.5 -51.167 -18.5 -75.5s-2.16699 -46.333 2.5 -66s14.334 -33.5 29.001 -41.5z" />
    <glyph glyph-name="colon" unicode=":" horiz-adv-x="175" 
d="M85 362c9.33301 0 17.5 -3.5 24.5 -10.5s10.5 -15.5 10.5 -25.5c0 -9.33301 -3.5 -17.5 -10.5 -24.5s-15.167 -10.5 -24.5 -10.5c-10 0 -18.5 3.5 -25.5 10.5s-10.5 15.167 -10.5 24.5c0 10 3.5 18.5 10.5 25.5s15.5 10.5 25.5 10.5zM71 196c10 0 18.333 -3.5 25 -10.5
s10 -15.5 10 -25.5c0 -9.33301 -3.33301 -17.5 -10 -24.5s-15 -10.5 -25 -10.5c-9.33301 0 -17.5 3.5 -24.5 10.5s-10.5 15.167 -10.5 24.5c0 10 3.5 18.5 10.5 25.5s15.167 10.5 24.5 10.5z" />
    <glyph glyph-name="semicolon" unicode=";" horiz-adv-x="134" 
d="M67 366c9.33301 0 17.5 -3.5 24.5 -10.5s10.5 -15.5 10.5 -25.5c0 -9.33301 -3.5 -17.5 -10.5 -24.5s-15.167 -10.5 -24.5 -10.5c-10 0 -18.5 3.5 -25.5 10.5s-10.5 15.167 -10.5 24.5c0 10 3.5 18.5 10.5 25.5s15.5 10.5 25.5 10.5zM54 202
c9.33301 0 17.5 -3.5 24.5 -10.5s10.5 -15.167 10.5 -24.5c0 -8.66699 -4 -17.834 -12 -27.501s-14.667 -18.167 -20 -25.5c-3.33301 -3.33301 -4.33301 -2.66602 -3 2.00098l6 16c-1.33301 0 -2.33301 -0.166992 -3 -0.5s-1.66699 -0.5 -3 -0.5
c-9.33301 0 -17.5 3.5 -24.5 10.5s-10.5 15.5 -10.5 25.5c0 9.33301 3.5 17.5 10.5 24.5s15.167 10.5 24.5 10.5z" />
    <glyph glyph-name="less" unicode="&#x3c;" horiz-adv-x="529" 
d="M446 468l-9 -51.001l-323 -149l265 -144l-9 -47l-343 179c-5.33301 2 -8 5.33301 -8 10s2 8.33398 6 11.001z" />
    <glyph glyph-name="equal" unicode="=" horiz-adv-x="671" 
d="M119 363l433 1l-14 -46h-430zM73 154l433 1l-14 -46h-430z" />
    <glyph glyph-name="greater" unicode="&#x3e;" horiz-adv-x="525" 
d="M17 77l9 51.001l336 152l-265 144l9 47l343 -179c5.33301 -2 8 -5.33301 8 -10s-2 -8.33398 -6 -11.001z" />
    <glyph glyph-name="question" unicode="?" horiz-adv-x="534" 
d="M117 363c-12.667 12.667 -24.1689 25.667 -34.502 39s-19 27.5 -26 42.5s-11.667 30.833 -14 47.5s-1.5 34.667 2.5 54c4.66699 24.667 14.334 45.334 29.001 62.001s32.5 30 53.5 40s44.167 17.167 69.5 21.5s51 6.5 77 6.5c32 -0.666992 60.5 -6.66699 85.5 -18
s45 -26.166 60 -44.499s24.667 -39 29 -62s2 -46.333 -7 -70s-25 -46.5 -48 -68.5s-54.167 -41.333 -93.5 -58c-42 -16.667 -74.333 -42.167 -97 -76.5s-38.667 -73.5 -48 -117.5c-4 -19.333 -11 -33.166 -21 -41.499s-20 -11.833 -30 -10.5s-18.167 7.16602 -24.5 17.499
s-7.83301 24.5 -4.5 42.5c6 34.667 15.333 62.667 28 84s27.834 39.333 45.501 54s37.5 28.167 59.5 40.5s45.333 27.166 70 44.499c28.667 19.333 49.667 39.166 63 59.499s21.5 40 24.5 59s1.66699 37.167 -4 54.5s-13.5 32.333 -23.5 45s-21 22.667 -33 30s-23 11 -33 11
s-22.5 -2.16699 -37.5 -6.5s-30 -10.833 -45 -19.5s-29 -19.667 -42 -33s-22.5 -29 -28.5 -47c-4 -11.333 -5.66699 -24.333 -5 -39s2.83398 -29.5 6.50098 -44.5s8.66699 -29.167 15 -42.5s13.166 -24 20.499 -32c4 -6.66699 5.83301 -13.167 5.5 -19.5s-2.5 -11 -6.5 -14
s-9.33301 -4 -16 -3s-14 5.16699 -22 12.5zM107.998 60c9.33301 0 16.999 -3.5 22.999 -10.5s8.33301 -15.5 7 -25.5c-1.33301 -9.33301 -6.16602 -17.5 -14.499 -24.5s-17.166 -10.5 -26.499 -10.5c-10 0 -17.833 3.5 -23.5 10.5s-7.83398 15.167 -6.50098 24.5
c1.33301 10 6 18.5 14 25.5s17 10.5 27 10.5z" />
    <glyph glyph-name="at" unicode="@" horiz-adv-x="767" 
d="M353 493c-10 -8.66699 -21.5068 -21.6777 -34.5068 -39.0107s-25.833 -36.666 -38.5 -57.999s-24.167 -43.666 -34.5 -66.999s-18.166 -44.833 -23.499 -64.5s-7 -36.667 -5 -51s9 -23.5 21 -27.5c10 -3.33301 23.333 2.83398 40 18.501s34.334 35.334 53.001 59.001
s36.5 48.667 53.5 75s30.833 48.833 41.5 67.5c6 11.333 12.333 22.166 19 32.499l21 32.5c4.66699 6.66699 10.5 9 17.5 7s14.5 -6.33301 22.5 -13s16 -14.667 24 -24l21 -24c-2.66699 -10.667 -7 -24.5 -13 -41.5s-11.5 -35 -16.5 -54s-8.66699 -38.167 -11 -57.5
s-1.5 -36.666 2.5 -51.999c2.66699 -9.33301 8.5 -13.5 17.5 -12.5s19.333 5.16699 31 12.5s23.5 17.166 35.5 29.499s22 25.5 30 39.5c28.667 48 40.334 93.167 35.001 135.5s-21.833 79.166 -49.5 110.499s-63 56 -106 74s-87.833 27 -134.5 27
c-40 0 -78.5 -7.66699 -115.5 -23s-70 -36.166 -99 -62.499s-52.167 -57.333 -69.5 -93s-26 -73.5 -26 -113.5c0 -40.667 8.16699 -78.667 24.5 -114s38.5 -66.166 66.5 -92.499s60.833 -47.166 98.5 -62.499s77.834 -23 120.501 -23c52.667 0 100.834 11.167 144.501 33.5
s79.834 51.833 108.501 88.5c6 8 12.333 12.833 19 14.5s12.167 1 16.5 -2s6.83301 -7.83301 7.5 -14.5s-2.33301 -14.334 -9 -23.001c-32 -42.667 -72.833 -76.334 -122.5 -101.001s-104.5 -37 -164.5 -37c-48.667 0 -94.5 8.66699 -137.5 26s-80.5 41.166 -112.5 71.499
s-57.333 65.666 -76 105.999s-28 83.5 -28 129.5s9.33301 89.167 28 129.5s44 75.5 76 105.5s69.5 53.667 112.5 71s88.833 26 137.5 26c36.667 0 72.5 -5.16699 107.5 -15.5s67 -24.666 96 -42.999s54.167 -40.333 75.5 -66s36.5 -53.667 45.5 -84s11.167 -62.5 6.5 -96.5
s-18.334 -68.667 -41.001 -104c-20 -31.333 -38.333 -55.5 -55 -72.5s-32.167 -29.5 -46.5 -37.5s-28.166 -12.833 -41.499 -14.5s-26.333 -2.83398 -39 -3.50098c-21.333 -1.33301 -37.833 3.83398 -49.5 15.501s-19.834 26.834 -24.501 45.501s-6.66699 39.167 -6 61.5
s2.33398 43.833 5.00098 64.5c-21.333 -42 -42.333 -74.5 -63 -97.5s-39.334 -40.167 -56.001 -51.5c-19.333 -13.333 -37.666 -21.666 -54.999 -24.999c-31.333 0.666992 -54.166 10.834 -68.499 30.501s-22.833 43.334 -25.5 71.001s-1 56.334 5 86.001
s13.667 54.834 23 75.501c12 24.667 26.667 46.334 44 65.001s36 34.334 56 47.001s40.667 22.5 62 29.5s41.666 11.167 60.999 12.5s36.666 1.16602 51.999 -0.500977s29.5 -4.66699 42.5 -9s25.333 -10.166 37 -17.499s23.5 -16 35.5 -26
c6.66699 -5.33301 8.33398 -9.66602 5.00098 -12.999s-8 -3.33301 -14 0c-19.333 10 -36.5 18.5 -51.5 25.5s-29.833 11.167 -44.5 12.5s-29.667 -1 -45 -7s-32.666 -17 -51.999 -33z" />
    <glyph glyph-name="A" unicode="A" horiz-adv-x="845" 
d="M864 185c-8 -20.667 -18.1709 -42.1738 -30.5039 -64.5068s-26.166 -42.833 -41.499 -61.5s-31.666 -34.5 -48.999 -47.5s-35.166 -20.5 -53.499 -22.5s-36.666 3 -54.999 15s-35.833 33.333 -52.5 64c-14 25.333 -24.5 54.166 -31.5 86.499s-12.167 65.833 -15.5 100.5
c-32 -15.333 -61 -22.666 -87 -21.999s-49 5.66699 -69 15l-47.5 -75c-16.333 -24.667 -33.333 -47.5 -51 -68.5s-35.5 -39.5 -53.5 -55.5s-36 -28.333 -54 -37c-13.333 -6.66699 -27.666 -10.667 -42.999 -12s-30.333 -0.333008 -45 3s-28.334 9.33301 -41.001 18
s-22.667 19.667 -30 33c-11.333 20.667 -15.833 41.834 -13.5 63.501s9.5 40.834 21.5 57.501s27.833 29.334 47.5 38.001s41.5 10.334 65.5 5.00098c8.66699 -1.33301 11.834 -4.33301 9.50098 -9s-6.16602 -6.66699 -11.499 -6c-22.667 2.66699 -42 0 -58 -8
s-28.5 -18.833 -37.5 -32.5s-14.333 -28.834 -16 -45.501s0.666016 -32.167 6.99902 -46.5s16.5 -26 30.5 -35s32 -12.5 54 -10.5c19.333 1.33301 39 8.83301 59 22.5s39.833 31.5 59.5 53.5s39 47.333 58 76s37.5 59 55.5 91c-10 6 -19.333 13 -28 21
c-16 13.333 -31.167 23 -45.5 29s-32.166 5.33301 -53.499 -2c-10 -3.33301 -18.333 -8.16602 -25 -14.499s-11.834 -13.5 -15.501 -21.5s-6 -16.167 -7 -24.5s-0.833008 -16.5 0.5 -24.5c1.33301 -5.33301 0.666016 -8.16602 -2.00098 -8.49902s-4.66699 1.16699 -6 4.5
c-5.33301 14.667 -5.33301 32.334 0 53.001s18.666 40.334 39.999 59.001c11.333 10 24.833 18.5 40.5 25.5s31.834 11.5 48.501 13.5s33 1.16699 49 -2.5s30 -10.834 42 -21.501c1.33301 -1.33301 2.33301 -2.16602 3 -2.49902s1.33398 -1.16602 2.00098 -2.49902
c20.667 40.667 40.167 80.834 58.5 120.501l50 106.5c15 31.333 27.833 57 38.5 77s18.667 30.667 24 32c4 0.666992 10.5 -2.83301 19.5 -10.5s18.833 -17.334 29.5 -29.001l33 -37l29 -33.5c0 -2.66699 -1.66699 -3.66699 -5 -3s-6.83301 1.5 -10.5 2.5
s-7.16699 1.5 -10.5 1.5s-5 -1.66699 -5 -5c-2 -34 -4.66699 -69.667 -8 -107s-5.16602 -74.833 -5.49902 -112.5s1.66699 -74.667 6 -111s13.166 -70.5 26.499 -102.5c12.667 -30.667 25.834 -50.834 39.501 -60.501s27.167 -12.667 40.5 -9s26.166 12 38.499 25
s23.333 27 33 42s17.667 29 24 42s10.166 21.167 11.499 24.5zM415.996 313.993c6.66699 -8.66699 13.334 -16.832 20.001 -24.499s14.5 -13.667 23.5 -18s19.333 -6.33301 31 -6s25.834 4.16602 42.501 11.499c-1.33301 26 -2 51.833 -2 77.5s0.166992 50.334 0.5 74.001
s0.666016 45.667 0.999023 66s0.166016 38.166 -0.500977 53.499c-6 -11.333 -13 -25.333 -21 -42l-27 -56l-32 -65.5z" />
    <glyph glyph-name="B" unicode="B" horiz-adv-x="786" 
d="M380 336l88.499 24.999c27 8 51 18.5 72 31.5s38.5 30.167 52.5 51.5s24 50 30 86c7.33301 38 2.5 68 -14.5 90s-45.5 36.667 -85.5 44l-33 4c-10.667 1.33301 -21.667 2 -33 2c6 -6 12 -14.333 18 -25s11.667 -21.667 17 -33l18 -40
c-2.66699 -2.66699 -6.16699 -2.66699 -10.5 0s-8.16602 3.33398 -11.499 2.00098c-18 -10.667 -35.5 -36.5 -52.5 -77.5s-35.5 -94.5 -55.5 -160.5zM138.999 190.999c-12.667 -6.66699 -20.335 -7.66797 -23.002 -3.00098s1.33301 10.667 12 18c30 22 55.667 37 77 45
s40 10.333 56 7l47.5 142.5c15.667 45.667 30.5 87 44.5 124s27.5 68.333 40.5 94s25.167 43.167 36.5 52.5c-26 0 -51 -1.5 -75 -4.5s-45.833 -6.66699 -65.5 -11s-36.167 -8.5 -49.5 -12.5s-22.333 -7 -27 -9c-23.333 -11.333 -39.333 -22.5 -48 -33.5
s-12.5 -22.5 -11.5 -34.5s5.33301 -25.167 13 -39.5l24.5 -47.5c2.66699 -6 3.83398 -11 3.50098 -15s-1.66602 -7 -3.99902 -9s-5.16602 -2.33301 -8.49902 -1s-7 4.66602 -11 9.99902c-14 20 -25.167 39.5 -33.5 58.5s-12.333 37 -12 54s6.16602 32.5 17.499 46.5
s29.666 26 54.999 36c22 8 47.167 14.667 75.5 20s57.5 9.33301 87.5 12s59.5 3.83398 88.5 3.50098s55.167 -2.16602 78.5 -5.49902c39.333 -5.33301 72 -13.833 98 -25.5s46.667 -25.167 62 -40.5s25.833 -32.166 31.5 -50.499s8.16699 -36.833 7.5 -55.5
c-1.33301 -30.667 -13.333 -59.834 -36 -87.501s-59 -50.167 -109 -67.5c24 -3.33301 45.833 -10.666 65.5 -21.999s35.667 -25.833 48 -43.5s20.5 -38.167 24.5 -61.5s2.33301 -48.666 -5 -75.999c-9.33301 -28.667 -21 -53.167 -35 -73.5s-31.5 -37 -52.5 -50
s-46 -22.5 -75 -28.5s-63.167 -9 -102.5 -9c-22.667 0 -42.167 2.33301 -58.5 7s-30.333 11 -42 19s-21.5 17.5 -29.5 28.5s-15 22.5 -21 34.5c-12.667 -24 -29.5 -43.667 -50.5 -59s-43.5 -26.166 -67.5 -32.499s-48 -8.5 -72 -6.5s-44.833 8.83301 -62.5 20.5
s-30.667 28 -39 49s-9.16602 46.833 -2.49902 77.5c2.66699 11.333 5.83398 19.666 9.50098 24.999s7 8 10 8s5.16699 -3 6.5 -9s1 -15 -1 -27c-3.33301 -20.667 -2.33301 -39.167 3 -55.5s13.5 -29.333 24.5 -39s23.833 -15.334 38.5 -17.001s29.667 1.16602 45 8.49902
s30.166 20 44.499 38s26.5 42.333 36.5 73l21 63c-10 8 -22.833 11.667 -38.5 11s-37.5 -8.66699 -65.5 -24zM335.998 193.998c9.33301 -17.333 17.8311 -35.667 25.498 -55s15.834 -37.5 24.501 -54.5s18.5 -31.5 29.5 -43.5s24.167 -19 39.5 -21
c18.667 -3.33301 36.834 -0.333008 54.501 9s33.5 21.833 47.5 37.5s25.833 33 35.5 52s16.167 36.833 19.5 53.5c9.33301 47.333 -2 85 -34 113s-77.667 44.667 -137 50c-19.333 -2 -40.333 -3 -63 -3z" />
    <glyph glyph-name="C" unicode="C" horiz-adv-x="503" 
d="M231 2c-46.667 -6 -86.002 -2.83398 -118.002 9.49902s-57.167 31.166 -75.5 56.499s-30.166 55.5 -35.499 90.5s-5 72.167 1 111.5s17.667 79.333 35 120s39.666 79.334 66.999 116.001c-12.667 7.33301 -25.5 17.333 -38.5 30l-39.5 38.5l-39.5 37.5
c-13 12 -26 21.167 -39 27.5s-25.833 8.83301 -38.5 7.5s-25.334 -8.66602 -38.001 -21.999c-4 -4.66699 -8 -7.16699 -12 -7.5s-7 0.833984 -9 3.50098s-3 6 -3 10s1.66699 8 5 12c13.333 17.333 27.5 27.5 42.5 30.5s30.333 1.33301 46 -5s31.5 -16 47.5 -29
s31.5 -26.833 46.5 -41.5l43.5 -42.5c14 -13.667 27 -24.167 39 -31.5c36 44 78.333 81.5 127 112.5s102.334 50.833 161.001 59.5c54.667 8 97 6 127 -6s49.333 -29 58 -51s7.33398 -47 -3.99902 -75s-30.666 -54 -57.999 -78c-23.333 -21.333 -48.833 -37.5 -76.5 -48.5
s-56 -17.667 -85 -20s-58.333 -0.5 -88 5.5s-57.834 15.667 -84.501 29c-17.333 -30 -32.833 -61.167 -46.5 -93.5s-24.5 -64 -32.5 -95s-12.5 -60.5 -13.5 -88.5s2.5 -52.833 10.5 -74.5s20.833 -39.334 38.5 -53.001s41.167 -21.834 70.5 -24.501
c22.667 -2 44.834 2 66.501 12s40.667 23.667 57 41s29.166 36.833 38.499 58.5s13.333 43.5 12 65.5c-3.33301 12 -10.333 20 -21 24s-22.667 5.83301 -36 5.5s-26.5 -2 -39.5 -5s-23.5 -5.83301 -31.5 -8.5c-7.33301 -3.33301 -13.333 -4.33301 -18 -3
s-7.66699 3.83301 -9 7.5s-1.16602 7.83398 0.500977 12.501s5.16699 8.66699 10.5 12c10 6 24.333 11 43 15s37.5 5.33301 56.5 4s36 -6.5 51 -15.5s23.5 -23.5 25.5 -43.5c0 -12.667 -3.5 -29.667 -10.5 -51s-18.167 -42.5 -33.5 -63.5s-35.5 -40 -60.5 -57
s-55.833 -27.5 -92.5 -31.5zM204.998 471.999c26 -11.333 52.333 -19.8311 79 -25.498s53 -7.83398 79 -6.50098s51.167 7.16602 75.5 17.499s47.166 25.833 68.499 46.5c26 26 42.333 51.167 49 75.5s5.33398 45 -3.99902 62s-25.833 28.667 -49.5 35s-52.5 4.5 -86.5 -5.5
c-23.333 -6.66699 -45.5 -17.667 -66.5 -33s-40.5 -32.5 -58.5 -51.5s-34.333 -38.667 -49 -59s-27 -38.833 -37 -55.5z" />
    <glyph glyph-name="D" unicode="D" horiz-adv-x="780" 
d="M494 567c-2 -2.66699 -5.50293 -2.33203 -10.5029 1.00098s-8.83301 4 -11.5 2c-16 -12 -32.167 -35.833 -48.5 -71.5s-32.166 -76.667 -47.499 -123s-30.166 -94.333 -44.499 -144l-40.5 -134.5l-5.5 -14.5c-1.66699 -4.33301 -3.83398 -8.83301 -6.50098 -13.5
c9.33301 -13.333 20.5 -23.5 33.5 -30.5s28.5 -9.83301 46.5 -8.5c26 2 51.167 12 75.5 30s46.833 40.5 67.5 67.5s39 56.333 55 88s28.333 62.167 37 91.5c12 38 19.833 77.5 23.5 118.5s1.83398 78.667 -5.49902 113s-21.166 63 -41.499 86s-48.5 35.833 -84.5 38.5
c-5.33301 0 -11.333 0.166992 -18 0.5s-14 0.166016 -22 -0.500977c5.33301 -8 11 -17.5 17 -28.5s11.333 -21.5 16 -31.5zM401.997 660.002c-19.333 -2 -40 -5.00488 -62 -9.00488s-43 -9 -63 -15s-38.5 -13.5 -55.5 -22.5s-30.667 -19.667 -41 -32
s-16.5 -26.333 -18.5 -42s2 -33.5 12 -53.5c8 -16 8.66699 -25.833 2 -29.5s-14 1.5 -22 15.5c-18.667 30 -25.834 56.333 -21.501 79s16.166 42 35.499 58s43.666 29 72.999 39s59.5 17.833 90.5 23.5s60.5 9.66699 88.5 12s50.333 3.5 67 3.5
c54.667 -1.33301 98.834 -12.166 132.501 -32.499s59 -47.333 76 -81s26.333 -72.167 28 -115.5s-2.5 -88.666 -12.5 -135.999c-10 -39.333 -25 -77.666 -45 -114.999s-44.667 -71 -74 -101s-63.333 -54.667 -102 -74s-81.667 -30.333 -129 -33c-26 -2 -46.667 1 -62 9
s-28.666 18.333 -39.999 31c-13.333 -15.333 -31.666 -27.166 -54.999 -35.499s-54 -13.166 -92 -14.499c-17.333 -0.666992 -32.833 2 -46.5 8s-25.167 14 -34.5 24s-16.666 21.667 -21.999 35s-8.33301 27 -9 41c-0.666992 16 1.33301 32 6 48s11.5 30.167 20.5 42.5
s20 21.833 33 28.5s27.5 8.66699 43.5 6c15.333 -2.66699 23 -7.33398 23 -14.001s-7.66699 -9.66699 -23 -9c-13.333 0.666992 -25.166 -2 -35.499 -8s-18.833 -14 -25.5 -24s-11.5 -21.167 -14.5 -33.5s-3.83301 -23.833 -2.5 -34.5
c0.666992 -11.333 3.33398 -22.333 8.00098 -33s10.667 -20.334 18 -29.001s15.5 -15.167 24.5 -19.5s18.5 -5.5 28.5 -3.5c13.333 2.66699 25.666 7.83398 36.999 15.501s21.5 16.834 30.5 27.501s16.667 22 23 34s11.166 23.667 14.499 35l28 91.5l30.5 102l32 104.5
c11 34.667 22.333 67.167 34 97.5s23.167 57.5 34.5 81.5s22.666 43 33.999 57z" />
    <glyph glyph-name="E" unicode="E" horiz-adv-x="511" 
d="M254 244c6.66699 4 16.3301 7.66797 28.9971 11.001s26.334 5.33301 41.001 6s29.334 -0.166016 44.001 -2.49902s27.5 -6.83301 38.5 -13.5s19.167 -15.834 24.5 -27.501s6 -26.5 2 -44.5c-5.33301 -23.333 -14.333 -45.666 -27 -66.999s-28.334 -40.5 -47.001 -57.5
s-40.167 -30.833 -64.5 -41.5s-50.833 -16.667 -79.5 -18c-39.333 -2 -73.166 1.66699 -101.499 11s-51.166 23 -68.499 41s-29.333 39.5 -36 64.5s-7.66699 52.167 -3 81.5c5.33301 34.667 15.666 63.167 30.999 85.5s34.333 39.833 57 52.5s48 21 76 25
s57.667 4.66699 89 2c-14 2.66699 -29.667 9.5 -47 20.5s-32.833 24.667 -46.5 41s-23.334 34.666 -29.001 54.999s-3.83398 41.166 5.49902 62.499c-16 8.66699 -33.167 19.5 -51.5 32.5l-56 38c-19 12.333 -37.167 22.833 -54.5 31.5s-33 12.667 -47 12
c-7.33301 -0.666992 -15.166 -2.5 -23.499 -5.5s-14.5 -8.16699 -18.5 -15.5c-7.33301 -13.333 -15 -18.333 -23 -15s-9.33301 11.666 -4 24.999c6.66699 15.333 16.834 25.833 30.501 31.5s27.5 8.5 41.5 8.5c22.667 0 43.834 -4.33301 63.501 -13s38.5 -19 56.5 -31
s35.333 -24.667 52 -38s33 -24.666 49 -33.999c18 25.333 37 46.5 57 63.5s40.5 30.667 61.5 41s42.667 18 65 23s45.166 8.5 68.499 10.5c28.667 2 56.834 0.666992 84.501 -4s50 -13.667 67 -27s26.333 -31.333 28 -54s-9.5 -51 -33.5 -85
c-17.333 -24 -39.333 -42.667 -66 -56s-55.167 -22 -85.5 -26s-60.833 -3.33301 -91.5 2s-59 14.666 -85 27.999c-4 -17.333 -1.5 -32.333 7.5 -45s20.667 -23.667 35 -33s30 -16.833 47 -22.5s31.5 -10.167 43.5 -13.5c46 -12.667 69.333 -22 70 -28s-25 -10.667 -77 -14
c-28.667 -2 -56.167 -4.33301 -82.5 -7s-49.833 -8.66699 -70.5 -18s-38.167 -23.666 -52.5 -42.999s-23.833 -46.666 -28.5 -81.999c-2.66699 -19.333 -2.5 -38.5 0.5 -57.5s8.83301 -36 17.5 -51s20 -27.167 34 -36.5s30.667 -14 50 -14c22.667 0 44 4.83301 64 14.5
s38 22.5 54 38.5s29.5 34 40.5 54s18.5 40 22.5 60c2.66699 15.333 -1.16602 26.833 -11.499 34.5s-23.333 12.5 -39 14.5s-31.5 1.83301 -47.5 -0.5s-28.333 -5.5 -37 -9.5c-10 -5.33301 -17.333 -7.33301 -22 -6s-7.33398 4 -8.00098 8s0.5 8.66699 3.5 14
s7.5 9.66602 13.5 12.999zM240.996 501.001c22 -10 46.6709 -17.665 74.0039 -22.998s54.666 -7.33301 81.999 -6s53 7 77 17s43.667 25.667 59 47c19.333 26.667 28.166 49.5 26.499 68.5s-9.5 34.333 -23.5 46s-32.333 19.167 -55 22.5s-45.334 2.66602 -68.001 -2.00098
s-43.834 -14.834 -63.501 -30.501s-37 -32.667 -52 -51s-27.5 -36 -37.5 -53s-16.333 -28.833 -19 -35.5z" />
    <glyph glyph-name="F" unicode="F" horiz-adv-x="617" 
d="M343 525c17.333 51.333 47.0078 92.0059 89.0078 122.006s91.333 44.333 148 43c50 -1.33301 85.167 -16.666 105.5 -45.999s21.166 -69 2.49902 -119c-8.66699 -23.333 -21 -41.333 -37 -54s-33.5 -21.667 -52.5 -27s-38.667 -7.83301 -59 -7.5
s-39.333 2.16602 -57 5.49902s-32.834 7 -45.501 11s-21 7 -25 9c-6.66699 -19.333 -12.167 -37.166 -16.5 -53.499l-14.5 -56.5l41 -39c13.333 -12.667 27.166 -21.334 41.499 -26.001s29.5 -3.5 45.5 3.5s33.667 24.167 53 51.5c5.33301 7.33301 10.5 12.166 15.5 14.499
s8.83301 2.5 11.5 0.5s3.66699 -5.83301 3 -11.5s-4 -12.834 -10 -21.501c-18 -24.667 -36.667 -42.834 -56 -54.501s-38.833 -19 -58.5 -22s-38.667 -2.33301 -57 2s-35.5 10.166 -51.5 17.499l-11.5 -40.5l-13 -46l-13.5 -47l-13 -43.5
c-7.33301 -22 -18.333 -39.333 -33 -52s-31.5 -22.334 -50.5 -29.001s-39.667 -10.667 -62 -12s-44.5 -1.33301 -66.5 0c-40.667 1.33301 -70.834 13.333 -90.501 36s-30.167 54 -31.5 94c-0.666992 16.667 2.83301 33 10.5 49s17.834 29.5 30.501 40.5
s27.167 18.5 43.5 22.5s32.833 2.66699 49.5 -4c6 -2 10.5 -5 13.5 -9s4.33301 -7.5 4 -10.5s-2.66602 -5.16699 -6.99902 -6.5s-11.5 -0.333008 -21.5 3c-14 4.66699 -26.833 5.33398 -38.5 2.00098s-21.5 -9.33301 -29.5 -18s-14.167 -19.167 -18.5 -31.5
s-6.5 -24.833 -6.5 -37.5c0 -16 2.5 -30.667 7.5 -44s11.667 -24.833 20 -34.5s18.166 -17.334 29.499 -23.001s23 -8.5 35 -8.5c25.333 -0.666992 46.5 4.66602 63.5 15.999s31.167 26.333 42.5 45c7.33301 12 14.666 28.5 21.999 49.5s14.166 43 20.499 66l18 67.5
c5.66699 22 10.5 40 14.5 54c-6 4.66699 -11.333 8.5 -16 11.5s-8.66699 4.83301 -12 5.5c-22 6 -41.167 7.33301 -57.5 4s-29.833 -9.5 -40.5 -18.5s-18 -19.667 -22 -32s-4.66699 -24.5 -2 -36.5c1.33301 -7.33301 0 -11.333 -4 -12s-6.66699 1.33301 -8 6
c-5.33301 14.667 -5 31.667 1 51s17.167 37.166 33.5 53.499s37.166 29.333 62.499 39s54.666 12.167 87.999 7.5c2 8 4.5 17 7.5 27l9 30c3 10 5.66699 19.333 8 28l5.5 20c-22 14 -43 29.333 -63 46l-56 46.5c-17.333 14.333 -33.333 26.5 -48 36.5s-28 15 -40 15
c-17.333 0.666992 -32.333 -8.33301 -45 -27c-2.66699 -4.66699 -5.83398 -7.33398 -9.50098 -8.00098s-7 -0.166992 -10 1.5s-5 4.33398 -6 8.00098s-0.166992 7.5 2.5 11.5c10 15.333 20.667 25.833 32 31.5s23.333 8.16699 36 7.5c20 -0.666992 39 -6.66699 57 -18
s35.833 -24.666 53.5 -39.999l53.5 -47c18 -16 36.667 -28.667 56 -38zM424.008 488.006c10.667 -6 27.166 -12.168 49.499 -18.501s45.833 -9.33301 70.5 -9s48.334 5.83301 71.001 16.5s39.667 29.667 51 57c8 19.333 11.167 37.5 9.5 54.5s-6.83398 31.833 -15.501 44.5
s-19.667 22.334 -33 29.001s-27.666 9.66699 -42.999 9c-12 -0.666992 -26 -5.66699 -42 -15s-31.833 -22 -47.5 -38s-30 -35 -43 -57s-22.167 -46.333 -27.5 -73z" />
    <glyph glyph-name="G" unicode="G" horiz-adv-x="577" 
d="M328 61c-18 -14.667 -40.833 -27.3398 -68.5 -38.0068s-56.167 -16.834 -85.5 -18.501s-57 2.66602 -83 12.999s-46.333 28.833 -61 55.5c-16 28.667 -24.5 62.334 -25.5 101.001s3.16699 78 12.5 118s22.666 78.833 39.999 116.5s36 70.167 56 97.5
c-28 15.333 -53.833 33.333 -77.5 54s-45.667 38.5 -66 53.5s-39.166 24.167 -56.499 27.5s-34 -4.66699 -50 -24c-4.66699 -5.33301 -9.5 -8.66602 -14.5 -9.99902s-9 -1 -12 1s-4.5 5.5 -4.5 10.5s2.66699 10.833 8 17.5c12.667 16.667 26.5 26.834 41.5 30.501
s30.667 2.83398 47 -2.49902s33 -14 50 -26s34 -25 51 -39l50 -41c16.333 -13.333 32.166 -24.333 47.499 -33c46 56.667 98.5 100.834 157.5 132.501s125.5 44.834 199.5 39.501c22.667 -2 42.667 -6.33301 60 -13s30.5 -15.667 39.5 -27s13.5 -25.5 13.5 -42.5
s-6 -36.833 -18 -59.5c-18 -36 -41.333 -64.667 -70 -86s-60 -36 -94 -44s-69.333 -9.66699 -106 -5s-72 15.334 -106 32.001c-15.333 -26 -28.833 -53.667 -40.5 -83s-20.834 -58.5 -27.501 -87.5s-10.334 -57.333 -11.001 -85s2 -52.834 8 -75.501
c6.66699 -25.333 18.834 -43.666 36.501 -54.999s36.667 -17.333 57 -18s40.5 2.83301 60.5 10.5s36 18.167 48 31.5c3.33301 2 8.33301 10.167 15 24.5s13.667 31.833 21 52.5s14 42.5 20 65.5s9.5 44.5 10.5 64.5s-1.16699 36.5 -6.5 49.5s-15.666 19.5 -30.999 19.5
c-21.333 0 -41.666 -2.83301 -60.999 -8.5s-36.333 -14.5 -51 -26.5s-26.167 -27.667 -34.5 -47s-11.833 -42.333 -10.5 -69c0.666992 -20 -2 -33.833 -8 -41.5s-12.667 -10.667 -20 -9s-14 7.16699 -20 16.5s-8.66699 21 -8 35c1.33301 29.333 8.16602 55.333 20.499 78
s28.5 41.5 48.5 56.5s43.167 25.833 69.5 32.5s54.5 9 84.5 7c48 -3.33301 81.333 -17.166 100 -41.499s21.334 -57.833 8.00098 -100.5l-10 -34.5c-4.66699 -16.333 -10.334 -35.166 -17.001 -56.499l-21 -69l-22.5 -73l-22 -67.5c-7 -21 -13.167 -38.5 -18.5 -52.5
c-2 -1.33301 -8.83301 -3 -20.5 -5s-23.667 -3.33301 -36 -4s-23.333 -0.166992 -33 1.5s-13.5 5.16699 -11.5 10.5c4 12 9.16699 26.667 15.5 44l19 51l16.5 44c4.66699 12.667 7.33398 20.667 8.00098 24zM213 471.994c31.333 -14 63.6641 -22.834 96.9971 -26.501
s65.333 -1.5 96 6.5s59.167 21.833 85.5 41.5s48.166 45.834 65.499 78.501c8.66699 16.667 12.834 31.5 12.501 44.5s-4.16602 24 -11.499 33s-17.333 15.833 -30 20.5s-26.667 7 -42 7c-29.333 0 -57.5 -6.66699 -84.5 -20s-52.167 -30 -75.5 -50s-44.666 -42 -63.999 -66
s-35.666 -47 -48.999 -69z" />
    <glyph glyph-name="H" unicode="H" horiz-adv-x="701" 
d="M508 576c-1.33301 -3.33301 -4.50586 -3.66992 -9.50586 -1.00293s-9.16699 3.66699 -12.5 3c-4.66699 -0.666992 -9.83398 -4.5 -15.501 -11.5s-12.667 -19.833 -21 -38.5s-18.833 -44.5 -31.5 -77.5l-47 -127.5c23.333 1.33301 46.833 2.83301 70.5 4.5
s46.834 4.16699 69.501 7.5l46 150.5c16 54.333 36.667 114.5 62 180.5c4.66699 13.333 10.5 20.166 17.5 20.499s15.167 -3.5 24.5 -11.5c7.33301 -6 15.5 -13.833 24.5 -23.5s18.167 -22.167 27.5 -37.5c24 -40 41 -75.833 51 -107.5s11.5 -59.5 4.5 -83.5
s-23.333 -44.667 -49 -62s-62.5 -31.666 -110.5 -42.999c-8 -24 -15.5 -47.833 -22.5 -71.5s-13.167 -46.167 -18.5 -67.5l-14.5 -59.5c-4.33301 -18.333 -7.83301 -34.166 -10.5 -47.499c-1.33301 -6 -2.33301 -11.833 -3 -17.5s-0.333984 -9.83398 0.999023 -12.501
s4.33301 -3.66699 9 -3s11.667 4.33398 21 11.001l28 27c9.33301 9.33301 19.333 20 30 32s21.834 25.5 33.501 40.5s24.5 32.5 38.5 52.5l16 -17c-12 -17.333 -26.5 -37.166 -43.5 -59.499s-35 -43.5 -54 -63.5s-38 -37 -57 -51s-36.5 -21.333 -52.5 -22
c-9.33301 0 -18.5 1.33301 -27.5 4s-16.833 8 -23.5 16s-11.167 19 -13.5 33s-1.16602 32 3.50098 54l18.5 88c7 33.333 17.5 72 31.5 116c-23.333 -2.66699 -46.333 -4.5 -69 -5.5s-45.334 -1.5 -68.001 -1.5c-4 -12 -8.33301 -26.833 -13 -44.5l-15.5 -56
c-5.66699 -19.667 -11.667 -39 -18 -58s-13.166 -35.833 -20.499 -50.5c-17.333 -33.333 -41.166 -56.166 -71.499 -68.499s-62.833 -18.5 -97.5 -18.5c-24 0 -44.833 4.16699 -62.5 12.5s-32 19.833 -43 34.5s-18.833 31.834 -23.5 51.501s-6 41.167 -4 64.5
c3.33301 35.333 12.333 64 27 86s33.834 39 57.501 51s51 19.667 82 23s64.5 4 100.5 2l39 127c10.667 34 20.167 62.333 28.5 85s15.833 40.667 22.5 54s13.334 24.666 20.001 33.999c-18.667 -15.333 -37 -23.166 -55 -23.499s-34.667 2.33398 -50 8.00098
s-28.666 12.167 -39.999 19.5s-19.333 11.333 -24 12c-16.667 2 -31 0.666992 -43 -4s-21.333 -11.167 -28 -19.5s-11 -17.5 -13 -27.5s-1.33301 -19.333 2 -28c2 -5.33301 1.5 -8.33301 -1.5 -9s-5.16699 0.666016 -6.5 3.99902c-5.33301 9.33301 -7.16602 21 -5.49902 35
s6.5 27.667 14.5 41s19.333 25.5 34 36.5s32.334 18.167 53.001 21.5c18 2.66699 33.167 2.16699 45.5 -1.5s23.166 -8.66699 32.499 -15s18 -12.833 26 -19.5s16.333 -11.334 25 -14.001c11.333 -4.66699 22.5 -3.66699 33.5 3s20.167 14.667 27.5 24
c8 10 16.167 15 24.5 15s16.5 -3 24.5 -9s15.667 -13.833 23 -23.5s13.666 -19.5 18.999 -29.5s9.83301 -19 13.5 -27s5.83398 -13 6.50098 -15zM251.994 297.996c-26 2 -51.835 1.66797 -77.502 -0.999023s-49 -9.16699 -70 -19.5s-38.667 -25.333 -53 -45
s-23.166 -45.167 -26.499 -76.5c-2.66699 -24 -1.5 -44.833 3.5 -62.5s12.333 -32 22 -43s20.667 -18.5 33 -22.5s24.5 -4.66699 36.5 -2c14.667 3.33301 28.334 11.166 41.001 23.499s22.667 29.5 30 51.5l31 98.5zM621.992 353.997
c34 8.66699 60.168 18.332 78.501 28.999s30.333 24.167 36 40.5s5.16699 36.833 -1.5 61.5s-18.334 55.334 -35.001 92.001c-4 -8 -8.5 -19.5 -13.5 -34.5l-17.5 -52.5l-21.5 -65c-7.66699 -23.333 -16.167 -47 -25.5 -71z" />
    <glyph glyph-name="I" unicode="I" horiz-adv-x="563" 
d="M121 551c-5.33301 10.667 -6.66797 23.832 -4.00098 39.499s9.33398 30.5 20.001 44.5s25.5 25.833 44.5 35.5s41.833 13.834 68.5 12.501c12.667 -0.666992 24.667 -4.33398 36 -11.001s22.333 -13.667 33 -21s21.167 -13.833 31.5 -19.5
s21.166 -7.83398 32.499 -6.50098c10 15.333 20.333 28 31 38s22 18.333 34 25c4 1.33301 8 0 12 -4c0.666992 0 1.66699 -0.666992 3 -2c6 -6 12.333 -14.833 19 -26.5s12.667 -23.5 18 -35.5c6.66699 -14 13 -29 19 -45c0 -1.33301 -2.66699 -0.666016 -8 2.00098
s-9.66602 3.33398 -12.999 2.00098c-12 -4 -24.833 -18.333 -38.5 -43s-28 -57.834 -43 -99.501s-31 -90.667 -48 -147l-53.5 -185.5c-6 -20.667 -15.167 -38 -27.5 -52s-27.166 -25.167 -44.499 -33.5s-36.166 -14.166 -56.499 -17.499s-41.5 -5 -63.5 -5
c-20.667 0 -38.834 4 -54.501 12s-28.5 19 -38.5 33s-17.167 30.5 -21.5 49.5s-5.83301 39.167 -4.5 60.5c1.33301 29.333 8.16602 55.166 20.499 77.499s28.333 40.833 48 55.5s41.667 25.5 66 32.5s48.833 9.83301 73.5 8.5c17.333 -1.33301 25.833 -5.66602 25.5 -12.999
s-9.16602 -11 -26.499 -11c-18.667 -0.666992 -38.167 -3.33398 -58.5 -8.00098s-39 -12.667 -56 -24s-31.333 -26.666 -43 -45.999s-18.167 -44 -19.5 -74c-1.33301 -43.333 6.83398 -74.833 24.501 -94.5s38.5 -29.5 62.5 -29.5c22 -0.666992 40 7.33301 54 24
s25.667 42 35 76l46.5 165c14.333 48.667 27.666 91.834 39.999 129.501s23.833 70.334 34.5 98.001s21 51.5 31 71.5c-16.667 -2 -33 -0.833008 -49 3.5s-30.833 9.33301 -44.5 15s-25.667 11.167 -36 16.5s-17.5 8 -21.5 8c-16.667 2 -30.834 0.833008 -42.501 -3.5
s-20.834 -10.333 -27.501 -18s-11 -16.334 -13 -26.001s-1.33301 -18.834 2 -27.501c2 -5.33301 1.33301 -8.5 -2 -9.5s-5.66602 0.166992 -6.99902 3.5z" />
    <glyph glyph-name="J" unicode="J" horiz-adv-x="827" 
d="M414 551c-6 10.667 -7.49512 24.3408 -4.49512 41.0078s10.167 32.667 21.5 48s26.666 28.166 45.999 38.499s42.333 14.833 69 13.5c14 -1.33301 28.167 -5.33301 42.5 -12l42 -19c13.667 -6 27.334 -10.333 41.001 -13s27.167 -0.333984 40.5 6.99902l12 13l10 8
c4.66699 4.66699 11.167 2 19.5 -8s16.666 -21.833 24.999 -35.5s15.5 -26.834 21.5 -39.501s9 -19.334 9 -20.001c-0.666992 -2 -2.66699 -1.66699 -6 1s-6.33301 4 -9 4c-10.667 -0.666992 -22.167 -11.834 -34.5 -33.501s-24.833 -48.834 -37.5 -81.501
s-25.167 -68.334 -37.5 -107.001l-34.5 -111l-27.5 -93.5c-7.66699 -27 -13.167 -44.833 -16.5 -53.5c-6 -15.333 -13.333 -29.166 -22 -41.499s-19.834 -23 -33.501 -32s-30.334 -15.833 -50.001 -20.5s-43.167 -7 -70.5 -7c-30.667 0 -56.167 2.16699 -76.5 6.5
s-37.833 10.333 -52.5 18s-27.167 16.5 -37.5 26.5s-20.333 20.667 -30 32l-30.5 34.5c-10.667 11.667 -23.667 22.834 -39 33.501c-19.333 13.333 -38.666 17.166 -57.999 11.499s-36.5 -16.334 -51.5 -32.001s-26.333 -34.167 -34 -55.5s-9.5 -41 -5.5 -59
c1.33301 -7.33301 0 -11.333 -4 -12s-6.66699 1.33301 -8 6c-5.33301 14.667 -5.5 33.334 -0.5 56.001s15 44.5 30 65.5s35.167 38.833 60.5 53.5s56 21.667 92 21c24.667 -0.666992 46 -5.33398 64 -14.001s33.833 -19.5 47.5 -32.5s25.667 -27.5 36 -43.5l29.5 -46
c20.667 -25.333 38.667 -39.666 54 -42.999s28.666 0 39.999 10s21 24.5 29 43.5s15 38.167 21 57.5l49.5 171c15 51.333 29.333 96.833 43 136.5s27 73.5 40 101.5s26.167 49.667 39.5 65c-18 -4.66699 -36.333 -6.16699 -55 -4.5s-36 4.5 -52 8.5
s-30.167 8.16699 -42.5 12.5s-20.833 6.5 -25.5 6.5c-16.667 2 -30.834 0.833008 -42.501 -3.5s-20.834 -10.333 -27.501 -18s-11 -16.334 -13 -26.001s-1.33301 -18.834 2 -27.501c2 -5.33301 1.5 -8.5 -1.5 -9.5s-5.16699 0.166992 -6.5 3.5z" />
    <glyph glyph-name="K" unicode="K" horiz-adv-x="729" 
d="M131 557c-6 10.667 -7.67676 23.8389 -5.00977 39.5059s9.5 30.5 20.5 44.5s26 25.833 45 35.5s41.833 13.834 68.5 12.501c14.667 -0.666992 28.334 -5.16699 41.001 -13.5l37 -24.5c12 -8 24 -14.167 36 -18.5s24.667 -2.83301 38 4.5c14 20.667 29 39.667 45 57
c2 2 4.66699 2 8 0s7 -5.5 11 -10.5s8 -10.833 12 -17.5l12 -21c4.66699 -8.66699 9.33398 -18.167 14.001 -28.5l15 -34.5c-2.66699 -2.66699 -6.66699 -2.33398 -12 0.999023s-8.66602 3.66602 -9.99902 0.999023c-18 -28 -34.167 -56.667 -48.5 -86
s-27.166 -59.333 -38.499 -90c21.333 25.333 46 53 74 83s56.667 58.167 86 84.5s57.833 48.5 85.5 66.5s52.167 27.333 73.5 28c10.667 0.666992 19.334 -3 26.001 -11s11.167 -17.5 13.5 -28.5s2.33301 -22 0 -33s-7.16602 -19.5 -14.499 -25.5
c-8.66699 -7.33301 -18 -10 -28 -8s-16.333 5 -19 9c-2 4.66699 -1.5 10.167 1.5 16.5s6.16699 12.666 9.5 18.999s6 11.833 8 16.5s1 7.33398 -3 8.00098c-10.667 2 -25 -2.16699 -43 -12.5s-38 -24.5 -60 -42.5s-44.667 -38.333 -68 -61s-45.666 -45.5 -66.999 -68.5
s-40.666 -44.833 -57.999 -65.5s-30.666 -37.667 -39.999 -51c22.667 -0.666992 41.5 -8 56.5 -22s27.833 -31.333 38.5 -52s19.834 -42.834 27.501 -66.501s15.5 -45.667 23.5 -66s16.833 -37.333 26.5 -51s22.167 -20.5 37.5 -20.5c12.667 0 25.167 5.66699 37.5 17
s24 25 35 41s20.833 32.333 29.5 49s15.334 30.334 20.001 41.001l23 -17l-25 -55.5c-9.33301 -21 -20.666 -40.833 -33.999 -59.5s-28.833 -34.5 -46.5 -47.5s-38.5 -19.5 -62.5 -19.5c-24.667 -0.666992 -45.334 5.66602 -62.001 18.999s-30.5 30.166 -41.5 50.499
s-20.167 42.666 -27.5 66.999l-21 69.5c-6.66699 22 -13.834 41.167 -21.501 57.5s-17.167 26.833 -28.5 31.5c-9.33301 -28.667 -18 -57.5 -26 -86.5s-16.667 -57.833 -26 -86.5c-5.33301 -18 -12.166 -34.5 -20.499 -49.5s-19.5 -27.833 -33.5 -38.5s-31.333 -19 -52 -25
s-46.334 -9 -77.001 -9c-23.333 0 -44 4.66699 -62 14s-33 22 -45 38s-21 34.333 -27 55s-9 42.334 -9 65.001c1.33301 46.667 15 84.667 41 114s62.333 44 109 44c8.66699 0 15.5 -1.33301 20.5 -4s7.5 -5.66699 7.5 -9s-2.33301 -6.5 -7 -9.5s-12 -4.83301 -22 -5.5
c-16 -0.666992 -31 -3.33398 -45 -8.00098s-26.167 -12 -36.5 -22s-18.666 -23.167 -24.999 -39.5s-9.83301 -36.833 -10.5 -61.5c-0.666992 -24 2.33301 -44.667 9 -62s15.5 -31.666 26.5 -42.999s23.167 -19.833 36.5 -25.5s26.333 -8.5 39 -8.5
c14.667 0 27.167 6.83301 37.5 20.5s19.5 30.834 27.5 51.501c16 42.667 30.667 86 44 130l40.5 130c13.667 42.667 27.834 83.667 42.501 123s31.334 75.666 50.001 108.999c-18 -5.33301 -36 -6.33301 -54 -3s-34.667 8.16602 -50 14.499s-28.833 12.5 -40.5 18.5
s-19.834 9 -24.501 9c-16.667 2 -30.834 0.833008 -42.501 -3.5s-20.834 -10.333 -27.501 -18s-11 -16.334 -13 -26.001s-1.33301 -18.834 2 -27.501c2 -5.33301 1.5 -8.5 -1.5 -9.5s-5.16699 0.166992 -6.5 3.5z" />
    <glyph glyph-name="L" unicode="L" horiz-adv-x="737" 
d="M474 708c18.667 0 33.834 -5.16309 45.501 -15.4961s20.334 -23.5 26.001 -39.5s8.33398 -34 8.00098 -54s-3.5 -39.667 -9.5 -59s-14.833 -36.666 -26.5 -51.999s-25.5 -28 -41.5 -38s-33.667 -16.5 -53 -19.5s-39.333 -1.83301 -60 3.5
c-12 -38.667 -22.167 -78.334 -30.5 -119.001s-16.833 -76 -25.5 -106c19.333 -0.666992 37.166 -6.66699 53.499 -18s32.166 -24.5 47.499 -39.5l46 -44.5c15.333 -14.667 32 -25.667 50 -33c24.667 -10 45.834 -10.833 63.501 -2.5s30 21.333 37 39s7.5 37.667 1.5 60
s-20.333 42.166 -43 59.499c-4.66699 4 -7.33398 8.16699 -8.00098 12.5s0.166016 8 2.49902 11s5.83301 4.83301 10.5 5.5s10.334 -1 17.001 -5c19.333 -12.667 33.333 -27.834 42 -45.501s13 -35.834 13 -54.501s-4 -37.167 -12 -55.5s-18.667 -34.666 -32 -48.999
s-29 -25.833 -47 -34.5s-37.333 -12.667 -58 -12s-38.667 5.16699 -54 13.5s-29 18.5 -41 30.5s-22.5 25 -31.5 39l-25 38.5c-7.66699 11.667 -15.167 21.5 -22.5 29.5s-15 12 -23 12c-11.333 -24.667 -20.333 -46.834 -27 -66.501s-15.5 -36.5 -26.5 -50.5
s-26.5 -24.833 -46.5 -32.5s-48.667 -12.167 -86 -13.5c-16 -0.666992 -31.333 1.33301 -46 6s-27 11.5 -37 20.5s-16.833 20.167 -20.5 33.5s-2.5 28.666 3.5 45.999c6.66699 20.667 18 37.5 34 50.5s33.333 23.333 52 31s37.334 13 56.001 16s34.334 5.16699 47.001 6.5
c16 54.667 28.167 103.167 36.5 145.5s17.166 79.833 26.499 112.5c-22 6.66699 -45.333 17.5 -70 32.5s-48.667 30.833 -72 47.5l-66 46.5c-20.667 14.333 -38.334 24.166 -53.001 29.499c-4 1.33301 -8.5 1 -13.5 -1s-10 -5.16699 -15 -9.5s-9.83301 -9.33301 -14.5 -15
s-9 -11.167 -13 -16.5c-4 -6 -8.83301 -9.33301 -14.5 -10s-10.834 0.5 -15.501 3.5s-7.83398 7.5 -9.50098 13.5s-0.5 12.667 3.5 20c8 13.333 19.167 26.5 33.5 39.5s31.5 19.5 51.5 19.5c17.333 0 37.333 -7.33301 60 -22s46.167 -31.5 70.5 -50.5s49.333 -37.5 75 -55.5
s50.167 -30.333 73.5 -37c6.66699 20.667 15.167 42.834 25.5 66.501s23.333 45.5 39 65.5s34.834 36.667 57.501 50s49.667 20 81 20zM375 472.004c25.333 -6 47.167 -5.49805 65.5 1.50195s33.166 17.667 44.499 32s19.5 30.666 24.5 48.999s7.16699 35.5 6.5 51.5
s-4.16699 29.5 -10.5 40.5s-15.5 16.167 -27.5 15.5c-13.333 0 -25.666 -8.5 -36.999 -25.5s-21.5 -36.333 -30.5 -58s-16.5 -42.834 -22.5 -63.501s-10.333 -35 -13 -43zM186.001 180.006c-14 -1.33301 -28 -3.33203 -42 -5.99902s-27.167 -6.66699 -39.5 -12
s-23.5 -12.666 -33.5 -21.999s-18.333 -21.333 -25 -36c-4.66699 -10.667 -7 -20.834 -7 -30.501s2 -17.834 6 -24.501s10.5 -11.5 19.5 -14.5s20.167 -2.83301 33.5 0.5c14.667 3.33301 27 10.333 37 21s18.167 23 24.5 37s11.5 28.667 15.5 44z" />
    <glyph glyph-name="M" unicode="M" horiz-adv-x="856" 
d="M434 665c0.666992 -44 4.50586 -81.6592 11.5059 -112.992s15 -59.5 24 -84.5s18.333 -47.833 28 -68.5s17.167 -42 22.5 -64s7.66602 -46.333 6.99902 -73s-6.33398 -58 -17.001 -94c20 32.667 39.5 70.334 58.5 113.001l58.5 130c20 44 41.333 86.333 64 127
s47.667 75 75 103c9.33301 10 20.666 17.833 33.999 23.5s30.333 8.83398 51 9.50098c6 0.666992 10.5 -0.333008 13.5 -3s1.16699 -6.66699 -5.5 -12c-16 -12 -31.167 -31.5 -45.5 -58.5s-27.5 -58.167 -39.5 -93.5s-22.333 -73 -31 -113s-15.5 -79.167 -20.5 -117.5
s-7.5 -73.833 -7.5 -106.5s2.66699 -59.334 8 -80.001c6.66699 -25.333 14.5 -39.666 23.5 -42.999s18.167 -0.333008 27.5 9c7.33301 7.33301 15.166 17.666 23.499 30.999s16.333 27.166 24 41.499s14.5 28.166 20.5 41.499l14 32l25 -17
c-7.33301 -18.667 -18.833 -41.667 -34.5 -69s-33.5 -53 -53.5 -77c-14 -16 -28.667 -28 -44 -36s-30.333 -11.167 -45 -9.5s-28 8.16699 -40 19.5s-21.333 28.666 -28 51.999c-3.33301 11.333 -6.16602 24.5 -8.49902 39.5s-3.83301 32.167 -4.5 51.5
c0 28 1.83301 54.667 5.5 80s8.66699 50.333 15 75s13.666 49.167 21.999 73.5s17.5 49.166 27.5 74.499l-52 -113.5l-49 -104.5c-16.667 -34 -35 -68.167 -55 -102.5s-43.333 -70.5 -70 -108.5c-13.333 -18.667 -20 -27.334 -20 -26.001s1.66699 12 5 32
c5.33301 33.333 6.83301 63.5 4.5 90.5s-6.83301 52.167 -13.5 75.5s-14.667 45.833 -24 67.5s-18 44.167 -26 67.5s-14.833 48.333 -20.5 75s-8.16699 56.667 -7.5 90c-7.33301 -21.333 -14.333 -48.833 -21 -82.5s-14.5 -69.334 -23.5 -107.001
s-19.333 -75.334 -31 -113.001s-26.167 -71.5 -43.5 -101.5s-37.833 -54.167 -61.5 -72.5s-51.5 -26.833 -83.5 -25.5s-57 12.166 -75 32.499s-26.667 46.5 -26 78.5c0 33.333 9.33301 61.166 28 83.499s50 33.166 94 32.499c8.66699 0 15.667 -1.33301 21 -4
s8.33301 -5.83398 9 -9.50098s-1.33301 -6.83398 -6 -9.50098s-12.334 -4 -23.001 -4c-18 0 -32.833 -2.5 -44.5 -7.5s-21 -11.5 -28 -19.5s-12 -17.333 -15 -28s-4.5 -21.667 -4.5 -33c0 -22.667 7.33301 -41.167 22 -55.5s31.334 -21.833 50.001 -22.5
c28 -0.666992 52 9.33301 72 30s37.333 47.667 52 81s27.667 70.833 39 112.5l33.5 125.5c11 42 22.833 82 35.5 120s27.667 69.667 45 95c-17.333 -13.333 -35.5 -20.833 -54.5 -22.5s-37.333 -0.666992 -55 3s-34.167 8.66699 -49.5 15s-27.333 11.5 -36 15.5
c-12.667 4.66699 -25 5.83398 -37 3.50098s-22.333 -7.16602 -31 -14.499s-14.667 -16.666 -18 -27.999s-2.33301 -24 3 -38c2 -5.33301 1.5 -8.33301 -1.5 -9s-5.16699 0.666016 -6.5 3.99902c-6 10.667 -8 24.334 -6 41.001s8 32.667 18 48s24.167 28.333 42.5 39
s40.833 15.334 67.5 14.001c18.667 -1.33301 35.667 -7.5 51 -18.5s30.666 -20.333 45.999 -28s31.166 -9.83398 47.499 -6.50098s34.5 19 54.5 47l6.5 8.5c2.33301 3 4.33301 5 6 6s3.16699 0.666992 4.5 -1s2 -5.5 2 -11.5z" />
    <glyph glyph-name="N" unicode="N" horiz-adv-x="750" 
d="M439 667c-1.33301 -56 1.3291 -103.671 7.99609 -143.004s15.167 -73.833 25.5 -103.5s21.333 -56 33 -79s21.334 -45.833 29.001 -68.5s12.5 -47 14.5 -73s-1.33301 -56.667 -10 -92c4.66699 2 9.66699 12.167 15 30.5s11.166 41.333 17.499 69l21 93.5
c7.66699 34.667 16.667 69.5 27 104.5s21.833 68.5 34.5 100.5s27.334 59.667 44.001 83c18.667 26 39.334 47.333 62.001 64s51 25.667 85 27c36 -0.666992 63.167 -10.167 81.5 -28.5s26.5 -44.5 24.5 -78.5c-2 -21.333 -7.66699 -38.333 -17 -51s-20.333 -22 -33 -28
s-26.167 -9.16699 -40.5 -9.5s-27.833 1.5 -40.5 5.5c-6 2 -10.667 5.16699 -14 9.5s-5 8.33301 -5 12s1.66699 6.33398 5 8.00098s8.33301 1.16699 15 -1.5c6.66699 -3.33301 15.5 -6 26.5 -8s22 -1.66699 33 1s20.833 8.83398 29.5 18.501s14 24.5 16 44.5
c1.33301 13.333 -0.166992 25 -4.5 35s-10.166 18.167 -17.499 24.5s-15.5 10.833 -24.5 13.5s-17.5 3.33398 -25.5 2.00098c-24 -4 -45.167 -17.167 -63.5 -39.5s-35 -49.833 -50 -82.5s-28.5 -68.5 -40.5 -107.5s-23.167 -77.5 -33.5 -115.5l-30 -106
c-9.66699 -32.667 -19.5 -58.667 -29.5 -78c-12 -24 -25.833 -45.667 -41.5 -65s-34.167 -35.333 -55.5 -48c-10.667 -7.33301 -17.167 -9 -19.5 -5s-2.83301 10 -1.5 18c3.33301 26 2.33301 51.167 -3 75.5s-13 48.5 -23 72.5s-21 48.5 -33 73.5s-23 50.833 -33 77.5
s-18 54.834 -24 84.501s-7.66699 61.5 -5 95.5c-10 -32 -18.333 -64.5 -25 -97.5l-20.5 -98c-7 -32.333 -15.333 -64.333 -25 -96s-22.834 -62.5 -39.501 -92.5c-14 -25.333 -26.833 -45.5 -38.5 -60.5s-23.167 -26.5 -34.5 -34.5s-23.166 -13.333 -35.499 -16
s-26.166 -4 -41.499 -4c-24 0 -44.167 5.66699 -60.5 17s-28.333 25.5 -36 42.5s-11 35.667 -10 56s6.5 39.166 16.5 56.499s24.833 31.833 44.5 43.5s44.5 17.834 74.5 18.501c12 0.666992 21 -0.5 27 -3.5s9 -6.33301 9 -10s-3 -7.16699 -9 -10.5s-15.333 -5 -28 -5
c-22 0 -40.333 -4.33301 -55 -13s-25.667 -19.667 -33 -33s-11.333 -27.666 -12 -42.999s1.66602 -29.5 6.99902 -42.5s13.833 -23.667 25.5 -32s25.834 -12.166 42.501 -11.499c14 0.666992 26.833 4.16699 38.5 10.5s22.167 14.333 31.5 24s18 20.334 26 32.001
s15.333 23.167 22 34.5c18 30.667 32 61.667 42 93s18.667 62.666 26 93.999s14.333 62.833 21 94.5s15.334 63.5 26.001 95.5c4.66699 12.667 10.167 26.667 16.5 42s12.833 29 19.5 41c-17.333 -14 -36.166 -20.5 -56.499 -19.5s-39.833 5 -58.5 12
s-35.334 14.667 -50.001 23s-24.334 12.833 -29.001 13.5c-16.667 2 -30.667 0.333008 -42 -5s-20.166 -12.333 -26.499 -21s-10.166 -18.167 -11.499 -28.5s-0.333008 -19.833 3 -28.5c2 -5.33301 1.5 -8.5 -1.5 -9.5s-5.16699 0.166992 -6.5 3.5
c-6 10.667 -7.83301 24.334 -5.5 41.001s8.66602 32.5 18.999 47.5s24.833 27.667 43.5 38s41 14.833 67 13.5c12.667 -0.666992 24.334 -3.83398 35.001 -9.50098s21 -11.834 31 -18.501s20 -12.834 30 -18.501s20.167 -8.5 30.5 -8.5s21.166 3.5 32.499 10.5
s23.666 19.833 36.999 38.5c2 2.66699 4 5.5 6 8.5s4 5 6 6s3.5 0.833008 4.5 -0.5s1.5 -5.33301 1.5 -12z" />
    <glyph glyph-name="O" unicode="O" horiz-adv-x="526" 
d="M448 272c-18 -45.333 -40.5029 -86.334 -67.5029 -123.001s-56 -67 -87 -91s-62.5 -40.333 -94.5 -49s-62.333 -7.33398 -91 3.99902c-24 9.33301 -44.333 25.333 -61 48s-29.167 49.5 -37.5 80.5s-12.666 64.833 -12.999 101.5s3.83398 73.667 12.501 111
c6 28 15 57.667 27 89s25.667 59 41 83c3.33301 5.33301 7.16602 8.66602 11.499 9.99902s8 0.833008 11 -1.5s4.66699 -6.16602 5 -11.499s-1.5 -11.666 -5.5 -18.999l-11.5 -21c-4.33301 -8 -9 -18.167 -14 -30.5s-10 -27 -15 -44s-9.5 -37.167 -13.5 -60.5
c-2 -12 -3.16699 -26.5 -3.5 -43.5s0.333984 -35 2.00098 -54s4.5 -38.167 8.5 -57.5s9.66699 -37 17 -53s16.5 -29.5 27.5 -40.5s23.833 -17.833 38.5 -20.5c19.333 -3.33301 38.666 1 57.999 13s37.833 29.167 55.5 51.5s34 48.666 49 78.999s28.167 62.5 39.5 96.5
s20.5 68.167 27.5 102.5s11.333 66.5 13 96.5s0.333984 56.167 -3.99902 78.5s-12.333 38.666 -24 48.999s-27.334 13 -47.001 8s-43.834 -19.833 -72.501 -44.5c-18 -15.333 -33.333 -33.333 -46 -54s-22.167 -42.5 -28.5 -65.5s-9.33301 -46.5 -9 -70.5s4.5 -47 12.5 -69
c4 -11.333 5.5 -20 4.5 -26s-3.16699 -9.5 -6.5 -10.5s-7.16602 0 -11.499 3s-8.16602 7.83301 -11.499 14.5c-10 22 -15 46.5 -15 73.5s3.66699 53.833 11 80.5s17.833 52.167 31.5 76.5s29.167 45.166 46.5 62.499c18 18.667 39.167 33.334 63.5 44.001
s50.5 15.334 78.5 14.001c32 -1.33301 58 -8.66602 78 -21.999s35.333 -30.666 46 -51.999s17.334 -45.666 20.001 -72.999s2.5 -55.333 -0.5 -84s-8.16699 -57 -15.5 -85s-15.333 -53.667 -24 -77c-1.33301 -3.33301 -2.33301 -6.33301 -3 -9
s-1.66699 -5.33398 -3 -8.00098z" />
    <glyph glyph-name="P" unicode="P" horiz-adv-x="542" 
d="M30 141c-1.33301 -19.333 0.99707 -36.3262 6.99707 -50.9932s14 -26.834 24 -36.501s21.333 -16.834 34 -21.501s25.334 -6.33398 38.001 -5.00098c18 1.33301 34.667 10.5 50 27.5s27.666 40.833 36.999 71.5l26.5 86l33.5 110.5l37.5 117.5
c13 39.333 25.667 75.5 38 108.5s23.833 60.833 34.5 83.5s20 36.667 28 42c4.66699 4.66699 10.167 5.66699 16.5 3s12.833 -7.5 19.5 -14.5s13.167 -15.333 19.5 -25l17.5 -27.5c5.33301 -8.66699 9.33301 -16 12 -22l4 -9
c-3.33301 -1.33301 -7.5 -0.166016 -12.5 3.50098s-9.16699 5.83398 -12.5 6.50098s-8.16602 -6.33301 -14.499 -21s-13.666 -34 -21.999 -58s-17 -51.167 -26 -81.5l-26.5 -92.5c36.667 -1.33301 68.834 3.5 96.501 14.5s51.334 25.333 71.001 43s35 37.5 46 59.5
s18.167 43.667 21.5 65c2.66699 20 0.666992 39.5 -6 58.5s-18 36 -34 51s-36.5 27.333 -61.5 37s-53.833 15.167 -86.5 16.5c-25.333 0.666992 -51.333 -0.833008 -78 -4.5s-52.5 -8.83398 -77.5 -15.501s-48.333 -14.834 -70 -24.501s-39.834 -19.834 -54.501 -30.501
c-12.667 -9.33301 -20.667 -18.833 -24 -28.5s-3.66602 -20 -0.999023 -31s7.5 -22.667 14.5 -35s14.167 -25.833 21.5 -40.5c2.66699 -6 3.83398 -11.167 3.50098 -15.5s-1.66602 -7.33301 -3.99902 -9s-5.16602 -2 -8.49902 -1s-7 4.16699 -11 9.5
c-11.333 16.667 -21 33 -29 49s-13 31.5 -15 46.5s-0.666992 29 4 42s14 24.833 28 35.5c13.333 10 30.833 19.5 52.5 28.5s46 17 73 24s55.667 12.667 86 17s60.833 7.16602 91.5 8.49902c42 1.33301 82.333 -1 121 -7s72 -17 100 -33s48.833 -37.167 62.5 -63.5
s16.167 -59.5 7.5 -99.5c-7.33301 -32.667 -21.333 -62.167 -42 -88.5s-46.334 -48.5 -77.001 -66.5s-65.667 -31.167 -105 -39.5s-81.333 -10.5 -126 -6.5l-17.5 -63.5l-15.5 -56l-12.5 -44c-3.66699 -12.333 -6.5 -21.5 -8.5 -27.5
c-6 -18.667 -13.833 -35.167 -23.5 -49.5s-22.167 -26.333 -37.5 -36s-33.833 -17 -55.5 -22s-47.834 -7.5 -78.501 -7.5c-46 -0.666992 -80.833 11.333 -104.5 36s-34.167 59 -31.5 103c0.666992 22 5.16699 40.5 13.5 55.5s19.333 27.167 33 36.5s29.167 15.833 46.5 19.5
s35.666 5.16699 54.999 4.5c8.66699 0 15.167 -1.33301 19.5 -4s6.66602 -5.83398 6.99902 -9.50098s-1.5 -6.83398 -5.5 -9.50098s-9.66699 -4 -17 -4c-16.667 0 -32.167 -1.16699 -46.5 -3.5s-26.833 -6.5 -37.5 -12.5s-19.167 -14.5 -25.5 -25.5
s-9.83301 -24.833 -10.5 -41.5z" />
    <glyph glyph-name="Q" unicode="Q" horiz-adv-x="578" 
d="M376 146c26.667 -12 49.8369 -31.0078 69.5039 -57.0078s28.834 -59 27.501 -99c-0.666992 -12 -4 -17.5 -10 -16.5s-9.33301 5.5 -10 13.5c-1.33301 24 -6.5 41.333 -15.5 52s-20.167 18 -33.5 22s-28.333 6.33301 -45 7s-33.334 2.66699 -50.001 6
c-25.333 -21.333 -49.5 -38.166 -72.5 -50.499s-46.833 -16.833 -71.5 -13.5c-28.667 4 -53.334 15.167 -74.001 33.5s-37.667 41 -51 68s-22.833 56.667 -28.5 89s-7.5 64.5 -5.5 96.5c3.33301 42 11.333 80.333 24 115s28.667 70.334 48 107.001
c4 8.66699 8.16699 14.334 12.5 17.001s8 3.16699 11 1.5s4.83301 -5.66699 5.5 -12s-1 -14.166 -5 -23.499l-19 -39.5c-7.33301 -15 -14.166 -31.5 -20.499 -49.5s-12 -37 -17 -57s-7.83301 -41 -8.5 -63c-0.666992 -20 2 -42.833 8 -68.5s15.333 -48.5 28 -68.5
s28.667 -34.667 48 -44s42.666 -8.33301 69.999 3c-28 23.333 -48.333 54.5 -61 93.5s-19.334 80.167 -20.001 123.5s3.83301 85.833 13.5 127.5s22.5 77.167 38.5 106.5c8 14.667 17.5 28.834 28.5 42.501s23.5 25.834 37.5 36.501s29.833 19.334 47.5 26.001
s37.5 10.334 59.5 11.001c40.667 0.666992 72.5 -9 95.5 -29s39.167 -46 48.5 -78s12.833 -68.167 10.5 -108.5s-8.83301 -80.5 -19.5 -120.5s-24.334 -77.667 -41.001 -113s-34.334 -64.333 -53.001 -87zM257.003 177.992c16 15.333 32.168 37.9971 48.501 67.9971
s31 62.833 44 98.5s23.5 72 31.5 109s11.833 70.667 11.5 101s-5.5 55.166 -15.5 74.499s-26.333 29 -49 29c-13.333 -0.666992 -26.833 -4.66699 -40.5 -12s-27 -16.166 -40 -26.499s-24.833 -21.666 -35.5 -33.999s-19.334 -23.833 -26.001 -34.5
c-12 -18.667 -22.167 -40 -30.5 -64s-14.166 -49 -17.499 -75s-3.83301 -51.833 -1.5 -77.5s8.16602 -49.167 17.499 -70.5s22.333 -39.666 39 -54.999s38 -25.666 64 -30.999z" />
    <glyph glyph-name="R" unicode="R" horiz-adv-x="784" 
d="M33 129c-1.33301 -19.333 0.5 -36.3301 5.5 -50.9971s12 -26.667 21 -36s19.5 -16.166 31.5 -20.499s24.333 -5.83301 37 -4.5c37.333 2.66699 66.666 35.667 87.999 99l26.5 86l34 110l37.5 117.5c12.667 39.667 25.167 76 37.5 109s23.833 60.833 34.5 83.5
s20 36.667 28 42c4.66699 4.66699 10 5.66699 16 3s12.5 -7.5 19.5 -14.5s13.667 -15.333 20 -25s12 -18.834 17 -27.501s9 -16 12 -22s4.16699 -9 3.5 -9c-3.33301 -1.33301 -7.5 -0.166016 -12.5 3.50098s-9.16699 5.83398 -12.5 6.50098s-8.16602 -6.33301 -14.499 -21
s-13.666 -34 -21.999 -58s-17 -51.167 -26 -81.5l-26.5 -92.5c36.667 -1.33301 69 3.5 97 14.5s51.667 25.333 71 43s34.666 37.5 45.999 59.5s18.333 43.667 21 65c2.66699 20 0.666992 39.5 -6 58.5s-18 36 -34 51s-36.333 27.333 -61 37s-53.667 15.167 -87 16.5
c-25.333 0.666992 -51.333 -0.833008 -78 -4.5s-52.5 -8.83398 -77.5 -15.501s-48.333 -14.834 -70 -24.501s-39.834 -19.834 -54.501 -30.501c-12.667 -9.33301 -20.5 -18.833 -23.5 -28.5s-3.16699 -20 -0.5 -31s7.33398 -22.667 14.001 -35l21 -40.5
c5.33301 -12 5.33301 -20.333 0 -25s-12 -1.66699 -20 9c-11.333 16.667 -21 33 -29 49s-13 31.5 -15 46.5s-0.5 29 4.5 42s14.5 24.833 28.5 35.5c13.333 10 30.833 19.5 52.5 28.5s46 17 73 24s55.5 12.667 85.5 17s60.333 7.16602 91 8.49902
c42 1.33301 82.5 -1 121.5 -7s72.5 -17 100.5 -33s48.833 -37.167 62.5 -63.5s15.834 -59.5 6.50098 -99.5c-6 -27.333 -17 -52.666 -33 -75.999s-35.833 -43.833 -59.5 -61.5s-50.667 -32 -81 -43s-62.833 -17.833 -97.5 -20.5c14 -50 32.5 -100.833 55.5 -152.5
s51.833 -99.5 86.5 -143.5c12 -15.333 25 -29.166 39 -41.499s28.667 -21.666 44 -27.999s31.5 -9 48.5 -8s34.167 6.83301 51.5 17.5c4 2.66699 7.83301 3.33398 11.5 2.00098s6.16699 -3.66602 7.5 -6.99902s1.16602 -7 -0.500977 -11s-5.5 -7.33301 -11.5 -10
c-25.333 -12 -51.333 -19.833 -78 -23.5s-58 -1.5 -94 6.5c-22.667 5.33301 -44 18.166 -64 38.499s-38.667 44.5 -56 72.5s-33 57.667 -47 89s-26 61 -36 89s-18 52 -24 72s-9.66699 32.667 -11 38l-17.5 -63.5l-15.5 -56l-12.5 -44
c-3.66699 -12.333 -6.5 -21.5 -8.5 -27.5c-6 -18.667 -13.833 -35.167 -23.5 -49.5s-22.334 -26.333 -38.001 -36s-34.5 -17 -56.5 -22s-48 -7.5 -78 -7.5c-46 -0.666992 -79.833 12.166 -101.5 38.499s-30.5 62.5 -26.5 108.5c2 24 8.16699 43.167 18.5 57.5
s22.5 25.166 36.5 32.499s28.667 12.166 44 14.499s29 3.5 41 3.5c8.66699 0 15.334 -1.33301 20.001 -4s7 -5.83398 7 -9.50098s-1.83301 -6.83398 -5.5 -9.50098s-9.5 -4 -17.5 -4c-34 0 -60.833 -5.66699 -80.5 -17s-30.167 -34 -31.5 -68z" />
    <glyph glyph-name="S" unicode="S" horiz-adv-x="647" 
d="M515 470c-20 -18.667 -38.0039 -31.499 -54.0039 -38.499s-28.5 -8.83301 -37.5 -5.5s-13.5 11.333 -13.5 24s6 29.667 18 51c14.667 26 22.5 49.333 23.5 70s-2.5 38 -10.5 52s-19.167 24.667 -33.5 32s-28.833 11 -43.5 11c-18 0 -37 -6.16699 -57 -18.5
s-37 -27.5 -51 -45.5s-23.5 -37.333 -28.5 -58s-1.83301 -39.334 9.5 -56.001s26.833 -31.667 46.5 -45s41.167 -26.333 64.5 -39l71 -37c24 -12 45.667 -24.833 65 -38.5s35 -28.5 47 -44.5s17.667 -34 17 -54c-0.666992 -22 -6.83398 -46.333 -18.501 -73
s-28 -51.5 -49 -74.5s-46.333 -42.167 -76 -57.5s-62.834 -22.333 -99.501 -21c-24.667 0.666992 -44.667 3.33398 -60 8.00098s-28.166 10.334 -38.499 17.001s-18.666 13.834 -24.999 21.501l-18.5 22.5c-6 7.33301 -12.5 14 -19.5 20s-16.167 10.333 -27.5 13
c-15.333 3.33301 -27.833 3.33301 -37.5 0s-17.834 -8.83301 -24.501 -16.5s-12.167 -16.834 -16.5 -27.501l-13.5 -34c-4 -8.66699 -7.66699 -14 -11 -16s-6 -2.16699 -8 -0.5s-3.33301 4.83398 -4 9.50098s-0.666992 9.66699 0 15c0.666992 14 4.83398 31.667 12.501 53
s18.834 40.833 33.501 58.5s33.167 31 55.5 40s48.5 8.16699 78.5 -2.5c26 -8.66699 46.167 -21.167 60.5 -37.5s25.666 -32.666 33.999 -48.999s14.833 -30.833 19.5 -43.5s10.334 -19.667 17.001 -21c4.66699 -1.33301 11.334 -0.333008 20.001 3s17.834 8.5 27.501 15.5
s19 15.667 28 26s16.167 22.166 21.5 35.499c2.66699 6 5.5 13.167 8.5 21.5s5.33301 16.666 7 24.999s2.33398 16.5 2.00098 24.5s-2.83301 15 -7.5 21c-12 16 -28.333 31.167 -49 45.5s-42.667 28.166 -66 41.499l-70.5 40c-23.667 13.333 -44.667 27.333 -63 42
s-32.833 30.667 -43.5 48s-14.667 36.666 -12 57.999c2.66699 26 11.667 51.5 27 76.5s34.833 47.333 58.5 67s50.167 35.667 79.5 48s59.333 18.5 90 18.5c31.333 0 62.166 -6.5 92.499 -19.5s54.333 -30 72 -51s26.334 -44.667 26.001 -71s-15.5 -52.833 -45.5 -79.5z" />
    <glyph glyph-name="T" unicode="T" horiz-adv-x="552" 
d="M454 578c-52 14.667 -99.833 31.6631 -143.5 50.9961s-82.834 35 -117.501 47c-25.333 8 -47.5 9.83301 -66.5 5.5s-35 -13 -48 -26s-23.167 -29.667 -30.5 -50s-12 -42.833 -14 -67.5c-2 -24 1.5 -45.667 10.5 -65s21.333 -35.666 37 -48.999s33 -23.666 52 -30.999
s37.667 -11.333 56 -12s34.666 2 48.999 8s24.5 15.667 30.5 29c15.333 33.333 29.833 53.5 43.5 60.5s23.834 6.5 30.501 -1.5s8.16699 -20.5 4.5 -37.5s-15.167 -32.5 -34.5 -46.5c-25.333 -18.667 -50.833 -30.834 -76.5 -36.501s-50.334 -6.83398 -74.001 -3.50098
s-45.834 10.833 -66.501 22.5s-38.334 25.5 -53.001 41.5c-16.667 18 -28.5 38 -35.5 60s-9.83301 44.5 -8.5 67.5s6.33301 45.667 15 68s20.334 42.5 35.001 60.5s31.834 33.167 51.501 45.5s41.5 20.166 65.5 23.499c44 6 89.5 5.16699 136.5 -2.5
s93.833 -17.834 140.5 -30.501s92.5 -26 137.5 -40s87.667 -24.667 128 -32s77.5 -9 111.5 -5s63.667 17.667 89 41c13.333 10.667 21.5 13.5 24.5 8.5s0.833008 -11.5 -6.5 -19.5c-62 -47.333 -123.333 -78.666 -184 -93.999s-119 -19.666 -175 -12.999
c-19.333 -33.333 -36.333 -67.5 -51 -102.5s-28 -70.5 -40 -106.5s-23.333 -72.5 -34 -109.5l-33 -110.5c-5.33301 -18 -12.166 -34 -20.499 -48s-19.5 -26 -33.5 -36s-31.5 -18.167 -52.5 -24.5s-46.5 -10.833 -76.5 -13.5c-23.333 -2 -44.166 1.16699 -62.499 9.5
s-33.5 20 -45.5 35s-20.833 32.667 -26.5 53s-7.5 41.833 -5.5 64.5c2 20.667 7.83301 41.834 17.5 63.501s22.667 40.834 39 57.501s35.5 29.5 57.5 38.5s46.667 11.167 74 6.5c9.33301 -2 17.833 -5.66699 25.5 -11s14 -11 19 -17s8.33301 -11.833 10 -17.5
s1.5 -9.83398 -0.5 -12.501c-4 -5.33301 -8.16699 -7.66602 -12.5 -6.99902s-9.5 2.5 -15.5 5.5l-21.5 10.5c-8.33301 4 -18.5 7.33301 -30.5 10c-14 2.66699 -28.333 1.33398 -43 -3.99902s-28.167 -13.833 -40.5 -25.5s-23 -26.167 -32 -43.5s-14.5 -36.333 -16.5 -57
c-2 -25.333 0.166992 -47 6.5 -65s15 -32.333 26 -43s23.5 -17.667 37.5 -21s27.833 -2.83301 41.5 1.5s26.167 12.666 37.5 24.999s20 28.5 26 48.5l34 132c10 40.667 20.833 79.834 32.5 117.501s25 74.334 40 110.001s33.5 72.167 55.5 109.5z" />
    <glyph glyph-name="U" unicode="U" 
d="M294 443c8 -2.66699 13.835 -8.34082 17.502 -17.0078s4.16699 -18 1.5 -28s-9 -20 -19 -30s-25 -17.667 -45 -23c-31.333 -9.33301 -62 -11 -92 -5s-56.833 17.5 -80.5 34.5s-42.5 38.667 -56.5 65s-20.667 55.166 -20 86.499c0 30.667 7 56.834 21 78.501
s31.167 39.167 51.5 52.5s42.333 23.166 66 29.499s45.5 9.83301 65.5 10.5c54 2 97.667 -2 131 -12s59.166 -24.5 77.499 -43.5s30.166 -41.5 35.499 -67.5s6.5 -54.167 3.5 -84.5s-8.83301 -61.666 -17.5 -93.999l-27 -96l-26.5 -91.5
c-8.33301 -29.333 -13.5 -55.666 -15.5 -78.999c-2 -18 -0.5 -30.333 4.5 -37s12.333 -9.16699 22 -7.5s20.667 6.5 33 14.5s24.833 17.833 37.5 29.5s24.667 24.334 36 38.001s20.666 26.5 27.999 38.5c13.333 20 25.166 40.167 35.499 60.5l25.5 50.5
c16.667 32.667 28.5 70.5 35.5 113.5s14.167 94.833 21.5 155.5c0.666992 5.33301 4 14 10 26s13.167 23.833 21.5 35.5s17.333 21.5 27 29.5s18.167 10.833 25.5 8.5s13.166 -11.666 17.499 -27.999s5.5 -43.166 3.5 -80.499c-3.33301 -42 -10 -86 -20 -132
s-20.833 -89.833 -32.5 -131.5s-23 -79.334 -34 -113.001s-18.833 -59.167 -23.5 -76.5c-7.33301 -27.333 -8.16602 -42.833 -2.49902 -46.5s16.5 -0.833984 32.5 8.49902c13.333 8 28.5 21.5 45.5 40.5s33.5 44.5 49.5 76.5l20 -17
c-9.33301 -19.333 -22.166 -39.666 -38.499 -60.999s-34.833 -41 -55.5 -59s-42.5 -32.667 -65.5 -44s-45.833 -16.666 -68.5 -15.999c-6 0 -13.167 5 -21.5 15s-13.5 23.667 -15.5 41c-1.33301 10 0 23.333 4 40s8.83301 32.834 14.5 48.501s10.834 29.334 15.501 41.001
s7 17.834 7 18.501c-19.333 -34.667 -43.166 -66.5 -71.499 -95.5s-57 -52.833 -86 -71.5s-56.333 -30.834 -82 -36.501s-44.834 -2.5 -57.501 9.5c-8.66699 8 -12.834 23.833 -12.501 47.5s3.5 51.667 9.5 84s13.5 67 22.5 104s18.167 72.833 27.5 107.5
s17.5 66.334 24.5 95.001s11.167 50.667 12.5 66c3.33301 36 -1.66699 64.667 -15 86s-31 36.5 -53 45.5s-46.333 12.333 -73 10s-52 -9 -76 -20s-44.333 -26 -61 -45s-26 -40.833 -28 -65.5c-2 -22.667 0 -42.5 6 -59.5s14.333 -31.5 25 -43.5s22.834 -21.667 36.501 -29
s27 -12.666 40 -15.999s25 -4.83301 36 -4.5s18.833 2.16602 23.5 5.49902c10 6 18.833 12.833 26.5 20.5l21.5 21.5c6.66699 6.66699 13 11.834 19 15.501s12.333 4.5 19 2.5z" />
    <glyph glyph-name="V" unicode="V" horiz-adv-x="819" 
d="M307 469c8.66699 0 15.502 -4.33398 20.502 -13.001s6.66699 -19.334 5 -32.001s-7.83398 -25.667 -18.501 -39s-27.334 -24.666 -50.001 -33.999c-30 -12.667 -61.5 -16.334 -94.5 -11.001s-62.667 17 -89 35s-47 41.167 -62 69.5s-19.833 59.5 -14.5 93.5
c5.33301 32 15.666 58.333 30.999 79s34 37 56 49s46.5 20.5 73.5 25.5s54.5 7.5 82.5 7.5c47.333 0 86.666 -5.33301 117.999 -16s56.166 -25.334 74.499 -44.001s31.166 -40.5 38.499 -65.5s10.833 -51.667 10.5 -80s-3.5 -57.666 -9.5 -87.999s-13 -60.166 -21 -89.499
s-16.5 -57.333 -25.5 -84s-16.167 -50.667 -21.5 -72c-9.33301 -36 -12.333 -61 -9 -75s9.83301 -21.667 19.5 -23s21.167 1.5 34.5 8.5s25 13.833 35 20.5s23 16.334 39 29.001s33.5 27.667 52.5 45s38.333 37 58 59s38.334 46 56.001 72s33.5 53.667 47.5 83
s24.333 60 31 92c1.33301 6.66699 2 16.334 2 29.001s-0.333008 26 -1 40s-1 27.5 -1 40.5s0.666992 23.167 2 30.5c7.33301 44.667 17.166 75 29.499 91s24 21.333 35 16s19.667 -19 26 -41s7.16602 -48.667 2.49902 -80c-8.66699 -52.667 -23.167 -103.334 -43.5 -152.001
s-44.166 -94.5 -71.499 -137.5s-57.166 -82.167 -89.499 -117.5s-65 -66.166 -98 -92.499s-65.333 -47.5 -97 -63.5s-60.167 -25.667 -85.5 -29s-44.5 -0.333008 -57.5 9s-21.833 23 -26.5 41s-5.83398 39.5 -3.50098 64.5s6.33301 51.833 12 80.5s12.5 58 20.5 88
s15.333 59.333 22 88s11.834 55.5 15.501 80.5s4.16699 46.5 1.5 64.5c-2.66699 18.667 -7.33398 36.5 -14.001 53.5s-15.167 32 -25.5 45s-22.5 23.5 -36.5 31.5s-29.667 12.667 -47 14c-22 0.666992 -44.167 -1.83301 -66.5 -7.5s-42.666 -14.334 -60.999 -26.001
s-33.833 -26 -46.5 -43s-20 -36.167 -22 -57.5c-2 -23.333 0.333008 -43.5 7 -60.5s15.834 -31.5 27.501 -43.5s24.834 -21.333 39.501 -28s28.667 -11.5 42 -14.5s25.333 -3.83301 36 -2.5s17.667 4 21 8c7.33301 8.66699 14.333 17.667 21 27s13.334 17.833 20.001 25.5
s13.5 14 20.5 19s14.5 7.5 22.5 7.5z" />
    <glyph glyph-name="W" unicode="W" horiz-adv-x="920" 
d="M315 446c8.66699 -11.333 10.6729 -22.6738 6.00586 -34.0068s-12.5 -21.666 -23.5 -30.999s-23.667 -17.166 -38 -23.499s-26.5 -10.166 -36.5 -11.499c-28.667 -4 -57.334 -0.833008 -86.001 9.5s-53.834 25 -75.501 44s-38.5 41.167 -50.5 66.5s-15.667 51.333 -11 78
c4.66699 28.667 14 52.5 28 71.5s30.5 34.5 49.5 46.5s39.333 20.667 61 26s42.167 8.33301 61.5 9c51.333 2 93.5 -1.66699 126.5 -11s59.167 -22.666 78.5 -39.999s32.666 -38.166 39.999 -62.499s10.666 -50.5 9.99902 -78.5s-4.16699 -57.167 -10.5 -87.5
s-13.5 -60.166 -21.5 -89.499l-23.5 -85c-7.66699 -27.333 -13.167 -52 -16.5 -74c-5.33301 -35.333 -5.33301 -57.833 0 -67.5s14.166 -10.334 26.499 -2.00098s27 24.166 44 47.499s34.5 50.333 52.5 81s35.167 63.334 51.5 98.001s30.166 67.334 41.499 98.001
c8.66699 24.667 13.667 44.334 15 59.001s1.33301 26.834 0 36.501s-3.16602 18 -5.49902 25s-2.83301 15.167 -1.5 24.5c0.666992 5.33301 4.16699 14.5 10.5 27.5s13.833 26.167 22.5 39.5s17.834 25 27.501 35s18.5 14.5 26.5 13.5s14.167 -9.16699 18.5 -24.5
s5.5 -41.333 3.5 -78c-4.66699 -42 -10 -85.667 -16 -131l-18 -131l-17 -114.5c-5.33301 -34.333 -10 -60.833 -14 -79.5s-4.83301 -31.5 -2.5 -38.5s6.66602 -10.333 12.999 -10s13.833 3.33301 22.5 9s17 12.167 25 19.5c14.667 12.667 30 27.834 46 45.501
s32.333 38.334 49 62.001s33.5 51.167 50.5 82.5s33.5 67.333 49.5 108c4.66699 13.333 8 29.833 10 49.5s3.5 40.334 4.5 62.001l3 65.5c1 22 3.16699 41.833 6.5 59.5s8.16602 32.167 14.499 43.5s15.5 17.333 27.5 18c9.33301 0.666992 16.5 -3 21.5 -11
s8.66699 -18.5 11 -31.5s3.5 -27.5 3.5 -43.5s-0.666992 -31.333 -2 -46s-2.83301 -27.834 -4.5 -39.501s-3.16699 -19.834 -4.5 -24.501c-8.66699 -28.667 -20.334 -61 -35.001 -97s-31.834 -72.667 -51.501 -110s-41.5 -73.666 -65.5 -108.999s-49.5 -66.5 -76.5 -93.5
s-55.333 -48.333 -85 -64s-59.834 -22.5 -90.501 -20.5c-14 0.666992 -23.833 7.33398 -29.5 20.001s-8.83398 28.5 -9.50098 47.5s0.666016 40.167 3.99902 63.5s7.33301 46.166 12 68.499s9.16699 42.666 13.5 60.999s7.16602 32.5 8.49902 42.5
c-31.333 -66 -62.666 -120.833 -93.999 -164.5s-60.833 -77.334 -88.5 -101.001s-52.667 -37.667 -75 -42s-39.833 -0.5 -52.5 11.5c-9.33301 8 -14 23.833 -14 47.5s2.66699 51.5 8 83.5s12.333 66.333 21 103l25 106.5c8 34.333 15 65.666 21 93.999s9 50.5 9 66.5
c0.666992 30 -5.5 54.833 -18.5 74.5s-29.667 34.334 -50 44.001s-42.833 14.5 -67.5 14.5s-48.667 -4 -72 -12s-44.166 -19.833 -62.499 -35.5s-31.166 -34.834 -38.499 -57.501c-6 -17.333 -6.66699 -33.333 -2 -48s12.334 -28.167 23.001 -40.5
s23.334 -23.166 38.001 -32.499s29 -17 43 -23s26.667 -10.333 38 -13s19 -3.33398 23 -2.00098c10 2.66699 19.333 9.66699 28 21s17.334 22 26.001 32s17.5 16.667 26.5 20s19.167 -2 30.5 -16z" />
    <glyph glyph-name="X" unicode="X" horiz-adv-x="759" 
d="M183 628c-15.333 -0.666992 -28.5078 -5.49805 -39.5078 -14.498s-19.5 -20 -25.5 -33s-9.33301 -27.167 -10 -42.5s1.83301 -29.333 7.5 -42s14.5 -23 26.5 -31s27.667 -11.667 47 -11c12 0 20.833 -1.66699 26.5 -5s8.33398 -7 8.00098 -11
s-3.66602 -7.66699 -9.99902 -11s-15.5 -5 -27.5 -5c-28 -0.666992 -50.667 4.83301 -68 16.5s-29.666 26.5 -36.999 44.5s-9.83301 37.833 -7.5 59.5s9.33301 42 21 61s27.667 35.167 48 48.5s44.5 21 72.5 23c24.667 1.33301 48.167 0 70.5 -4s41.166 -13.333 56.499 -28
c10 -9.33301 19 -23 27 -41s15.833 -39.167 23.5 -63.5s15.167 -50.833 22.5 -79.5l23 -89l263 243c14.667 13.333 27.834 24.166 39.501 32.499s21.167 14.166 28.5 17.499c11.333 4.66699 20.5 5.16699 27.5 1.5s12.167 -9.83398 15.5 -18.501s5.16602 -19 5.49902 -31
s-0.5 -23.667 -2.5 -35c-2.66699 -16 -7.16699 -27.167 -13.5 -33.5s-12.666 -9.33301 -18.999 -9s-11.833 3.5 -16.5 9.5s-6.66699 13.333 -6 22c0.666992 7.33301 -0.833008 13.166 -4.5 17.499s-10.5 1.83301 -20.5 -7.5l-128 -119.5l-155 -143.5
c12 -44 25.333 -85.833 40 -125.5s32 -74.5 52 -104.5c8 -10 16.167 -17.333 24.5 -22s16.5 -7.5 24.5 -8.5s15.5 -0.5 22.5 1.5s12.833 4.66699 17.5 8c10 6.66699 18.5 15.5 25.5 26.5s13 22.5 18 34.5s9.16699 23.167 12.5 33.5s6 18.166 8 23.499
c2 4.66699 5.16699 7.83398 9.5 9.50098s8.5 1.83398 12.5 0.500977s7.33301 -3.83301 10 -7.5s3.33398 -8.16699 2.00098 -13.5c-2 -7.33301 -4.83301 -17 -8.5 -29s-8.16699 -24.833 -13.5 -38.5s-12 -27.667 -20 -42s-17.333 -27.5 -28 -39.5
c-14.667 -16 -31.334 -28 -50.001 -36s-37.667 -12 -57 -12s-38.166 4 -56.499 12s-34.5 20 -48.5 36c-21.333 23.333 -38.833 53.333 -52.5 90s-25.5 76 -35.5 118l-119 -110l-101 -91c-20 -18.667 -37.667 -32.334 -53 -41.001s-26.666 -13 -33.999 -13
s-13.666 2.16699 -18.999 6.5s-10.333 9.5 -15 15.5s-8.5 12.5 -11.5 19.5s-5.5 13.5 -7.5 19.5c-3.33301 10 -4.16602 18.667 -2.49902 26s4.66699 12.833 9 16.5s9.33301 4.83398 15 3.50098s10.834 -5.66602 15.501 -12.999c5.33301 -8 10.333 -14.167 15 -18.5
s9.66699 -6.66602 15 -6.99902s11.166 1.33398 17.499 5.00098s14.166 9.83398 23.499 18.501l42 39.5l56.5 52l67 61l73.5 67.5l-18 82c-6 27.333 -12.167 53.666 -18.5 78.999s-13.5 49.166 -21.5 71.499s-17 42.166 -27 59.499c-11.333 19.333 -23.666 32 -36.999 38
s-27.666 9.33301 -42.999 10z" />
    <glyph glyph-name="Y" unicode="Y" horiz-adv-x="717" 
d="M249 486c5.33301 0.666992 10.8242 -2.33594 16.4912 -9.00293s8.16699 -15.5 7.5 -26.5s-5.66699 -23.667 -15 -38s-26.333 -28.833 -51 -43.5c-38 -22 -71.333 -32.167 -100 -30.5s-51.667 11.5 -69 29.5s-28.833 42.167 -34.5 72.5s-4.16699 63.166 4.5 98.499
c8.66699 34.667 22.334 61.834 41.001 81.501s39.5 34.167 62.5 43.5s46.5 14.666 70.5 15.999s45.667 1 65 -1c42.667 -4 76 -9.16699 100 -15.5s43.333 -18.166 58 -35.499c14.667 -18.667 23.5 -40.5 26.5 -65.5s2.66699 -50.667 -1 -77s-8.66699 -52 -15 -77
s-11.166 -46.5 -14.499 -64.5c-5.33301 -32 -4.33301 -53 3 -63s18.333 -12 33 -6s31.334 18.5 50.001 37.5s36.667 42 54 69s32.333 56.333 45 88s20.334 63.167 23.001 94.5c0.666992 7.33301 3.66699 17.5 9 30.5s12 25.833 20 38.5s16.5 23.5 25.5 32.5
s17.333 13.333 25 13s14 -7.16602 19 -20.499s7.5 -36 7.5 -68c0 -13.333 -1.5 -31.166 -4.5 -53.499s-7.33301 -47 -13 -74s-12 -55.167 -19 -84.5s-14.667 -57 -23 -83s-17 -49.333 -26 -70s-17.833 -36.334 -26.5 -47.001c-12 -14 -28 -31.333 -48 -52
s-41.833 -40.834 -65.5 -60.501s-48 -36.667 -73 -51s-48.167 -22.5 -69.5 -24.5c-18 -1.33301 -35.5 0.333984 -52.5 5.00098s-33.5 10.334 -49.5 17.001l-47 20.5c-15.333 7 -30.333 12.167 -45 15.5c-22 4.66699 -41.5 2.16699 -58.5 -7.5s-30.667 -23 -41 -40
s-17.166 -36 -20.499 -57s-2.66602 -40.833 2.00098 -59.5c3.33301 -12 2.33301 -18.667 -3 -20s-9.33301 3.33398 -12 14.001c-6 30 -6.16699 62.5 -0.5 97.5s16.834 66.333 33.501 94s38.667 48.334 66 62.001s59.666 14.5 96.999 2.5
c24 -7.33301 47.833 -16.5 71.5 -27.5s47.334 -19.5 71.001 -25.5s47.334 -7.16699 71.001 -3.5s47.5 16.5 71.5 38.5c16.667 14.667 30.667 35.5 42 62.5s21 56.167 29 87.5s14.667 62.333 20 93l14 79c-28 -60 -58.833 -109.333 -92.5 -148s-65.834 -67.167 -96.501 -85.5
s-57.667 -26.5 -81 -24.5s-38.666 13.667 -45.999 35c-7.33301 22 -9.66602 44.833 -6.99902 68.5s7.16699 47.667 13.5 72s13.333 48.833 21 73.5s12.834 48.667 15.501 72c3.33301 34 0.166016 62.5 -9.50098 85.5s-23 40.5 -40 52.5s-36.667 18.833 -59 20.5
s-44.5 -1.83301 -66.5 -10.5s-42.667 -21.834 -62 -39.501s-34.666 -39.834 -45.999 -66.501c-10 -22.667 -15.167 -43.167 -15.5 -61.5s2.5 -34 8.5 -47s14.333 -23.5 25 -31.5s22 -13.167 34 -15.5s23.667 -2 35 1s21 9.16699 29 18.5
c8 8.66699 15.167 17.834 21.5 27.501s12.666 18.167 18.999 25.5s13 13.5 20 18.5s14.5 7.5 22.5 7.5z" />
    <glyph glyph-name="Z" unicode="Z" horiz-adv-x="722" 
d="M726 672c-18.667 -31.333 -42.6729 -62.5029 -72.0059 -93.5029s-61.833 -62.167 -97.5 -93.5s-73.167 -62.666 -112.5 -93.999l-117 -96c-38.667 -32.667 -75.667 -65.667 -111 -99s-67 -67.666 -95 -102.999c28 22.667 55.167 37.334 81.5 44.001
s52.166 8.66699 77.499 6s50 -8 74 -16s47.667 -15.333 71 -22c48 -14.667 84.667 -9.66699 110 15s38.333 64 39 118c1.33301 0.666992 3.33301 1 6 1c4.66699 0 7.66699 0.333008 9 1c10 -41.333 10.333 -78.833 1 -112.5s-24.833 -61.334 -46.5 -83.001
s-47.667 -36.5 -78 -44.5s-61.833 -7 -94.5 3c-27.333 8 -55.333 13.833 -84 17.5s-57.5 5.33398 -86.5 5.00098s-57.667 -2.66602 -86 -6.99902s-55.166 -10.5 -80.499 -18.5c-2 -0.666992 -4.66699 -1.16699 -8 -1.5s-6 0.166992 -8 1.5s-2.5 4.16602 -1.5 8.49902
s5.16699 11.166 12.5 20.499c38 58.667 76.333 110.334 115 155.001s76.834 84.334 114.501 119.001s74.5 65.5 110.5 92.5l102.5 76l90.5 69c28 22.333 53 46.166 75 71.499c-17.333 -17.333 -35.833 -30.5 -55.5 -39.5s-39.667 -15 -60 -18s-40.5 -3.16699 -60.5 -0.5
s-38.333 7 -55 13l-73.5 25.5c-23 8.33301 -44.167 12.833 -63.5 13.5s-36.666 -4.83301 -51.999 -16.5s-28 -33.5 -38 -65.5c-3.33301 0 -6.66602 0.166992 -9.99902 0.5s-6.66602 0.5 -9.99902 0.5c14 49.333 29.5 86.5 46.5 111.5s37.167 41.5 60.5 49.5
s50.833 9.5 82.5 4.5s69.167 -12.833 112.5 -23.5c20 -5.33301 40.833 -8 62.5 -8s43.334 1.33301 65.001 4s43.334 6.33398 65.001 11.001s43.167 9 64.5 13c8 1.33301 12.5 1.16602 13.5 -0.500977s-0.833008 -6.5 -5.5 -14.5z" />
    <glyph glyph-name="bracketleft" unicode="[" horiz-adv-x="428" 
d="M250 -8l-215 4l105 680l218 -1l-13 -71l-145 -2l-83 -540h150z" />
    <glyph glyph-name="backslash" unicode="\" horiz-adv-x="393" 
d="M276 -9l-255 685h51l262 -684z" />
    <glyph glyph-name="bracketright" unicode="]" horiz-adv-x="435" 
d="M148 677l215 -4l-105 -680l-218 1l14 71l144 2l84 540h-150z" />
    <glyph glyph-name="asciicircum" unicode="^" horiz-adv-x="437" 
d="M362 503h-47l-82 183l-163 -183h-48l203 243c2 3.33301 7.16699 4.5 15.5 3.5s13.5 -3.16699 15.5 -6.5z" />
    <glyph glyph-name="underscore" unicode="_" horiz-adv-x="667" 
d="M60 41l542 1l-17 -46h-539z" />
    <glyph glyph-name="grave" unicode="`" horiz-adv-x="219" 
d="M27 690l39 36l99 -119l-29 -28z" />
    <glyph glyph-name="a" unicode="a" horiz-adv-x="396" 
d="M148 272c-8 -6.66699 -17.1631 -16.833 -27.4961 -30.5s-20.333 -28.834 -30 -45.501s-18.667 -34 -27 -52s-14.333 -34.667 -18 -50s-4.83398 -28.666 -3.50098 -39.999s6.66602 -18.666 15.999 -21.999c7.33301 -2.66699 17.666 2 30.999 14s27.166 27.333 41.499 46
s28.333 38.334 42 59.001s24.5 38.334 32.5 53.001l15.5 25.5l15.5 25.5c3.33301 5.33301 7.83301 7.16602 13.5 5.49902s11.667 -5.16699 18 -10.5s12.666 -11.666 18.999 -18.999l16.5 -19c-2 -8 -5.33301 -18.667 -10 -32s-9 -27.333 -13 -42s-7 -29.5 -9 -44.5
s-1.33301 -28.5 2 -40.5c2.66699 -8.66699 7 -12.334 13 -11.001s12.333 6.66602 19 15.999l23 33.5l26 39.5l24 38.5c7.33301 12.333 13.333 23.166 18 32.499l20 -18c-22 -42 -40.833 -75.167 -56.5 -99.5s-29.834 -42.833 -42.501 -55.5s-24.5 -20.667 -35.5 -24
s-22.5 -5 -34.5 -5c-23.333 0 -39.833 4 -49.5 12s-15.5 18.5 -17.5 31.5s-1.66699 27.5 1 43.5s5 32 7 48c-16.667 -32.667 -32.834 -57.834 -48.501 -75.501s-30.167 -31.167 -43.5 -40.5c-7.33301 -5.33301 -14.666 -9.66602 -21.999 -12.999
s-14.333 -5.66602 -21 -6.99902c-2.66699 0 -9.5 1 -20.5 3s-21.5 8.16699 -31.5 18.5s-17.333 26.5 -22 48.5s-2.33398 52.667 6.99902 92c4 16.667 9 31.334 15 44.001c8.66699 19.333 19.834 36.166 33.501 50.499s28.334 26.5 44.001 36.5s31.834 17.667 48.501 23
s32.667 8.66602 48 9.99902c32 2.66699 57.833 -0.166016 77.5 -8.49902s39.5 -21.166 59.5 -38.499l-7 -8c-16 8.66699 -30.167 16 -42.5 22s-24.333 9.66699 -36 11s-23.667 -0.333984 -36 -5.00098s-26.5 -13.334 -42.5 -26.001z" />
    <glyph glyph-name="b" unicode="b" horiz-adv-x="444" 
d="M166 687c4 6.66699 9.99512 8.00781 17.9951 4.00781s16.167 -10.833 24.5 -20.5s16.333 -20.667 24 -33s13.667 -23.333 18 -33s5.83301 -16.334 4.5 -20.001s-6.33301 -1.83398 -15 5.49902c-4.66699 3.33301 -10.667 -1.33398 -18 -14.001
s-15.666 -30.834 -24.999 -54.501s-19.333 -51 -30 -82s-21 -62.833 -31 -95.5l-28.5 -95.5l-23 -82l-14.5 -55c-3.33301 -13 -4.33301 -17.833 -3 -14.5c8 19.333 16.5 38.333 25.5 57s19.833 36.834 32.5 54.501s27.167 34.834 43.5 51.501s36.166 32.667 59.499 48
c23.333 14.667 45 21.667 65 21s37.167 -6.33398 51.5 -17.001s25.333 -24.834 33 -42.501s10.834 -35.834 9.50098 -54.501c-0.666992 -12.667 -3.5 -26.834 -8.5 -42.501s-11 -31.334 -18 -47.001s-15 -30.334 -24 -44.001s-17.833 -24.834 -26.5 -33.501
c8 4.66699 16.5 10.334 25.5 17.001s18.833 15.667 29.5 27s22.5 25.833 35.5 43.5s27.5 39.834 43.5 66.501l20 -18c-15.333 -25.333 -30.833 -49.166 -46.5 -71.499s-33 -42 -52 -59s-40.833 -30.5 -65.5 -40.5s-53.667 -15 -87 -15c-22.667 0 -41.834 4.66699 -57.501 14
s-30.167 25.666 -43.5 48.999c-5.33301 9.33301 -5.16602 15.833 0.500977 19.5s11.167 2.5 16.5 -3.5c6 -8 11.333 -14.833 16 -20.5s9.16699 -9.83398 13.5 -12.501s9 -3.66699 14 -3s10.833 3.33398 17.5 8.00098c12 8 24.333 19.5 37 34.5s24.5 31.5 35.5 49.5
s20.833 36.333 29.5 55s15.167 36 19.5 52s5.83301 29.667 4.5 41s-6.33301 18.333 -15 21c-16 4.66699 -32.5 2.66699 -49.5 -6s-33.667 -21.334 -50 -38.001s-32.166 -36 -47.499 -58s-29.166 -43.5 -41.499 -64.5s-22.666 -40.333 -30.999 -58
s-13.833 -30.834 -16.5 -39.501c-5.33301 -16 -13.666 -28.5 -24.999 -37.5s-22.5 -13.333 -33.5 -13s-20.167 5.83301 -27.5 16.5s-9.66602 27.667 -6.99902 51c3.33301 28.667 9.16602 61.334 17.499 98.001s17.833 74.5 28.5 113.5s22.5 78.333 35.5 118l37.5 112
c12 35 23.5 66.667 34.5 95s20.167 50.833 27.5 67.5l8 18c2 4.66699 3.66699 8 5 10z" />
    <glyph glyph-name="c" unicode="c" horiz-adv-x="333" 
d="M-6 182c14.667 50 38.668 86.9971 72.001 110.997s75 36 125 36c22.667 0 40.334 -5.16699 53.001 -15.5s20.667 -21.666 24 -33.999s2 -23.666 -4 -33.999s-16 -15.5 -30 -15.5c-10 0 -17.5 3.16699 -22.5 9.5s-7.33301 13.5 -7 21.5s3 15.167 8 21.5
s12.167 9.5 21.5 9.5c-6.66699 10.667 -14.5 16.167 -23.5 16.5s-18.5 -2.5 -28.5 -8.5s-19.833 -14.333 -29.5 -25s-18.5 -21.834 -26.5 -33.501s-15 -22.667 -21 -33s-10 -18.166 -12 -23.499c-5.33301 -17.333 -9.5 -34.5 -12.5 -51.5s-4 -32.833 -3 -47.5
s4.83301 -27.167 11.5 -37.5s16.667 -17.166 30 -20.499c23.333 -5.33301 45.5 -2.33301 66.5 9s40.5 26.5 58.5 45.5s34.5 39.667 49.5 62l39.5 57.5l20 -18l-46 -65c-16 -23.333 -33.667 -44.5 -53 -63.5s-40.833 -34.167 -64.5 -45.5s-50.5 -15 -80.5 -11
c-15.333 2 -31 7 -47 15s-29.833 19.333 -41.5 34s-20.334 33 -26.001 55s-5.83398 48.333 -0.500977 79z" />
    <glyph glyph-name="d" unicode="d" horiz-adv-x="504" 
d="M438 685c7.33301 -6 15.3311 -14.6709 23.998 -26.0039s18.334 -24.666 29.001 -39.999c11.333 -18 17.166 -29.667 17.499 -35s-1.5 -7.66602 -5.5 -6.99902s-8.5 2.66699 -13.5 6s-7.5 4.66602 -7.5 3.99902c-4.66699 -11.333 -11 -29.5 -19 -54.5l-26.5 -85.5
l-29.5 -102.5c-10 -36.333 -19.167 -71.666 -27.5 -105.999s-15.166 -66.166 -20.499 -95.499s-8.33301 -53 -9 -71c0 -17.333 3.66699 -25.5 11 -24.5s15.666 6.16699 24.999 15.5c20.667 19.333 41.167 41.666 61.5 66.999l56.5 72l19 -18
c-17.333 -25.333 -36 -49.333 -56 -72s-41.333 -44.667 -64 -66c-13.333 -11.333 -26.666 -21.5 -39.999 -30.5s-26.666 -13.833 -39.999 -14.5c-9.33301 -0.666992 -18.333 0.333008 -27 3s-16.334 8 -23.001 16s-11.667 19 -15 33s-4 32 -2 54
c0.666992 8.66699 1.33398 15.167 2.00098 19.5s1.33398 8 2.00098 11l2 9l3 13.5c0.666992 3.33301 -0.833008 1.33301 -4.5 -6s-9.16699 -17.333 -16.5 -30s-16.666 -26.667 -27.999 -42s-24.333 -29.5 -39 -42.5s-31.167 -23.333 -49.5 -31s-38.166 -10.167 -59.499 -7.5
c-25.333 2.66699 -44.333 12.667 -57 30s-20.334 38.166 -23.001 62.499s-0.833984 50.333 5.49902 78s16.166 53.167 29.499 76.5s29.5 42.833 48.5 58.5s39.833 23.5 62.5 23.5c12 0 23.5 -2.16699 34.5 -6.5s20.5 -10.333 28.5 -18s14 -17 18 -28
s5.33301 -22.833 4 -35.5c-0.666992 -7.33301 -2.5 -13 -5.5 -17s-6.16699 -6.16699 -9.5 -6.5s-6.16602 1.33398 -8.49902 5.00098s-3.16602 9.5 -2.49902 17.5c0.666992 4.66699 0.833984 10.667 0.500977 18s-1.5 13.833 -3.5 19.5s-5 9.16699 -9 10.5
s-9 -1.33398 -15 -8.00098c-8.66699 -9.33301 -18.167 -23.666 -28.5 -42.999s-19.666 -40.166 -27.999 -62.499s-14.833 -44.166 -19.5 -65.499s-6 -38.333 -4 -51c1.33301 -6.66699 4.16602 -13 8.49902 -19s10.166 -7.66699 17.499 -5c12.667 4.66699 25.5 13 38.5 25
s25.5 26 37.5 42s23.333 32.833 34 50.5s20 34.5 28 50.5s14.667 30.167 20 42.5s8.66602 20.833 9.99902 25.5c19.333 74.667 38.833 144.834 58.5 210.501l57.5 194.5c4 13.333 9.66699 20.166 17 20.499s15.666 -3.5 24.999 -11.5z" />
    <glyph glyph-name="e" unicode="e" horiz-adv-x="342" 
d="M362 184l-45.499 -55.499c-17.667 -21 -37 -41 -58 -60s-43.5 -35 -67.5 -48s-48.333 -19.5 -73 -19.5c-32.667 0 -59.334 8 -80.001 24s-35.167 36.167 -43.5 60.5s-10.333 50.5 -6 78.5s15.5 54.167 33.5 78.5s42.833 44.5 74.5 60.5s70.5 24.333 116.5 25
c22.667 0 41.167 -3.66699 55.5 -11s24.166 -17 29.499 -29s6 -25.667 2 -41s-12.333 -30.666 -25 -45.999c-11.333 -14 -25.166 -25.833 -41.499 -35.5s-33.5 -16.5 -51.5 -20.5s-36.167 -5.16699 -54.5 -3.5s-34.833 7.16699 -49.5 16.5
c-4 -11.333 -7.5 -24.833 -10.5 -40.5s-3.66699 -30.834 -2 -45.501s6.5 -27 14.5 -37s21 -14.667 39 -14c20 0.666992 40.5 7.66699 61.5 21s41.5 29.166 61.5 47.499s38.667 37.833 56 58.5l44 54zM81.001 171.001c12.667 -7.33301 26.166 -10.167 40.499 -8.5s28 6 41 13
s24.667 15.5 35 25.5s17.833 19.667 22.5 29c3.33301 6.66699 6.83301 14.667 10.5 24s6 18.333 7 27s0 15.667 -3 21s-9.5 7.33301 -19.5 6c-12 -2 -24.333 -7.5 -37 -16.5s-25.167 -20 -37.5 -33s-23.666 -27.167 -33.999 -42.5s-18.833 -30.333 -25.5 -45z" />
    <glyph glyph-name="f" unicode="f" horiz-adv-x="319" 
d="M50 324c5.33301 12 11.668 18.499 19.001 19.499s14.666 -1.66699 21.999 -8s14.666 -14.833 21.999 -25.5s13.5 -21.334 18.5 -32.001s9 -19.834 12 -27.501s3.83301 -11.834 2.5 -12.501c-4 -2 -13 3 -27 15c-10 -21.333 -20 -44.666 -30 -69.999s-20 -52.333 -30 -81
c18.667 -7.33301 35.334 -17.666 50.001 -30.999l40.5 -36.5c12.333 -11 23.833 -18.667 34.5 -23s21.334 -0.833008 32.001 10.5c6 6 13.333 15.167 22 27.5s17.834 26.833 27.501 43.5s19.167 34.334 28.5 53.001s17.666 37 24.999 55l20 -17
c-7.33301 -18 -15.666 -36.333 -24.999 -55s-18.833 -36.167 -28.5 -52.5s-19.334 -31.166 -29.001 -44.499s-18.5 -24 -26.5 -32c-20.667 -20 -41.334 -30.667 -62.001 -32s-40.667 2 -60 10c22 -36.667 35.833 -76.834 41.5 -120.501s5.5 -88 -0.5 -133
s-16.5 -89.167 -31.5 -132.5s-32.667 -82.5 -53 -117.5s-41.833 -64.333 -64.5 -88s-44.5 -38.5 -65.5 -44.5s-40.167 -1.66699 -57.5 13s-30.333 42.667 -39 84c-8 38.667 -10 83.334 -6 134.001s11.667 103.667 23 159s25.333 111.333 42 168s33.667 110 51 160l15 42
c19.333 54 36.833 100.5 52.5 139.5s27.167 66.5 34.5 82.5zM33.002 28.999c-14.667 -45.333 -28.5 -91.998 -41.5 -139.998s-24.833 -95 -35.5 -141s-19.834 -89.5 -27.501 -130.5s-13.167 -77.167 -16.5 -108.5c-3.33301 -32 -3.66602 -58.5 -0.999023 -79.5
s8 -35.333 16 -43s18.667 -8.33398 32 -2.00098s29 20.833 47 43.5c18.667 24 35.167 49.5 49.5 76.5s26.166 53.833 35.499 80.5s16.833 52.667 22.5 78s9.5 48.666 11.5 69.999c1.33301 14.667 2 34.5 2 59.5s-2.5 51.5 -7.5 79.5s-13.667 55.667 -26 83
s-30.166 50 -53.499 68z" />
    <glyph glyph-name="g" unicode="g" horiz-adv-x="527" 
d="M-3 193c16 48 39.8291 82.4951 71.4961 103.495s71.5 31.5 119.5 31.5c28 0 48.5 -6.66699 61.5 -20s18.833 -27 17.5 -41c-1.33301 -26 -14.333 -39 -39 -39c-11.333 0.666992 -19.666 4.5 -24.999 11.5s-8 14.5 -8 22.5s2.66699 15.167 8 21.5s13.333 9.5 24 9.5
c-3.33301 8 -8.5 13.667 -15.5 17s-13.833 3 -20.5 -1c-12 -7.33301 -23.667 -17.166 -35 -29.499s-21.5 -25.166 -30.5 -38.499s-16.833 -26 -23.5 -38s-11 -21.333 -13 -28c-5.33301 -16 -9.16602 -32.167 -11.499 -48.5s-2.66602 -31.5 -0.999023 -45.5
s5.66699 -25.833 12 -35.5s16.166 -15.834 29.499 -18.501c22 -5.33301 42.333 -1.83301 61 10.5s35.834 28.333 51.501 48s30 40.834 43 63.501s24.833 42 35.5 58c11.333 17.333 21.666 34.833 30.999 52.5s20.666 33.167 33.999 46.5
c10.667 10.667 20.334 17.334 29.001 20.001s19.334 -1.66602 32.001 -12.999c5.33301 -5.33301 9.83301 -13.333 13.5 -24s6.33398 -21.167 8.00098 -31.5s2.5 -19.833 2.5 -28.5s-0.666992 -13.667 -2 -15s-4.33301 -6.66602 -9 -15.999s-10 -21.5 -16 -36.5l-19.5 -51
c-7 -19 -13.5 -38.5 -19.5 -58.5c12.667 10 24.5 20 35.5 30s21.833 20.667 32.5 32s21.334 24.166 32.001 38.499s22 30.833 34 49.5l19 -18c-15.333 -22 -29 -40.667 -41 -56s-24.167 -29.166 -36.5 -41.499s-25.833 -24.333 -40.5 -36l-52 -39.5
c-8.66699 -26.667 -16.834 -59 -24.501 -97s-16.834 -78 -27.501 -120s-23.334 -83.667 -38.001 -125s-33.167 -78.5 -55.5 -111.5s-49.666 -59.833 -81.999 -80.5s-70.833 -31 -115.5 -31c-18.667 0 -36 7.83301 -52 23.5s-29.167 35.5 -39.5 59.5
s-17.166 50.667 -20.499 80s-2 58 4 86c11.333 48.667 27.666 89 48.999 121s47 59.167 77 81.5s63.667 41.833 101 58.5l122 52c9.33301 28.667 17.333 59.334 24 92.001s15.334 61.667 26.001 87c-14 -20 -27.5 -41.667 -40.5 -65s-27.333 -44.666 -43 -63.999
s-33.667 -35 -54 -47s-44.833 -16.333 -73.5 -13c-24 2 -45 9.16699 -63 21.5s-32.167 27.666 -42.5 45.999s-16.5 38.666 -18.5 60.999s0.666992 44.5 8 66.5zM263.996 -23.0049c-37.333 -12.667 -72.666 -26.998 -105.999 -42.998s-63.333 -35.167 -90 -57.5
s-49.334 -48.5 -68.001 -78.5s-31.667 -65 -39 -105c-5.33301 -30.667 -6.83301 -59.167 -4.5 -85.5s7.16602 -49.333 14.499 -69s16.833 -35.167 28.5 -46.5s24.167 -17 37.5 -17c18.667 -0.666992 36.667 9.16602 54 29.499s33.666 46.333 48.999 78
s29.5 67.167 42.5 106.5s24.833 77.666 35.5 114.999s19.834 71.5 27.501 102.5s13.834 54.5 18.501 70.5z" />
    <glyph glyph-name="h" unicode="h" horiz-adv-x="438" 
d="M162 684c5.33301 6.66699 12 7.83105 20 3.49805s16 -11.166 24 -20.499s15.5 -20.166 22.5 -32.499s12.333 -23.166 16 -32.499s5.16699 -16 4.5 -20s-5 -2.33301 -13 5c-4 3.33301 -9.33301 -1.33398 -16 -14.001s-14.334 -30.167 -23.001 -52.5
s-17.667 -48.333 -27 -78l-28 -91c-9.33301 -31 -18 -61.333 -26 -91l-21 -78c-6 -22.333 -10.5 -39.833 -13.5 -52.5s-3.83301 -17.334 -2.5 -14.001c9.33301 22.667 20 45.667 32 69s25.833 45 41.5 65s33 36.833 52 50.5s39.833 22.167 62.5 25.5
c18 2.66699 33.333 2.16699 46 -1.5s22.834 -9.5 30.501 -17.5s13.167 -17.833 16.5 -29.5s5 -24.167 5 -37.5c0 -10 -1.83301 -24.5 -5.5 -43.5s-8 -38.667 -13 -59l-14.5 -57.5l-10 -39c12.667 12 24 23.667 34 35s19.333 23.166 28 35.499s17.334 25.833 26.001 40.5
s18 31.334 28 50.001l19 -18c-6.66699 -13.333 -14.834 -27.833 -24.501 -43.5s-20.334 -31.334 -32.001 -47.001s-24 -30.167 -37 -43.5s-25.833 -24.333 -38.5 -33c-10 -6.66699 -21.667 -12.167 -35 -16.5s-25.5 -5.66602 -36.5 -3.99902s-19.667 6.66699 -26 15
s-7.5 21.5 -3.5 39.5c0.666992 4.66699 3.33398 14 8.00098 28s9.83398 30.333 15.501 49s11.167 38.334 16.5 59.001s9.33301 39.5 12 56.5s3.16699 30.833 1.5 41.5s-6.83398 15.667 -15.501 15c-15.333 -1.33301 -30.333 -7.66602 -45 -18.999s-28.667 -25.333 -42 -42
s-25.666 -35 -36.999 -55s-21.833 -39.5 -31.5 -58.5s-18 -36.5 -25 -52.5s-12.5 -28 -16.5 -36c-7.33301 -16 -18 -28.5 -32 -37.5s-27.333 -13.333 -40 -13s-22.667 5.83301 -30 16.5s-8 27.667 -2 51c8 33.333 18 71.166 30 113.499l38 131
c13.333 45 27.166 89.333 41.499 133l39.5 119c12 35.667 22.667 65.5 32 89.5s16 38.667 20 44z" />
    <glyph glyph-name="i" unicode="i" horiz-adv-x="173" 
d="M141 480c10 0 18.5 -3.5 25.5 -10.5s10.5 -15.5 10.5 -25.5c0 -9.33301 -3.5 -17.5 -10.5 -24.5s-15.5 -10.5 -25.5 -10.5c-9.33301 0 -17.5 3.5 -24.5 10.5s-10.5 15.167 -10.5 24.5c0 10 3.5 18.5 10.5 25.5s15.167 10.5 24.5 10.5zM123 274
c2 -2 2.49609 -3.16797 1.49609 -3.50098s-2.66699 -0.333008 -5 0l-7 1c-2.33301 0.333008 -3.5 0.166016 -3.5 -0.500977c-8.66699 -16.667 -16.167 -32.834 -22.5 -48.501s-12 -31.334 -17 -47.001s-9.83301 -31.834 -14.5 -48.501l-15 -52
c-4.66699 -15.333 -5.16699 -25.166 -1.5 -29.499s9.83398 -1.83301 18.501 7.5c14.667 16 31.334 35.167 50.001 57.5s40.667 52.833 66 91.5l13 -18c-8.66699 -15.333 -19 -32.166 -31 -50.499s-25 -36.166 -39 -53.499s-28.5 -33.333 -43.5 -48
s-29.833 -26.334 -44.5 -35.001c-7.33301 -4.66699 -15.833 -6.66699 -25.5 -6s-19.5 4.33398 -29.5 11.001c-8 4.66699 -12.333 14.834 -13 30.501s1.33301 34 6 55s10.834 43.667 18.501 68s15.834 47.5 24.501 69.5l24 58.5c7.33301 17 13 29.167 17 36.5
c3.33301 6 8.33301 7.83301 15 5.5s13.667 -6.66602 21 -12.999s14.333 -13.333 21 -21s12 -13.5 16 -17.5z" />
    <glyph glyph-name="j" unicode="j" horiz-adv-x="229" 
d="M147 460c9.33301 0 17.5 -3.5 24.5 -10.5s10.5 -15.5 10.5 -25.5c0 -9.33301 -3.5 -17.5 -10.5 -24.5s-15.167 -10.5 -24.5 -10.5c-10 0 -18.5 3.5 -25.5 10.5s-10.5 15.167 -10.5 24.5c0 10 3.5 18.5 10.5 25.5s15.5 10.5 25.5 10.5zM81 325
c-15.333 -2 -29.6719 -14.665 -43.0049 -37.998s-25.833 -51.5 -37.5 -84.5s-22.667 -68.167 -33 -105.5l-28.5 -101c-41.333 -17.333 -80.666 -34.666 -117.999 -51.999s-70.833 -37.333 -100.5 -60s-54.834 -49 -75.501 -79s-35 -66.333 -43 -109
c-5.33301 -25.333 -6.83301 -53.166 -4.5 -83.499s8.33301 -58.5 18 -84.5s23.334 -47.667 41.001 -65s39.5 -25.333 65.5 -24c36.667 1.33301 68.834 12.666 96.501 33.999s51.834 48.666 72.501 81.999s38.334 70.666 53.001 111.999s27.667 82.5 39 123.5
s21.5 79.833 30.5 116.5s18.167 67.334 27.5 92.001c18.667 6 37.834 16.167 57.501 30.5s38.667 30.333 57 48s35.5 36 51.5 55s29.667 36.167 41 51.5l-19 18c-12 -17.333 -25 -34.333 -39 -51s-28.5 -32.334 -43.5 -47.001s-30 -27.5 -45 -38.5s-29.5 -19.5 -43.5 -25.5
c8 30.667 16.333 57.167 25 79.5s17 40.5 25 54.5s15 24.333 21 31s10.333 9.66699 13 9c8 -2 12.833 -0.5 14.5 4.5s1 11.667 -2 20s-7.66699 17.666 -14 27.999s-13 20 -20 29s-14.167 16.333 -21.5 22s-13.333 8.16699 -18 7.5zM-71.0059 -34.998l-21.4971 -74.5
c-9 -31 -19.333 -64.667 -31 -101l-37 -110.5c-13 -37.333 -26.167 -71 -39.5 -101s-26.333 -54.5 -39 -73.5s-24.334 -28.5 -35.001 -28.5c-24 0 -42.833 8.16699 -56.5 24.5s-23.5 36 -29.5 59s-9.16699 46.333 -9.5 70s1.16699 43.167 4.5 58.5
c7.33301 36 20.166 68.5 38.499 97.5s40.666 54.667 66.999 77s55.5 42 87.5 59s65.667 31.5 101 43.5z" />
    <glyph glyph-name="k" unicode="k" horiz-adv-x="385" 
d="M-33 58c2.66699 18.667 7.66113 43.001 14.9941 73.001s15.833 62.5 25.5 97.5l31 108.5c11 37.333 22 72.666 33 105.999l30.5 90c9.33301 26.667 17 47 23 61c11.333 28 28.5 50.5 51.5 67.5s51.5 23.5 85.5 19.5c22 -2.66699 36.833 -11.834 44.5 -27.501
s10.334 -35 8.00098 -58s-8.66602 -48.167 -18.999 -75.5s-22.833 -54.166 -37.5 -80.499s-30.5 -50.666 -47.5 -72.999s-33.167 -39.833 -48.5 -52.5c-4 -3.33301 -7.66699 -5 -11 -5s-5.83301 1.16699 -7.5 3.5s-2 5.16602 -1 8.49902s4.16699 7 9.5 11
c8 6.66699 18.333 19.334 31 38.001s25.334 40 38.001 64s24.667 49.167 36 75.5s19.666 50.666 24.999 72.999s6.83301 41.166 4.5 56.499s-10.5 24 -24.5 26c-6 0.666992 -11.167 -1 -15.5 -5s-8 -9 -11 -15s-5.66699 -12.5 -8 -19.5s-4.5 -12.833 -6.5 -17.5l-32 -102.5
l-31.5 -108.5l-30 -109l-27.5 -103c17.333 22 33.166 41 47.499 57s27.5 29.5 39.5 40.5s23.667 19.833 35 26.5s22.666 12 33.999 16c13.333 4.66699 24.333 5.83398 33 3.50098s15 -7.16602 19 -14.499s6.33301 -16.333 7 -27s-0.333008 -22 -3 -34
c-1.33301 -5.33301 -4.16602 -9.33301 -8.49902 -12s-8.83301 -3.66699 -13.5 -3s-8.5 2.5 -11.5 5.5s-3.83301 7.5 -2.5 13.5c0.666992 3.33301 1.33398 7.83301 2.00098 13.5s0.5 10.834 -0.5 15.501s-3.16699 8 -6.5 10s-8.66602 1 -15.999 -3
c-8.66699 -4.66699 -18.167 -10.834 -28.5 -18.501s-20.666 -16.334 -30.999 -26.001s-20.666 -20 -30.999 -31s-19.833 -22.167 -28.5 -33.5c18 1.33301 31.833 -0.666992 41.5 -6s17 -12.5 22 -21.5s9 -19.5 12 -31.5s6.5 -24.333 10.5 -37c6 -17.333 14 -27.833 24 -31.5
s21.333 0.166016 34 11.499c34 28 69 72.667 105 134l19 -18c-16.667 -28 -35.667 -55.667 -57 -83s-46 -52 -74 -74c-10 -8 -20.667 -14 -32 -18s-23 -6.66699 -35 -8c-9.33301 -0.666992 -16.5 2.66602 -21.5 9.99902s-9.33301 16.833 -13 28.5
s-6.83398 24.334 -9.50098 38.001s-6 26.334 -10 38.001s-9 21.167 -15 28.5s-14 10.666 -24 9.99902c-8.66699 -11.333 -16.5 -22.833 -23.5 -34.5s-13 -22.667 -18 -33s-9.16699 -19.666 -12.5 -27.999l-8 -19.5c-7.33301 -16 -16.166 -26.667 -26.499 -32
s-20.166 -6.5 -29.499 -3.5s-16.833 9.33301 -22.5 19s-7.5 21.5 -5.5 35.5z" />
    <glyph glyph-name="l" unicode="l" horiz-adv-x="256" 
d="M-19 93c2.66699 20.667 6.66895 45.668 12.002 75.001s11.833 60.666 19.5 93.999s16.167 67.5 25.5 102.5s19.166 68.667 29.499 101s20.833 62 31.5 89s21.334 49.167 32.001 66.5c12.667 22 30.5 39 53.5 51s45.167 17 66.5 15s38.5 -11.667 51.5 -29
s15.833 -44 8.5 -80c-4 -22.667 -11.5 -47 -22.5 -73s-24.833 -51 -41.5 -75c-18.667 -28 -39.667 -56.5 -63 -85.5s-51 -61.5 -83 -97.5c-13.333 -50.667 -21 -90 -23 -118s0.666992 -48.667 8 -62c8 -12 18.667 -13.667 32 -5c10.667 7.33301 22.5 16.833 35.5 28.5
s25.833 24 38.5 37s24.667 26 36 39s20.666 24.833 27.999 35.5l19 -18c-18.667 -26 -41.834 -53.333 -69.501 -82s-55.5 -54.667 -83.5 -78c-11.333 -9.33301 -23.333 -15.833 -36 -19.5s-24.667 -5.16699 -36 -4.5c-12.667 0 -23.667 2.66699 -33 8
s-16.833 12.333 -22.5 21s-9.66699 18.5 -12 29.5s-2.83301 22.5 -1.5 34.5zM111.002 293.001l51.001 68.001c18 24.667 35.167 50 51.5 76s30.5 51.833 42.5 77.5s20 49.5 24 71.5c2 12.667 1.66699 24.167 -1 34.5s-6.83398 17.5 -12.501 21.5s-12.334 3.66699 -20.001 -1
s-15.5 -15.667 -23.5 -33c-9.33301 -20 -19.166 -42.5 -29.499 -67.5s-20.5 -51.5 -30.5 -79.5s-19.5 -56.333 -28.5 -85s-16.833 -56.334 -23.5 -83.001z" />
    <glyph glyph-name="m" unicode="m" horiz-adv-x="511" 
d="M114 263c-2.66699 -2 -7.16504 -2.00488 -13.498 -0.00488281s-9.83301 1.66699 -10.5 -1c-3.33301 -15.333 -6.16602 -29.166 -8.49902 -41.499l-7 -37l-7.5 -39l-9 -45.5c7.33301 25.333 14 46.833 20 64.5s11.667 32.167 17 43.5l19 38.5
c7.33301 14.333 15.666 27.666 24.999 39.999s20 22.833 32 31.5s25.333 13 40 13c16 0.666992 29.667 -5 41 -17s14.666 -32.333 9.99902 -61l-14.5 -75l-15.5 -75l20.5 55c7 18 14.833 36 23.5 54l18 37c6.66699 13.333 14.167 25.833 22.5 37.5s18 21.667 29 30
s23.5 13.166 37.5 14.499c8 0.666992 16 -0.166016 24 -2.49902s14.833 -6.5 20.5 -12.5s9.66699 -14.167 12 -24.5s2.16602 -23.166 -0.500977 -38.499l-41 -188c-0.666992 -5.33301 0.833008 -8.66602 4.5 -9.99902s6.5 -0.666016 8.5 2.00098
c20.667 23.333 39.167 46.833 55.5 70.5s31.166 48.834 44.499 75.501l19 -18l-27.5 -48c-8.33301 -14 -16.666 -27 -24.999 -39s-17 -23.667 -26 -35s-18.833 -23 -29.5 -35c-12 -13.333 -24.333 -21.666 -37 -24.999s-24 -2.5 -34 2.5s-17.667 13.167 -23 24.5
s-6.33301 25 -3 41l13.5 70c4.33301 23.333 9.16602 46.666 14.499 69.999c0.666992 3.33301 1.16699 8.16602 1.5 14.499s0 12.5 -1 18.5s-2.83301 11 -5.5 15s-7 5.33301 -13 4c-12 -3.33301 -24 -16 -36 -38s-23.333 -46.667 -34 -74s-20.167 -53.666 -28.5 -78.999
s-14.5 -43 -18.5 -53c-4 -10.667 -9.5 -16.167 -16.5 -16.5s-14.167 1.83398 -21.5 6.50098s-14.333 10.834 -21 18.501s-11.667 14.5 -15 20.5l32 163c0.666992 3.33301 1.33398 8.16602 2.00098 14.499s0.5 12.5 -0.5 18.5s-3 11 -6 15s-7.5 5.33301 -13.5 4
c-12.667 -4 -25 -16 -37 -36s-22.833 -42.5 -32.5 -67.5s-18 -49.333 -25 -73s-11.833 -41.167 -14.5 -52.5c-4.66699 -16 -11.167 -24.5 -19.5 -25.5s-16.666 1.66699 -24.999 8s-15.833 14.166 -22.5 23.499s-10.334 16 -11.001 20l52 259c2 11.333 8.66699 15.5 20 12.5
s23 -9 35 -18s22 -18.667 30 -29s10 -17.166 6 -20.499z" />
    <glyph glyph-name="n" unicode="n" horiz-adv-x="339" 
d="M113 262c-2.66699 -2 -7.17188 -1.99512 -13.5049 0.00488281s-9.83301 1.66699 -10.5 -1l-7.5 -41.5l-7 -37l-7.5 -39l-9 -45.5c7.33301 25.333 14 46.833 20 64.5s11.667 32.167 17 43.5l18.5 38.5c7 14.333 15.333 27.666 25 39.999s20.334 22.833 32.001 31.5
s24.834 13 39.501 13c8 0 15.667 -1.33301 23 -4s13.5 -7.16699 18.5 -13.5s8.5 -14.5 10.5 -24.5s2 -22 0 -36l-45 -202c-0.666992 -4 0.833008 -7.33301 4.5 -10s7.16699 -1.33398 10.5 3.99902c22.667 25.333 42.334 49.833 59.001 73.5s32.667 52.167 48 85.5l20 -18
l-48 -77.5c-16.667 -26.333 -40 -54.5 -70 -84.5c-12 -12 -24 -19 -36 -21s-22.833 -0.833008 -32.5 3.5s-17.167 11 -22.5 20s-7 18.833 -5 29.5l31 155c0.666992 3.33301 1.16699 8.16602 1.5 14.499s0 12.5 -1 18.5s-2.83301 11 -5.5 15s-7 5.33301 -13 4
c-8.66699 -2.66699 -17.167 -9.33398 -25.5 -20.001s-16.166 -23.334 -23.499 -38.001s-14.166 -30.667 -20.499 -48s-12.166 -34.333 -17.499 -51s-10 -32 -14 -46l-9 -32c-4 -16.667 -10.167 -25.5 -18.5 -26.5s-16.833 1.83301 -25.5 8.5s-16.334 14.667 -23.001 24
s-10.334 16 -11.001 20l53 265c1.33301 7.33301 4.83301 11.5 10.5 12.5s12.334 -0.166992 20.001 -3.5s15.5 -8.16602 23.5 -14.499s15.167 -12.833 21.5 -19.5s11 -12.834 14 -18.501s3.16699 -9.5 0.5 -11.5z" />
    <glyph glyph-name="o" unicode="o" horiz-adv-x="313" 
d="M-17 152c5.33301 26.667 15.667 52.001 31 76.001s32.666 43 51.999 57c7.33301 5.33301 12 5.83301 14 1.5s1 -8.83301 -3 -13.5c-8 -10 -14.167 -19.333 -18.5 -28s-7.66602 -17.5 -9.99902 -26.5s-3.66602 -18.667 -3.99902 -29s-0.5 -22.166 -0.5 -35.499
c0 -11.333 2.5 -25.166 7.5 -41.499s12 -31.666 21 -45.999s19.667 -25.833 32 -34.5s25.5 -10.667 39.5 -6c4.66699 1.33301 10.167 5 16.5 11s12.5 12.833 18.5 20.5s11.167 15.667 15.5 24s7.16602 16.166 8.49902 23.499c-40 4.66699 -71.5 20.667 -94.5 48
s-31.833 64 -26.5 110c2 14.667 7.33301 26.834 16 36.501s19.167 16.5 31.5 20.5s25.666 5.16699 39.999 3.5s27.666 -6.16699 39.999 -13.5s23.166 -17.833 32.499 -31.5s15.333 -30.167 18 -49.5c1.33301 -14 1.33301 -29.5 0 -46.5s-5.66602 -33.167 -12.999 -48.5
c7.33301 2.66699 13.833 5.66699 19.5 9s11 7.5 16 12.5s9.83301 11.167 14.5 18.5s10 16.666 16 27.999l22 -14c-9.33301 -18 -18.833 -32.333 -28.5 -43s-18.834 -18.834 -27.501 -24.501s-16.667 -9.5 -24 -11.5s-13 -3.33301 -17 -4
c-9.33301 -22 -20.666 -41.333 -33.999 -58s-31.666 -31.667 -54.999 -45c-22.667 -12 -45.167 -15.667 -67.5 -11s-41.666 14.667 -57.999 30s-28.5 34.666 -36.5 57.999s-9.33301 47.666 -4 72.999zM208.001 131.001c2 26.667 -1.66504 54.998 -10.998 84.998
c-4 11.333 -10.833 23.5 -20.5 36.5s-19.834 23.167 -30.501 30.5s-20.334 10.333 -29.001 9s-14 -10.666 -16 -27.999c-2.66699 -20.667 -1.66699 -39 3 -55s12 -29.5 22 -40.5s22.167 -19.667 36.5 -26s29.5 -10.166 45.5 -11.499z" />
    <glyph glyph-name="p" unicode="p" horiz-adv-x="428" 
d="M-84 -401c-7.33301 6 -15.5 14.6689 -24.5 26.002s-18.833 24.666 -29.5 39.999c-11.333 18 -17.333 29.5 -18 34.5s1 7.16699 5 6.5s8.5 -2.83398 13.5 -6.50098s7.5 -4.83398 7.5 -3.50098c4.66699 10.667 10.834 29.334 18.501 56.001l25.5 93l29.5 113l29 117
c9 38 17 73.167 24 105.5s12.167 58.166 15.5 77.499c2 10 1.66699 15.333 -1 16s-6.16699 -0.166016 -10.5 -2.49902s-8.66602 -4.83301 -12.999 -7.5s-7.16602 -2.66699 -8.49902 0s2 8.66699 10 18s24.667 24.666 50 45.999c6 4.66699 13.833 6.66699 23.5 6
s18.5 -4.5 26.5 -11.5s14.167 -17.5 18.5 -31.5s4.5 -31.333 0.5 -52c-1.33301 -8 -2.33301 -14.167 -3 -18.5s-1.16699 -7.83301 -1.5 -10.5s-0.833008 -5.66699 -1.5 -9s-1.66699 -8 -3 -14c-0.666992 -4.66699 1.83301 -1.16699 7.5 10.5s14.834 26 27.501 43
s28.667 34 48 51s42.666 28.5 69.999 34.5c30 7.33301 53.333 7.5 70 0.5s28.334 -18.333 35.001 -34s9.5 -34.334 8.5 -56.001s-4.16699 -43.667 -9.5 -66s-12.333 -43.666 -21 -63.999s-16.667 -36.833 -24 -49.5c19.333 12 39.666 30.667 60.999 56s40.666 55 57.999 89
l20 -17c-16 -30 -35.667 -59 -59 -87s-47.333 -50.333 -72 -67c-22 -16 -41.333 -25.333 -58 -28c-16 -2.66699 -32.5 -3.66699 -49.5 -3s-32.833 3.5 -47.5 8.5s-27.167 12.667 -37.5 23s-16.833 24.166 -19.5 41.499c-1.33301 6.66699 -1 12 1 16s4.5 6.33301 7.5 7
s6.16699 -0.333008 9.5 -3s5.66602 -7.33398 6.99902 -14.001c2.66699 -9.33301 7.16699 -17.166 13.5 -23.499s13.5 -10 21.5 -11s16.333 0.666992 25 5s16 12.166 22 23.499c6.66699 11.333 13.5 25.333 20.5 42s13 33.834 18 51.501s8.83301 34.834 11.5 51.501
s3.16699 31 1.5 43s-5.83398 20.833 -12.501 26.5s-16.667 6.16699 -30 1.5c-19.333 -7.33301 -37 -21 -53 -41s-30.167 -41.5 -42.5 -64.5s-22.333 -44.667 -30 -65s-12.5 -34.166 -14.5 -41.499l-31 -117l-32 -126l-32 -122c-10.667 -39.333 -21 -74 -31 -104
c-4 -13.333 -9.5 -20.333 -16.5 -21s-15.167 3.33301 -24.5 12z" />
    <glyph glyph-name="q" unicode="q" horiz-adv-x="504" 
d="M331 319c6.66699 14.667 15.0029 21.501 25.0029 20.501s19.833 -6.33301 29.5 -16s18.334 -21.5 26.001 -35.5s12.834 -26.167 15.501 -36.5s1.83398 -16.833 -2.49902 -19.5s-13.5 2.33301 -27.5 15c-14.667 -29.333 -30.834 -65.833 -48.501 -109.5
s-35.334 -91 -53.001 -142s-34.834 -104 -51.501 -159s-31.5 -108.667 -44.5 -161s-23.333 -101.833 -31 -148.5s-11.5 -87 -11.5 -121c0 -13.333 0.666992 -24 2 -32s4.5 -12.5 9.5 -13.5s12.667 1.66699 23 8s24.166 16.833 41.499 31.5
c15.333 13.333 31.5 32.166 48.5 56.499s32.833 51.5 47.5 81.5s27.5 61.333 38.5 94s18.5 64 22.5 94c2 14 3.5 32.667 4.5 56s-0.166992 48.166 -3.5 74.499s-10 52.333 -20 78s-25.333 48.167 -46 67.5c-7.33301 6.66699 -11.5 10.834 -12.5 12.501
s3.83301 5.16699 14.5 10.5c26 12 46.833 23.333 62.5 34s29.5 22.667 41.5 36s23.333 28.5 34 45.5l39 61.5l20 -18c-12.667 -23.333 -24.834 -44.166 -36.501 -62.499s-24 -34.833 -37 -49.5s-27.167 -27.5 -42.5 -38.5s-33 -20.833 -53 -29.5
c28.667 -34 47.834 -72.5 57.501 -115.5s12.334 -87 8.00098 -132s-14.333 -89.833 -30 -134.5s-34.5 -85.834 -56.5 -123.501s-45.5 -70.167 -70.5 -97.5s-49.167 -46.5 -72.5 -57.5s-44.5 -12.333 -63.5 -4s-33.167 29.833 -42.5 64.5c-10 38 -12.5 83.5 -7.5 136.5
s14.667 109.333 29 169s32.166 120.834 53.499 183.501s43.333 122.667 66 180c-13.333 -20 -27.833 -37 -43.5 -51s-34.834 -22.667 -57.501 -26c-16 -2 -32.833 0.333008 -50.5 7s-33.5 17.834 -47.5 33.501s-24.5 35.5 -31.5 59.5s-7.83301 52 -2.5 84
c12.667 42.667 30.334 74.334 53.001 95.001s45.667 34.667 69 42c7.33301 2.66699 18.166 5 32.499 7s28.5 3 42.5 3c24 0 42.333 -5.33301 55 -16s20 -22.334 22 -35.001s-0.833008 -24.167 -8.5 -34.5s-19.5 -15.166 -35.5 -14.499c-12.667 0 -21.334 3.5 -26.001 10.5
s-6.66699 14.5 -6 22.5s3.66699 15.167 9 21.5s12 9.16602 20 8.49902c-3.33301 17.333 -11 23.833 -23 19.5s-25.167 -14 -39.5 -29s-27.833 -32 -40.5 -51s-21 -34.5 -25 -46.5c-5.33301 -16.667 -9.5 -33.667 -12.5 -51s-4 -33.333 -3 -48s4.66699 -27.334 11 -38.001
s16.5 -17.334 30.5 -20.001c20 0.666992 36.833 6 50.5 16s26.5 23.333 38.5 40s23.833 36.167 35.5 58.5s25.5 46.5 41.5 72.5l24.5 56c7.66699 18 15.167 34.667 22.5 50z" />
    <glyph glyph-name="r" unicode="r" horiz-adv-x="368" 
d="M282 285l-24.5 -61.5078c-8.33301 -21.667 -14.833 -42.5 -19.5 -62.5s-7 -38 -7 -54s4.66699 -27.333 14 -34c4 -3.33301 8.66699 -5.5 14 -6.5s10 0.5 14 4.5c7.33301 6.66699 15.333 15 24 25s17.167 20.833 25.5 32.5s16.5 23.834 24.5 36.501s15 25 21 37l20 -18
l-19.5 -33c-7.66699 -12.667 -16 -25.667 -25 -39s-18.333 -26.333 -28 -39s-19.167 -23.667 -28.5 -33c-15.333 -15.333 -31.166 -26.166 -47.499 -32.499s-31.833 -3.83301 -46.5 7.5c-17.333 13.333 -28.666 30.666 -33.999 51.999s-7 44.333 -5 69s6.83301 50 14.5 76
s15.834 50.667 24.501 74c-8 0.666992 -15.667 1.66699 -23 3s-15 3.33301 -23 6s-16.833 6.5 -26.5 11.5s-21.167 11.5 -34.5 19.5c-10 -26 -20.833 -51.167 -32.5 -75.5s-23.834 -48.166 -36.501 -71.499l-20 18l36 73.5c12 25 21.667 50.167 29 75.5
c-5.33301 6 -10.833 12.833 -16.5 20.5s-10 16.334 -13 26.001s-3.83301 20.5 -2.5 32.5s6.66602 25.667 15.999 41c4.66699 7.33301 9 12.833 13 16.5s8.33301 5.83398 13 6.50098s10 0.166992 16 -1.5s13.667 -4.16699 23 -7.5c18.667 -7.33301 31.5 -15.166 38.5 -23.499
s3.83301 -20.5 -9.5 -36.5c-9.33301 -11.333 -14.833 -21 -16.5 -29s-1.5 -15 0.5 -21s5 -11 9 -15s7.66699 -7.33301 11 -10c11.333 -7.33301 23.166 -12.333 35.499 -15s25.833 -4.66699 40.5 -6c9.33301 -1.33301 18.833 -1.66602 28.5 -0.999023
s18 0.333984 25 -0.999023s11.667 -4.66602 14 -9.99902s0.5 -14.333 -5.5 -27z" />
    <glyph glyph-name="s" unicode="s" horiz-adv-x="298" 
d="M190 242c-10 -9.33301 -21.665 -16.834 -34.998 -22.501s-24 -8.33398 -32 -8.00098s-11.167 4 -9.5 11s12.5 18.5 32.5 34.5c8.66699 6.66699 13.5 12.834 14.5 18.501s0 10.667 -3 15s-7.16699 7.66602 -12.5 9.99902s-10 3.5 -14 3.5
c-9.33301 0 -17.333 -2.83301 -24 -8.5s-11.667 -12.667 -15 -21s-4.83301 -17 -4.5 -26s2.83301 -16.833 7.5 -23.5c7.33301 -10.667 17.166 -20.5 29.499 -29.5s25 -17.667 38 -26s25.333 -16.833 37 -25.5s20.5 -18 26.5 -28c4 -6.66699 5.5 -13.5 4.5 -20.5
s-3 -13.5 -6 -19.5s-6.5 -11.333 -10.5 -16s-7.33301 -8.33398 -10 -11.001c20 18.667 37.5 39.834 52.5 63.501s28.833 53.5 41.5 89.5l20 -18c-8 -17.333 -17.333 -36.166 -28 -56.499s-22.834 -39.5 -36.501 -57.5s-28.5 -33.5 -44.5 -46.5s-33 -20.5 -51 -22.5
c-20 -2.66699 -36.667 -2.5 -50 0.5s-25.333 7 -36 12l-31.5 15.5c-10.333 5.33301 -22.833 9 -37.5 11c-14 1.33301 -27.167 -0.166992 -39.5 -4.5s-20.5 -11.166 -24.5 -20.499c-3.33301 -7.33301 -6.83301 -9.5 -10.5 -6.5s-4.5 7.5 -2.5 13.5
c2 12.667 7.16699 26 15.5 40s18.5 25.667 30.5 35s25.5 15 40.5 17s30.5 -2.33301 46.5 -13c8.66699 -6 15.667 -13 21 -21s10 -15.5 14 -22.5s7.66699 -13 11 -18s7.33301 -7.5 12 -7.5c3.33301 0 7 1.5 11 4.5s7.5 7 10.5 12s4.83301 10.167 5.5 15.5
s-0.333008 10.666 -3 15.999c-9.33301 12.667 -22.666 24.834 -39.999 36.501l-51 35.5c-16.667 12 -30.834 24.833 -42.501 38.5s-16.5 28.5 -14.5 44.5c1.33301 13.333 6.33301 25.833 15 37.5s19.5 22 32.5 31s27.5 16 43.5 21s32 7.5 48 7.5
c24 -0.666992 42.333 -4.16699 55 -10.5s21 -13.833 25 -22.5s3.83301 -18.167 -0.5 -28.5s-11.5 -19.833 -21.5 -28.5z" />
    <glyph glyph-name="t" unicode="t" horiz-adv-x="261" 
d="M127 577c15.333 32 35.6611 58.3262 60.9941 78.9932s57 31 95 31c22.667 0 38.5 -5.5 47.5 -16.5s12.667 -25.333 11 -43s-7.66699 -37.667 -18 -60s-23.166 -45.166 -38.499 -68.499s-32.166 -46.166 -50.499 -68.499s-36.166 -41.833 -53.499 -58.5
c16 -2 31.333 -2.5 46 -1.5s33 7.16699 55 18.5c4.66699 2 8.16699 0.666992 10.5 -4s0.833008 -8.66699 -4.5 -12c-19.333 -10 -36.333 -18 -51 -24s-27.834 -10.5 -39.501 -13.5s-22.167 -4.83301 -31.5 -5.5s-18.666 -0.666992 -27.999 0
c-10 -30.667 -19.167 -60.167 -27.5 -88.5s-14.666 -54.166 -18.999 -77.499s-6.83301 -43.5 -7.5 -60.5s1.33301 -29.5 6 -37.5c6 -9.33301 11.833 -15.166 17.5 -17.499s13.5 -0.833008 23.5 4.5c20 15.333 40.5 34.833 61.5 58.5s43.833 53.834 68.5 90.501l19 -18
c-8 -14 -17.167 -28.167 -27.5 -42.5s-21.333 -28.166 -33 -41.499s-23.667 -26 -36 -38s-24.5 -23 -36.5 -33c-13.333 -10.667 -27.333 -18.5 -42 -23.5s-29 -7.5 -43 -7.5c-17.333 0.666992 -31.166 3.66699 -41.499 9s-18.166 12.166 -23.499 20.499s-8.5 18 -9.5 29
s-0.833008 22.833 0.5 35.5c2.66699 42 8 84.667 16 128s19.333 89 34 137c-8.66699 1.33301 -17.834 2.5 -27.501 3.5s-20.5 0.833008 -32.5 -0.5c-6 -0.666992 -9.5 -0.166992 -10.5 1.5s-0.666992 3.83398 1 6.50098s4 5.33398 7 8.00098s5.5 5 7.5 7
c12.667 10 24.834 16.5 36.501 19.5s23.167 3.83301 34.5 2.5c9.33301 28 20 56.167 32 84.5s25.667 57.5 41 87.5zM154.995 375.993l41.001 59.998l42.5 61.5c13.667 19.667 25.667 37.834 36 54.501s17.5 29.667 21.5 39c5.33301 13.333 8.66602 26 9.99902 38
s0.666016 20.333 -2.00098 25s-7.66699 4.33398 -15 -0.999023s-17 -18.666 -29 -39.999c-17.333 -30 -35.166 -65.833 -53.499 -107.5s-35.5 -84.834 -51.5 -129.501z" />
    <glyph glyph-name="u" unicode="u" horiz-adv-x="317" 
d="M-19 324c8.66699 2.66699 18.835 3.83496 30.502 3.50195s22.667 -2.33301 33 -6s19.5 -9 27.5 -16s13 -15.5 15 -25.5c3.33301 -18 4 -36.167 2 -54.5s-5.16699 -36.166 -9.5 -53.499s-9.16602 -34 -14.499 -50s-10 -30.667 -14 -44
c-4 -14.667 -2.66699 -22.167 4 -22.5s14 3.16699 22 10.5c9.33301 7.33301 18.166 16.833 26.499 28.5s15.833 24 22.5 37s12.5 26.333 17.5 40s8.83301 26.167 11.5 37.5c0.666992 2 1.5 5.66699 2.5 11s2 11.5 3 18.5s2.16699 13.667 3.5 20s2.66602 11.5 3.99902 15.5
c0.666992 3.33301 3 8 7 14s8.83301 12 14.5 18s11.834 11.167 18.501 15.5s12.5 6 17.5 5s9.16699 -5.33301 12.5 -13s4.66602 -20.167 3.99902 -37.5c-2 -18.667 -5.16699 -38 -9.5 -58s-8.83301 -39.5 -13.5 -58.5l-13.5 -53.5
c-4.33301 -16.667 -7.5 -30.334 -9.5 -41.001s-0.666992 -17 4 -19s9.66699 -0.333008 15 5c7.33301 8 15.666 18 24.999 30s18.666 24.833 27.999 38.5s18.333 27.667 27 42s16 27.833 22 40.5l19 -17c-27.333 -57.333 -62 -107 -104 -149
c-5.33301 -4.66699 -12.5 -10 -21.5 -16s-18.5 -11 -28.5 -15s-19.667 -6.33301 -29 -7s-17 1.66602 -23 6.99902c-5.33301 4.66699 -8.16602 12.334 -8.49902 23.001s0.333984 22.167 2.00098 34.5s4 24 7 35s5.5 18.833 7.5 23.5
c-9.33301 -21.333 -22.833 -41.666 -40.5 -60.999s-37.834 -34.333 -60.501 -45c-10 -5.33301 -20 -9.5 -30 -12.5s-18.667 -3.66699 -26 -2s-12.833 6.16699 -16.5 13.5s-4.5 18.666 -2.5 33.999c2 12.667 5.16699 27.334 9.5 44.001l13.5 51
c4.66699 17.333 9 34.666 13 51.999s6.66699 33.333 8 48c1.33301 27.333 0.333008 45 -3 53s-8.33301 10.667 -15 8c-6 -2.66699 -10.5 -3.33398 -13.5 -2.00098s-4.66699 3.33301 -5 6s0.5 5.66699 2.5 9s5 5.66602 9 6.99902z" />
    <glyph glyph-name="v" unicode="v" horiz-adv-x="295" 
d="M47 319c12.667 -7.33301 21.8389 -16.832 27.5059 -28.499s9.16699 -24.5 10.5 -38.5s0.5 -28.667 -2.5 -44s-6.5 -30.666 -10.5 -45.999s-8.5 -30 -13.5 -44s-9.16699 -26.333 -12.5 -37c-2.66699 -8 -3.5 -13.667 -2.5 -17s3 -5.33301 6 -6s6.83301 -0.166992 11.5 1.5
s9.66699 3.83398 15 6.50098c17.333 10 30.833 20.167 40.5 30.5s20.167 23.833 31.5 40.5c-2 7.33301 -3 17.5 -3 30.5s1.16699 27 3.5 42s5.66602 30.333 9.99902 46s9.83301 29.5 16.5 41.5s14.667 21.667 24 29s20 10.333 32 9c10 -1.33301 16 -6.66602 18 -15.999
s1.66699 -20.833 -1 -34.5s-7.33398 -28.5 -14.001 -44.5s-13.5 -31.167 -20.5 -45.5s-13.667 -27.333 -20 -39s-10.833 -19.5 -13.5 -23.5c10 -12 20.667 -17.333 32 -16s22.333 6.33301 33 15s20.5 19.667 29.5 33s15.833 26 20.5 38l19 -18
c-11.333 -26 -24.166 -46 -38.499 -60s-28.5 -23.167 -42.5 -27.5s-27 -4.83301 -39 -1.5s-21 9.66602 -27 18.999c-12 -17.333 -26 -33 -42 -47s-32.333 -25.833 -49 -35.5s-32.834 -17.167 -48.501 -22.5s-28.834 -8 -39.501 -8c-10 0 -16.667 4.16699 -20 12.5
s-4.33301 19.166 -3 32.499s4 28.666 8 45.999s8.33301 35.166 13 53.499s9 36.5 13 54.5s6.33301 34.333 7 49c1.33301 24.667 1.16602 39.667 -0.500977 45s-4.83398 7 -9.50098 5c-6 -2 -10.5 -2.16699 -13.5 -0.5s-5 4 -6 7s-0.833008 6.16699 0.5 9.5
s3.66602 6 6.99902 8c3.33301 2.66699 7.83301 4.33398 13.5 5.00098s11.667 0.666992 18 0s12.333 -1.83398 18 -3.50098s10.167 -3.5 13.5 -5.5zM170.005 170.001c-0.666992 3.33301 -0.5 8.66699 0.5 16s2.33301 15.5 4 24.5s3.66699 18.167 6 27.5s4.5 17.333 6.5 24
c5.33301 15.333 10 22 14 20s3.66699 -12 -1 -30c-2 -8 -4.83301 -16.833 -8.5 -26.5l-10 -26.5c-3 -8 -5.66699 -14.833 -8 -20.5z" />
    <glyph glyph-name="w" unicode="w" horiz-adv-x="430" 
d="M27 324c16.667 -0.666992 29.0039 -6.50293 37.0039 -17.5029s13 -24.667 15 -41s1.83301 -34.5 -0.5 -54.5s-5.5 -39.333 -9.5 -58s-7.83301 -35.5 -11.5 -50.5s-5.83398 -26.167 -6.50098 -33.5c-2 -14 -1.5 -22.833 1.5 -26.5s7.33301 -3.66699 13 0
s12.5 10.167 20.5 19.5s15.833 20.166 23.5 32.499s14.667 25 21 38s11.166 24.833 14.499 35.5c9.33301 30.667 12.833 55.334 10.5 74.001s-3.5 30.667 -3.5 36c0.666992 2.66699 3 6.83398 7 12.501s9 11.334 15 17.001s12.333 10.5 19 14.5s12.667 5.33301 18 4
s9.66602 -5.83301 12.999 -13.5s4.66602 -20.5 3.99902 -38.5c-2 -28 -5.33301 -57.5 -10 -88.5s-8.66699 -59.167 -12 -84.5l-6 -33.5c-2 -11 -2.16699 -19.5 -0.5 -25.5s6.16699 -7.83301 13.5 -5.5s19.333 11.5 36 27.5c9.33301 9.33301 18 19 26 29s16 21.667 24 35
c-8 12.667 -12.167 29.334 -12.5 50.001s1.83398 41.167 6.50098 61.5s11.334 38.333 20.001 54s18.334 25.167 29.001 28.5c12 4 21.333 1.16699 28 -8.5s9.66699 -23.834 9 -42.501c-0.666992 -15.333 -5.83398 -35.833 -15.501 -61.5s-21.5 -51.167 -35.5 -76.5
c8 -5.33301 16.667 -7.66602 26 -6.99902s18.833 4 28.5 10s18.667 14.5 27 25.5s15.166 24.5 20.499 40.5l20 -17c-6 -13.333 -13.333 -26 -22 -38s-18.5 -22 -29.5 -30s-23.5 -12.833 -37.5 -14.5s-29.333 1.5 -46 9.5c-19.333 -32 -40.333 -59 -63 -81
s-45.667 -33.333 -69 -34c-16 -0.666992 -27.167 3.16602 -33.5 11.499s-10.166 18.833 -11.499 31.5s-1 26.167 1 40.5s3.33301 27.166 4 38.499c-9.33301 -18 -19.333 -35.667 -30 -53s-22.5 -32 -35.5 -44s-27.5 -20.5 -43.5 -25.5s-34.333 -4.5 -55 1.5
c-12 3.33301 -18.167 12.666 -18.5 27.999s2.16699 33.833 7.5 55.5s11.666 44.834 18.999 69.501s12.666 48 15.999 70l3 17.5c1.33301 7.66699 2 15.334 2 23.001s-1.16699 14 -3.5 19s-6.5 7.16699 -12.5 6.5c-6 -1.33301 -9.33301 -0.166016 -10 3.50098s0.5 8 3.5 13
s8.16699 9.66699 15.5 14s16 6.5 26 6.5zM312.004 149.997c9.33301 19.333 17.166 39.1689 23.499 59.502s8.83301 36.166 7.5 47.499c-1.33301 14 -3.5 22.167 -6.5 24.5s-6.16699 0.666016 -9.5 -5.00098s-6.66602 -14.167 -9.99902 -25.5s-5.83301 -23.333 -7.5 -36
s-2.5 -25 -2.5 -37s1.66699 -21.333 5 -28z" />
    <glyph glyph-name="x" unicode="x" horiz-adv-x="368" 
d="M-2 199l10.9932 18.998c4.66699 8 10 16.5 16 25.5l19 27.5c6.66699 9.33301 13.334 18 20.001 26c9.33301 11.333 19.166 19.166 29.499 23.499s20.333 5.5 30 3.5s18.5 -6.66699 26.5 -14s14.333 -17 19 -29c4.66699 -11.333 8.33398 -22.333 11.001 -33l8 -31l64 68
c13.333 14.667 23.833 25 31.5 31s13.834 9 18.501 9c7.33301 0 13 -1.66699 17 -5s7.16699 -7.83301 9.5 -13.5s4 -12 5 -19s1.83301 -14.167 2.5 -21.5s-0.666016 -13.333 -3.99902 -18s-7.33301 -7.66699 -12 -9s-9.16699 -0.833008 -13.5 1.5
s-7.16602 6.83301 -8.49902 13.5c-2 8 -7.66699 7.33301 -17 -2l-83 -83l12.5 -52c4.33301 -18 11.5 -37.667 21.5 -59c8 -16.667 15.5 -26.167 22.5 -28.5s17.5 4.16699 31.5 19.5c4.66699 4.66699 10.667 12.834 18 24.501s15 24.834 23 39.501s15.667 29.834 23 45.501
s13.666 30.167 18.999 43.5l21 -14c-4 -11.333 -9.16699 -23.833 -15.5 -37.5s-13.333 -27.5 -21 -41.5s-15.667 -27.667 -24 -41s-16.166 -25 -23.499 -35c-11.333 -14.667 -26.666 -26.167 -45.999 -34.5s-38.666 -9.5 -57.999 -3.5
c-17.333 5.33301 -30.666 18.5 -39.999 39.5s-17.666 45.5 -24.999 73.5l-85 -85l-16.5 -16c-5.66699 -5.33301 -12.167 -8 -19.5 -8c-6 0 -11.333 2.66699 -16 8s-9.33398 11.666 -14.001 18.999c-3.33301 6 -4.33301 11.5 -3 16.5s3.83301 8.83301 7.5 11.5
s8 3.83398 13 3.50098s9.5 -3.5 13.5 -9.5c3.33301 -3.33301 5.5 -5 6.5 -5s3.16699 1.66699 6.5 5l97 103l-5.5 28c-3 15.333 -6.83301 31 -11.5 47s-10 29.167 -16 39.5s-12 12.5 -18 6.5c-3.33301 -4 -7.83301 -10.333 -13.5 -19s-11.167 -17.5 -16.5 -26.5l-15.5 -25.5
l-11.5 -18z" />
    <glyph glyph-name="y" unicode="y" horiz-adv-x="381" 
d="M34 322c14 5.33301 26.6738 6.3252 38.0068 2.99219s17.666 -10.666 18.999 -21.999c2 -14.667 2 -32.167 0 -52.5s-5 -41 -9 -62s-8.5 -41.167 -13.5 -60.5s-9.5 -35.333 -13.5 -48c-4.66699 -15.333 -3.33398 -23 3.99902 -23s16 3 26 9
c17.333 10 33.666 24.5 48.999 43.5s28.666 36.833 39.999 53.5c8 15.333 14.167 27.833 18.5 37.5l13 29.5l15.5 36c6 14 14.667 33 26 57c6.66699 13.333 12.667 18.833 18 16.5s16 -10.833 32 -25.5c11.333 -10.667 19.833 -22.667 25.5 -36s3.83398 -29 -5.49902 -47
c-6 -11.333 -12.5 -25.5 -19.5 -42.5l-21 -53l-20 -53c-6.33301 -17 -11.833 -31.167 -16.5 -42.5c13.333 10 25.333 19.5 36 28.5s21.334 19.167 32.001 30.5s21.667 25.166 33 41.499s24.666 36.833 39.999 61.5l19 -17c-13.333 -22 -26 -41.667 -38 -59
s-24.833 -33.166 -38.5 -47.499s-28.334 -27.666 -44.001 -39.999s-33.834 -24.833 -54.501 -37.5c-8.66699 -24.667 -17 -55.5 -25 -92.5l-26 -117.5c-9.33301 -41.333 -20.166 -82.666 -32.499 -123.999s-26.833 -78.833 -43.5 -112.5s-36.334 -61.667 -59.001 -84
s-49 -34.833 -79 -37.5c-18 -2 -36.833 0.666992 -56.5 8s-38 18.333 -55 33s-31.167 32.334 -42.5 53.001s-17.666 43.667 -18.999 69c-1.33301 24 -0.166016 48.333 3.50098 73s9.66699 48.667 18 72s18.833 45.833 31.5 67.5s27 41.167 43 58.5
c15.333 16.667 32 31.334 50 44.001s37.333 24.334 58 35.001s42.834 20.834 66.501 30.501l76.5 31.5c0.666992 2.66699 2 8.5 4 17.5s4.33301 18.5 7 28.5l7.5 28c2.33301 8.66699 4.16602 14.334 5.49902 17.001c-10 -13.333 -22 -26.166 -36 -38.499
s-28.833 -23.333 -44.5 -33s-31.5 -17.334 -47.5 -23.001s-30.667 -8.5 -44 -8.5c-8 0 -13.333 4.16699 -16 12.5s-3.66699 19.5 -3 33.5s2.83398 29.833 6.50098 47.5s7.66699 36 12 55s8.83301 37.667 13.5 56s8.66699 34.833 12 49.5
c0.666992 2.66699 1.66699 6.16699 3 10.5s2.33301 8.5 3 12.5s0.666992 7.16699 0 9.5s-2.33398 2.83301 -5.00098 1.5c-6.66699 -2.66699 -11.334 -3 -14.001 -1s-3.33398 5.33301 -2.00098 10s5.16602 9.66699 11.499 15s15.166 10 26.499 14zM124.007 -24.0078
c-23.333 -9.33301 -44.501 -18.334 -63.501 -27.001s-36.833 -17.834 -53.5 -27.501s-32.5 -20.667 -47.5 -33s-30.5 -26.833 -46.5 -43.5c-12 -13.333 -23.333 -30 -34 -50s-19.5 -41 -26.5 -63s-12.167 -44 -15.5 -66s-4 -42.333 -2 -61c2 -20 7 -39.167 15 -57.5
s18 -32.5 30 -42.5s25.5 -14.5 40.5 -13.5s30.833 10.833 47.5 29.5c14.667 16 27.834 35.833 39.501 59.5s22.5 49.334 32.5 77.001s19 56.334 27 86.001s15.333 58.5 22 86.5l18.5 80c5.66699 25.333 11.167 47.333 16.5 66z" />
    <glyph glyph-name="z" unicode="z" horiz-adv-x="331" 
d="M307 321c-22 -33.333 -45.8311 -61.665 -71.498 -84.998s-50.334 -44 -74.001 -62l-64.5 -49c-19.333 -14.667 -34 -29.667 -44 -45c16.667 7.33301 31.334 12.166 44.001 14.499s24.334 3 35.001 2s20.5 -3.33301 29.5 -7l27.5 -11.5
c16 -7.33301 31.5 -6.83301 46.5 1.5s28.667 19.833 41 34.5s23.166 30.5 32.499 47.5l22 40.5l3 -2l6.5 -4.5l7 -5c2.33301 -1.66699 3.83301 -2.83398 4.5 -3.50098l-36 -58c-14.667 -23.333 -31.5 -45.5 -50.5 -66.5s-39.5 -37.833 -61.5 -50.5s-44.667 -15.667 -68 -9
c-12 3.33301 -23.667 7 -35 11s-23 6.66699 -35 8s-24.5 1 -37.5 -1s-26.833 -7.33301 -41.5 -16c-3.33301 -2.66699 -5 -2.5 -5 0.5s0.666992 5.83301 2 8.5c24 44 47.833 78.5 71.5 103.5s46.5 45.5 68.5 61.5s42.667 30 62 42s37 27 53 45
c-17.333 -16.667 -33.833 -25.5 -49.5 -26.5s-31.834 1.16699 -48.501 6.5c-21.333 6.66699 -37.833 10.5 -49.5 11.5s-21.167 -1 -28.5 -6s-14 -13.167 -20 -24.5s-14 -25.666 -24 -42.999l-19 18l33.5 57.5c11 18.333 23.333 33.333 37 45s29.667 19.167 48 22.5
s41.166 0 68.499 -10c9.33301 -3.33301 18.833 -5 28.5 -5s19.167 1 28.5 3s18.833 4.33301 28.5 7s19.167 5 28.5 7c9.33301 3.33301 11.333 0.666016 6 -8.00098z" />
    <glyph glyph-name="braceleft" unicode="{" horiz-adv-x="398" 
d="M261 -8c-25.333 0.666992 -49.8311 0.666992 -73.498 0s-44.834 1.83301 -63.501 7.5s-33.667 16.834 -45 33.501s-17.333 42.667 -18 78c0 18 1.5 35.5 4.5 52.5s3.83301 34.5 2.5 52.5s-6.33301 36.833 -15 56.5s-24.667 41.167 -48 64.5c32 12 55 27.333 69 46
s24.5 39.5 31.5 62.5s12.833 47.333 17.5 73s13.334 51.5 26.001 77.5c12.667 24.667 26.167 42.167 40.5 52.5s30.333 16.666 48 18.999s37.167 2.5 58.5 0.5s45 -3 71 -3l-14 -70c-28 -0.666992 -50.667 -1.5 -68 -2.5s-31.5 -3.66699 -42.5 -8s-19.5 -11.333 -25.5 -21
s-11.333 -23.5 -16 -41.5c-5.33301 -18 -8.66602 -34.5 -9.99902 -49.5s-3.83301 -29.667 -7.5 -44s-9.83398 -29.166 -18.501 -44.499s-22.667 -32.333 -42 -51c10 -16.667 17.5 -32.834 22.5 -48.501s8 -31.5 9 -47.5s0.166992 -33 -2.5 -51s-6.66699 -37.333 -12 -58
c-4.66699 -18 -1.83398 -31.667 8.49902 -41s23.666 -15.833 39.999 -19.5s33 -5.5 50 -5.5h38.5z" />
    <glyph glyph-name="bar" unicode="|" horiz-adv-x="285" 
d="M146 705c1.33301 6.66699 6.16797 11.5 14.501 14.5s17 4.5 26 4.5s17.167 -1.66699 24.5 -5s10.666 -8 9.99902 -14l-65.5 -372l-66.5 -372c-2 -6.66699 -7.16699 -11.5 -15.5 -14.5s-17 -4.33301 -26 -4s-17 2 -24 5s-10.167 7.5 -9.5 13.5l66.5 372z" />
    <glyph glyph-name="braceright" unicode="}" horiz-adv-x="447" 
d="M140 669c25.333 0 49.832 0.336914 73.499 1.00391s44.834 -2 63.501 -8s33.667 -17.5 45 -34.5s17.333 -42.833 18 -77.5c0 -18 -1.5 -35.667 -4.5 -53s-3.83301 -35 -2.5 -53s6.33301 -36.833 15 -56.5s24.667 -40.834 48 -63.501c-32 -12 -55 -27.333 -69 -46
s-24.5 -39.5 -31.5 -62.5s-12.833 -47.333 -17.5 -73s-13.334 -51.5 -26.001 -77.5c-12.667 -25.333 -26.334 -43 -41.001 -53s-30.667 -16.333 -48 -19s-36.666 -2.83398 -57.999 -0.500977s-45 3.5 -71 3.5l13 71c28.667 0 51.667 0.5 69 1.5s31.333 3.66699 42 8
s19 11.333 25 21s11.667 23.5 17 41.5s8.66602 34.5 9.99902 49.5s3.83301 29.667 7.5 44s9.83398 29.166 18.501 44.499s22.667 32.333 42 51c-10 17.333 -17.5 33.666 -22.5 48.999s-8 31 -9 47s-0.166992 32.833 2.5 50.5s6.66699 37.167 12 58.5
c4.66699 18 1.83398 31.667 -8.49902 41s-23.666 15.833 -39.999 19.5s-33.166 5.5 -50.499 5.5h-39c3.33301 11.333 6.16602 23 8.49902 35s5.16602 23.667 8.49902 35z" />
    <glyph glyph-name="asciitilde" unicode="~" horiz-adv-x="534" 
d="M34 372c31.333 13.333 59.5029 21.1689 84.5029 23.502s48.333 1.66602 70 -2.00098s42.667 -8.66699 63 -15s41.833 -11.833 64.5 -16.5s47.167 -7 73.5 -7s56.166 5 89.499 15l-12 -42c-30 -10.667 -57.667 -16.334 -83 -17.001s-49.5 1.16602 -72.5 5.49902
s-45.333 9.83301 -67 16.5s-43.834 11.834 -66.501 15.501s-46.334 4.5 -71.001 2.5s-51.667 -9.33301 -81 -22z" />
    <glyph glyph-name="exclamdown" unicode="&#xa1;" horiz-adv-x="268" 
d="M51 57l92.001 495c2.66699 12.667 8.16699 22.167 16.5 28.5s16.833 9.5 25.5 9.5s16 -3.16699 22 -9.5s8 -15.5 6 -27.5l-63 -493c-3.33301 -18 -11 -31.333 -23 -40s-24.167 -13 -36.5 -13s-22.833 4.33301 -31.5 13s-11.334 21 -8.00098 37zM189.001 624
c-10 0 -17.833 3.5 -23.5 10.5s-7.83398 15.5 -6.50098 25.5c1.33301 9.33301 6 17.5 14 24.5s17 10.5 27 10.5c9.33301 0 16.833 -3.5 22.5 -10.5s7.83398 -15.167 6.50098 -24.5c-1.33301 -10 -6 -18.5 -14 -25.5s-16.667 -10.5 -26 -10.5z" />
    <glyph glyph-name="cent" unicode="&#xa2;" horiz-adv-x="333" 
d="M173 543c1.33301 6.66699 6.16406 11.4971 14.4971 14.4971s17 4.5 26 4.5s17.167 -1.66699 24.5 -5s10.666 -8 9.99902 -14l-19.5 -108.5l-18.5 -107.5c18.667 -3.33301 32.834 -10.166 42.501 -20.499s15.334 -21.166 17.001 -32.499s-0.666016 -21.5 -6.99902 -30.5
s-15.833 -13.5 -28.5 -13.5c-10 0 -17.5 3.16699 -22.5 9.5s-7.33301 13.5 -7 21.5s3 15.167 8 21.5s12.167 9.5 21.5 9.5c-7.33301 11.333 -16.333 17 -27 17l-25.5 -141l-24.5 -141c18.667 4 36.5 12.833 53.5 26.5s33 29.167 48 46.5s28.833 35.333 41.5 54l33 48l20 -18
l-39.5 -57c-13.667 -20 -28.667 -39 -45 -57s-34.166 -33.5 -53.499 -46.5s-40.333 -21.167 -63 -24.5l-36 -200c-2 -6.66699 -7.16699 -11.5 -15.5 -14.5s-17 -4.33301 -26 -4s-17 2 -24 5s-10.167 7.5 -9.5 13.5l37 208c-13.333 4.66699 -26 11.5 -38 20.5
s-22 20.833 -30 35.5s-13.667 31.834 -17 51.501s-3 42.167 1 67.5c23.333 79.333 70 126.333 140 141zM92.998 184.997c-8 -24 -13.334 -48.334 -16.001 -73.001s0.333008 -44.667 9 -60l32 178c-6.66699 -9.33301 -12.167 -18.166 -16.5 -26.499
s-7.16602 -14.5 -8.49902 -18.5z" />
    <glyph glyph-name="sterling" unicode="&#xa3;" horiz-adv-x="737" 
d="M416 676c26 0 47.0029 -11.3242 63.0029 -33.9912s22 -57 18 -103c-1.33301 -12 -5 -20.833 -11 -26.5s-12.333 -8.33398 -19 -8.00098s-12.5 3.66602 -17.5 9.99902s-6.83301 16.166 -5.5 29.499c3.33301 34 0.666016 58.833 -8.00098 74.5s-19.167 23.5 -31.5 23.5
s-24.333 -7 -36 -21s-19.167 -33.333 -22.5 -58c-1.33301 -14.667 -3.5 -32.5 -6.5 -53.5s-6.83301 -44.167 -11.5 -69.5l219 1l-14 -46h-214l-11 -49h213l-14 -45h-212c-9.33301 -32 -20 -62.333 -32 -91s-26 -53.334 -42 -74.001c32.667 3.33301 61 3.83301 85 1.5
s45.167 -6.16602 63.5 -11.499s34 -11.666 47 -18.999l35.5 -20.5c10.667 -6.33301 20.5 -11.5 29.5 -15.5s18.833 -5.66699 29.5 -5c18 0.666992 30.5 6.83398 37.5 18.501s10 25.167 9 40.5s-4.83301 30.666 -11.5 45.999s-14.667 27.333 -24 36
c-8 6.66699 -12.167 14.167 -12.5 22.5s2 15.333 7 21s11.667 9 20 10s17.166 -2.5 26.499 -10.5c6.66699 -5.33301 13.334 -15.333 20.001 -30s11.5 -31.667 14.5 -51s3.83301 -39.666 2.5 -60.999s-6.33301 -40.833 -15 -58.5s-21.834 -32.334 -39.501 -44.001
s-40.834 -17.5 -69.501 -17.5c-22 0 -42.833 2.5 -62.5 7.5s-39.334 10.667 -59.001 17s-39.834 12.166 -60.501 17.499s-43 8.66602 -67 9.99902s-50.333 -0.333984 -79 -5.00098s-60.667 -14.334 -96 -29.001c-10.667 -4.66699 -19.5 -5.83398 -26.5 -3.50098
s-11.667 6.66602 -14 12.999s-2.16602 13.5 0.500977 21.5s8.33398 15.333 17.001 22c10 8 18.667 14.167 26 18.5l21 12.5c6.66699 4 13.5 8.83301 20.5 14.5s15.167 14.167 24.5 25.5l22.5 28.5c7.66699 9.66699 15.334 21 23.001 34s15 28.333 22 46s13.5 38.5 19.5 62.5
h-131l11 45h130l4 23c1.33301 8 2.66602 16.667 3.99902 26h-123l11 45h118c1.33301 11.333 2.5 23.166 3.5 35.499s2.16699 25.166 3.5 38.499c4 54.667 19 95.334 45 122.001s70 40 132 40z" />
    <glyph glyph-name="currency" unicode="&#xa4;" horiz-adv-x="570" 
d="M197 536c15.333 8.66699 33.1748 15.8311 53.5078 21.498s40.833 8.83398 61.5 9.50098s40.667 -1.83301 60 -7.5s35.666 -15.167 48.999 -28.5l73 47c4 2 8.16699 1.83301 12.5 -0.5s8.16602 -5.33301 11.499 -9s5.66602 -7.66699 6.99902 -12
s0.666016 -7.5 -2.00098 -9.5l-76 -52c14.667 -26 23.667 -53.167 27 -81.5s1.66602 -56.5 -5.00098 -84.5s-17.5 -55.333 -32.5 -82s-33.167 -51 -54.5 -73l50 -54c2.66699 -4 2.83398 -8 0.500977 -12s-6 -7.16699 -11 -9.5s-10.167 -3.66602 -15.5 -3.99902
s-9.66602 1.5 -12.999 5.5l-21.5 22c-5.66699 6 -12.5 13.667 -20.5 23c-17.333 -13.333 -37.166 -23.833 -59.499 -31.5s-44.833 -11.667 -67.5 -12s-44.334 3.16699 -65.001 10.5s-37.334 19.666 -50.001 36.999l-60 -49c-6 -4 -12 -5.16699 -18 -3.5s-11 4.5 -15 8.5
s-6.5 8.5 -7.5 13.5s0.833008 9.16699 5.5 12.5c2 1.33301 6.83301 5 14.5 11l24 18.5l23 17.5c7 5.33301 10.833 8 11.5 8c-10.667 23.333 -16.834 49.833 -18.501 79.5s0.666016 59.667 6.99902 90s16.833 59.333 31.5 87s33 50.834 55 69.501l-50 55
c-2.66699 2.66699 -2.83398 6.16699 -0.500977 10.5s5.83301 8 10.5 11s9.66699 4.83301 15 5.5s9.66602 -1 12.999 -5zM242.009 132.997c24 0 45.6709 9.83301 65.0039 29.5s35.666 44.334 48.999 74.001s23.333 61.667 30 96s9.5 66.333 8.5 96
s-6.33301 54.334 -16 74.001s-24.167 29.5 -43.5 29.5c-28 0 -52.833 -9.83301 -74.5 -29.5s-39.834 -44.334 -54.501 -74.001s-25.334 -61.667 -32.001 -96s-8.83398 -66.333 -6.50098 -96s9.5 -54.334 21.5 -74.001s29.667 -29.5 53 -29.5z" />
    <glyph glyph-name="yen" unicode="&#xa5;" horiz-adv-x="717" 
d="M475 189l71.9902 -1.00488l12 34l-63 1l11 45l66 -1c8 32 14.5 63 19.5 93l13.5 78c-28 -60 -58.833 -109.333 -92.5 -148s-65.834 -67.167 -96.501 -85.5s-57.667 -26.5 -81 -24.5s-38.666 13.667 -45.999 35c-7.33301 22 -9.66602 44.833 -6.99902 68.5
s7.16699 47.667 13.5 72s13.333 48.833 21 73.5s12.834 48.667 15.501 72c3.33301 34 0.166016 62.5 -9.50098 85.5s-23 40.5 -40 52.5s-36.667 18.833 -59 20.5s-44.5 -1.83301 -66.5 -10.5s-42.667 -21.834 -62 -39.501s-34.666 -39.834 -45.999 -66.501
c-10 -22.667 -15.167 -43.167 -15.5 -61.5s2.5 -34 8.5 -47s14.333 -23.5 25 -31.5s22 -13.167 34 -15.5s23.667 -2 35 1s21 9.16699 29 18.5c8 8.66699 15.167 17.834 21.5 27.501s12.666 18.167 18.999 25.5s13 13.5 20 18.5s14.5 7.5 22.5 7.5
c5.33301 0.666992 10.833 -2.33301 16.5 -9s8.16699 -15.5 7.5 -26.5s-5.66699 -23.667 -15 -38s-26.333 -28.833 -51 -43.5c-38 -22 -71.333 -32.167 -100 -30.5s-51.667 11.5 -69 29.5s-28.833 42.167 -34.5 72.5s-4.16699 63.166 4.5 98.499
c8.66699 34.667 22.334 61.834 41.001 81.501s39.5 34.167 62.5 43.5s46.5 14.666 70.5 15.999s45.667 1 65 -1c42.667 -4 76 -9.16699 100 -15.5s43.333 -18.166 58 -35.499c14.667 -18.667 23.5 -40.5 26.5 -65.5s2.66699 -50.667 -1 -77s-8.66699 -52 -15 -77
s-11.166 -46.5 -14.499 -64.5c-5.33301 -32 -4.33301 -53 3 -63s18.333 -12 33 -6s31.334 18.5 50.001 37.5s36.667 42 54 69s32.333 56.333 45 88s20.334 63.167 23.001 94.5c0.666992 7.33301 3.66699 17.5 9 30.5s12 25.833 20 38.5s16.5 23.5 25.5 32.5
s17.333 13.333 25 13s14 -7.16602 19 -20.499s7.5 -36 7.5 -68c0 -14.667 -1.83301 -34.834 -5.5 -60.501s-8.83398 -53.5 -15.501 -83.5s-14.167 -60.667 -22.5 -92s-17.166 -60.333 -26.499 -87h70l-14 -46l-74 1l-17 -34h73l-14 -46l-96 1
c-14.667 -15.333 -31.334 -31.666 -50.001 -48.999s-38.167 -33.5 -58.5 -48.5s-40.666 -27.667 -60.999 -38s-39.166 -16.166 -56.499 -17.499c-18 -1.33301 -35.5 0.333984 -52.5 5.00098s-33.5 10.334 -49.5 17.001l-47 20.5c-15.333 7 -30.333 12.167 -45 15.5
c-22 4.66699 -41.5 2.16699 -58.5 -7.5s-30.667 -23 -41 -40s-17.166 -36 -20.499 -57s-2.66602 -40.833 2.00098 -59.5c3.33301 -12 2.33301 -18.667 -3 -20s-9.33301 3.33398 -12 14.001c-6 30 -6.16699 62.5 -0.5 97.5s16.834 66.333 33.501 94s38.667 48.334 66 62.001
s59.666 14.5 96.999 2.5c24 -7.33301 47.833 -16.5 71.5 -27.5s47.334 -19.5 71.001 -25.5s47.334 -7.16699 71.001 -3.5s47.5 16.5 71.5 38.5c8 6 15.667 15 23 27l-60 1z" />
    <glyph glyph-name="dieresis" unicode="&#xa8;" horiz-adv-x="281" 
d="M57 587c-12.667 0 -23.334 4.33301 -32.001 13s-13 19.334 -13 32.001c0 12 4.33301 22.333 13 31s19.334 13 32.001 13c12 0 22.333 -4.33301 31 -13s13 -19 13 -31c0 -12.667 -4.33301 -23.334 -13 -32.001s-19 -13 -31 -13zM175 587
c-12.667 0 -23.334 4.33301 -32.001 13s-13 19.334 -13 32.001c0 12 4.33301 22.333 13 31s19.334 13 32.001 13c12 0 22.333 -4.33301 31 -13s13 -19 13 -31c0 -12.667 -4.33301 -23.334 -13 -32.001s-19 -13 -31 -13z" />
    <glyph glyph-name="copyright" unicode="&#xa9;" horiz-adv-x="442" 
d="M205 526c10.667 0.666992 19.9971 3.16992 27.9971 7.50293s14.833 9.5 20.5 15.5s9.83398 12.167 12.501 18.5s4 12.166 4 17.499c-0.666992 8 -3.66699 13.667 -9 17s-11.166 5.16602 -17.499 5.49902s-12.666 -0.5 -18.999 -2.5s-10.833 -4 -13.5 -6
c-3.33301 -2 -4.5 -5.33301 -3.5 -10s3.5 -6.33398 7.5 -5.00098c2.66699 0.666992 6 1.66699 10 3s8 2.16602 12 2.49902s7.66699 0.166016 11 -0.500977s5.33301 -2.33398 6 -5.00098c2 -11.333 -1.83301 -21.166 -11.5 -29.499s-22.167 -12.5 -37.5 -12.5
c-13.333 0 -22.666 4 -27.999 12s-7.83301 18.167 -7.5 30.5s3.33301 25.833 9 40.5s12.667 28.667 21 42s17.666 25 27.999 35s20.833 16.667 31.5 20c10 2.66699 18.167 3 24.5 1s10.5 -5.16699 12.5 -9.5s1.83301 -10 -0.5 -17s-7.5 -14.167 -15.5 -21.5
c-8.66699 -8.66699 -17.5 -13.167 -26.5 -13.5s-19.833 1.16699 -32.5 4.5c-1.33301 0.666992 -3 -1.16602 -5 -5.49902s-2.33301 -7.16602 -1 -8.49902c8 -5.33301 19.833 -7.83301 35.5 -7.5s29.5 6.5 41.5 18.5c9.33301 8 15.5 16.833 18.5 26.5s3 18.667 0 27
s-9.33301 15 -19 20s-22.5 6.83301 -38.5 5.5c-24.667 -2 -46.334 -9 -65.001 -21s-33.667 -26.333 -45 -43s-18.833 -34.334 -22.5 -53.001s-3.16699 -35.667 1.5 -51s13.834 -27.666 27.501 -36.999s32.167 -13 55.5 -11zM218.997 819.003c26 0 50.333 -4.66699 73 -14
s42.667 -22.333 60 -39s30.833 -36 40.5 -58s14.5 -45.667 14.5 -71s-4.83301 -49.166 -14.5 -71.499s-23.167 -41.833 -40.5 -58.5s-37.333 -29.667 -60 -39s-47 -14 -73 -14c-25.333 0 -49.333 4.66699 -72 14s-42.667 22.333 -60 39s-30.833 36.167 -40.5 58.5
s-14.5 46.166 -14.5 71.499s4.83301 49 14.5 71s23.167 41.333 40.5 58s37.333 29.667 60 39s46.667 14 72 14zM320.997 735.003c-13.333 12.667 -28.666 22.5 -45.999 29.5s-36 10.5 -56 10.5c-19.333 0 -37.666 -3.5 -54.999 -10.5s-32.666 -16.833 -45.999 -29.5
c-28 -26 -42 -58.667 -42 -98c0 -40 14 -73 42 -99c13.333 -12.667 28.666 -22.5 45.999 -29.5s35.666 -10.5 54.999 -10.5c20 0 38.667 3.5 56 10.5s32.666 16.833 45.999 29.5c28 26 42 59 42 99c0 39.333 -14 72 -42 98z" />
    <glyph glyph-name="guillemotleft" unicode="&#xab;" horiz-adv-x="772" 
d="M664 471l-9 -51.001l-336 -152l265 -144l-9 -47l-343 179c-5.33301 2 -8 5.33301 -8 10s2 8.33398 6 11.001zM459 470.999l-9 -51.001l-336 -152l265 -144l-9 -47l-343 179c-5.33301 2 -8 5.33301 -8 10s2 8.33398 6 11.001z" />
    <glyph glyph-name="registered" unicode="&#xae;" horiz-adv-x="450" 
d="M120 541c15.333 -5.33301 27.499 -4.83008 36.499 1.50293s15.167 14.166 18.5 23.499c0.666992 1.33301 1.83398 4.66602 3.50098 9.99902l5.5 18c2 6.66699 4.16699 13.5 6.5 20.5l6.5 19.5c0.666992 -2 1.5 -7.83301 2.5 -17.5s3 -20 6 -31s7.33301 -21.333 13 -31
s13.167 -15.5 22.5 -17.5c4.66699 -1.33301 10.167 -1.5 16.5 -0.5s12.5 2.5 18.5 4.5s11.833 4.16699 17.5 6.5l13.5 5.5c3.33301 1.33301 5.16602 4.5 5.49902 9.5s-0.5 6.83301 -2.5 5.5c-10 -5.33301 -18.5 -8.33301 -25.5 -9s-14.167 2.66602 -21.5 9.99902
c-9.33301 10.667 -15.833 21.167 -19.5 31.5l-11.5 33.5c19.333 1.33301 37 7.5 53 18.5s25.667 23.167 29 36.5c3.33301 12.667 1 23.5 -7 32.5s-18.667 15.833 -32 20.5s-27.833 7.66699 -43.5 9s-29.5 1 -41.5 -1c-9.33301 -1.33301 -14.166 -4 -14.499 -8
s3.5 -5.33301 11.5 -4c8 0.666992 17 0.166992 27 -1.5s19.167 -4.5 27.5 -8.5s15.166 -8.83301 20.499 -14.5s7 -12.167 5 -19.5c-3.33301 -10 -9.66602 -20.167 -18.999 -30.5s-24 -15.166 -44 -14.499c5.33301 15.333 10.666 28.833 15.999 40.5s9 17.5 11 17.5
c0.666992 -0.666992 1.66699 -1.5 3 -2.5s2.33301 -1.16699 3 -0.5l-5 5.5c-3.33301 3.66699 -7.5 7.66699 -12.5 12s-9.83301 8 -14.5 11s-8 3.5 -10 1.5c-3.33301 -2 -7.66602 -9.83301 -12.999 -23.5s-11 -29.167 -17 -46.5l-17 -51
c-5.33301 -16.667 -9.66602 -29.334 -12.999 -38.001c-4.66699 -14.667 -13 -22.667 -25 -24c-1.33301 0 -2.33301 -0.833008 -3 -2.5s3.66602 -4.16699 12.999 -7.5zM210.999 819.003c26 0 50.333 -4.66699 73 -14s42.667 -22.333 60 -39s30.833 -36 40.5 -58
s14.5 -45.667 14.5 -71s-4.83301 -49.166 -14.5 -71.499s-23.167 -41.833 -40.5 -58.5s-37.333 -29.667 -60 -39s-47 -14 -73 -14s-50.333 4.66699 -73 14s-42.667 22.333 -60 39s-30.833 36.167 -40.5 58.5s-14.5 46.166 -14.5 71.499s4.83301 49 14.5 71
s23.167 41.333 40.5 58s37.333 29.667 60 39s47 14 73 14zM312.999 735.003c-13.333 12.667 -28.666 22.499 -45.999 29.499s-36 10.5 -56 10.5c-19.333 0 -37.666 -3.5 -54.999 -10.5s-32.666 -16.833 -45.999 -29.5c-28 -26 -42 -58.667 -42 -98c0 -40 14 -73 42 -99
c13.333 -12.667 28.666 -22.5 45.999 -29.5s35.666 -10.5 54.999 -10.5c20 0 38.667 3.5 56 10.5s32.666 16.833 45.999 29.5c12.667 12.667 22.667 27.5 30 44.5s11 35.167 11 54.5s-3.66699 37.333 -11 54s-17.333 31.334 -30 44.001z" />
    <glyph glyph-name="plusminus" unicode="&#xb1;" horiz-adv-x="599" 
d="M68 370h183l53 187l44 -3l-50 -184l203 1l-14 -46h-201l-50 -185h-50l52 185h-181zM13 96l433 1l-14 -46h-430z" />
    <glyph glyph-name="twosuperior" unicode="&#xb2;" horiz-adv-x="437" 
d="M88 411c15.333 8 30.4951 12.835 45.4951 14.502s29.167 2 42.5 1s26 -2.5 38 -4.5s22.5 -2.83301 31.5 -2.5s16.5 2.66602 22.5 6.99902s10 12.833 12 25.5l13 -10c-10.667 -23.333 -22.5 -40.666 -35.5 -51.999s-26.5 -18.833 -40.5 -22.5
s-28.667 -4.83398 -44 -3.50098s-30.666 3 -45.999 5s-30.5 3.16699 -45.5 3.5s-29.167 -2.5 -42.5 -8.5c-6.66699 -3.33301 -9.5 -2.66602 -8.5 2.00098s3.66699 10.667 8 18s9.66602 14.833 15.999 22.5s11.5 13.167 15.5 16.5c8 6.66699 19.667 14.667 35 24l48.5 29.5
c17 10.333 33.5 21 49.5 32s28.667 21.5 38 31.5c6.66699 8 12.334 17.5 17.001 28.5s7.16699 21.833 7.5 32.5s-2 20.167 -7 28.5s-13.833 13.5 -26.5 15.5c-19.333 4 -38.166 1.5 -56.499 -7.5s-33 -21.333 -44 -37s-17.333 -33 -19 -52s4.5 -36.833 18.5 -53.5l-8 -5.5
c-3.33301 -2.33301 -5.66602 -4.16602 -6.99902 -5.49902c-14 20.667 -21.167 42 -21.5 64s4.83398 42.167 15.501 60.5s26 33.5 46 45.5s43.667 18 71 18c24.667 0 44.334 -3.83301 59.001 -11.5s24.834 -17.834 30.501 -30.501s7 -27.334 4 -44.001
s-9.83301 -34.334 -20.5 -53.001c-9.33301 -16 -22.833 -29 -40.5 -39s-36.834 -19.167 -57.501 -27.5l-61.5 -25c-20.333 -8.33301 -37.833 -18.5 -52.5 -30.5z" />
    <glyph glyph-name="threesuperior" unicode="&#xb3;" horiz-adv-x="370" 
d="M263 671l2 -1.99609c-6.66699 -19.333 -17.167 -34.5 -31.5 -45.5s-29.166 -20 -44.499 -27s-29.666 -12.333 -42.999 -16s-22.333 -7.5 -27 -11.5c12.667 2 26.667 2.16699 42 0.5s29 -6.16699 41 -13.5s21.5 -17.833 28.5 -31.5s8.83301 -31.5 5.5 -53.5
c-5.33301 -34 -18.166 -61.5 -38.499 -82.5s-48.5 -31.833 -84.5 -32.5c-28 -0.666992 -49.833 6.16602 -65.5 20.499s-22.834 33.5 -21.501 57.5c0.666992 11.333 3 21.166 7 29.499s8.83301 15.333 14.5 21s12 10.167 19 13.5s13.5 5.66602 19.5 6.99902
c4.66699 0.666992 8.66699 0 12 -2s5.5 -4.33301 6.5 -7s0.5 -5.33398 -1.5 -8.00098s-5.66699 -4.33398 -11 -5.00098c-11.333 -2.66699 -21 -8.16699 -29 -16.5s-12.667 -19.5 -14 -33.5c-0.666992 -8 0.666016 -15.833 3.99902 -23.5s8 -14.334 14 -20.001s13 -10 21 -13
s16.333 -4.16699 25 -3.5c10.667 0.666992 19.667 3.83398 27 9.50098s13.5 12.667 18.5 21s9.16699 17.333 12.5 27s6 19.167 8 28.5c5.33301 20.667 5 37.167 -1 49.5s-14.833 21.166 -26.5 26.499s-24.834 7.33301 -39.501 6s-27.667 -5.33301 -39 -12l6 29
c10 10.667 21.5 19.5 34.5 26.5s26.167 13.167 39.5 18.5l38.5 16c12.333 5.33301 23.166 12 32.499 20c-12.667 -6.66699 -25.667 -10.167 -39 -10.5s-26 0.333984 -38 2.00098s-23 3.33398 -33 5.00098s-18.333 0.833984 -25 -2.49902
c-4 -1.33301 -6.5 -3.66602 -7.5 -6.99902s0.5 -9.33301 4.5 -18c1.33301 -3.33301 0.333008 -5.83301 -3 -7.5s-5.66602 -0.833984 -6.99902 2.49902c-4.66699 8.66699 -7 17.667 -7 27s1.66699 16.666 5 21.999c10 10.667 24.167 16.5 42.5 17.5s37 0.666992 56 -1
l53.5 -4.5c16.667 -1.33301 29 1 37 7z" />
    <glyph glyph-name="acute" unicode="&#xb4;" horiz-adv-x="179" 
d="M36 576l-29 28l99 119l39 -36z" />
    <glyph glyph-name="cedilla" unicode="&#xb8;" horiz-adv-x="221" 
d="M99 20c-3.33301 -12.667 -1.49805 -22.8301 5.50195 -30.4971s15 -15.167 24 -22.5s17.333 -15.833 25 -25.5s10.5 -22.834 8.5 -39.501s-7.66699 -29.5 -17 -38.5s-20.333 -15 -33 -18s-25.834 -3.66699 -39.501 -2s-25.5 5.16699 -35.5 10.5c-3.33301 2 -5 5 -5 9
s0.833008 8 2.5 12s4 7.16699 7 9.5s6.16699 2.83301 9.5 1.5c8 -3.33301 16 -6 24 -8s15.5 -2.83301 22.5 -2.5s13 2.66602 18 6.99902s8.5 11.5 10.5 21.5c2 11.333 -0.833008 20.5 -8.5 27.5l-25 22c-9 7.66699 -16.833 17.167 -23.5 28.5
s-8.33398 26.666 -5.00098 45.999z" />
    <glyph glyph-name="onesuperior" unicode="&#xb9;" horiz-adv-x="203" 
d="M144 646l-48.999 -263.001c-1.33301 -7.33301 -6 -11.333 -14 -12h-32c-4 0.666992 -6.5 1.5 -7.5 2.5s-0.833008 3.16699 0.5 6.5l40 241c-0.666992 -3.33301 -2.5 -6.66602 -5.5 -9.99902s-6.33301 -6.5 -10 -9.5s-7.16699 -5.66699 -10.5 -8s-6 -3.83301 -8 -4.5
c-4 -1.33301 -5.83301 1 -5.5 7s2.16602 10.333 5.49902 13c6.66699 3.33301 13.167 8.5 19.5 15.5s11.5 14.167 15.5 21.5c2.66699 4.66699 4 7.16699 4 7.5s2.66699 0.5 8 0.5h44c5.33301 0 7 -2.66699 5 -8z" />
    <glyph glyph-name="ordmasculine" unicode="&#xba;" horiz-adv-x="313" 
d="M42 451c4 18 11.334 35.3291 22.001 51.9961s22.667 29.667 36 39c5.33301 4 8.66602 4.5 9.99902 1.5s0.333008 -6.16699 -3 -9.5c-10.667 -13.333 -17.167 -25.666 -19.5 -36.999s-3.5 -26.333 -3.5 -45c0 -7.33301 1.83301 -16.666 5.5 -27.999s8.5 -22 14.5 -32
s13.167 -18 21.5 -24s17.5 -7.33301 27.5 -4c2.66699 0.666992 6.33398 2.83398 11.001 6.50098s9 8.33398 13 14.001s7.66699 11.5 11 17.5s5.33301 11.333 6 16c-28 3.33301 -49.833 14.333 -65.5 33s-21.5 44 -17.5 76c2 14.667 9 25.667 21 33s25.167 10.333 39.5 9
s27.666 -7.33301 39.999 -18s19.833 -26.334 22.5 -47.001c1.33301 -15.333 0.333008 -30.666 -3 -45.999s-8.33301 -30 -15 -44s-15 -26.833 -25 -38.5s-21.333 -21.167 -34 -28.5c-15.333 -8 -30.666 -10.5 -45.999 -7.5s-28.833 9.83301 -40.5 20.5
s-20.334 24 -26.001 40s-6.5 33 -2.5 51zM198.001 435.996c0.666992 9.33301 0.333008 18.832 -1 28.499s-3.66602 19.834 -6.99902 30.501c-2.66699 8 -7.33398 16.333 -14.001 25s-13.667 15.5 -21 20.5s-14 7.16699 -20 6.5s-9.66699 -7 -11 -19
c-4 -28.667 1.66699 -50.667 17 -66s34.333 -24 57 -26z" />
    <glyph glyph-name="guillemotright" unicode="&#xbb;" horiz-adv-x="757" 
d="M17 77l9 51.001l336 152l-265 144l9 47l343 -179c5.33301 -2 8 -5.33301 8 -10s-2 -8.33398 -6 -11.001zM222 77.001l9 51.001l336 152l-265 144l9 47l343 -179c5.33301 -2 8 -5.33301 8 -10s-2 -8.33398 -6 -11.001z" />
    <glyph glyph-name="onequarter" unicode="&#xbc;" horiz-adv-x="622" 
d="M172 646l-48.999 -263.001c-1.33301 -7.33301 -6 -11.333 -14 -12h-32c-4 0.666992 -6.5 1.5 -7.5 2.5s-0.833008 3.16699 0.5 6.5l40 241c-0.666992 -3.33301 -2.5 -6.66602 -5.5 -9.99902s-6.33301 -6.5 -10 -9.5s-7.16699 -5.66699 -10.5 -8s-6 -3.83301 -8 -4.5
c-4 -1.33301 -5.83301 1 -5.5 7s2.16602 10.333 5.49902 13c6.66699 3.33301 13.167 8.5 19.5 15.5s11.5 14.167 15.5 21.5c2.66699 4.66699 4 7.16699 4 7.5s2.66699 0.5 8 0.5h44c5.33301 0 7 -2.66699 5 -8zM93.001 -8.00098l262 684h51l-255 -685zM260.001 85.999
c-2 -0.666992 -4 -2.49805 -6 -5.49805s-3.33301 -6.16699 -4 -9.5s-0.166992 -6.33301 1.5 -9s5.16699 -4 10.5 -4l133 2l-8 -54l63 1l8 53l21 1c6 0.666992 9.33301 4.5 10 11.5s-1.66602 10.833 -6.99902 11.5l-21 -2l32 200c0.666992 5.33301 -0.5 9.16602 -3.5 11.499
s-6.66699 3.83301 -11 4.5s-8.83301 0.666992 -13.5 0s-8.33398 -1.33398 -11.001 -2.00098c-14.667 -6 -27.834 -17 -39.501 -33s-24.167 -34.167 -37.5 -54.5s-29.166 -41.5 -47.499 -63.5s-41.5 -41.667 -69.5 -59zM422.001 221.001l-22.0039 -136.999l-88 -2
c12.667 11.333 23.834 21.833 33.501 31.5s18.834 19.667 27.501 30s16.834 21.666 24.501 33.999s15.834 26.833 24.501 43.5z" />
    <glyph glyph-name="onehalf" unicode="&#xbd;" horiz-adv-x="689" 
d="M172 646l-48.999 -263.001c-1.33301 -7.33301 -6 -11.333 -14 -12h-32c-4 0.666992 -6.5 1.5 -7.5 2.5s-0.833008 3.16699 0.5 6.5l40 241c-0.666992 -3.33301 -2.5 -6.66602 -5.5 -9.99902s-6.33301 -6.5 -10 -9.5s-7.16699 -5.66699 -10.5 -8s-6 -3.83301 -8 -4.5
c-4 -1.33301 -5.83301 1 -5.5 7s2.16602 10.333 5.49902 13c6.66699 3.33301 13.167 8.5 19.5 15.5s11.5 14.167 15.5 21.5c2.66699 4.66699 4 7.16699 4 7.5s2.66699 0.5 8 0.5h44c5.33301 0 7 -2.66699 5 -8zM93.001 -8.00098l262 684h51l-255 -685zM336.001 47.999
c15.333 8 30.4951 12.835 45.4951 14.502s29.167 2 42.5 1s26 -2.5 38 -4.5s22.5 -2.83301 31.5 -2.5s16.5 2.66602 22.5 6.99902s10 12.833 12 25.5l13 -10c-10.667 -23.333 -22.5 -40.666 -35.5 -51.999s-26.5 -18.833 -40.5 -22.5s-28.667 -4.83398 -44 -3.50098
s-30.666 3 -45.999 5s-30.5 3.16699 -45.5 3.5s-29.167 -2.5 -42.5 -8.5c-6.66699 -3.33301 -9.5 -2.66602 -8.5 2.00098s3.66699 10.667 8 18s9.66602 14.833 15.999 22.5s11.5 13.167 15.5 16.5c8 6.66699 19.667 14.667 35 24l48.5 29.5c17 10.333 33.5 21 49.5 32
s28.667 21.5 38 31.5c6.66699 8 12.334 17.5 17.001 28.5s7.16699 21.833 7.5 32.5s-2 20.167 -7 28.5s-13.833 13.5 -26.5 15.5c-19.333 4 -38.166 1.5 -56.499 -7.5s-33 -21.333 -44 -37s-17.333 -33 -19 -52s4.5 -36.833 18.5 -53.5l-8 -5.5
c-3.33301 -2.33301 -5.66602 -4.16602 -6.99902 -5.49902c-14 20.667 -21.167 42 -21.5 64s4.83398 42.167 15.501 60.5s26 33.5 46 45.5s43.667 18 71 18c24.667 0 44.334 -3.83301 59.001 -11.5s24.834 -17.834 30.501 -30.501s7 -27.334 4 -44.001
s-9.83301 -34.334 -20.5 -53.001c-9.33301 -16 -22.833 -29 -40.5 -39s-36.834 -19.167 -57.501 -27.5l-61.5 -25c-20.333 -8.33301 -37.833 -18.5 -52.5 -30.5z" />
    <glyph glyph-name="threequarters" unicode="&#xbe;" horiz-adv-x="655" 
d="M145 -8l262 684h51l-255 -685zM312 86c-2 -0.666992 -4 -2.49805 -6 -5.49805s-3.33301 -6.16699 -4 -9.5s-0.166992 -6.33301 1.5 -9s5.16699 -4 10.5 -4l133 2l-8 -54l63 1l8 53l21 1c6 0.666992 9.33301 4.5 10 11.5s-1.66602 10.833 -6.99902 11.5l-21 -2l32 200
c0.666992 5.33301 -0.5 9.16602 -3.5 11.499s-6.66699 3.83301 -11 4.5s-8.83301 0.666992 -13.5 0s-8.33398 -1.33398 -11.001 -2.00098c-14.667 -6 -27.834 -17 -39.501 -33s-24.167 -34.167 -37.5 -54.5s-29.166 -41.5 -47.499 -63.5s-41.5 -41.667 -69.5 -59z
M474 221.002l-22.0039 -136.999l-88 -2c12.667 11.333 23.834 21.833 33.501 31.5s18.834 19.667 27.501 30s16.834 21.666 24.501 33.999s15.834 26.833 24.501 43.5zM284.996 671.003l2 -1.99609c-6.66699 -19.333 -17.167 -34.5 -31.5 -45.5s-29.166 -20 -44.499 -27
s-29.666 -12.333 -42.999 -16s-22.333 -7.5 -27 -11.5c12.667 2 26.667 2.16699 42 0.5s29 -6.16699 41 -13.5s21.5 -17.833 28.5 -31.5s8.83301 -31.5 5.5 -53.5c-5.33301 -34 -18.166 -61.5 -38.499 -82.5s-48.5 -31.833 -84.5 -32.5
c-28 -0.666992 -49.833 6.16602 -65.5 20.499s-22.834 33.5 -21.501 57.5c0.666992 11.333 3 21.166 7 29.499s8.83301 15.333 14.5 21s12 10.167 19 13.5s13.5 5.66602 19.5 6.99902c4.66699 0.666992 8.66699 0 12 -2s5.5 -4.33301 6.5 -7s0.5 -5.33398 -1.5 -8.00098
s-5.66699 -4.33398 -11 -5.00098c-11.333 -2.66699 -21 -8.16699 -29 -16.5s-12.667 -19.5 -14 -33.5c-0.666992 -8 0.666016 -15.833 3.99902 -23.5s8 -14.334 14 -20.001s13 -10 21 -13s16.333 -4.16699 25 -3.5c10.667 0.666992 19.667 3.83398 27 9.50098
s13.5 12.667 18.5 21s9.16699 17.333 12.5 27s6 19.167 8 28.5c5.33301 20.667 5 37.167 -1 49.5s-14.833 21.166 -26.5 26.499s-24.834 7.33301 -39.501 6s-27.667 -5.33301 -39 -12l6 29c10 10.667 21.5 19.5 34.5 26.5s26.167 13.167 39.5 18.5l38.5 16
c12.333 5.33301 23.166 12 32.499 20c-12.667 -6.66699 -25.667 -10.167 -39 -10.5s-26 0.333984 -38 2.00098s-23 3.33398 -33 5.00098s-18.333 0.833984 -25 -2.49902c-4 -1.33301 -6.5 -3.66602 -7.5 -6.99902s0.5 -9.33301 4.5 -18
c1.33301 -3.33301 0.333008 -5.83301 -3 -7.5s-5.66602 -0.833984 -6.99902 2.49902c-4.66699 8.66699 -7 17.667 -7 27s1.66699 16.666 5 21.999c10 10.667 24.167 16.5 42.5 17.5s37 0.666992 56 -1l53.5 -4.5c16.667 -1.33301 29 1 37 7z" />
    <glyph glyph-name="questiondown" unicode="&#xbf;" horiz-adv-x="573" 
d="M383 302c12.667 -12.667 24.1719 -25.6641 34.5049 -38.9971s19 -27.5 26 -42.5s11.667 -30.833 14 -47.5s1.5 -34.667 -2.5 -54c-5.33301 -24.667 -15.333 -45.334 -30 -62.001s-32.334 -30 -53.001 -40s-43.667 -17.167 -69 -21.5s-51 -6.5 -77 -6.5
c-32.667 0 -61.334 5.66699 -86.001 17s-44.5 26.166 -59.5 44.499s-24.5 39 -28.5 62s-1.5 46.333 7.5 70s24.833 46.667 47.5 69s53.667 41.833 93 58.5c42 16.667 74.333 42.167 97 76.5s38.667 73.5 48 117.5c4 19.333 11 33.166 21 41.499s19.833 11.833 29.5 10.5
s17.667 -7.16602 24 -17.499s8.16602 -24.5 5.49902 -42.5c-6 -35.333 -15.333 -63.5 -28 -84.5s-27.834 -38.833 -45.501 -53.5s-37.5 -28.167 -59.5 -40.5s-45.333 -27.166 -70 -44.499c-29.333 -19.333 -50.833 -39.166 -64.5 -59.499s-21.834 -40 -24.501 -59
s-1 -36.833 5 -53.5s14 -31.334 24 -44.001s21 -22.834 33 -30.501s23 -11.834 33 -12.501c10 0 22.5 2.16699 37.5 6.5s30 10.833 45 19.5s29 19.667 42 33s22.5 29 28.5 47c4 10.667 5.66699 23.5 5 38.5s-3 30 -7 45s-9.16699 29.167 -15.5 42.5s-12.833 24 -19.5 32
c-4 6.66699 -5.83301 13.167 -5.5 19.5s2.5 11 6.5 14s9.33301 4 16 3s14 -5.16699 22 -12.5zM392.005 605.003c-9.33301 0 -16.999 3.5 -22.999 10.5s-8.33301 15.5 -7 25.5c1.33301 9.33301 6.16602 17.5 14.499 24.5s17.166 10.5 26.499 10.5
c10 0 17.833 -3.5 23.5 -10.5s7.83398 -15.167 6.50098 -24.5c-1.33301 -10 -6 -18.5 -14 -25.5s-17 -10.5 -27 -10.5z" />
    <glyph glyph-name="Agrave" unicode="&#xc0;" horiz-adv-x="845" 
d="M845 202c-1.33301 -3.33301 -5.16211 -11.4932 -11.4951 -24.4932s-14.333 -27 -24 -42s-20.667 -29 -33 -42s-25.166 -21.333 -38.499 -25s-26.833 -0.666992 -40.5 9s-26.834 29.834 -39.501 60.501c-13.333 32 -22.166 66.167 -26.499 102.5s-6.33301 73.333 -6 111
s2.16602 75.167 5.49902 112.5s6 73 8 107c0 3.33301 1.66699 5 5 5s6.83301 -0.5 10.5 -1.5s7.16699 -1.83301 10.5 -2.5s5 0.333008 5 3l-29 33.5l-33 37c-10.667 11.667 -20.5 21.334 -29.5 29.001s-15.5 11.167 -19.5 10.5c-5.33301 -1.33301 -13.333 -12 -24 -32
s-23.5 -45.667 -38.5 -77l-50 -106.5c-18.333 -39.667 -37.833 -79.834 -58.5 -120.501c-0.666992 1.33301 -1.33398 2.16602 -2.00098 2.49902s-1.66699 1.16602 -3 2.49902c-12 10.667 -26 17.834 -42 21.501s-32.333 4.5 -49 2.5s-32.834 -6.5 -48.501 -13.5
s-29.167 -15.5 -40.5 -25.5c-21.333 -18.667 -34.666 -38.334 -39.999 -59.001s-5.33301 -38.334 0 -53.001c1.33301 -3.33301 3.33301 -4.83301 6 -4.5s3.33398 3.16602 2.00098 8.49902c-1.33301 8 -1.5 16.167 -0.5 24.5s3.33301 16.5 7 24.5s8.83398 15.167 15.501 21.5
s15 11.166 25 14.499c21.333 7.33301 39.166 8 53.499 2s29.5 -15.667 45.5 -29c8.66699 -8 18 -15 28 -21c-18 -32 -36.5 -62.333 -55.5 -91s-38.333 -54 -58 -76s-39.5 -39.833 -59.5 -53.5s-39.667 -21.167 -59 -22.5c-22 -2 -40 1.5 -54 10.5s-24.167 20.667 -30.5 35
s-8.66602 29.833 -6.99902 46.5s7 31.834 16 45.501s21.5 24.5 37.5 32.5s35.333 10.667 58 8c5.33301 -0.666992 9.16602 1.33301 11.499 6s-0.833984 7.66699 -9.50098 9c-24 5.33301 -45.833 3.66602 -65.5 -5.00098s-35.5 -21.334 -47.5 -38.001
s-19.167 -35.834 -21.5 -57.501s2.16699 -42.834 13.5 -63.501c7.33301 -13.333 17.333 -24.333 30 -33s26.334 -14.667 41.001 -18s29.667 -4.33301 45 -3s29.666 5.33301 42.999 12c18 8.66699 36 21 54 37s35.833 34.5 53.5 55.5s34.667 43.833 51 68.5l47.5 75
c20 -9.33301 43 -14.333 69 -15s55 6.66602 87 21.999c3.33301 -34.667 8.5 -68.167 15.5 -100.5s17.5 -61.166 31.5 -86.499c16.667 -30.667 34.167 -52 52.5 -64s36.666 -17 54.999 -15s36.166 9.5 53.499 22.5s33.666 28.833 48.999 47.5s29.166 39.167 41.499 61.5
s22.5 43.833 30.5 64.5zM416.004 314.007l36 70.498l32 65.5l27 56c8 16.667 15 30.667 21 42c0.666992 -15.333 0.833984 -33.166 0.500977 -53.499s-0.666016 -42.333 -0.999023 -66s-0.5 -48.334 -0.5 -74.001s0.666992 -51.5 2 -77.5
c-16.667 -7.33301 -30.834 -11.166 -42.501 -11.499s-22 1.66699 -31 6s-16.833 10.333 -23.5 18s-13.334 15.834 -20.001 24.501zM503.004 861.005l39 36l99 -119l-29 -28z" />
    <glyph glyph-name="Aacute" unicode="&#xc1;" horiz-adv-x="845" 
d="M864 185c-8 -20.667 -18.1709 -42.1738 -30.5039 -64.5068s-26.166 -42.833 -41.499 -61.5s-31.666 -34.5 -48.999 -47.5s-35.166 -20.5 -53.499 -22.5s-36.666 3 -54.999 15s-35.833 33.333 -52.5 64c-14 25.333 -24.5 54.166 -31.5 86.499s-12.167 65.833 -15.5 100.5
c-32 -15.333 -61 -22.666 -87 -21.999s-49 5.66699 -69 15l-47.5 -75c-16.333 -24.667 -33.333 -47.5 -51 -68.5s-35.5 -39.5 -53.5 -55.5s-36 -28.333 -54 -37c-13.333 -6.66699 -27.666 -10.667 -42.999 -12s-30.333 -0.333008 -45 3s-28.334 9.33301 -41.001 18
s-22.667 19.667 -30 33c-11.333 20.667 -15.833 41.834 -13.5 63.501s9.5 40.834 21.5 57.501s27.833 29.334 47.5 38.001s41.5 10.334 65.5 5.00098c8.66699 -1.33301 11.834 -4.33301 9.50098 -9s-6.16602 -6.66699 -11.499 -6c-22.667 2.66699 -42 0 -58 -8
s-28.5 -18.833 -37.5 -32.5s-14.333 -28.834 -16 -45.501s0.666016 -32.167 6.99902 -46.5s16.5 -26 30.5 -35s32 -12.5 54 -10.5c19.333 1.33301 39 8.83301 59 22.5s39.833 31.5 59.5 53.5s39 47.333 58 76s37.5 59 55.5 91c-10 6 -19.333 13 -28 21
c-16 13.333 -31.167 23 -45.5 29s-32.166 5.33301 -53.499 -2c-10 -3.33301 -18.333 -8.16602 -25 -14.499s-11.834 -13.5 -15.501 -21.5s-6 -16.167 -7 -24.5s-0.833008 -16.5 0.5 -24.5c1.33301 -5.33301 0.666016 -8.16602 -2.00098 -8.49902s-4.66699 1.16699 -6 4.5
c-5.33301 14.667 -5.33301 32.334 0 53.001s18.666 40.334 39.999 59.001c11.333 10 24.833 18.5 40.5 25.5s31.834 11.5 48.501 13.5s33 1.16699 49 -2.5s30 -10.834 42 -21.501c1.33301 -1.33301 2.33301 -2.16602 3 -2.49902s1.33398 -1.16602 2.00098 -2.49902
c20.667 40.667 40.167 80.834 58.5 120.501l50 106.5c15 31.333 27.833 57 38.5 77s18.667 30.667 24 32c4 0.666992 10.5 -2.83301 19.5 -10.5s18.833 -17.334 29.5 -29.001l33 -37l29 -33.5c0 -2.66699 -1.66699 -3.66699 -5 -3s-6.83301 1.5 -10.5 2.5
s-7.16699 1.5 -10.5 1.5s-5 -1.66699 -5 -5c-2 -34 -4.66699 -69.667 -8 -107s-5.16602 -74.833 -5.49902 -112.5s1.66699 -74.667 6 -111s13.166 -70.5 26.499 -102.5c12.667 -30.667 25.834 -50.834 39.501 -60.501s27.167 -12.667 40.5 -9s26.166 12 38.499 25
s23.333 27 33 42s17.667 29 24 42s10.166 21.167 11.499 24.5zM415.996 313.993c6.66699 -8.66699 13.334 -16.832 20.001 -24.499s14.5 -13.667 23.5 -18s19.333 -6.33301 31 -6s25.834 4.16602 42.501 11.499c-1.33301 26 -2 51.833 -2 77.5s0.166992 50.334 0.5 74.001
s0.666016 45.667 0.999023 66s0.166016 38.166 -0.500977 53.499c-6 -11.333 -13 -25.333 -21 -42l-27 -56l-32 -65.5zM596.996 750.995l-29 28l99 119l39 -36z" />
    <glyph glyph-name="Acircumflex" unicode="&#xc2;" horiz-adv-x="845" 
d="M845 202c-1.33301 -3.33301 -5.16211 -11.4932 -11.4951 -24.4932s-14.333 -27 -24 -42s-20.667 -29 -33 -42s-25.166 -21.333 -38.499 -25s-26.833 -0.666992 -40.5 9s-26.834 29.834 -39.501 60.501c-13.333 32 -22.166 66.167 -26.499 102.5s-6.33301 73.333 -6 111
s2.16602 75.167 5.49902 112.5s6 73 8 107c0 3.33301 1.66699 5 5 5s6.83301 -0.5 10.5 -1.5s7.16699 -1.83301 10.5 -2.5s5 0.333008 5 3l-29 33.5l-33 37c-10.667 11.667 -20.5 21.334 -29.5 29.001s-15.5 11.167 -19.5 10.5c-5.33301 -1.33301 -13.333 -12 -24 -32
s-23.5 -45.667 -38.5 -77l-50 -106.5c-18.333 -39.667 -37.833 -79.834 -58.5 -120.501c-0.666992 1.33301 -1.33398 2.16602 -2.00098 2.49902s-1.66699 1.16602 -3 2.49902c-12 10.667 -26 17.834 -42 21.501s-32.333 4.5 -49 2.5s-32.834 -6.5 -48.501 -13.5
s-29.167 -15.5 -40.5 -25.5c-21.333 -18.667 -34.666 -38.334 -39.999 -59.001s-5.33301 -38.334 0 -53.001c1.33301 -3.33301 3.33301 -4.83301 6 -4.5s3.33398 3.16602 2.00098 8.49902c-1.33301 8 -1.5 16.167 -0.5 24.5s3.33301 16.5 7 24.5s8.83398 15.167 15.501 21.5
s15 11.166 25 14.499c21.333 7.33301 39.166 8 53.499 2s29.5 -15.667 45.5 -29c8.66699 -8 18 -15 28 -21c-18 -32 -36.5 -62.333 -55.5 -91s-38.333 -54 -58 -76s-39.5 -39.833 -59.5 -53.5s-39.667 -21.167 -59 -22.5c-22 -2 -40 1.5 -54 10.5s-24.167 20.667 -30.5 35
s-8.66602 29.833 -6.99902 46.5s7 31.834 16 45.501s21.5 24.5 37.5 32.5s35.333 10.667 58 8c5.33301 -0.666992 9.16602 1.33301 11.499 6s-0.833984 7.66699 -9.50098 9c-24 5.33301 -45.833 3.66602 -65.5 -5.00098s-35.5 -21.334 -47.5 -38.001
s-19.167 -35.834 -21.5 -57.501s2.16699 -42.834 13.5 -63.501c7.33301 -13.333 17.333 -24.333 30 -33s26.334 -14.667 41.001 -18s29.667 -4.33301 45 -3s29.666 5.33301 42.999 12c18 8.66699 36 21 54 37s35.833 34.5 53.5 55.5s34.667 43.833 51 68.5l47.5 75
c20 -9.33301 43 -14.333 69 -15s55 6.66602 87 21.999c3.33301 -34.667 8.5 -68.167 15.5 -100.5s17.5 -61.166 31.5 -86.499c16.667 -30.667 34.167 -52 52.5 -64s36.666 -17 54.999 -15s36.166 9.5 53.499 22.5s33.666 28.833 48.999 47.5s29.166 39.167 41.499 61.5
s22.5 43.833 30.5 64.5zM416.004 314.007l36 70.498l32 65.5l27 56c8 16.667 15 30.667 21 42c0.666992 -15.333 0.833984 -33.166 0.500977 -53.499s-0.666016 -42.333 -0.999023 -66s-0.5 -48.334 -0.5 -74.001s0.666992 -51.5 2 -77.5
c-16.667 -7.33301 -30.834 -11.166 -42.501 -11.499s-22 1.66699 -31 6s-16.833 10.333 -23.5 18s-13.334 15.834 -20.001 24.501zM657.004 884.005l84.999 -113.001c2 -3.33301 2 -6.66602 0 -9.99902s-4.66699 -6 -8 -8s-7 -3.16699 -11 -3.5s-7 0.833984 -9 3.50098
c-4 4.66699 -8.83301 10.667 -14.5 18l-17 22.5l-17 22.5l-14.5 19l-87 -83c-2 -2 -5 -2.66699 -9 -2s-7.5 2.16699 -10.5 4.5s-5.16699 5.16602 -6.5 8.49902s-0.666016 6.33301 2.00098 9z" />
    <glyph glyph-name="Atilde" unicode="&#xc3;" horiz-adv-x="845" 
d="M845 202c-1.33301 -3.33301 -5.16211 -11.4932 -11.4951 -24.4932s-14.333 -27 -24 -42s-20.667 -29 -33 -42s-25.166 -21.333 -38.499 -25s-26.833 -0.666992 -40.5 9s-26.834 29.834 -39.501 60.501c-13.333 32 -22.166 66.167 -26.499 102.5s-6.33301 73.333 -6 111
s2.16602 75.167 5.49902 112.5s6 73 8 107c0 3.33301 1.66699 5 5 5s6.83301 -0.5 10.5 -1.5s7.16699 -1.83301 10.5 -2.5s5 0.333008 5 3l-29 33.5l-33 37c-10.667 11.667 -20.5 21.334 -29.5 29.001s-15.5 11.167 -19.5 10.5c-5.33301 -1.33301 -13.333 -12 -24 -32
s-23.5 -45.667 -38.5 -77l-50 -106.5c-18.333 -39.667 -37.833 -79.834 -58.5 -120.501c-0.666992 1.33301 -1.33398 2.16602 -2.00098 2.49902s-1.66699 1.16602 -3 2.49902c-12 10.667 -26 17.834 -42 21.501s-32.333 4.5 -49 2.5s-32.834 -6.5 -48.501 -13.5
s-29.167 -15.5 -40.5 -25.5c-21.333 -18.667 -34.666 -38.334 -39.999 -59.001s-5.33301 -38.334 0 -53.001c1.33301 -3.33301 3.33301 -4.83301 6 -4.5s3.33398 3.16602 2.00098 8.49902c-1.33301 8 -1.5 16.167 -0.5 24.5s3.33301 16.5 7 24.5s8.83398 15.167 15.501 21.5
s15 11.166 25 14.499c21.333 7.33301 39.166 8 53.499 2s29.5 -15.667 45.5 -29c8.66699 -8 18 -15 28 -21c-18 -32 -36.5 -62.333 -55.5 -91s-38.333 -54 -58 -76s-39.5 -39.833 -59.5 -53.5s-39.667 -21.167 -59 -22.5c-22 -2 -40 1.5 -54 10.5s-24.167 20.667 -30.5 35
s-8.66602 29.833 -6.99902 46.5s7 31.834 16 45.501s21.5 24.5 37.5 32.5s35.333 10.667 58 8c5.33301 -0.666992 9.16602 1.33301 11.499 6s-0.833984 7.66699 -9.50098 9c-24 5.33301 -45.833 3.66602 -65.5 -5.00098s-35.5 -21.334 -47.5 -38.001
s-19.167 -35.834 -21.5 -57.501s2.16699 -42.834 13.5 -63.501c7.33301 -13.333 17.333 -24.333 30 -33s26.334 -14.667 41.001 -18s29.667 -4.33301 45 -3s29.666 5.33301 42.999 12c18 8.66699 36 21 54 37s35.833 34.5 53.5 55.5s34.667 43.833 51 68.5l47.5 75
c20 -9.33301 43 -14.333 69 -15s55 6.66602 87 21.999c3.33301 -34.667 8.5 -68.167 15.5 -100.5s17.5 -61.166 31.5 -86.499c16.667 -30.667 34.167 -52 52.5 -64s36.666 -17 54.999 -15s36.166 9.5 53.499 22.5s33.666 28.833 48.999 47.5s29.166 39.167 41.499 61.5
s22.5 43.833 30.5 64.5zM416.004 314.007l36 70.498l32 65.5l27 56c8 16.667 15 30.667 21 42c0.666992 -15.333 0.833984 -33.166 0.500977 -53.499s-0.666016 -42.333 -0.999023 -66s-0.5 -48.334 -0.5 -74.001s0.666992 -51.5 2 -77.5
c-16.667 -7.33301 -30.834 -11.166 -42.501 -11.499s-22 1.66699 -31 6s-16.833 10.333 -23.5 18s-13.334 15.834 -20.001 24.501zM531.004 795.005c16.667 12.667 32.666 18.167 47.999 16.5s31.333 -5.16699 48 -10.5s34.167 -9.83301 52.5 -13.5s38.5 -1.16699 60.5 7.5
c-1.33301 -5.33301 -2.5 -10.333 -3.5 -15s-2.16699 -9.33398 -3.5 -14.001c-19.333 -12 -37.333 -16.5 -54 -13.5s-33.167 7.5 -49.5 13.5s-33 10.5 -50 13.5s-34.833 -1.5 -53.5 -13.5c1.33301 4.66699 2.33301 9.33398 3 14.001s1.33398 9.66699 2.00098 15z" />
    <glyph glyph-name="Adieresis" unicode="&#xc4;" horiz-adv-x="845" 
d="M864 185c-8 -20.667 -18.1709 -42.1738 -30.5039 -64.5068s-26.166 -42.833 -41.499 -61.5s-31.666 -34.5 -48.999 -47.5s-35.166 -20.5 -53.499 -22.5s-36.666 3 -54.999 15s-35.833 33.333 -52.5 64c-14 25.333 -24.5 54.166 -31.5 86.499s-12.167 65.833 -15.5 100.5
c-32 -15.333 -61 -22.666 -87 -21.999s-49 5.66699 -69 15l-47.5 -75c-16.333 -24.667 -33.333 -47.5 -51 -68.5s-35.5 -39.5 -53.5 -55.5s-36 -28.333 -54 -37c-13.333 -6.66699 -27.666 -10.667 -42.999 -12s-30.333 -0.333008 -45 3s-28.334 9.33301 -41.001 18
s-22.667 19.667 -30 33c-11.333 20.667 -15.833 41.834 -13.5 63.501s9.5 40.834 21.5 57.501s27.833 29.334 47.5 38.001s41.5 10.334 65.5 5.00098c8.66699 -1.33301 11.834 -4.33301 9.50098 -9s-6.16602 -6.66699 -11.499 -6c-22.667 2.66699 -42 0 -58 -8
s-28.5 -18.833 -37.5 -32.5s-14.333 -28.834 -16 -45.501s0.666016 -32.167 6.99902 -46.5s16.5 -26 30.5 -35s32 -12.5 54 -10.5c19.333 1.33301 39 8.83301 59 22.5s39.833 31.5 59.5 53.5s39 47.333 58 76s37.5 59 55.5 91c-10 6 -19.333 13 -28 21
c-16 13.333 -31.167 23 -45.5 29s-32.166 5.33301 -53.499 -2c-10 -3.33301 -18.333 -8.16602 -25 -14.499s-11.834 -13.5 -15.501 -21.5s-6 -16.167 -7 -24.5s-0.833008 -16.5 0.5 -24.5c1.33301 -5.33301 0.666016 -8.16602 -2.00098 -8.49902s-4.66699 1.16699 -6 4.5
c-5.33301 14.667 -5.33301 32.334 0 53.001s18.666 40.334 39.999 59.001c11.333 10 24.833 18.5 40.5 25.5s31.834 11.5 48.501 13.5s33 1.16699 49 -2.5s30 -10.834 42 -21.501c1.33301 -1.33301 2.33301 -2.16602 3 -2.49902s1.33398 -1.16602 2.00098 -2.49902
c20.667 40.667 40.167 80.834 58.5 120.501l50 106.5c15 31.333 27.833 57 38.5 77s18.667 30.667 24 32c4 0.666992 10.5 -2.83301 19.5 -10.5s18.833 -17.334 29.5 -29.001l33 -37l29 -33.5c0 -2.66699 -1.66699 -3.66699 -5 -3s-6.83301 1.5 -10.5 2.5
s-7.16699 1.5 -10.5 1.5s-5 -1.66699 -5 -5c-2 -34 -4.66699 -69.667 -8 -107s-5.16602 -74.833 -5.49902 -112.5s1.66699 -74.667 6 -111s13.166 -70.5 26.499 -102.5c12.667 -30.667 25.834 -50.834 39.501 -60.501s27.167 -12.667 40.5 -9s26.166 12 38.499 25
s23.333 27 33 42s17.667 29 24 42s10.166 21.167 11.499 24.5zM415.996 313.993c6.66699 -8.66699 13.334 -16.832 20.001 -24.499s14.5 -13.667 23.5 -18s19.333 -6.33301 31 -6s25.834 4.16602 42.501 11.499c-1.33301 26 -2 51.833 -2 77.5s0.166992 50.334 0.5 74.001
s0.666016 45.667 0.999023 66s0.166016 38.166 -0.500977 53.499c-6 -11.333 -13 -25.333 -21 -42l-27 -56l-32 -65.5zM540.996 752.995c-12.667 0 -23.334 4.33301 -32.001 13s-13 19.334 -13 32.001c0 12 4.33301 22.333 13 31s19.334 13 32.001 13
c12 0 22.333 -4.33301 31 -13s13 -19 13 -31c0 -12.667 -4.33301 -23.334 -13 -32.001s-19 -13 -31 -13zM658.996 752.995c-12.667 0 -23.334 4.33301 -32.001 13s-13 19.334 -13 32.001c0 12 4.33301 22.333 13 31s19.334 13 32.001 13c12 0 22.333 -4.33301 31 -13
s13 -19 13 -31c0 -12.667 -4.33301 -23.334 -13 -32.001s-19 -13 -31 -13z" />
    <glyph glyph-name="Aring" unicode="&#xc5;" horiz-adv-x="845" 
d="M845 202c-1.33301 -3.33301 -5.16211 -11.4932 -11.4951 -24.4932s-14.333 -27 -24 -42s-20.667 -29 -33 -42s-25.166 -21.333 -38.499 -25s-26.833 -0.666992 -40.5 9s-26.834 29.834 -39.501 60.501c-13.333 32 -22.166 66.167 -26.499 102.5s-6.33301 73.333 -6 111
s2.16602 75.167 5.49902 112.5s6 73 8 107c0 3.33301 1.66699 5 5 5s6.83301 -0.5 10.5 -1.5s7.16699 -1.83301 10.5 -2.5s5 0.333008 5 3l-29 33.5l-33 37c-10.667 11.667 -20.5 21.334 -29.5 29.001s-15.5 11.167 -19.5 10.5c-5.33301 -1.33301 -13.333 -12 -24 -32
s-23.5 -45.667 -38.5 -77l-50 -106.5c-18.333 -39.667 -37.833 -79.834 -58.5 -120.501c-0.666992 1.33301 -1.33398 2.16602 -2.00098 2.49902s-1.66699 1.16602 -3 2.49902c-12 10.667 -26 17.834 -42 21.501s-32.333 4.5 -49 2.5s-32.834 -6.5 -48.501 -13.5
s-29.167 -15.5 -40.5 -25.5c-21.333 -18.667 -34.666 -38.334 -39.999 -59.001s-5.33301 -38.334 0 -53.001c1.33301 -3.33301 3.33301 -4.83301 6 -4.5s3.33398 3.16602 2.00098 8.49902c-1.33301 8 -1.5 16.167 -0.5 24.5s3.33301 16.5 7 24.5s8.83398 15.167 15.501 21.5
s15 11.166 25 14.499c21.333 7.33301 39.166 8 53.499 2s29.5 -15.667 45.5 -29c8.66699 -8 18 -15 28 -21c-18 -32 -36.5 -62.333 -55.5 -91s-38.333 -54 -58 -76s-39.5 -39.833 -59.5 -53.5s-39.667 -21.167 -59 -22.5c-22 -2 -40 1.5 -54 10.5s-24.167 20.667 -30.5 35
s-8.66602 29.833 -6.99902 46.5s7 31.834 16 45.501s21.5 24.5 37.5 32.5s35.333 10.667 58 8c5.33301 -0.666992 9.16602 1.33301 11.499 6s-0.833984 7.66699 -9.50098 9c-24 5.33301 -45.833 3.66602 -65.5 -5.00098s-35.5 -21.334 -47.5 -38.001
s-19.167 -35.834 -21.5 -57.501s2.16699 -42.834 13.5 -63.501c7.33301 -13.333 17.333 -24.333 30 -33s26.334 -14.667 41.001 -18s29.667 -4.33301 45 -3s29.666 5.33301 42.999 12c18 8.66699 36 21 54 37s35.833 34.5 53.5 55.5s34.667 43.833 51 68.5l47.5 75
c20 -9.33301 43 -14.333 69 -15s55 6.66602 87 21.999c3.33301 -34.667 8.5 -68.167 15.5 -100.5s17.5 -61.166 31.5 -86.499c16.667 -30.667 34.167 -52 52.5 -64s36.666 -17 54.999 -15s36.166 9.5 53.499 22.5s33.666 28.833 48.999 47.5s29.166 39.167 41.499 61.5
s22.5 43.833 30.5 64.5zM416.004 314.007l36 70.498l32 65.5l27 56c8 16.667 15 30.667 21 42c0.666992 -15.333 0.833984 -33.166 0.500977 -53.499s-0.666016 -42.333 -0.999023 -66s-0.5 -48.334 -0.5 -74.001s0.666992 -51.5 2 -77.5
c-16.667 -7.33301 -30.834 -11.166 -42.501 -11.499s-22 1.66699 -31 6s-16.833 10.333 -23.5 18s-13.334 15.834 -20.001 24.501zM607.004 884.005c18.667 0 34.5 -6.5 47.5 -19.5s19.5 -28.833 19.5 -47.5s-6.5 -34.667 -19.5 -48s-28.833 -20 -47.5 -20
s-34.5 6.66699 -47.5 20s-19.5 29.333 -19.5 48s6.5 34.5 19.5 47.5s28.833 19.5 47.5 19.5zM607.004 862.005c13.333 0 24 -4.33301 32 -13s12 -19.667 12 -33s-4 -23.833 -12 -31.5s-18.667 -11.5 -32 -11.5s-24.166 3.83301 -32.499 11.5s-12.5 18.167 -12.5 31.5
s4.16699 24.333 12.5 33s19.166 13 32.499 13z" />
    <glyph glyph-name="AE" unicode="&#xc6;" horiz-adv-x="1052" 
d="M813 241c6.66699 4 16.333 7.65918 29 10.9922s26.334 5.33301 41.001 6s29.334 -0.166016 44.001 -2.49902s27.5 -6.83301 38.5 -13.5s19.167 -15.834 24.5 -27.501s6 -26.5 2 -44.5c-5.33301 -23.333 -14.333 -45.666 -27 -66.999s-28.334 -40.5 -47.001 -57.5
s-40.167 -30.833 -64.5 -41.5s-50.833 -16.667 -79.5 -18c-54 -2.66699 -97.5 4.66602 -130.5 21.999s-56.167 42 -69.5 74c-11.333 24 -20 50.833 -26 80.5s-10.333 60.5 -13 92.5c-32 -15.333 -61 -22.666 -87 -21.999s-49 5.66699 -69 15l-47.5 -75
c-16.333 -24.667 -33.333 -47.5 -51 -68.5s-35.5 -39.5 -53.5 -55.5s-36 -28.333 -54 -37c-13.333 -6.66699 -27.666 -10.667 -42.999 -12s-30.333 -0.333008 -45 3s-28.334 9.33301 -41.001 18s-22.667 19.667 -30 33c-11.333 20.667 -15.833 41.834 -13.5 63.501
s9.5 40.834 21.5 57.501s27.833 29.334 47.5 38.001s41.5 10.334 65.5 5.00098c8.66699 -1.33301 11.834 -4.33301 9.50098 -9s-6.16602 -6.66699 -11.499 -6c-22.667 2.66699 -42 0 -58 -8s-28.5 -18.833 -37.5 -32.5s-14.333 -28.834 -16 -45.501
s0.666016 -32.167 6.99902 -46.5s16.5 -26 30.5 -35s32 -12.5 54 -10.5c19.333 1.33301 39 8.83301 59 22.5s39.833 31.5 59.5 53.5s39 47.333 58 76s37.5 59 55.5 91c-10 6 -19.333 13 -28 21c-16 13.333 -31.167 23 -45.5 29s-32.166 5.33301 -53.499 -2
c-10 -3.33301 -18.333 -8.16602 -25 -14.499s-11.834 -13.5 -15.501 -21.5s-6 -16.167 -7 -24.5s-0.833008 -16.5 0.5 -24.5c1.33301 -5.33301 0.666016 -8.16602 -2.00098 -8.49902s-4.66699 1.16699 -6 4.5c-5.33301 14.667 -5.33301 32.334 0 53.001
s18.666 40.334 39.999 59.001c11.333 10 24.833 18.5 40.5 25.5s31.834 11.5 48.501 13.5s33 1.16699 49 -2.5s30 -10.834 42 -21.501c1.33301 -1.33301 2.33301 -2.16602 3 -2.49902s1.33398 -1.16602 2.00098 -2.49902c20.667 40.667 40.167 80.834 58.5 120.501l50 106.5
c15 31.333 27.833 57 38.5 77s18.667 30.667 24 32c4 0.666992 10.5 -2.83301 19.5 -10.5s18.833 -17.334 29.5 -29.001l33 -37l29 -33.5c0 -2.66699 -1.66699 -3.66699 -5 -3s-6.83301 1.5 -10.5 2.5s-7.16699 1.5 -10.5 1.5s-5 -1.66699 -5 -5
c-2.66699 -44.667 -5.66699 -89 -9 -133s-4 -88.333 -2 -133c23.333 19.333 51.333 32.333 84 39s68 8.33398 106 5.00098c-14 2.66699 -29.667 9.5 -47 20.5s-32.833 24.667 -46.5 41s-23.334 34.666 -29.001 54.999s-3.83398 41.166 5.49902 62.499l15 27
c18 25.333 37 46.5 57 63.5s40.5 30.667 61.5 41s42.667 18 65 23s45.166 8.5 68.499 10.5c28.667 2 56.834 0.666992 84.501 -4s50 -13.667 67 -27s26.333 -31.333 28 -54s-9.5 -51 -33.5 -85c-17.333 -24 -39.333 -42.667 -66 -56s-55.167 -22 -85.5 -26
s-60.833 -3.33301 -91.5 2s-59 14.666 -85 27.999c-4 -17.333 -1.5 -32.333 7.5 -45s20.667 -23.667 35 -33s30 -16.833 47 -22.5s31.5 -10.167 43.5 -13.5c46 -12.667 69.333 -22 70 -28s-25 -10.667 -77 -14c-28.667 -2 -56.167 -4.33301 -82.5 -7
s-49.833 -8.66699 -70.5 -18s-38.167 -23.666 -52.5 -42.999s-23.833 -46.666 -28.5 -81.999c-2.66699 -19.333 -2.5 -38.5 0.5 -57.5s8.83301 -36 17.5 -51s20 -27.167 34 -36.5s30.667 -14 50 -14c22.667 0 44 4.83301 64 14.5s38 22.5 54 38.5s29.5 34 40.5 54
s18.5 40 22.5 60c2.66699 15.333 -1.16602 26.833 -11.499 34.5s-23.333 12.5 -39 14.5s-31.5 1.83301 -47.5 -0.5s-28.333 -5.5 -37 -9.5c-10 -5.33301 -17.333 -7.33301 -22 -6s-7.33398 4 -8.00098 8s0.5 8.66699 3.5 14s7.5 9.66602 13.5 12.999zM799.999 497.992
c22 -10 46.6709 -17.665 74.0039 -22.998s54.666 -7.33301 81.999 -6s53 7 77 17s43.667 25.667 59 47c19.333 26.667 28.166 49.5 26.499 68.5s-9.5 34.333 -23.5 46s-32.333 19.167 -55 22.5s-45.334 2.66602 -68.001 -2.00098s-43.834 -14.834 -63.501 -30.501
s-37 -32.667 -52 -51s-27.5 -36 -37.5 -53s-16.333 -28.833 -19 -35.5zM416.003 313.994c6.66699 -8.66699 13.334 -16.832 20.001 -24.499s14.5 -13.667 23.5 -18s19.333 -6.33301 31 -6s25.834 4.16602 42.501 11.499c-1.33301 26 -2 51.833 -2 77.5
s0.166992 50.334 0.5 74.001s0.666016 45.667 0.999023 66s0.166016 38.166 -0.500977 53.499c-6 -11.333 -13 -25.333 -21 -42l-27 -56l-32 -65.5z" />
    <glyph glyph-name="Ccedilla" unicode="&#xc7;" horiz-adv-x="503" 
d="M231 2c-8.66699 -1.33301 -16.835 -2.1709 -24.502 -2.50391s-15.167 -0.166016 -22.5 0.500977c0 -10.667 3.83301 -19.5 11.5 -26.5l24 -21c8.33301 -7 15.833 -15.167 22.5 -24.5s9 -22 7 -38c-2 -16.667 -7.66699 -29.5 -17 -38.5s-20.333 -15 -33 -18
s-25.834 -3.66699 -39.501 -2s-25.5 5.16699 -35.5 10.5c-3.33301 2 -5 5 -5 9s0.833008 8 2.5 12s4 7.16699 7 9.5s6.16699 2.83301 9.5 1.5c8 -3.33301 16 -6 24 -8s15.5 -2.83301 22.5 -2.5s13 2.66602 18 6.99902s8.5 11.5 10.5 21.5
c1.33301 10.667 -1.5 19.5 -8.5 26.5s-14.667 14 -23 21s-16 15.333 -23 25s-10.167 22.5 -9.5 38.5c-33.333 5.33301 -60.833 17 -82.5 35s-38.167 40.167 -49.5 66.5s-17.666 56 -18.999 89s2 67.167 10 102.5s20.167 71 36.5 107s36.5 70.333 60.5 103
c-12.667 7.33301 -25.5 17.333 -38.5 30l-39.5 38.5l-39.5 37.5c-13 12 -26 21.167 -39 27.5s-25.833 8.83301 -38.5 7.5s-25.334 -8.66602 -38.001 -21.999c-4 -4.66699 -8 -7.16699 -12 -7.5s-7 0.833984 -9 3.50098s-3 6 -3 10s1.66699 8 5 12
c13.333 17.333 27.5 27.5 42.5 30.5s30.333 1.33301 46 -5s31.5 -16 47.5 -29s31.5 -26.833 46.5 -41.5l43.5 -42.5c14 -13.667 27 -24.167 39 -31.5c36 44 78.333 81.5 127 112.5s102.334 50.833 161.001 59.5c54.667 8 97 6 127 -6s49.333 -29 58 -51
s7.33398 -47 -3.99902 -75s-30.666 -54 -57.999 -78c-23.333 -21.333 -48.833 -37.5 -76.5 -48.5s-56 -17.667 -85 -20s-58.333 -0.5 -88 5.5s-57.834 15.667 -84.501 29c-27.333 -45.333 -49.5 -92.333 -66.5 -141s-25.833 -93.667 -26.5 -135s8.33301 -76.166 27 -104.499
s49.667 -44.5 93 -48.5c22.667 -2 44.834 2 66.501 12s40.667 23.667 57 41s29.166 36.833 38.499 58.5s13.333 43.5 12 65.5c-3.33301 12 -10.333 20 -21 24s-22.667 5.83301 -36 5.5s-26.5 -2 -39.5 -5s-23.5 -5.83301 -31.5 -8.5
c-7.33301 -3.33301 -13.333 -4.33301 -18 -3s-7.66699 3.83301 -9 7.5s-1.16602 7.83398 0.500977 12.501s5.16699 8.66699 10.5 12c10 6 24.333 11 43 15s37.5 5.33301 56.5 4s36 -6.5 51 -15.5s23.5 -23.5 25.5 -43.5c0 -12.667 -3.5 -29.667 -10.5 -51
s-18.167 -42.5 -33.5 -63.5s-35.5 -40 -60.5 -57s-55.833 -27.5 -92.5 -31.5zM204.999 471.995c26 -11.333 52.333 -19.8311 79 -25.498s53 -7.83398 79 -6.50098s51.167 7.16602 75.5 17.499s47.166 25.833 68.499 46.5c26 26 42.333 51.167 49 75.5
s5.33398 45 -3.99902 62s-25.833 28.667 -49.5 35s-52.5 4.5 -86.5 -5.5c-23.333 -6.66699 -45.5 -17.667 -66.5 -33s-40.5 -32.5 -58.5 -51.5s-34.333 -38.667 -49 -59s-27 -38.833 -37 -55.5z" />
    <glyph glyph-name="Egrave" unicode="&#xc8;" horiz-adv-x="511" 
d="M254 244c-6 -3.33301 -10.4961 -7.66699 -13.4961 -13s-4.16699 -10 -3.5 -14s3.33398 -6.66699 8.00098 -8s12 0.666992 22 6c8.66699 4 21 7.16699 37 9.5s31.833 2.5 47.5 0.5s28.667 -6.83301 39 -14.5s14.166 -19.167 11.499 -34.5c-4 -20 -11.5 -40 -22.5 -60
s-24.5 -38 -40.5 -54s-34 -28.833 -54 -38.5s-41.333 -14.5 -64 -14.5c-19.333 0 -36 4.66699 -50 14s-25.333 21.5 -34 36.5s-14.5 32 -17.5 51s-3.16699 38.167 -0.5 57.5c4.66699 35.333 14.167 62.666 28.5 81.999s31.833 33.666 52.5 42.999s44.167 15.333 70.5 18
s53.833 5 82.5 7c52 3.33301 77.667 8 77 14s-24 15.333 -70 28c-12 3.33301 -26.5 7.83301 -43.5 13.5s-32.667 13.167 -47 22.5s-26 20.333 -35 33s-11.5 27.667 -7.5 45c26 -13.333 54.333 -22.666 85 -27.999s61.167 -6 91.5 -2s58.833 12.667 85.5 26s48.667 32 66 56
c24 34 35.167 62.333 33.5 85s-11 40.667 -28 54s-39.333 22.333 -67 27s-55.834 6 -84.501 4c-23.333 -2 -46.166 -5.5 -68.499 -10.5s-44 -12.667 -65 -23s-41.5 -24 -61.5 -41s-39 -38.167 -57 -63.5c-16 9.33301 -32.333 20.666 -49 33.999s-34 26 -52 38
s-36.833 22.333 -56.5 31s-40.834 13 -63.501 13c-14 0 -27.833 -2.83301 -41.5 -8.5s-23.834 -16.167 -30.501 -31.5c-5.33301 -13.333 -4 -21.666 4 -24.999s15.667 1.66699 23 15c4 7.33301 10.167 12.5 18.5 15.5s16.166 4.83301 23.499 5.5
c14 0.666992 29.667 -3.33301 47 -12s35.5 -19.167 54.5 -31.5l56 -38c18.333 -13 35.5 -23.833 51.5 -32.5c-9.33301 -21.333 -11.166 -42.166 -5.49902 -62.499s15.334 -38.666 29.001 -54.999s29.167 -30 46.5 -41s33 -17.833 47 -20.5c-31.333 2.66699 -61 2 -89 -2
s-53.333 -12.333 -76 -25s-41.667 -30.167 -57 -52.5s-25.666 -50.833 -30.999 -85.5c-4.66699 -29.333 -3.66699 -56.5 3 -81.5s18.667 -46.5 36 -64.5s40.166 -31.667 68.499 -41s62.166 -13 101.499 -11c28.667 1.33301 55.167 7.33301 79.5 18s45.833 24.5 64.5 41.5
s34.334 36.167 47.001 57.5s21.667 43.666 27 66.999c4 18 3.33301 32.833 -2 44.5s-13.5 20.834 -24.5 27.501s-23.833 11.167 -38.5 13.5s-29.334 3.16602 -44.001 2.49902s-28.334 -2.66699 -41.001 -6s-22.334 -7 -29.001 -11zM241.004 500.999
c2.66699 6.66699 8.99609 18.498 18.9961 35.498s22.5 34.667 37.5 53s32.333 35.333 52 51s40.834 25.834 63.501 30.501s45.334 5.33398 68.001 2.00098s41 -10.833 55 -22.5s21.833 -27 23.5 -46s-7.16602 -41.833 -26.499 -68.5c-15.333 -21.333 -35 -37 -59 -47
s-49.667 -15.667 -77 -17s-54.666 0.666992 -81.999 6s-52 13 -74 23zM392 858.997l39 36l99 -119l-29 -28z" />
    <glyph glyph-name="Eacute" unicode="&#xc9;" horiz-adv-x="511" 
d="M254 244c6.66699 4 16.3301 7.66797 28.9971 11.001s26.334 5.33301 41.001 6s29.334 -0.166016 44.001 -2.49902s27.5 -6.83301 38.5 -13.5s19.167 -15.834 24.5 -27.501s6 -26.5 2 -44.5c-5.33301 -23.333 -14.333 -45.666 -27 -66.999s-28.334 -40.5 -47.001 -57.5
s-40.167 -30.833 -64.5 -41.5s-50.833 -16.667 -79.5 -18c-39.333 -2 -73.166 1.66699 -101.499 11s-51.166 23 -68.499 41s-29.333 39.5 -36 64.5s-7.66699 52.167 -3 81.5c5.33301 34.667 15.666 63.167 30.999 85.5s34.333 39.833 57 52.5s48 21 76 25
s57.667 4.66699 89 2c-14 2.66699 -29.667 9.5 -47 20.5s-32.833 24.667 -46.5 41s-23.334 34.666 -29.001 54.999s-3.83398 41.166 5.49902 62.499c-16 8.66699 -33.167 19.5 -51.5 32.5l-56 38c-19 12.333 -37.167 22.833 -54.5 31.5s-33 12.667 -47 12
c-7.33301 -0.666992 -15.166 -2.5 -23.499 -5.5s-14.5 -8.16699 -18.5 -15.5c-7.33301 -13.333 -15 -18.333 -23 -15s-9.33301 11.666 -4 24.999c6.66699 15.333 16.834 25.833 30.501 31.5s27.5 8.5 41.5 8.5c22.667 0 43.834 -4.33301 63.501 -13s38.5 -19 56.5 -31
s35.333 -24.667 52 -38s33 -24.666 49 -33.999c18 25.333 37 46.5 57 63.5s40.5 30.667 61.5 41s42.667 18 65 23s45.166 8.5 68.499 10.5c28.667 2 56.834 0.666992 84.501 -4s50 -13.667 67 -27s26.333 -31.333 28 -54s-9.5 -51 -33.5 -85
c-17.333 -24 -39.333 -42.667 -66 -56s-55.167 -22 -85.5 -26s-60.833 -3.33301 -91.5 2s-59 14.666 -85 27.999c-4 -17.333 -1.5 -32.333 7.5 -45s20.667 -23.667 35 -33s30 -16.833 47 -22.5s31.5 -10.167 43.5 -13.5c46 -12.667 69.333 -22 70 -28s-25 -10.667 -77 -14
c-28.667 -2 -56.167 -4.33301 -82.5 -7s-49.833 -8.66699 -70.5 -18s-38.167 -23.666 -52.5 -42.999s-23.833 -46.666 -28.5 -81.999c-2.66699 -19.333 -2.5 -38.5 0.5 -57.5s8.83301 -36 17.5 -51s20 -27.167 34 -36.5s30.667 -14 50 -14c22.667 0 44 4.83301 64 14.5
s38 22.5 54 38.5s29.5 34 40.5 54s18.5 40 22.5 60c2.66699 15.333 -1.16602 26.833 -11.499 34.5s-23.333 12.5 -39 14.5s-31.5 1.83301 -47.5 -0.5s-28.333 -5.5 -37 -9.5c-10 -5.33301 -17.333 -7.33301 -22 -6s-7.33398 4 -8.00098 8s0.5 8.66699 3.5 14
s7.5 9.66602 13.5 12.999zM240.996 501.001c22 -10 46.6709 -17.665 74.0039 -22.998s54.666 -7.33301 81.999 -6s53 7 77 17s43.667 25.667 59 47c19.333 26.667 28.166 49.5 26.499 68.5s-9.5 34.333 -23.5 46s-32.333 19.167 -55 22.5s-45.334 2.66602 -68.001 -2.00098
s-43.834 -14.834 -63.501 -30.501s-37 -32.667 -52 -51s-27.5 -36 -37.5 -53s-16.333 -28.833 -19 -35.5zM444 747.003l-29 28l99 119l39 -36z" />
    <glyph glyph-name="Ecircumflex" unicode="&#xca;" horiz-adv-x="511" 
d="M254 244c-6 -3.33301 -10.4961 -7.66699 -13.4961 -13s-4.16699 -10 -3.5 -14s3.33398 -6.66699 8.00098 -8s12 0.666992 22 6c8.66699 4 21 7.16699 37 9.5s31.833 2.5 47.5 0.5s28.667 -6.83301 39 -14.5s14.166 -19.167 11.499 -34.5c-4 -20 -11.5 -40 -22.5 -60
s-24.5 -38 -40.5 -54s-34 -28.833 -54 -38.5s-41.333 -14.5 -64 -14.5c-19.333 0 -36 4.66699 -50 14s-25.333 21.5 -34 36.5s-14.5 32 -17.5 51s-3.16699 38.167 -0.5 57.5c4.66699 35.333 14.167 62.666 28.5 81.999s31.833 33.666 52.5 42.999s44.167 15.333 70.5 18
s53.833 5 82.5 7c52 3.33301 77.667 8 77 14s-24 15.333 -70 28c-12 3.33301 -26.5 7.83301 -43.5 13.5s-32.667 13.167 -47 22.5s-26 20.333 -35 33s-11.5 27.667 -7.5 45c26 -13.333 54.333 -22.666 85 -27.999s61.167 -6 91.5 -2s58.833 12.667 85.5 26s48.667 32 66 56
c24 34 35.167 62.333 33.5 85s-11 40.667 -28 54s-39.333 22.333 -67 27s-55.834 6 -84.501 4c-23.333 -2 -46.166 -5.5 -68.499 -10.5s-44 -12.667 -65 -23s-41.5 -24 -61.5 -41s-39 -38.167 -57 -63.5c-16 9.33301 -32.333 20.666 -49 33.999s-34 26 -52 38
s-36.833 22.333 -56.5 31s-40.834 13 -63.501 13c-14 0 -27.833 -2.83301 -41.5 -8.5s-23.834 -16.167 -30.501 -31.5c-5.33301 -13.333 -4 -21.666 4 -24.999s15.667 1.66699 23 15c4 7.33301 10.167 12.5 18.5 15.5s16.166 4.83301 23.499 5.5
c14 0.666992 29.667 -3.33301 47 -12s35.5 -19.167 54.5 -31.5l56 -38c18.333 -13 35.5 -23.833 51.5 -32.5c-9.33301 -21.333 -11.166 -42.166 -5.49902 -62.499s15.334 -38.666 29.001 -54.999s29.167 -30 46.5 -41s33 -17.833 47 -20.5c-31.333 2.66699 -61 2 -89 -2
s-53.333 -12.333 -76 -25s-41.667 -30.167 -57 -52.5s-25.666 -50.833 -30.999 -85.5c-4.66699 -29.333 -3.66699 -56.5 3 -81.5s18.667 -46.5 36 -64.5s40.166 -31.667 68.499 -41s62.166 -13 101.499 -11c28.667 1.33301 55.167 7.33301 79.5 18s45.833 24.5 64.5 41.5
s34.334 36.167 47.001 57.5s21.667 43.666 27 66.999c4 18 3.33301 32.833 -2 44.5s-13.5 20.834 -24.5 27.501s-23.833 11.167 -38.5 13.5s-29.334 3.16602 -44.001 2.49902s-28.334 -2.66699 -41.001 -6s-22.334 -7 -29.001 -11zM241.004 500.999
c2.66699 6.66699 8.99609 18.498 18.9961 35.498s22.5 34.667 37.5 53s32.333 35.333 52 51s40.834 25.834 63.501 30.501s45.334 5.33398 68.001 2.00098s41 -10.833 55 -22.5s21.833 -27 23.5 -46s-7.16602 -41.833 -26.499 -68.5c-15.333 -21.333 -35 -37 -59 -47
s-49.667 -15.667 -77 -17s-54.666 0.666992 -81.999 6s-52 13 -74 23zM463 894.997l84.999 -113.001c2 -3.33301 2 -6.66602 0 -9.99902s-4.66699 -6 -8 -8s-7 -3.16699 -11 -3.5s-7 0.833984 -9 3.50098c-4 4.66699 -8.83301 10.667 -14.5 18l-17 22.5l-17 22.5l-14.5 19
l-87 -83c-2 -2 -5 -2.66699 -9 -2s-7.5 2.16699 -10.5 4.5s-5.16699 5.16602 -6.5 8.49902s-0.666016 6.33301 2.00098 9z" />
    <glyph glyph-name="Edieresis" unicode="&#xcb;" horiz-adv-x="511" 
d="M254 244c6.66699 4 16.3301 7.66797 28.9971 11.001s26.334 5.33301 41.001 6s29.334 -0.166016 44.001 -2.49902s27.5 -6.83301 38.5 -13.5s19.167 -15.834 24.5 -27.501s6 -26.5 2 -44.5c-5.33301 -23.333 -14.333 -45.666 -27 -66.999s-28.334 -40.5 -47.001 -57.5
s-40.167 -30.833 -64.5 -41.5s-50.833 -16.667 -79.5 -18c-39.333 -2 -73.166 1.66699 -101.499 11s-51.166 23 -68.499 41s-29.333 39.5 -36 64.5s-7.66699 52.167 -3 81.5c5.33301 34.667 15.666 63.167 30.999 85.5s34.333 39.833 57 52.5s48 21 76 25
s57.667 4.66699 89 2c-14 2.66699 -29.667 9.5 -47 20.5s-32.833 24.667 -46.5 41s-23.334 34.666 -29.001 54.999s-3.83398 41.166 5.49902 62.499c-16 8.66699 -33.167 19.5 -51.5 32.5l-56 38c-19 12.333 -37.167 22.833 -54.5 31.5s-33 12.667 -47 12
c-7.33301 -0.666992 -15.166 -2.5 -23.499 -5.5s-14.5 -8.16699 -18.5 -15.5c-7.33301 -13.333 -15 -18.333 -23 -15s-9.33301 11.666 -4 24.999c6.66699 15.333 16.834 25.833 30.501 31.5s27.5 8.5 41.5 8.5c22.667 0 43.834 -4.33301 63.501 -13s38.5 -19 56.5 -31
s35.333 -24.667 52 -38s33 -24.666 49 -33.999c18 25.333 37 46.5 57 63.5s40.5 30.667 61.5 41s42.667 18 65 23s45.166 8.5 68.499 10.5c28.667 2 56.834 0.666992 84.501 -4s50 -13.667 67 -27s26.333 -31.333 28 -54s-9.5 -51 -33.5 -85
c-17.333 -24 -39.333 -42.667 -66 -56s-55.167 -22 -85.5 -26s-60.833 -3.33301 -91.5 2s-59 14.666 -85 27.999c-4 -17.333 -1.5 -32.333 7.5 -45s20.667 -23.667 35 -33s30 -16.833 47 -22.5s31.5 -10.167 43.5 -13.5c46 -12.667 69.333 -22 70 -28s-25 -10.667 -77 -14
c-28.667 -2 -56.167 -4.33301 -82.5 -7s-49.833 -8.66699 -70.5 -18s-38.167 -23.666 -52.5 -42.999s-23.833 -46.666 -28.5 -81.999c-2.66699 -19.333 -2.5 -38.5 0.5 -57.5s8.83301 -36 17.5 -51s20 -27.167 34 -36.5s30.667 -14 50 -14c22.667 0 44 4.83301 64 14.5
s38 22.5 54 38.5s29.5 34 40.5 54s18.5 40 22.5 60c2.66699 15.333 -1.16602 26.833 -11.499 34.5s-23.333 12.5 -39 14.5s-31.5 1.83301 -47.5 -0.5s-28.333 -5.5 -37 -9.5c-10 -5.33301 -17.333 -7.33301 -22 -6s-7.33398 4 -8.00098 8s0.5 8.66699 3.5 14
s7.5 9.66602 13.5 12.999zM240.996 501.001c22 -10 46.6709 -17.665 74.0039 -22.998s54.666 -7.33301 81.999 -6s53 7 77 17s43.667 25.667 59 47c19.333 26.667 28.166 49.5 26.499 68.5s-9.5 34.333 -23.5 46s-32.333 19.167 -55 22.5s-45.334 2.66602 -68.001 -2.00098
s-43.834 -14.834 -63.501 -30.501s-37 -32.667 -52 -51s-27.5 -36 -37.5 -53s-16.333 -28.833 -19 -35.5zM395 751.003c-12.667 0 -23.334 4.33301 -32.001 13s-13 19.334 -13 32.001c0 12 4.33301 22.333 13 31s19.334 13 32.001 13c12 0 22.333 -4.33301 31 -13
s13 -19 13 -31c0 -12.667 -4.33301 -23.334 -13 -32.001s-19 -13 -31 -13zM513 751.003c-12.667 0 -23.334 4.33301 -32.001 13s-13 19.334 -13 32.001c0 12 4.33301 22.333 13 31s19.334 13 32.001 13c12 0 22.333 -4.33301 31 -13s13 -19 13 -31
c0 -12.667 -4.33301 -23.334 -13 -32.001s-19 -13 -31 -13z" />
    <glyph glyph-name="Igrave" unicode="&#xcc;" horiz-adv-x="563" 
d="M121 551c-5.33301 10.667 -6.66797 23.832 -4.00098 39.499s9.33398 30.5 20.001 44.5s25.5 25.833 44.5 35.5s41.833 13.834 68.5 12.501c12.667 -0.666992 24.667 -4.33398 36 -11.001s22.333 -13.667 33 -21s21.167 -13.833 31.5 -19.5
s21.166 -7.83398 32.499 -6.50098c10 15.333 20.333 28 31 38s22 18.333 34 25c4 1.33301 8 0 12 -4c0.666992 0 1.66699 -0.666992 3 -2c6 -6 12.333 -14.833 19 -26.5s12.667 -23.5 18 -35.5c6.66699 -14 13 -29 19 -45c0 -1.33301 -2.66699 -0.666016 -8 2.00098
s-9.66602 3.33398 -12.999 2.00098c-12 -4 -24.833 -18.333 -38.5 -43s-28 -57.834 -43 -99.501s-31 -90.667 -48 -147l-53.5 -185.5c-6 -20.667 -15.167 -38 -27.5 -52s-27.166 -25.167 -44.499 -33.5s-36.166 -14.166 -56.499 -17.499s-41.5 -5 -63.5 -5
c-20.667 0 -38.834 4 -54.501 12s-28.5 19 -38.5 33s-17.167 30.5 -21.5 49.5s-5.83301 39.167 -4.5 60.5c1.33301 29.333 8.16602 55.166 20.499 77.499s28.333 40.833 48 55.5s41.667 25.5 66 32.5s48.833 9.83301 73.5 8.5c17.333 -1.33301 25.833 -5.66602 25.5 -12.999
s-9.16602 -11 -26.499 -11c-18.667 -0.666992 -38.167 -3.33398 -58.5 -8.00098s-39 -12.667 -56 -24s-31.333 -26.666 -43 -45.999s-18.167 -44 -19.5 -74c-1.33301 -43.333 6.83398 -74.833 24.501 -94.5s38.5 -29.5 62.5 -29.5c22 -0.666992 40 7.33301 54 24
s25.667 42 35 76l46.5 165c14.333 48.667 27.666 91.834 39.999 129.501s23.833 70.334 34.5 98.001s21 51.5 31 71.5c-16.667 -2 -33 -0.833008 -49 3.5s-30.833 9.33301 -44.5 15s-25.667 11.167 -36 16.5s-17.5 8 -21.5 8c-16.667 2 -30.834 0.833008 -42.501 -3.5
s-20.834 -10.333 -27.501 -18s-11 -16.334 -13 -26.001s-1.33301 -18.834 2 -27.501c2 -5.33301 1.33301 -8.5 -2 -9.5s-5.66602 0.166992 -6.99902 3.5zM345.998 861.998l39 36l99 -119l-29 -28z" />
    <glyph glyph-name="Iacute" unicode="&#xcd;" horiz-adv-x="563" 
d="M121 551c-5.33301 10.667 -6.66797 23.832 -4.00098 39.499s9.33398 30.5 20.001 44.5s25.5 25.833 44.5 35.5s41.833 13.834 68.5 12.501c12.667 -0.666992 24.667 -4.33398 36 -11.001s22.333 -13.667 33 -21s21.167 -13.833 31.5 -19.5
s21.166 -7.83398 32.499 -6.50098c10 15.333 20.333 28 31 38s22 18.333 34 25c4 1.33301 8 0 12 -4c0.666992 0 1.66699 -0.666992 3 -2c6 -6 12.333 -14.833 19 -26.5s12.667 -23.5 18 -35.5c6.66699 -14 13 -29 19 -45c0 -1.33301 -2.66699 -0.666016 -8 2.00098
s-9.66602 3.33398 -12.999 2.00098c-12 -4 -24.833 -18.333 -38.5 -43s-28 -57.834 -43 -99.501s-31 -90.667 -48 -147l-53.5 -185.5c-6 -20.667 -15.167 -38 -27.5 -52s-27.166 -25.167 -44.499 -33.5s-36.166 -14.166 -56.499 -17.499s-41.5 -5 -63.5 -5
c-20.667 0 -38.834 4 -54.501 12s-28.5 19 -38.5 33s-17.167 30.5 -21.5 49.5s-5.83301 39.167 -4.5 60.5c1.33301 29.333 8.16602 55.166 20.499 77.499s28.333 40.833 48 55.5s41.667 25.5 66 32.5s48.833 9.83301 73.5 8.5c17.333 -1.33301 25.833 -5.66602 25.5 -12.999
s-9.16602 -11 -26.499 -11c-18.667 -0.666992 -38.167 -3.33398 -58.5 -8.00098s-39 -12.667 -56 -24s-31.333 -26.666 -43 -45.999s-18.167 -44 -19.5 -74c-1.33301 -43.333 6.83398 -74.833 24.501 -94.5s38.5 -29.5 62.5 -29.5c22 -0.666992 40 7.33301 54 24
s25.667 42 35 76l46.5 165c14.333 48.667 27.666 91.834 39.999 129.501s23.833 70.334 34.5 98.001s21 51.5 31 71.5c-16.667 -2 -33 -0.833008 -49 3.5s-30.833 9.33301 -44.5 15s-25.667 11.167 -36 16.5s-17.5 8 -21.5 8c-16.667 2 -30.834 0.833008 -42.501 -3.5
s-20.834 -10.333 -27.501 -18s-11 -16.334 -13 -26.001s-1.33301 -18.834 2 -27.501c2 -5.33301 1.33301 -8.5 -2 -9.5s-5.66602 0.166992 -6.99902 3.5zM376.998 749.998l-29 28l99 119l39 -36z" />
    <glyph glyph-name="Icircumflex" unicode="&#xce;" horiz-adv-x="563" 
d="M121 551c-5.33301 10.667 -6.66797 23.832 -4.00098 39.499s9.33398 30.5 20.001 44.5s25.5 25.833 44.5 35.5s41.833 13.834 68.5 12.501c12.667 -0.666992 24.667 -4.33398 36 -11.001s22.333 -13.667 33 -21s21.167 -13.833 31.5 -19.5
s21.166 -7.83398 32.499 -6.50098c10 15.333 20.333 28 31 38s22 18.333 34 25c4 1.33301 8 0 12 -4c0.666992 0 1.66699 -0.666992 3 -2c6 -6 12.333 -14.833 19 -26.5s12.667 -23.5 18 -35.5c6.66699 -14 13 -29 19 -45c0 -1.33301 -2.66699 -0.666016 -8 2.00098
s-9.66602 3.33398 -12.999 2.00098c-12 -4 -24.833 -18.333 -38.5 -43s-28 -57.834 -43 -99.501s-31 -90.667 -48 -147l-53.5 -185.5c-6 -20.667 -15.167 -38 -27.5 -52s-27.166 -25.167 -44.499 -33.5s-36.166 -14.166 -56.499 -17.499s-41.5 -5 -63.5 -5
c-20.667 0 -38.834 4 -54.501 12s-28.5 19 -38.5 33s-17.167 30.5 -21.5 49.5s-5.83301 39.167 -4.5 60.5c1.33301 29.333 8.16602 55.166 20.499 77.499s28.333 40.833 48 55.5s41.667 25.5 66 32.5s48.833 9.83301 73.5 8.5c17.333 -1.33301 25.833 -5.66602 25.5 -12.999
s-9.16602 -11 -26.499 -11c-18.667 -0.666992 -38.167 -3.33398 -58.5 -8.00098s-39 -12.667 -56 -24s-31.333 -26.666 -43 -45.999s-18.167 -44 -19.5 -74c-1.33301 -43.333 6.83398 -74.833 24.501 -94.5s38.5 -29.5 62.5 -29.5c22 -0.666992 40 7.33301 54 24
s25.667 42 35 76l46.5 165c14.333 48.667 27.666 91.834 39.999 129.501s23.833 70.334 34.5 98.001s21 51.5 31 71.5c-16.667 -2 -33 -0.833008 -49 3.5s-30.833 9.33301 -44.5 15s-25.667 11.167 -36 16.5s-17.5 8 -21.5 8c-16.667 2 -30.834 0.833008 -42.501 -3.5
s-20.834 -10.333 -27.501 -18s-11 -16.334 -13 -26.001s-1.33301 -18.834 2 -27.501c2 -5.33301 1.33301 -8.5 -2 -9.5s-5.66602 0.166992 -6.99902 3.5zM412.998 889.998l84.999 -113.001c2 -3.33301 2 -6.66602 0 -9.99902s-4.66699 -6 -8 -8s-7 -3.16699 -11 -3.5
s-7 0.833984 -9 3.50098c-4 4.66699 -8.83301 10.667 -14.5 18l-17 22.5l-17 22.5l-14.5 19l-87 -83c-2 -2 -5 -2.66699 -9 -2s-7.5 2.16699 -10.5 4.5s-5.16699 5.16602 -6.5 8.49902s-0.666016 6.33301 2.00098 9z" />
    <glyph glyph-name="Idieresis" unicode="&#xcf;" horiz-adv-x="563" 
d="M121 551c-5.33301 10.667 -6.66797 23.832 -4.00098 39.499s9.33398 30.5 20.001 44.5s25.5 25.833 44.5 35.5s41.833 13.834 68.5 12.501c12.667 -0.666992 24.667 -4.33398 36 -11.001s22.333 -13.667 33 -21s21.167 -13.833 31.5 -19.5
s21.166 -7.83398 32.499 -6.50098c10 15.333 20.333 28 31 38s22 18.333 34 25c4 1.33301 8 0 12 -4c0.666992 0 1.66699 -0.666992 3 -2c6 -6 12.333 -14.833 19 -26.5s12.667 -23.5 18 -35.5c6.66699 -14 13 -29 19 -45c0 -1.33301 -2.66699 -0.666016 -8 2.00098
s-9.66602 3.33398 -12.999 2.00098c-12 -4 -24.833 -18.333 -38.5 -43s-28 -57.834 -43 -99.501s-31 -90.667 -48 -147l-53.5 -185.5c-6 -20.667 -15.167 -38 -27.5 -52s-27.166 -25.167 -44.499 -33.5s-36.166 -14.166 -56.499 -17.499s-41.5 -5 -63.5 -5
c-20.667 0 -38.834 4 -54.501 12s-28.5 19 -38.5 33s-17.167 30.5 -21.5 49.5s-5.83301 39.167 -4.5 60.5c1.33301 29.333 8.16602 55.166 20.499 77.499s28.333 40.833 48 55.5s41.667 25.5 66 32.5s48.833 9.83301 73.5 8.5c17.333 -1.33301 25.833 -5.66602 25.5 -12.999
s-9.16602 -11 -26.499 -11c-18.667 -0.666992 -38.167 -3.33398 -58.5 -8.00098s-39 -12.667 -56 -24s-31.333 -26.666 -43 -45.999s-18.167 -44 -19.5 -74c-1.33301 -43.333 6.83398 -74.833 24.501 -94.5s38.5 -29.5 62.5 -29.5c22 -0.666992 40 7.33301 54 24
s25.667 42 35 76l46.5 165c14.333 48.667 27.666 91.834 39.999 129.501s23.833 70.334 34.5 98.001s21 51.5 31 71.5c-16.667 -2 -33 -0.833008 -49 3.5s-30.833 9.33301 -44.5 15s-25.667 11.167 -36 16.5s-17.5 8 -21.5 8c-16.667 2 -30.834 0.833008 -42.501 -3.5
s-20.834 -10.333 -27.501 -18s-11 -16.334 -13 -26.001s-1.33301 -18.834 2 -27.501c2 -5.33301 1.33301 -8.5 -2 -9.5s-5.66602 0.166992 -6.99902 3.5zM314.998 747.998c-12.667 0 -23.334 4.33301 -32.001 13s-13 19.334 -13 32.001c0 12 4.33301 22.333 13 31
s19.334 13 32.001 13c12 0 22.333 -4.33301 31 -13s13 -19 13 -31c0 -12.667 -4.33301 -23.334 -13 -32.001s-19 -13 -31 -13zM432.998 747.998c-12.667 0 -23.334 4.33301 -32.001 13s-13 19.334 -13 32.001c0 12 4.33301 22.333 13 31s19.334 13 32.001 13
c12 0 22.333 -4.33301 31 -13s13 -19 13 -31c0 -12.667 -4.33301 -23.334 -13 -32.001s-19 -13 -31 -13z" />
    <glyph glyph-name="Eth" unicode="&#xd0;" horiz-adv-x="729" 
d="M494 567c-2 -2.66699 -5.50293 -2.33203 -10.5029 1.00098s-8.83301 4 -11.5 2c-16 -12 -32.167 -35.833 -48.5 -71.5s-32.166 -76.667 -47.499 -123s-30.166 -94.333 -44.499 -144l-40.5 -134.5l-5.5 -14.5c-1.66699 -4.33301 -3.83398 -8.83301 -6.50098 -13.5
c9.33301 -13.333 20.5 -23.5 33.5 -30.5s28.5 -9.83301 46.5 -8.5c26 2 51.167 12 75.5 30s46.833 40.5 67.5 67.5s39 56.333 55 88s28.333 62.167 37 91.5c12 38 19.833 77.5 23.5 118.5s1.83398 78.667 -5.49902 113s-21.166 63 -41.499 86s-48.5 35.833 -84.5 38.5
c-5.33301 0 -11.333 0.166992 -18 0.5s-14 0.166016 -22 -0.500977c5.33301 -8 11 -17.5 17 -28.5s11.333 -21.5 16 -31.5zM401.997 660.002c-19.333 -2 -40 -5.00488 -62 -9.00488s-43 -9 -63 -15s-38.5 -13.5 -55.5 -22.5s-30.667 -19.667 -41 -32
s-16.5 -26.333 -18.5 -42s2 -33.5 12 -53.5c8 -16 8.66699 -25.833 2 -29.5s-14 1.5 -22 15.5c-18.667 30 -25.834 56.333 -21.501 79s16.166 42 35.499 58s43.666 29 72.999 39s59.5 17.833 90.5 23.5s60.5 9.66699 88.5 12s50.333 3.5 67 3.5
c54.667 -1.33301 98.834 -12.166 132.501 -32.499s59 -47.333 76 -81s26.333 -72.167 28 -115.5s-2.5 -88.666 -12.5 -135.999c-10 -39.333 -25 -77.666 -45 -114.999s-44.667 -71 -74 -101s-63.333 -54.667 -102 -74s-81.667 -30.333 -129 -33c-26 -2 -46.667 1 -62 9
s-28.666 18.333 -39.999 31c-13.333 -15.333 -31.666 -27.166 -54.999 -35.499s-54 -13.166 -92 -14.499c-17.333 -0.666992 -32.833 2 -46.5 8s-25.167 14 -34.5 24s-16.666 21.667 -21.999 35s-8.33301 27 -9 41c-0.666992 16 1.33301 32 6 48s11.5 30.167 20.5 42.5
s20 21.833 33 28.5s27.5 8.66699 43.5 6c15.333 -2.66699 23 -7.33398 23 -14.001s-7.66699 -9.66699 -23 -9c-13.333 0.666992 -25.166 -2 -35.499 -8s-18.833 -14 -25.5 -24s-11.5 -21.167 -14.5 -33.5s-3.83301 -23.833 -2.5 -34.5
c0.666992 -11.333 3.33398 -22.333 8.00098 -33s10.667 -20.334 18 -29.001s15.5 -15.167 24.5 -19.5s18.5 -5.5 28.5 -3.5c13.333 2.66699 25.666 7.83398 36.999 15.501s21.5 16.834 30.5 27.501s16.667 22 23 34s11.166 23.667 14.499 35l28 91.5l30.5 102l32 104.5
c11 34.667 22.333 67.167 34 97.5s23.167 57.5 34.5 81.5s22.666 43 33.999 57zM170.997 358.997l286 1l-14 -46h-283z" />
    </font>
</defs>
</svg>
